osu file format v14

[General]
AudioFilename: audio.mp3
AudioLeadIn: 0
PreviewTime: 218155
Countdown: 0
SampleSet: Soft
StackLeniency: 0.7
Mode: 3
LetterboxInBreaks: 0
SpecialStyle: 0
WidescreenStoryboard: 0

[Editor]
Bookmarks: 109506,135106,218306,243906,301506,327106
DistanceSpacing: 1
BeatDivisor: 4
GridSize: 32
TimelineZoom: 1.2

[Metadata]
Title:Wishing
TitleUnicode:Wishing
Artist:Rem(CV:Minase Inori)
ArtistUnicode:レム(CV:水瀬いのり)
Creator:R e m u r i n g
Version:Remu no Nozomi
Source:Re:ゼロから始める異世界生活
Tags:re:zero kara hajimeru isekai seikatsu re: life in a different world from zero stay alive
BeatmapID:1120251
BeatmapSetID:528131

[Difficulty]
HPDrainRate:7.5
CircleSize:4
OverallDifficulty:7.5
ApproachRate:5
SliderMultiplier:1.4
SliderTickRate:1

[Events]
//Background and Video events
0,0,"a737770.jpg",0,0
//Break Periods
//Storyboard Layer 0 (Background)
//Storyboard Layer 1 (Fail)
//Storyboard Layer 2 (Pass)
//Storyboard Layer 3 (Foreground)
//Storyboard Sound Samples

[TimingPoints]
706,800,4,2,1,40,1,0
109506,-100,4,2,1,40,0,1
135106,-100,4,2,1,40,0,0
218306,-100,4,2,1,40,0,1
243906,-100,4,2,1,40,0,0
301506,-100,4,2,1,40,0,1
327106,-100,4,2,1,40,0,0

[HitObjects]
64,192,706,5,0,0:0:0:0:
448,192,706,128,0,3906:0:0:0:0:
320,192,3906,1,0,0:0:0:0:
64,192,3906,128,0,5306:0:0:0:0:
192,192,5306,1,0,0:0:0:0:
320,192,5406,1,0,0:0:0:0:
448,192,5506,1,0,0:0:0:0:
192,192,5772,1,0,0:0:0:0:
192,192,6039,1,0,0:0:0:0:
64,192,6306,128,0,7106:0:0:0:0:
448,192,6306,1,0,0:0:0:0:
320,192,6572,1,0,0:0:0:0:
320,192,6839,1,0,0:0:0:0:
448,192,7106,128,0,8439:0:0:0:0:
192,192,7106,1,0,0:0:0:0:
320,192,7706,1,0,0:0:0:0:
64,192,7706,1,0,0:0:0:0:
64,192,8439,128,0,12306:0:0:0:0:
320,192,8706,1,0,0:0:0:0:
448,192,8756,1,0,0:0:0:0:
320,192,9106,1,0,0:0:0:0:
448,192,9506,1,0,0:0:0:0:
192,192,9506,1,0,0:0:0:0:
320,192,9906,1,0,0:0:0:0:
192,192,10306,128,0,12306:0:0:0:0:
448,192,10306,1,0,0:0:0:0:
448,192,10906,1,0,0:0:0:0:
320,192,11006,1,0,0:0:0:0:
448,192,11506,1,0,0:0:0:0:
320,192,11906,1,0,0:0:0:0:
448,192,12306,1,0,0:0:0:0:
320,192,12606,1,0,0:0:0:0:
64,192,12706,1,0,0:0:0:0:
192,192,12706,1,0,0:0:0:0:
448,192,12906,1,0,0:0:0:0:
320,192,13039,1,0,0:0:0:0:
192,192,13306,1,0,0:0:0:0:
64,192,13506,1,0,0:0:0:0:
320,192,13506,1,0,0:0:0:0:
448,192,13506,128,0,14839:0:0:0:0:
64,192,14839,128,0,19106:0:0:0:0:
192,192,15506,1,0,0:0:0:0:
448,192,15906,1,0,0:0:0:0:
320,192,16306,1,0,0:0:0:0:
192,192,16706,1,0,0:0:0:0:
448,192,16706,1,0,0:0:0:0:
448,192,17306,1,0,0:0:0:0:
192,192,19106,1,0,0:0:0:0:
448,192,19106,128,0,19506:0:0:0:0:
320,192,19106,1,0,0:0:0:0:
320,192,19506,128,0,19906:0:0:0:0:
64,192,19906,1,0,0:0:0:0:
192,192,19906,128,0,21906:0:0:0:0:
448,192,19906,1,0,0:0:0:0:
64,192,20506,1,0,0:0:0:0:
320,192,20506,1,0,0:0:0:0:
448,192,21506,1,0,0:0:0:0:
320,192,21506,1,0,0:0:0:0:
64,192,21906,128,0,22306:0:0:0:0:
320,192,22306,128,0,22706:0:0:0:0:
448,192,22306,1,0,0:0:0:0:
192,192,22706,128,0,23106:0:0:0:0:
448,192,23106,1,0,0:0:0:0:
320,192,23106,1,0,0:0:0:0:
64,192,23106,128,0,26306:0:0:0:0:
320,192,23706,1,0,0:0:0:0:
192,192,23706,1,0,0:0:0:0:
448,192,25506,1,0,0:0:0:0:
320,192,25506,1,0,0:0:0:0:
448,192,26306,128,0,29606:0:0:0:50:soft-hitfinish.wav
192,192,26306,1,0,0:0:0:0:
320,192,29606,1,0,0:0:0:0:
64,192,29606,128,0,31906:0:0:0:0:
320,192,31906,1,0,0:0:0:0:
192,192,31906,128,0,32706:0:0:0:0:
448,192,32706,1,0,0:0:0:0:
320,192,32706,128,0,34306:0:0:0:0:
64,192,33406,1,0,0:0:0:0:
192,192,34306,1,0,0:0:0:0:
448,192,34306,128,0,35106:0:0:0:0:
320,192,35106,128,0,35906:0:0:0:0:
64,192,35106,1,0,0:0:0:0:
192,192,35906,1,0,0:0:0:0:
64,192,35906,128,0,38306:0:0:0:0:
320,192,36506,1,0,0:0:0:0:
448,192,36506,1,0,0:0:0:0:
320,192,38306,1,0,0:0:0:0:
192,192,38306,1,0,0:0:0:0:
448,192,38306,128,0,39106:0:0:0:0:
64,192,39106,1,0,0:0:0:0:
320,192,39106,128,0,42356:0:0:0:0:
448,192,42356,1,0,0:0:0:0:
64,192,42356,128,0,44656:0:0:0:0:
448,192,44656,1,0,0:0:0:0:
320,192,44656,128,0,45506:0:0:0:0:
192,192,45506,1,0,0:0:0:0:
64,192,45506,128,0,47106:0:0:0:0:
448,192,46106,1,0,0:0:0:0:
320,192,46106,1,0,0:0:0:0:
192,192,47106,1,0,0:0:0:0:
448,192,47106,128,0,47906:0:0:0:0:
320,192,47906,1,0,0:0:0:0:
64,192,47906,128,0,48706:0:0:0:0:
448,192,48706,1,0,0:0:0:0:
192,192,48706,128,0,51106:0:0:0:0:
320,192,49306,1,0,0:0:0:0:
64,192,51106,1,0,0:0:0:0:
320,192,51106,128,0,51906:0:0:0:0:
448,192,51906,1,0,0:0:0:0:
192,192,51906,1,0,0:0:0:50:soft-hitfinish.wav
64,192,51906,1,0,0:0:0:0:
64,192,52306,1,0,0:0:0:0:
320,192,52706,1,0,0:0:0:0:
192,192,53106,1,0,0:0:0:0:
64,192,53506,1,0,0:0:0:0:
192,192,53906,1,0,0:0:0:0:
448,192,54306,1,0,0:0:0:0:
320,192,54706,1,0,0:0:0:0:
448,192,55106,1,0,0:0:0:0:
64,192,55106,1,0,0:0:0:0:
192,192,55506,1,0,0:0:0:0:
320,192,55906,1,0,0:0:0:0:
448,192,56306,1,0,0:0:0:0:
192,192,56706,1,0,0:0:0:0:
64,192,57106,1,0,0:0:0:0:
192,192,57506,1,0,0:0:0:0:
448,192,57506,1,0,0:0:0:0:
192,192,57906,1,0,0:0:0:0:
64,192,58306,1,0,0:0:0:0:
320,192,58306,1,0,0:0:0:0:
64,192,58706,1,0,0:0:0:0:
192,192,59056,1,0,0:0:0:0:
320,192,59106,1,0,0:0:0:0:
448,192,59506,1,0,0:0:0:0:
448,192,59906,1,0,0:0:0:0:
64,192,59906,1,0,0:0:0:0:
192,192,60306,1,0,0:0:0:0:
320,192,60656,1,0,0:0:0:0:
448,192,60706,1,0,0:0:0:0:
192,192,61106,1,0,0:0:0:0:
64,192,61506,1,0,0:0:0:0:
320,192,61506,1,0,0:0:0:0:
448,192,61906,1,0,0:0:0:0:
320,192,62306,1,0,0:0:0:0:
448,192,62306,1,0,0:0:0:0:
192,192,62706,1,0,0:0:0:0:
64,192,63106,1,0,0:0:0:0:
448,192,63506,1,0,0:0:0:0:
192,192,63906,1,0,0:0:0:0:
320,192,63906,1,0,0:0:0:0:
64,192,64306,1,0,0:0:0:0:
448,192,64706,1,0,0:0:0:0:
64,192,64706,1,0,0:0:0:0:
320,192,65106,1,0,0:0:0:0:
192,192,65506,1,0,0:0:0:0:
320,192,65906,1,0,0:0:0:0:
448,192,66306,1,0,0:0:0:0:
64,192,66706,1,0,0:0:0:0:
192,192,67106,1,0,0:0:0:0:
448,192,67506,1,0,0:0:0:0:
192,192,67906,1,0,0:0:0:0:
320,192,67906,1,0,0:0:0:0:
64,192,68306,1,0,0:0:0:0:
192,192,68706,1,0,0:0:0:0:
320,192,69106,1,0,0:0:0:0:
448,192,69506,1,0,0:0:0:0:
320,192,69906,1,0,0:0:0:0:
192,192,70306,1,0,0:0:0:0:
64,192,70306,1,0,0:0:0:0:
320,192,70706,1,0,0:0:0:0:
448,192,71106,1,0,0:0:0:0:
64,192,71106,1,0,0:0:0:0:
64,192,71506,1,0,0:0:0:0:
192,192,71906,1,0,0:0:0:0:
448,192,71906,1,0,0:0:0:0:
320,192,72306,1,0,0:0:0:0:
64,192,72706,1,0,0:0:0:0:
448,192,72706,1,0,0:0:0:0:
192,192,73106,1,0,0:0:0:0:
320,192,73506,1,0,0:0:0:0:
448,192,73506,1,0,0:0:0:0:
192,192,73906,1,0,0:0:0:0:
64,192,74306,1,0,0:0:0:0:
320,192,74306,1,0,0:0:0:0:
448,192,74706,1,0,0:0:0:0:
192,192,75106,1,0,0:0:0:0:
448,192,75106,1,0,0:0:0:0:
320,192,75506,1,0,0:0:0:0:
64,192,75906,1,0,0:0:0:0:
192,192,76306,1,0,0:0:0:0:
448,192,76706,1,0,0:0:0:0:
320,192,76706,1,0,0:0:0:0:
192,192,77106,1,0,0:0:0:0:
448,192,77506,1,0,0:0:0:0:
64,192,77506,128,0,80706:0:0:0:0:
192,192,77506,1,0,0:0:0:0:
320,192,77906,1,0,0:0:0:0:
192,192,78306,1,0,0:0:0:0:
320,192,78706,1,0,0:0:0:0:
448,192,79106,1,0,0:0:0:0:
320,192,79506,1,0,0:0:0:0:
192,192,79906,1,0,0:0:0:0:
320,192,80306,1,0,0:0:0:0:
192,192,80706,1,0,0:0:0:0:
448,192,80706,128,0,83906:0:0:0:0:
64,192,81106,1,0,0:0:0:0:
320,192,81506,1,0,0:0:0:0:
64,192,81906,1,0,0:0:0:0:
192,192,82306,1,0,0:0:0:0:
320,192,82706,1,0,0:0:0:0:
192,192,83106,1,0,0:0:0:0:
64,192,83506,1,0,0:0:0:0:
320,192,83906,1,0,0:0:0:0:
64,192,83906,128,0,87106:0:0:0:0:
192,192,84306,1,0,0:0:0:0:
320,192,84706,1,0,0:0:0:0:
448,192,85106,1,0,0:0:0:0:
320,192,85506,1,0,0:0:0:0:
192,192,85906,1,0,0:0:0:0:
320,192,86306,1,0,0:0:0:0:
448,192,86706,1,0,0:0:0:0:
192,192,87106,1,0,0:0:0:0:
448,192,87106,128,0,90306:0:0:0:0:
320,192,87506,1,0,0:0:0:0:
192,192,87906,1,0,0:0:0:0:
64,192,88306,1,0,0:0:0:0:
192,192,88706,1,0,0:0:0:0:
320,192,88756,1,0,0:0:0:0:
64,192,89106,1,0,0:0:0:0:
192,192,89506,1,0,0:0:0:0:
320,192,89906,1,0,0:0:0:0:
192,192,90306,1,0,0:0:0:0:
64,192,90306,128,0,93506:0:0:0:0:
320,192,90306,1,0,0:0:0:0:
192,192,90706,1,0,0:0:0:0:
320,192,91106,1,0,0:0:0:0:
448,192,91506,1,0,0:0:0:0:
320,192,91906,1,0,0:0:0:0:
192,192,92306,1,0,0:0:0:0:
320,192,92706,1,0,0:0:0:0:
448,192,93106,1,0,0:0:0:0:
448,192,93506,1,0,0:0:0:0:
192,192,93506,128,0,95906:0:0:0:0:
320,192,93506,1,0,0:0:0:0:
64,192,93906,1,0,0:0:0:0:
320,192,94306,1,0,0:0:0:0:
448,192,94706,1,0,0:0:0:0:
320,192,95106,1,0,0:0:0:0:
64,192,95506,1,0,0:0:0:0:
64,192,95906,1,0,0:0:0:0:
448,192,95906,1,0,0:0:0:0:
320,192,95906,128,0,96706:0:0:0:0:
192,192,96306,1,0,0:0:0:0:
448,192,96706,128,0,98306:0:0:0:0:
64,192,96706,1,0,0:0:0:0:
192,192,97106,1,0,0:0:0:0:
320,192,97506,1,0,0:0:0:0:
192,192,97906,1,0,0:0:0:0:
320,192,98306,1,0,0:0:0:0:
64,192,98306,128,0,99906:0:0:0:0:
192,192,98706,1,0,0:0:0:0:
320,192,99106,1,0,0:0:0:0:
448,192,99506,1,0,0:0:0:0:
320,192,99906,1,0,0:0:0:0:
448,192,99906,128,0,103106:0:0:0:0:
192,192,99906,1,0,0:0:0:0:
64,192,100306,1,0,0:0:0:0:
192,192,100706,1,0,0:0:0:0:
320,192,101106,1,0,0:0:0:0:
192,192,101506,1,0,0:0:0:0:
64,192,101906,1,0,0:0:0:0:
64,192,102306,1,0,0:0:0:0:
192,192,102306,1,0,0:0:0:0:
320,192,102706,1,0,0:0:0:0:
192,192,103106,1,0,0:0:0:0:
320,192,103106,1,0,0:0:0:0:
64,192,103106,128,0,106306:0:0:0:0:
448,192,103506,1,0,0:0:0:0:
192,192,103906,1,0,0:0:0:0:
320,192,104306,1,0,0:0:0:0:
448,192,104706,1,0,0:0:0:0:
320,192,105106,1,0,0:0:0:0:
192,192,105506,1,0,0:0:0:0:
448,192,105906,1,0,0:0:0:0:
448,192,106306,1,0,0:0:0:0:
320,192,106306,128,0,106706:0:0:0:50:soft-hitfinish.wav
192,192,106306,1,0,0:0:0:0:
320,192,107906,1,0,0:0:0:0:
192,192,107906,1,0,0:0:0:0:
64,192,107906,1,0,0:0:0:0:
320,192,108706,1,0,0:0:0:0:
64,192,108706,1,0,0:0:0:0:
448,192,108706,1,0,0:0:0:0:
448,192,109506,1,0,0:0:0:0:
64,192,109506,128,0,112706:0:0:0:0:
192,192,109506,1,0,0:0:0:0:
320,192,110306,1,0,0:0:0:0:
320,192,111106,1,0,0:0:0:0:
448,192,111106,1,0,0:0:0:0:
192,192,111906,1,0,0:0:0:0:
320,192,112706,1,0,0:0:0:0:
448,192,112706,128,0,115906:0:0:0:0:
192,192,112706,1,0,0:0:0:0:
192,192,113506,1,0,0:0:0:0:
192,192,114306,1,0,0:0:0:0:
64,192,114306,1,0,0:0:0:0:
320,192,115106,1,0,0:0:0:0:
192,192,115906,1,0,0:0:0:0:
64,192,115906,128,0,119106:0:0:0:0:
320,192,115906,1,0,0:0:0:0:
320,192,116706,1,0,0:0:0:0:
448,192,117506,1,0,0:0:0:0:
192,192,117506,1,0,0:0:0:0:
448,192,118306,1,0,0:0:0:0:
320,192,119106,1,0,0:0:0:0:
448,192,119106,128,0,120706:0:0:0:0:
192,192,119106,1,0,0:0:0:0:
192,192,119906,1,0,0:0:0:0:
64,192,120706,1,0,0:0:0:0:
320,192,120706,1,0,0:0:0:0:
192,192,120706,128,0,121506:0:0:0:0:
64,192,121506,1,0,0:0:0:0:
320,192,121506,128,0,122306:0:0:0:0:
448,192,121506,1,0,0:0:0:0:
192,192,122306,1,0,0:0:0:0:
64,192,122306,128,0,123906:0:0:0:0:
448,192,122306,1,0,0:0:0:0:
320,192,123106,1,0,0:0:0:0:
448,192,123906,1,0,0:0:0:0:
192,192,123906,128,0,124706:0:0:0:0:
320,192,123906,1,0,0:0:0:0:
320,192,124706,128,0,125506:0:0:0:0:
64,192,124706,1,0,0:0:0:0:
448,192,124706,1,0,0:0:0:0:
192,192,125506,1,0,0:0:0:0:
448,192,125506,128,0,127106:0:0:0:0:
64,192,125506,1,0,0:0:0:0:
192,192,126306,1,0,0:0:0:0:
192,192,127106,1,0,0:0:0:0:
320,192,127106,1,0,0:0:0:0:
64,192,127106,128,0,127906:0:0:0:0:
448,192,127906,1,0,0:0:0:0:
192,192,127906,128,0,128706:0:0:0:0:
320,192,127906,1,0,0:0:0:0:
320,192,128706,1,0,0:0:0:0:
448,192,128706,128,0,130306:0:0:0:0:
64,192,128706,1,0,0:0:0:0:
320,192,129506,1,0,0:0:0:0:
192,192,130306,1,0,0:0:0:0:
64,192,130306,128,0,131906:0:0:0:0:
320,192,130306,1,0,0:0:0:0:
192,192,131106,1,0,0:0:0:0:
192,192,131906,1,0,0:0:0:0:
448,192,131906,128,0,133506:0:0:0:50:twinkling.wav
320,192,131906,1,0,0:0:0:0:
320,192,132439,1,0,0:0:0:0:
192,192,132706,1,0,0:0:0:0:
64,192,132972,1,0,0:0:0:0:
192,192,133239,1,0,0:0:0:0:
64,192,133506,128,0,135106:0:0:0:0:
192,192,133506,1,0,0:0:0:0:
320,192,133506,1,0,0:0:0:0:
192,192,134306,1,0,0:0:0:0:
448,192,135106,1,0,0:0:0:50:soft-hitwhistle.wav
320,192,135106,1,0,0:0:0:0:
64,192,135306,1,0,0:0:0:50:soft-hitwhistle.wav
192,192,135306,1,0,0:0:0:0:
192,192,135706,1,0,0:0:0:50:soft-hitwhistle.wav
320,192,135706,1,0,0:0:0:0:
448,192,135906,1,0,0:0:0:50:soft-hitwhistle2.wav
64,192,135906,1,0,0:0:0:0:
320,192,136306,1,0,0:0:0:0:
192,192,136506,1,0,0:0:0:0:
448,192,136706,1,0,0:0:0:0:
192,192,137106,1,0,0:0:0:50:soft-hitwhistle.wav
64,192,137106,1,0,0:0:0:0:
448,192,137506,1,0,0:0:0:0:
64,192,137506,1,0,0:0:0:0:
320,192,137506,1,0,0:0:0:50:soft-hitwhistle2.wav
192,192,137906,1,0,0:0:0:0:
448,192,138306,1,0,0:0:0:0:
320,192,138306,1,0,0:0:0:50:soft-hitwhistle.wav
64,192,138506,1,0,0:0:0:50:soft-hitwhistle.wav
192,192,138506,1,0,0:0:0:0:
320,192,138706,1,0,0:0:0:0:
448,192,138906,1,0,0:0:0:50:soft-hitwhistle.wav
192,192,138906,1,0,0:0:0:0:
64,192,139106,1,0,0:0:0:0:
320,192,139106,1,0,0:0:0:50:soft-hitwhistle2.wav
320,192,139506,1,0,0:0:0:0:
64,192,139706,1,0,0:0:0:0:
192,192,139906,1,0,0:0:0:0:
320,192,140306,1,0,0:0:0:0:
448,192,140306,1,0,0:0:0:50:soft-hitwhistle.wav
64,192,140706,1,0,0:0:0:0:
448,192,140706,1,0,0:0:0:0:
192,192,140706,1,0,0:0:0:50:soft-hitwhistle2.wav
320,192,141039,1,0,0:0:0:0:
192,192,141306,1,0,0:0:0:0:
448,192,141506,1,0,0:0:0:50:soft-hitwhistle.wav
320,192,141506,1,0,0:0:0:0:
64,192,141706,1,0,0:0:0:50:soft-hitwhistle.wav
192,192,141706,1,0,0:0:0:0:
320,192,142106,1,0,0:0:0:50:soft-hitwhistle.wav
192,192,142106,1,0,0:0:0:0:
448,192,142306,1,0,0:0:0:0:
64,192,142306,1,0,0:0:0:50:soft-hitwhistle2.wav
320,192,142706,1,0,0:0:0:0:
192,192,142906,1,0,0:0:0:0:
448,192,143106,1,0,0:0:0:0:
64,192,143106,128,0,144706:0:0:0:0:
320,192,143506,1,0,0:0:0:50:soft-hitwhistle.wav
192,192,143506,1,0,0:0:0:0:
320,192,143906,1,0,0:0:0:50:soft-hitwhistle2.wav
448,192,143906,1,0,0:0:0:0:
192,192,143906,1,0,0:0:0:0:
320,192,144106,1,0,0:0:0:0:
192,192,144306,1,0,0:0:0:0:
448,192,144506,1,0,0:0:0:0:
192,192,144706,1,0,0:0:0:0:
320,192,144706,1,0,0:0:0:50:soft-hitwhistle.wav
64,192,144906,1,0,0:0:0:0:
448,192,144906,1,0,0:0:0:50:soft-hitwhistle.wav
320,192,145306,1,0,0:0:0:0:
64,192,145306,1,0,0:0:0:50:soft-hitwhistle.wav
448,192,145506,1,0,0:0:0:0:
192,192,145506,1,0,0:0:0:50:soft-hitwhistle2.wav
320,192,145906,1,0,0:0:0:0:
64,192,146106,1,0,0:0:0:0:
192,192,146306,1,0,0:0:0:0:
448,192,146706,1,0,0:0:0:50:soft-hitwhistle.wav
320,192,146706,1,0,0:0:0:0:
64,192,147106,1,0,0:0:0:0:
448,192,147106,1,0,0:0:0:50:soft-hitwhistle2.wav
192,192,147106,1,0,0:0:0:0:
320,192,147506,1,0,0:0:0:0:
192,192,147906,1,0,0:0:0:50:soft-hitwhistle.wav
64,192,147906,1,0,0:0:0:0:
320,192,148106,1,0,0:0:0:50:soft-hitwhistle.wav
448,192,148106,1,0,0:0:0:0:
192,192,148506,1,0,0:0:0:50:soft-hitwhistle.wav
448,192,148506,1,0,0:0:0:0:
64,192,148706,1,0,0:0:0:0:
320,192,148706,1,0,0:0:0:50:soft-hitwhistle2.wav
448,192,149106,1,0,0:0:0:0:
192,192,149306,1,0,0:0:0:0:
64,192,149506,1,0,0:0:0:0:
448,192,149906,1,0,0:0:0:0:
320,192,149906,1,0,0:0:0:50:soft-hitwhistle.wav
192,192,150306,1,0,0:0:0:50:soft-hitwhistle2.wav
64,192,150306,1,0,0:0:0:0:
448,192,150306,1,0,0:0:0:0:
320,192,150706,1,0,0:0:0:0:
320,192,151106,1,0,0:0:0:50:soft-hitwhistle.wav
448,192,151106,1,0,0:0:0:0:
192,192,151306,1,0,0:0:0:50:soft-hitwhistle.wav
64,192,151306,1,0,0:0:0:0:
320,192,151706,1,0,0:0:0:50:soft-hitwhistle.wav
64,192,151706,1,0,0:0:0:0:
192,192,151906,1,0,0:0:0:0:
448,192,151906,1,0,0:0:0:50:soft-hitwhistle2.wav
448,192,152306,1,0,0:0:0:0:
320,192,152506,1,0,0:0:0:0:
64,192,152706,1,0,0:0:0:0:
192,192,153106,1,0,0:0:0:0:
320,192,153106,1,0,0:0:0:50:soft-hitwhistle.wav
320,192,153506,1,0,0:0:0:50:soft-hitwhistle2.wav
448,192,153506,1,0,0:0:0:0:
64,192,153506,1,0,0:0:0:0:
192,192,153906,1,0,0:0:0:0:
320,192,154306,1,0,0:0:0:50:soft-hitwhistle.wav
448,192,154306,1,0,0:0:0:0:
192,192,154506,1,0,0:0:0:50:soft-hitwhistle.wav
64,192,154506,1,0,0:0:0:0:
192,192,154906,1,0,0:0:0:50:soft-hitwhistle.wav
320,192,154906,1,0,0:0:0:0:
64,192,155106,1,0,0:0:0:50:soft-hitwhistle2.wav
448,192,155106,1,0,0:0:0:0:
192,192,155506,1,0,0:0:0:0:
320,192,155706,1,0,0:0:0:0:
448,192,155906,1,0,0:0:0:0:
64,192,155906,128,0,157506:0:0:0:0:
192,192,156306,1,0,0:0:0:50:soft-hitwhistle.wav
320,192,156306,1,0,0:0:0:0:
192,192,156706,1,0,0:0:0:0:
320,192,156706,1,0,0:0:0:50:soft-hitwhistle2.wav
448,192,156706,1,0,0:0:0:0:
320,192,156906,1,0,0:0:0:0:
192,192,157106,1,0,0:0:0:0:
448,192,157306,1,0,0:0:0:0:
320,192,157506,1,0,0:0:0:50:soft-hitwhistle.wav
192,192,157506,1,0,0:0:0:0:
448,192,157706,1,0,0:0:0:50:soft-hitwhistle.wav
64,192,157706,1,0,0:0:0:0:
192,192,158106,1,0,0:0:0:50:soft-hitwhistle.wav
448,192,158106,1,0,0:0:0:0:
64,192,158306,1,0,0:0:0:50:soft-hitwhistle2.wav
320,192,158306,1,0,0:0:0:0:
192,192,158706,1,0,0:0:0:0:
448,192,158906,1,0,0:0:0:0:
320,192,159106,1,0,0:0:0:0:
192,192,159506,1,0,0:0:0:50:soft-hitwhistle.wav
64,192,159506,1,0,0:0:0:0:
448,192,159906,1,0,0:0:0:0:
64,192,159906,1,0,0:0:0:0:
320,192,159906,1,0,0:0:0:50:soft-hitwhistle2.wav
448,192,160306,1,0,0:0:0:0:
192,192,160706,1,0,0:0:0:0:
64,192,160706,1,0,0:0:0:50:twinkling.wav
448,192,161506,1,0,0:0:0:0:
320,192,161506,1,0,0:0:0:0:
192,192,161906,1,0,0:0:0:0:
320,192,162106,1,0,0:0:0:0:
64,192,162306,1,0,0:0:0:0:
448,192,162306,1,0,0:0:0:0:
192,192,162706,1,0,0:0:0:0:
448,192,163106,1,0,0:0:0:0:
320,192,163106,1,0,0:0:0:50:soft-hitwhistle2.wav
64,192,163506,1,0,0:0:0:0:
320,192,163906,1,0,0:0:0:0:
192,192,163906,1,0,0:0:0:0:
448,192,164306,1,0,0:0:0:0:
448,192,164706,1,0,0:0:0:50:soft-hitwhistle2.wav
64,192,164706,1,0,0:0:0:0:
192,192,165106,1,0,0:0:0:0:
448,192,165306,1,0,0:0:0:0:
320,192,165506,1,0,0:0:0:0:
64,192,165506,1,0,0:0:0:0:
192,192,165906,1,0,0:0:0:0:
448,192,166306,1,0,0:0:0:50:soft-hitwhistle2.wav
64,192,166306,1,0,0:0:0:0:
192,192,166706,1,0,0:0:0:0:
320,192,167106,1,0,0:0:0:0:
320,192,167706,1,0,0:0:0:0:
192,192,167706,1,0,0:0:0:0:
448,192,167906,1,0,0:0:0:50:soft-hitwhistle2.wav
64,192,167906,1,0,0:0:0:0:
64,192,168306,1,0,0:0:0:0:
192,192,168506,1,0,0:0:0:0:
320,192,168706,1,0,0:0:0:0:
448,192,168706,1,0,0:0:0:0:
64,192,169506,1,0,0:0:0:0:
448,192,169506,1,0,0:0:0:50:soft-hitwhistle2.wav
320,192,169906,1,0,0:0:0:0:
192,192,170106,1,0,0:0:0:0:
64,192,170306,1,0,0:0:0:0:
192,192,170906,1,0,0:0:0:0:
64,192,171106,1,0,0:0:0:0:
320,192,171106,1,0,0:0:0:50:soft-hitwhistle2.wav
448,192,171506,1,0,0:0:0:0:
320,192,171706,1,0,0:0:0:0:
64,192,171906,1,0,0:0:0:0:
192,192,171906,1,0,0:0:0:0:
448,192,172306,1,0,0:0:0:0:
64,192,172706,1,0,0:0:0:0:
320,192,172706,1,0,0:0:0:50:soft-hitwhistle2.wav
192,192,173106,1,0,0:0:0:0:
448,192,173506,128,0,174306:0:0:0:0:
320,192,173506,1,0,0:0:0:0:
64,192,174306,1,0,0:0:0:50:soft-hitwhistle2.wav
320,192,174306,1,0,0:0:0:0:
192,192,174706,1,0,0:0:0:0:
64,192,174906,1,0,0:0:0:0:
448,192,175106,1,0,0:0:0:0:
320,192,175506,1,0,0:0:0:0:
192,192,175906,1,0,0:0:0:0:
64,192,175906,1,0,0:0:0:50:soft-hitwhistle2.wav
448,192,176306,1,0,0:0:0:0:
192,192,176706,128,0,177506:0:0:0:0:
320,192,176706,1,0,0:0:0:0:
64,192,177506,1,0,0:0:0:0:
448,192,177506,1,0,0:0:0:50:soft-hitwhistle2.wav
192,192,177906,1,0,0:0:0:0:
320,192,178106,1,0,0:0:0:0:
448,192,178306,1,0,0:0:0:0:
64,192,178706,1,0,0:0:0:0:
448,192,179106,1,0,0:0:0:0:
320,192,179106,1,0,0:0:0:50:soft-hitwhistle2.wav
192,192,179506,1,0,0:0:0:0:
448,192,179906,1,0,0:0:0:0:
64,192,179906,1,0,0:0:0:0:
320,192,180506,1,0,0:0:0:0:
448,192,180706,1,0,0:0:0:50:soft-hitwhistle2.wav
64,192,180706,1,0,0:0:0:0:
320,192,181106,1,0,0:0:0:0:
448,192,181306,1,0,0:0:0:0:
192,192,181506,1,0,0:0:0:0:
64,192,181506,1,0,0:0:0:0:
192,192,182306,1,0,0:0:0:0:
320,192,182306,1,0,0:0:0:50:soft-hitwhistle2.wav
320,192,183106,1,0,0:0:0:0:
448,192,183106,1,0,0:0:0:0:
192,192,183506,1,0,0:0:0:0:
64,192,183906,1,0,0:0:0:50:soft-hitwhistle2.wav
448,192,183906,1,0,0:0:0:0:
192,192,184306,1,0,0:0:0:0:
64,192,184506,1,0,0:0:0:0:
320,192,184706,1,0,0:0:0:0:
448,192,184706,1,0,0:0:0:0:
192,192,185106,1,0,0:0:0:0:
64,192,185506,1,0,0:0:0:0:
448,192,185506,1,0,0:0:0:50:soft-hitwhistle2.wav
320,192,185906,1,0,0:0:0:0:
320,192,186306,1,0,0:0:0:50:soft-hitwhistle.wav
448,192,186306,1,0,0:0:0:0:
64,192,186306,1,0,0:0:0:0:
64,192,186506,1,0,0:0:0:0:
192,192,186506,1,0,0:0:0:50:soft-hitwhistle.wav
448,192,186706,1,0,0:0:0:0:
192,192,186906,1,0,0:0:0:0:
320,192,186906,1,0,0:0:0:50:soft-hitwhistle.wav
448,192,187106,1,0,0:0:0:0:
64,192,187106,1,0,0:0:0:0:
320,192,187106,1,0,0:0:0:50:soft-hitclap.wav
448,192,187506,1,0,0:0:0:0:
320,192,187706,1,0,0:0:0:0:
64,192,187906,1,0,0:0:0:0:
448,192,188106,1,0,0:0:0:0:
320,192,188106,1,0,0:0:0:50:soft-hitwhistle.wav
192,192,188306,1,0,0:0:0:50:soft-hitwhistle.wav
64,192,188306,1,0,0:0:0:0:
320,192,188506,1,0,0:0:0:0:
64,192,188706,1,0,0:0:0:0:
448,192,188706,1,0,0:0:0:0:
192,192,188706,1,0,0:0:0:50:soft-hitclap.wav
448,192,189106,1,0,0:0:0:0:
320,192,189306,1,0,0:0:0:0:
192,192,189506,1,0,0:0:0:50:soft-hitwhistle.wav
64,192,189506,1,0,0:0:0:0:
320,192,189706,1,0,0:0:0:50:soft-hitwhistle.wav
448,192,189706,1,0,0:0:0:0:
64,192,189906,1,0,0:0:0:0:
320,192,190106,1,0,0:0:0:50:soft-hitwhistle.wav
192,192,190106,1,0,0:0:0:0:
192,192,190306,1,0,0:0:0:0:
64,192,190306,1,0,0:0:0:0:
448,192,190306,1,0,0:0:0:50:soft-hitclap.wav
64,192,190706,1,0,0:0:0:0:
192,192,190906,1,0,0:0:0:0:
448,192,191106,1,0,0:0:0:0:
192,192,191306,1,0,0:0:0:50:soft-hitwhistle.wav
64,192,191306,1,0,0:0:0:0:
320,192,191506,1,0,0:0:0:50:soft-hitwhistle.wav
448,192,191506,1,0,0:0:0:0:
192,192,191706,1,0,0:0:0:0:
448,192,191906,1,0,0:0:0:0:
64,192,191906,1,0,0:0:0:0:
320,192,191906,1,0,0:0:0:50:soft-hitclap.wav
192,192,192306,1,0,0:0:0:0:
320,192,192506,1,0,0:0:0:0:
448,192,192706,1,0,0:0:0:50:soft-hitwhistle.wav
192,192,192706,1,0,0:0:0:0:
64,192,192706,1,0,0:0:0:0:
448,192,192906,1,0,0:0:0:0:
320,192,192906,1,0,0:0:0:50:soft-hitwhistle.wav
192,192,193106,1,0,0:0:0:0:
64,192,193306,1,0,0:0:0:0:
448,192,193306,1,0,0:0:0:50:soft-hitwhistle.wav
192,192,193506,1,0,0:0:0:0:
320,192,193506,1,0,0:0:0:50:soft-hitclap.wav
64,192,193506,1,0,0:0:0:0:
64,192,193906,1,0,0:0:0:0:
192,192,194106,1,0,0:0:0:0:
448,192,194306,1,0,0:0:0:0:
64,192,194506,1,0,0:0:0:0:
192,192,194506,1,0,0:0:0:50:soft-hitwhistle.wav
320,192,194706,1,0,0:0:0:50:soft-hitwhistle.wav
448,192,194706,1,0,0:0:0:0:
64,192,194906,1,0,0:0:0:0:
192,192,195106,1,0,0:0:0:0:
320,192,195106,1,0,0:0:0:50:soft-hitclap.wav
448,192,195106,1,0,0:0:0:0:
64,192,195506,1,0,0:0:0:0:
192,192,195706,1,0,0:0:0:0:
320,192,195906,1,0,0:0:0:50:soft-hitwhistle.wav
448,192,195906,1,0,0:0:0:0:
64,192,195906,1,0,0:0:0:0:
320,192,196106,1,0,0:0:0:50:soft-hitwhistle.wav
192,192,196106,1,0,0:0:0:0:
64,192,196306,1,0,0:0:0:0:
448,192,196506,1,0,0:0:0:0:
320,192,196506,1,0,0:0:0:50:soft-hitwhistle.wav
192,192,196706,1,0,0:0:0:0:
320,192,196706,1,0,0:0:0:50:soft-hitclap.wav
64,192,196706,1,0,0:0:0:0:
64,192,197106,1,0,0:0:0:0:
192,192,197306,1,0,0:0:0:0:
320,192,197506,1,0,0:0:0:0:
64,192,197706,1,0,0:0:0:0:
192,192,197706,1,0,0:0:0:50:soft-hitwhistle.wav
320,192,197906,1,0,0:0:0:50:soft-hitwhistle.wav
448,192,197906,1,0,0:0:0:0:
192,192,198106,1,0,0:0:0:0:
448,192,198306,1,0,0:0:0:0:
64,192,198306,1,0,0:0:0:0:
320,192,198306,1,0,0:0:0:50:soft-hitclap.wav
192,192,198706,1,0,0:0:0:0:
320,192,198906,1,0,0:0:0:0:
192,192,199106,1,0,0:0:0:0:
448,192,199106,1,0,0:0:0:50:soft-hitwhistle.wav
64,192,199106,1,0,0:0:0:0:
192,192,199306,1,0,0:0:0:0:
320,192,199306,1,0,0:0:0:50:soft-hitwhistle.wav
64,192,199506,1,0,0:0:0:0:
320,192,199706,1,0,0:0:0:50:soft-hitwhistle.wav
448,192,199706,1,0,0:0:0:0:
64,192,199906,1,0,0:0:0:0:
448,192,199906,1,0,0:0:0:50:soft-hitclap.wav
192,192,199906,1,0,0:0:0:0:
64,192,200306,1,0,0:0:0:0:
192,192,200506,1,0,0:0:0:0:
448,192,200706,1,0,0:0:0:0:
64,192,200906,1,0,0:0:0:0:
192,192,200906,1,0,0:0:0:50:soft-hitwhistle.wav
192,192,201106,1,0,0:0:0:50:soft-hitwhistle.wav
320,192,201106,1,0,0:0:0:0:
448,192,201306,1,0,0:0:0:0:
448,192,201506,1,0,0:0:0:0:
320,192,201506,1,0,0:0:0:50:soft-hitclap.wav
64,192,201506,1,0,0:0:0:0:
192,192,201906,1,0,0:0:0:0:
192,192,202106,1,0,0:0:0:0:
448,192,202306,1,0,0:0:0:0:
320,192,202306,1,0,0:0:0:50:soft-hitwhistle.wav
64,192,202306,1,0,0:0:0:0:
320,192,202506,1,0,0:0:0:50:soft-hitwhistle.wav
192,192,202506,1,0,0:0:0:0:
448,192,202706,1,0,0:0:0:0:
448,192,202906,1,0,0:0:0:50:soft-hitwhistle.wav
64,192,202906,1,0,0:0:0:0:
192,192,203106,1,0,0:0:0:0:
320,192,203106,1,0,0:0:0:50:soft-hitclap.wav
64,192,203106,1,0,0:0:0:0:
64,192,203506,1,0,0:0:0:0:
192,192,203706,1,0,0:0:0:0:
448,192,203906,1,0,0:0:0:0:
192,192,204106,1,0,0:0:0:50:soft-hitwhistle.wav
64,192,204106,1,0,0:0:0:0:
320,192,204306,1,0,0:0:0:50:soft-hitwhistle.wav
448,192,204306,1,0,0:0:0:0:
192,192,204506,1,0,0:0:0:0:
64,192,204706,1,0,0:0:0:0:
320,192,204706,1,0,0:0:0:0:
448,192,204706,1,0,0:0:0:50:soft-hitclap.wav
320,192,205106,1,0,0:0:0:0:
320,192,205306,1,0,0:0:0:0:
448,192,205506,1,0,0:0:0:0:
64,192,205506,1,0,0:0:0:0:
192,192,205506,1,0,0:0:0:50:soft-hitwhistle.wav
192,192,205706,1,0,0:0:0:50:soft-hitwhistle.wav
320,192,205706,1,0,0:0:0:0:
448,192,205906,1,0,0:0:0:0:
192,192,206106,1,0,0:0:0:50:soft-hitwhistle.wav
64,192,206106,1,0,0:0:0:0:
320,192,206306,1,0,0:0:0:0:
448,192,206306,1,0,0:0:0:50:soft-hitclap.wav
64,192,206306,1,0,0:0:0:0:
192,192,206706,1,0,0:0:0:0:
192,192,206906,1,0,0:0:0:0:
448,192,207106,1,0,0:0:0:0:
64,192,207106,1,0,0:0:0:0:
320,192,207106,1,0,0:0:0:0:
320,192,207306,1,0,0:0:0:50:soft-hitwhistle.wav
192,192,207306,1,0,0:0:0:0:
192,192,207506,1,0,0:0:0:0:
64,192,207506,1,0,0:0:0:50:soft-hitwhistle.wav
320,192,207706,1,0,0:0:0:0:
448,192,207906,1,0,0:0:0:0:
192,192,207906,1,0,0:0:0:50:soft-hitclap.wav
64,192,207906,1,0,0:0:0:0:
192,192,208306,1,0,0:0:0:0:
192,192,208506,1,0,0:0:0:0:
448,192,208706,1,0,0:0:0:0:
320,192,208706,1,0,0:0:0:50:soft-hitwhistle.wav
64,192,208706,1,0,0:0:0:0:
320,192,208906,1,0,0:0:0:50:soft-hitwhistle.wav
192,192,208906,1,0,0:0:0:0:
192,192,209106,1,0,0:0:0:0:
448,192,209306,1,0,0:0:0:50:soft-hitwhistle.wav
64,192,209306,1,0,0:0:0:0:
64,192,209506,1,0,0:0:0:0:
320,192,209506,1,0,0:0:0:50:soft-hitclap.wav
192,192,209506,1,0,0:0:0:0:
320,192,209906,1,0,0:0:0:0:
320,192,210106,1,0,0:0:0:0:
64,192,210306,1,0,0:0:0:0:
448,192,210506,1,0,0:0:0:50:soft-hitwhistle.wav
192,192,210506,1,0,0:0:0:0:
320,192,210706,1,0,0:0:0:50:soft-hitwhistle.wav
64,192,210706,1,0,0:0:0:0:
192,192,210906,1,0,0:0:0:0:
448,192,211106,1,0,0:0:0:0:
64,192,211106,1,0,0:0:0:0:
320,192,211106,1,0,0:0:0:50:soft-hitclap.wav
192,192,211506,1,0,0:0:0:0:
320,192,211706,1,0,0:0:0:0:
64,192,211906,1,0,0:0:0:0:
192,192,211906,1,0,0:0:0:0:
448,192,211906,1,0,0:0:0:0:
192,192,212306,1,0,0:0:0:0:
320,192,212706,1,0,0:0:0:50:soft-hitclap.wav
64,192,212706,1,0,0:0:0:0:
448,192,212706,1,0,0:0:0:0:
448,192,213106,1,0,0:0:0:0:
320,192,213306,1,0,0:0:0:0:
64,192,213506,1,0,0:0:0:0:
192,192,213506,1,0,0:0:0:50:soft-hitwhistle.wav
192,192,213906,1,0,0:0:0:0:
64,192,213906,1,0,0:0:0:50:soft-hitwhistle.wav
320,192,214106,1,0,0:0:0:0:
192,192,214306,1,0,0:0:0:0:
64,192,214306,1,0,0:0:0:0:
448,192,214306,1,0,0:0:0:50:soft-hitclap.wav
320,192,214706,1,0,0:0:0:0:
192,192,214906,1,0,0:0:0:0:
320,192,215106,1,0,0:0:0:0:
448,192,215106,1,0,0:0:0:0:
64,192,215106,128,0,215372:0:0:0:0:
192,192,215239,128,0,215506:0:0:0:0:
320,192,215372,128,0,215639:0:0:0:0:
64,192,215506,1,0,0:0:0:0:
192,192,215639,1,0,0:0:0:0:
320,192,215772,1,0,0:0:0:0:
448,192,215906,128,0,216172:0:0:0:0:
320,192,216039,128,0,216306:0:0:0:0:
192,192,216172,128,0,216439:0:0:0:0:
448,192,216306,1,0,0:0:0:0:
320,192,216439,1,0,0:0:0:0:
192,192,216572,1,0,0:0:0:0:
448,192,216706,128,0,217906:0:0:0:0:
64,192,216706,128,0,217906:0:0:0:0:
192,192,217506,128,0,217906:0:0:0:0:
320,192,217506,128,0,217906:0:0:0:0:
192,192,218306,1,0,0:0:0:0:
448,192,218306,1,0,0:0:0:50:soft-hitwhistle.wav
320,192,218306,1,0,0:0:0:0:
64,192,218506,1,0,0:0:0:50:soft-hitwhistle.wav
192,192,218506,1,0,0:0:0:0:
192,192,218906,1,0,0:0:0:50:soft-hitwhistle.wav
320,192,218906,1,0,0:0:0:0:
320,192,219106,1,0,0:0:0:0:
448,192,219106,1,0,0:0:0:0:
64,192,219106,1,0,0:0:0:50:soft-hitclap2.wav
192,192,219506,1,0,0:0:0:0:
320,192,219706,1,0,0:0:0:0:
448,192,219906,1,0,0:0:0:0:
64,192,219906,1,0,0:0:0:0:
320,192,220306,1,0,0:0:0:50:soft-hitwhistle.wav
192,192,220306,1,0,0:0:0:0:
64,192,220706,1,0,0:0:0:0:
192,192,220706,1,0,0:0:0:50:soft-hitclap2.wav
448,192,220706,1,0,0:0:0:0:
448,192,221106,1,0,0:0:0:0:
320,192,221306,1,0,0:0:0:0:
192,192,221506,1,0,0:0:0:0:
64,192,221506,1,0,0:0:0:50:soft-hitwhistle.wav
320,192,221706,1,0,0:0:0:50:soft-hitwhistle.wav
448,192,221706,1,0,0:0:0:0:
64,192,221906,1,0,0:0:0:0:
320,192,222106,1,0,0:0:0:50:soft-hitwhistle.wav
192,192,222106,1,0,0:0:0:0:
448,192,222306,1,0,0:0:0:0:
192,192,222306,1,0,0:0:0:50:soft-hitclap2.wav
64,192,222306,1,0,0:0:0:0:
64,192,222706,1,0,0:0:0:0:
192,192,222906,1,0,0:0:0:0:
320,192,223106,1,0,0:0:0:50:soft-hitwhistle.wav
448,192,223106,1,0,0:0:0:0:
192,192,223306,1,0,0:0:0:0:
448,192,223506,1,0,0:0:0:50:soft-hitwhistle.wav
64,192,223506,1,0,0:0:0:0:
320,192,223706,1,0,0:0:0:0:
448,192,223906,1,0,0:0:0:0:
64,192,223906,1,0,0:0:0:0:
192,192,223906,1,0,0:0:0:50:soft-hitclap2.wav
64,192,224306,1,0,0:0:0:0:
192,192,224506,1,0,0:0:0:0:
448,192,224706,1,0,0:0:0:50:soft-hitwhistle.wav
320,192,224706,1,0,0:0:0:0:
192,192,224906,1,0,0:0:0:50:soft-hitwhistle.wav
64,192,224906,1,0,0:0:0:0:
448,192,225106,1,0,0:0:0:0:
192,192,225306,1,0,0:0:0:50:soft-hitwhistle.wav
320,192,225306,1,0,0:0:0:0:
320,192,225506,1,0,0:0:0:0:
64,192,225506,1,0,0:0:0:50:soft-hitclap2.wav
448,192,225506,1,0,0:0:0:0:
448,192,225906,1,0,0:0:0:0:
320,192,226106,1,0,0:0:0:0:
192,192,226306,1,0,0:0:0:0:
64,192,226306,1,0,0:0:0:50:soft-hitwhistle.wav
64,192,226706,1,0,0:0:0:50:soft-hitwhistle.wav
192,192,226706,1,0,0:0:0:0:
320,192,226906,1,0,0:0:0:0:
64,192,227106,1,0,0:0:0:0:
192,192,227106,1,0,0:0:0:50:soft-hitclap2.wav
448,192,227106,1,0,0:0:0:0:
64,192,227506,1,0,0:0:0:0:
192,192,227706,1,0,0:0:0:0:
320,192,227906,1,0,0:0:0:50:soft-hitwhistle.wav
448,192,227906,1,0,0:0:0:0:
64,192,227906,1,0,0:0:0:0:
320,192,228106,1,0,0:0:0:0:
192,192,228106,1,0,0:0:0:50:soft-hitwhistle.wav
448,192,228306,1,0,0:0:0:0:
192,192,228506,1,0,0:0:0:0:
64,192,228506,1,0,0:0:0:50:soft-hitwhistle.wav
320,192,228706,1,0,0:0:0:0:
448,192,228706,1,0,0:0:0:50:soft-hitclap2.wav
64,192,228706,1,0,0:0:0:0:
64,192,229106,1,0,0:0:0:0:
192,192,229306,1,0,0:0:0:0:
320,192,229506,1,0,0:0:0:0:
448,192,229506,1,0,0:0:0:0:
192,192,229706,1,0,0:0:0:0:
64,192,229906,1,0,0:0:0:0:
448,192,229906,1,0,0:0:0:50:soft-hitwhistle.wav
320,192,230039,1,0,0:0:0:0:
192,192,230172,1,0,0:0:0:0:
64,192,230306,1,0,0:0:0:0:
448,192,230306,1,0,0:0:0:50:soft-hitclap2.wav
320,192,230439,1,0,0:0:0:0:
192,192,230572,1,0,0:0:0:0:
64,192,230706,1,0,0:0:0:0:
192,192,230839,1,0,0:0:0:0:
320,192,230972,1,0,0:0:0:0:
64,192,231106,1,0,0:0:0:0:
448,192,231106,1,0,0:0:0:50:soft-hitwhistle.wav
192,192,231306,1,0,0:0:0:0:
320,192,231306,1,0,0:0:0:50:soft-hitwhistle.wav
64,192,231506,1,0,0:0:0:0:
192,192,231706,1,0,0:0:0:50:soft-hitwhistle.wav
320,192,231706,1,0,0:0:0:0:
64,192,231906,1,0,0:0:0:0:
448,192,231906,1,0,0:0:0:50:soft-hitclap2.wav
320,192,231906,1,0,0:0:0:0:
448,192,232306,1,0,0:0:0:0:
320,192,232506,1,0,0:0:0:0:
64,192,232706,1,0,0:0:0:50:soft-hitwhistle.wav
192,192,232706,1,0,0:0:0:0:
320,192,233106,1,0,0:0:0:0:
448,192,233106,1,0,0:0:0:50:soft-hitwhistle.wav
448,192,233506,1,0,0:0:0:50:soft-hitclap2.wav
64,192,233506,1,0,0:0:0:0:
192,192,233506,1,0,0:0:0:0:
320,192,233906,1,0,0:0:0:0:
64,192,234306,1,0,0:0:0:0:
192,192,234306,1,0,0:0:0:50:soft-hitwhistle.wav
320,192,234506,1,0,0:0:0:50:soft-hitwhistle.wav
448,192,234506,1,0,0:0:0:0:
64,192,234706,1,0,0:0:0:0:
192,192,234906,1,0,0:0:0:50:soft-hitwhistle.wav
320,192,234906,1,0,0:0:0:0:
448,192,235106,1,0,0:0:0:50:soft-hitclap2.wav
192,192,235106,1,0,0:0:0:0:
64,192,235106,1,0,0:0:0:0:
320,192,235506,1,0,0:0:0:0:
192,192,235706,1,0,0:0:0:0:
448,192,235906,1,0,0:0:0:0:
64,192,235906,1,0,0:0:0:0:
320,192,236106,1,0,0:0:0:0:
192,192,236306,1,0,0:0:0:50:soft-hitwhistle.wav
64,192,236306,1,0,0:0:0:0:
448,192,236706,1,0,0:0:0:0:
64,192,236706,1,0,0:0:0:0:
320,192,236706,1,0,0:0:0:50:soft-hitclap2.wav
64,192,237106,1,0,0:0:0:0:
192,192,237306,1,0,0:0:0:0:
448,192,237506,1,0,0:0:0:0:
320,192,237506,1,0,0:0:0:50:soft-hitwhistle.wav
64,192,237506,1,0,0:0:0:0:
320,192,237706,1,0,0:0:0:0:
192,192,237706,1,0,0:0:0:50:soft-hitwhistle.wav
448,192,237906,1,0,0:0:0:0:
192,192,238106,1,0,0:0:0:0:
64,192,238106,1,0,0:0:0:50:soft-hitwhistle.wav
320,192,238306,1,0,0:0:0:0:
64,192,238306,1,0,0:0:0:0:
448,192,238306,1,0,0:0:0:50:soft-hitclap2.wav
320,192,238706,1,0,0:0:0:0:
192,192,238906,1,0,0:0:0:0:
64,192,239106,1,0,0:0:0:0:
448,192,239106,1,0,0:0:0:0:
448,192,239506,1,0,0:0:0:0:
320,192,239506,1,0,0:0:0:50:soft-hitwhistle.wav
192,192,239706,1,0,0:0:0:0:
64,192,239906,1,0,0:0:0:50:soft-hitclap2.wav
448,192,239906,1,0,0:0:0:0:
320,192,239906,1,0,0:0:0:0:
192,192,240306,1,0,0:0:0:0:
320,192,240506,1,0,0:0:0:0:
448,192,240706,1,0,0:0:0:50:soft-hitwhistle.wav
64,192,240706,1,0,0:0:0:0:
192,192,240906,1,0,0:0:0:0:
320,192,240906,1,0,0:0:0:50:soft-hitwhistle.wav
448,192,241106,1,0,0:0:0:0:
192,192,241306,1,0,0:0:0:50:soft-hitwhistle.wav
64,192,241306,1,0,0:0:0:0:
320,192,241506,1,0,0:0:0:0:
64,192,241506,1,0,0:0:0:50:soft-hitclap2.wav
448,192,241506,1,0,0:0:0:0:
448,192,241906,1,0,0:0:0:0:
64,192,242106,1,0,0:0:0:0:
448,192,242306,1,0,0:0:0:0:
192,192,242306,1,0,0:0:0:0:
320,192,242506,1,0,0:0:0:0:
448,192,242706,1,0,0:0:0:50:soft-hitwhistle.wav
64,192,242706,1,0,0:0:0:0:
192,192,242906,1,0,0:0:0:0:
448,192,243106,1,0,0:0:0:0:
320,192,243106,1,0,0:0:0:50:soft-hitclap2.wav
64,192,243106,1,0,0:0:0:0:
64,192,243506,1,0,0:0:0:0:
192,192,243506,1,0,0:0:0:50:soft-hitwhistle.wav
320,192,243706,1,0,0:0:0:0:
448,192,243906,1,0,0:0:0:50:soft-hitclap2.wav
192,192,243906,1,0,0:0:0:0:
64,192,243906,1,0,0:0:0:0:
320,192,244306,1,0,0:0:0:0:
448,192,244706,1,0,0:0:0:0:
192,192,244706,1,0,0:0:0:0:
320,192,244706,1,0,0:0:0:50:soft-hitclap2.wav
64,192,245106,1,0,0:0:0:0:
192,192,245306,1,0,0:0:0:0:
448,192,245506,1,0,0:0:0:0:
320,192,245506,1,0,0:0:0:0:
192,192,245906,1,0,0:0:0:50:soft-hitwhistle.wav
64,192,245906,1,0,0:0:0:0:
320,192,246106,1,0,0:0:0:0:
448,192,246306,1,0,0:0:0:50:soft-hitclap2.wav
64,192,246306,1,0,0:0:0:0:
192,192,246306,1,0,0:0:0:0:
448,192,246706,1,0,0:0:0:0:
320,192,246906,1,0,0:0:0:0:
64,192,247106,1,0,0:0:0:0:
192,192,247106,1,0,0:0:0:50:soft-hitwhistle.wav
448,192,247506,1,0,0:0:0:0:
320,192,247906,1,0,0:0:0:50:soft-hitclap2.wav
64,192,247906,1,0,0:0:0:0:
448,192,247906,1,0,0:0:0:0:
192,192,248306,1,0,0:0:0:0:
320,192,248506,1,0,0:0:0:0:
448,192,248706,1,0,0:0:0:0:
64,192,248706,1,0,0:0:0:0:
192,192,248906,1,0,0:0:0:0:
64,192,249106,1,0,0:0:0:0:
320,192,249106,1,0,0:0:0:50:soft-hitwhistle.wav
320,192,249306,1,0,0:0:0:0:
448,192,249506,1,0,0:0:0:0:
192,192,249506,1,0,0:0:0:50:soft-hitclap2.wav
64,192,249506,1,0,0:0:0:0:
448,192,249906,1,0,0:0:0:0:
192,192,250106,1,0,0:0:0:0:
320,192,250306,1,0,0:0:0:70:soft-hitwhistle.wav
448,192,250306,1,0,0:0:0:0:
64,192,250306,1,0,0:0:0:0:
320,192,250706,1,0,0:0:0:0:
192,192,250706,1,0,0:0:0:0:
448,192,251106,1,0,0:0:0:0:
64,192,251106,1,0,0:0:0:0:
192,192,251106,1,0,0:0:0:50:soft-hitclap2.wav
320,192,251506,1,0,0:0:0:0:
192,192,251706,1,0,0:0:0:0:
448,192,251906,1,0,0:0:0:50:soft-hitwhistle.wav
64,192,251906,1,0,0:0:0:0:
448,192,252306,1,0,0:0:0:0:
320,192,252306,1,0,0:0:0:50:soft-hitwhistle.wav
192,192,252506,1,0,0:0:0:0:
448,192,252706,1,0,0:0:0:0:
64,192,252706,1,0,0:0:0:50:soft-hitclap2.wav
320,192,252706,1,0,0:0:0:0:
192,192,253106,1,0,0:0:0:0:
320,192,253306,1,0,0:0:0:0:
448,192,253506,1,0,0:0:0:50:soft-hitwhistle.wav
64,192,253506,1,0,0:0:0:0:
320,192,253906,1,0,0:0:0:0:
320,192,254306,1,0,0:0:0:0:
192,192,254306,1,0,0:0:0:50:soft-hitclap2.wav
448,192,254306,1,0,0:0:0:0:
64,192,254706,1,0,0:0:0:0:
448,192,254906,1,0,0:0:0:0:
320,192,255106,1,0,0:0:0:50:soft-hitwhistle.wav
64,192,255106,1,0,0:0:0:0:
192,192,255306,1,0,0:0:0:0:
448,192,255506,1,0,0:0:0:0:
64,192,255506,1,0,0:0:0:50:soft-hitwhistle.wav
320,192,255706,1,0,0:0:0:0:
448,192,255906,1,0,0:0:0:0:
64,192,255906,1,0,0:0:0:0:
192,192,255906,1,0,0:0:0:50:soft-hitclap2.wav
192,192,256306,1,0,0:0:0:0:
320,192,256506,1,0,0:0:0:0:
64,192,256706,1,0,0:0:0:0:
192,192,256706,1,0,0:0:0:50:soft-hitwhistle.wav
448,192,256706,1,0,0:0:0:50:soft-hitfinish.wav
192,192,257106,1,0,0:0:0:0:
448,192,257506,1,0,0:0:0:0:
320,192,257506,1,0,0:0:0:50:soft-hitclap2.wav
64,192,257506,1,0,0:0:0:0:
320,192,257906,1,0,0:0:0:0:
192,192,258106,1,0,0:0:0:0:
448,192,258306,1,0,0:0:0:0:
64,192,258306,1,0,0:0:0:0:
192,192,258706,1,0,0:0:0:50:soft-hitwhistle.wav
64,192,258706,1,0,0:0:0:0:
320,192,258906,1,0,0:0:0:0:
448,192,259106,1,0,0:0:0:0:
64,192,259106,1,0,0:0:0:0:
192,192,259106,1,0,0:0:0:50:soft-hitclap2.wav
320,192,259506,1,0,0:0:0:0:
64,192,259706,1,0,0:0:0:0:
320,192,259906,1,0,0:0:0:50:soft-hitwhistle.wav
192,192,259906,1,0,0:0:0:0:
448,192,259906,1,0,0:0:0:0:
192,192,260306,1,0,0:0:0:0:
448,192,260706,1,0,0:0:0:0:
64,192,260706,1,0,0:0:0:0:
320,192,260706,1,0,0:0:0:50:soft-hitclap2.wav
320,192,261106,1,0,0:0:0:0:
192,192,261306,1,0,0:0:0:0:
64,192,261506,1,0,0:0:0:0:
448,192,261506,1,0,0:0:0:0:
320,192,261506,1,0,0:0:0:50:soft-hitwhistle.wav
192,192,261706,1,0,0:0:0:0:
320,192,261906,1,0,0:0:0:50:soft-hitwhistle.wav
448,192,261906,1,0,0:0:0:0:
320,192,262306,1,0,0:0:0:0:
64,192,262306,1,0,0:0:0:0:
192,192,262306,1,0,0:0:0:50:soft-hitclap2.wav
192,192,262706,1,0,0:0:0:0:
320,192,262906,1,0,0:0:0:0:
448,192,263106,1,0,0:0:0:50:soft-hitwhistle.wav
64,192,263106,1,0,0:0:0:0:
320,192,263506,1,0,0:0:0:0:
192,192,263506,1,0,0:0:0:0:
320,192,263906,1,0,0:0:0:50:soft-hitclap2.wav
64,192,263906,1,0,0:0:0:0:
448,192,263906,1,0,0:0:0:0:
448,192,264306,1,0,0:0:0:0:
64,192,264306,1,0,0:0:0:0:
192,192,264506,1,0,0:0:0:0:
320,192,264706,1,0,0:0:0:50:soft-hitwhistle.wav
448,192,264706,1,0,0:0:0:0:
192,192,265106,1,0,0:0:0:50:soft-hitwhistle.wav
64,192,265106,1,0,0:0:0:0:
320,192,265306,1,0,0:0:0:0:
448,192,265506,1,0,0:0:0:0:
64,192,265506,1,0,0:0:0:50:soft-hitclap2.wav
192,192,265506,1,0,0:0:0:0:
320,192,265906,1,0,0:0:0:0:
192,192,266106,1,0,0:0:0:0:
448,192,266306,1,0,0:0:0:50:soft-hitwhistle.wav
320,192,266306,1,0,0:0:0:0:
192,192,266706,1,0,0:0:0:0:
320,192,267106,1,0,0:0:0:50:soft-hitclap2.wav
64,192,267106,1,0,0:0:0:0:
448,192,267106,1,0,0:0:0:0:
64,192,267506,1,0,0:0:0:0:
192,192,267706,1,0,0:0:0:0:
320,192,267906,1,0,0:0:0:0:
448,192,267906,1,0,0:0:0:0:
192,192,268106,1,0,0:0:0:0:
448,192,268306,1,0,0:0:0:50:soft-hitwhistle.wav
64,192,268306,1,0,0:0:0:0:
192,192,268706,1,0,0:0:0:0:
320,192,268706,1,0,0:0:0:50:soft-hitclap2.wav
448,192,268706,1,0,0:0:0:0:
64,192,269106,1,0,0:0:0:0:
192,192,269306,1,0,0:0:0:0:
320,192,269506,1,0,0:0:0:0:
320,192,270306,1,0,0:0:0:0:
192,192,271106,1,0,0:0:0:0:
192,192,271906,1,0,0:0:0:0:
448,192,272706,1,0,0:0:0:0:
64,192,272706,128,0,275906:0:0:0:0:
448,192,273506,1,0,0:0:0:0:
320,192,274306,1,0,0:0:0:0:
320,192,275106,1,0,0:0:0:0:
320,192,275906,1,0,0:0:0:0:
192,192,275906,128,0,277506:0:0:0:50:twinkling.wav
448,192,277506,1,0,0:0:0:0:
64,192,277506,128,0,279106:0:0:0:0:
192,192,279106,1,0,0:0:0:0:
320,192,279106,128,0,280706:0:0:0:0:
64,192,280706,1,0,0:0:0:0:
448,192,280706,128,0,281506:0:0:0:0:
192,192,281506,128,0,282306:0:0:0:0:
320,192,281506,1,0,0:0:0:0:
448,192,282306,1,0,0:0:0:0:
64,192,282306,128,0,283906:0:0:0:0:
448,192,283906,1,0,0:0:0:0:
192,192,283906,128,0,285506:0:0:0:0:
64,192,285506,1,0,0:0:0:0:
448,192,285506,128,0,287106:0:0:0:0:
320,192,287106,1,0,0:0:0:0:
64,192,287106,128,0,288706:0:0:0:0:
192,192,288706,1,0,0:0:0:0:
448,192,288706,128,0,291906:0:0:0:0:
192,192,289506,1,0,0:0:0:0:
64,192,290306,1,0,0:0:0:0:
320,192,290306,1,0,0:0:0:0:
320,192,291106,1,0,0:0:0:0:
64,192,291906,128,0,293506:0:0:0:0:
192,192,291906,1,0,0:0:0:0:
192,192,292706,1,0,0:0:0:0:
448,192,293506,128,0,295106:0:0:0:0:
320,192,293506,1,0,0:0:0:0:
320,192,294306,1,0,0:0:0:0:
192,192,295106,128,0,298306:0:0:0:0:
64,192,295106,1,0,0:0:0:0:
64,192,295906,1,0,0:0:0:0:
448,192,296706,1,0,0:0:0:0:
448,192,297506,1,0,0:0:0:0:
448,192,298306,128,0,300706:0:0:0:0:
320,192,298306,1,0,0:0:0:0:
320,192,299106,1,0,0:0:0:0:
192,192,299906,1,0,0:0:0:0:
64,192,299906,1,0,0:0:0:0:
64,192,300706,1,0,0:0:0:0:
320,192,300706,1,0,0:0:0:0:
448,192,301506,1,0,0:0:0:0:
192,192,301506,1,0,0:0:0:50:soft-hitwhistle.wav
64,192,301506,1,0,0:0:0:50:soft-hitfinish.wav
320,192,301706,1,0,0:0:0:50:soft-hitwhistle.wav
192,192,301706,1,0,0:0:0:0:
320,192,302106,1,0,0:0:0:50:soft-hitwhistle.wav
192,192,302106,1,0,0:0:0:0:
448,192,302306,1,0,0:0:0:50:soft-hitclap2.wav
192,192,302306,1,0,0:0:0:0:
64,192,302306,1,0,0:0:0:0:
192,192,302706,1,0,0:0:0:0:
448,192,302906,1,0,0:0:0:0:
192,192,303106,1,0,0:0:0:0:
64,192,303106,1,0,0:0:0:0:
448,192,303506,1,0,0:0:0:0:
320,192,303506,1,0,0:0:0:50:soft-hitwhistle.wav
192,192,303706,1,0,0:0:0:0:
448,192,303906,1,0,0:0:0:0:
64,192,303906,1,0,0:0:0:50:soft-hitclap2.wav
320,192,303906,1,0,0:0:0:0:
64,192,304306,1,0,0:0:0:0:
192,192,304506,1,0,0:0:0:0:
320,192,304706,1,0,0:0:0:50:soft-hitwhistle.wav
448,192,304706,1,0,0:0:0:0:
192,192,304906,1,0,0:0:0:0:
64,192,304906,1,0,0:0:0:50:soft-hitwhistle.wav
448,192,305106,1,0,0:0:0:0:
320,192,305306,1,0,0:0:0:50:soft-hitwhistle.wav
192,192,305306,1,0,0:0:0:0:
64,192,305506,1,0,0:0:0:0:
320,192,305506,1,0,0:0:0:50:soft-hitclap2.wav
448,192,305506,1,0,0:0:0:0:
192,192,305906,1,0,0:0:0:0:
320,192,306106,1,0,0:0:0:0:
448,192,306306,1,0,0:0:0:0:
64,192,306306,1,0,0:0:0:0:
192,192,306506,1,0,0:0:0:0:
320,192,306706,1,0,0:0:0:50:soft-hitwhistle.wav
448,192,306706,1,0,0:0:0:0:
192,192,306906,1,0,0:0:0:0:
448,192,307106,1,0,0:0:0:0:
64,192,307106,1,0,0:0:0:50:soft-hitclap2.wav
320,192,307106,1,0,0:0:0:0:
448,192,307506,1,0,0:0:0:0:
320,192,307706,1,0,0:0:0:0:
192,192,307906,1,0,0:0:0:50:soft-hitwhistle.wav
64,192,307906,1,0,0:0:0:0:
448,192,308106,1,0,0:0:0:50:soft-hitwhistle.wav
320,192,308106,1,0,0:0:0:0:
64,192,308306,1,0,0:0:0:0:
192,192,308506,1,0,0:0:0:50:soft-hitwhistle.wav
320,192,308506,1,0,0:0:0:0:
320,192,308706,1,0,0:0:0:0:
64,192,308706,1,0,0:0:0:50:soft-hitclap2.wav
448,192,308706,1,0,0:0:0:0:
320,192,309106,1,0,0:0:0:0:
64,192,309306,1,0,0:0:0:0:
448,192,309506,1,0,0:0:0:0:
320,192,309506,1,0,0:0:0:0:
320,192,309906,1,0,0:0:0:50:soft-hitwhistle.wav
448,192,309906,1,0,0:0:0:0:
192,192,310106,1,0,0:0:0:0:
448,192,310306,1,0,0:0:0:0:
64,192,310306,1,0,0:0:0:50:soft-hitclap2.wav
320,192,310306,1,0,0:0:0:0:
64,192,310706,1,0,0:0:0:0:
192,192,310906,1,0,0:0:0:0:
448,192,311106,1,0,0:0:0:50:soft-hitwhistle.wav
320,192,311106,1,0,0:0:0:0:
192,192,311306,1,0,0:0:0:50:soft-hitwhistle.wav
64,192,311306,1,0,0:0:0:0:
448,192,311506,1,0,0:0:0:0:
320,192,311706,1,0,0:0:0:0:
192,192,311706,1,0,0:0:0:50:soft-hitwhistle.wav
448,192,311906,1,0,0:0:0:0:
320,192,311906,1,0,0:0:0:0:
64,192,311906,1,0,0:0:0:50:soft-hitclap2.wav
64,192,312306,1,0,0:0:0:0:
192,192,312506,1,0,0:0:0:0:
448,192,312706,1,0,0:0:0:0:
320,192,312706,1,0,0:0:0:0:
192,192,312906,1,0,0:0:0:0:
64,192,313106,1,0,0:0:0:0:
448,192,313106,128,0,314306:0:0:0:50:twinkling.wav
192,192,313239,1,0,0:0:0:0:
320,192,313372,1,0,0:0:0:0:
192,192,313506,1,0,0:0:0:0:
64,192,313506,1,0,0:0:0:50:soft-hitclap2.wav
320,192,313639,1,0,0:0:0:0:
64,192,313772,1,0,0:0:0:0:
192,192,313906,1,0,0:0:0:0:
320,192,314039,1,0,0:0:0:0:
64,192,314172,1,0,0:0:0:0:
192,192,314306,1,0,0:0:0:0:
320,192,314306,1,0,0:0:0:50:soft-hitwhistle.wav
192,192,314506,1,0,0:0:0:50:soft-hitwhistle.wav
448,192,314506,1,0,0:0:0:0:
192,192,314906,1,0,0:0:0:50:soft-hitwhistle.wav
320,192,314906,1,0,0:0:0:0:
320,192,315106,1,0,0:0:0:0:
64,192,315106,1,0,0:0:0:0:
448,192,315106,1,0,0:0:0:50:soft-hitclap2.wav
192,192,315506,1,0,0:0:0:0:
320,192,315706,1,0,0:0:0:0:
192,192,315906,1,0,0:0:0:50:soft-hitwhistle.wav
64,192,315906,1,0,0:0:0:0:
320,192,316306,1,0,0:0:0:0:
192,192,316306,1,0,0:0:0:50:soft-hitwhistle.wav
448,192,316706,1,0,0:0:0:0:
64,192,316706,1,0,0:0:0:50:soft-hitclap2.wav
192,192,316706,1,0,0:0:0:0:
448,192,317106,1,0,0:0:0:0:
320,192,317306,1,0,0:0:0:0:
192,192,317506,1,0,0:0:0:50:soft-hitwhistle.wav
64,192,317506,1,0,0:0:0:0:
320,192,317706,1,0,0:0:0:0:
448,192,317706,1,0,0:0:0:50:soft-hitwhistle.wav
64,192,317906,1,0,0:0:0:0:
192,192,318106,1,0,0:0:0:50:soft-hitwhistle.wav
320,192,318106,1,0,0:0:0:0:
448,192,318306,1,0,0:0:0:0:
320,192,318306,1,0,0:0:0:0:
64,192,318306,1,0,0:0:0:50:soft-hitclap2.wav
320,192,318706,1,0,0:0:0:0:
192,192,318906,1,0,0:0:0:0:
448,192,319106,1,0,0:0:0:0:
320,192,319106,1,0,0:0:0:0:
64,192,319306,1,0,0:0:0:0:
320,192,319506,1,0,0:0:0:0:
192,192,319506,1,0,0:0:0:50:soft-hitwhistle.wav
448,192,319906,1,0,0:0:0:0:
64,192,319906,1,0,0:0:0:0:
320,192,319906,1,0,0:0:0:50:soft-hitclap2.wav
64,192,320306,1,0,0:0:0:0:
192,192,320506,1,0,0:0:0:0:
320,192,320706,1,0,0:0:0:50:soft-hitwhistle.wav
448,192,320706,1,0,0:0:0:0:
192,192,320906,1,0,0:0:0:50:soft-hitwhistle.wav
64,192,320906,1,0,0:0:0:0:
448,192,321106,1,0,0:0:0:0:
192,192,321306,1,0,0:0:0:0:
320,192,321306,1,0,0:0:0:50:soft-hitwhistle.wav
448,192,321506,1,0,0:0:0:50:soft-hitclap2.wav
192,192,321506,1,0,0:0:0:0:
64,192,321506,1,0,0:0:0:0:
192,192,321906,1,0,0:0:0:0:
320,192,322106,1,0,0:0:0:0:
192,192,322306,1,0,0:0:0:0:
64,192,322306,1,0,0:0:0:0:
448,192,322706,1,0,0:0:0:0:
320,192,322706,1,0,0:0:0:50:soft-hitwhistle.wav
192,192,322906,1,0,0:0:0:0:
448,192,323106,1,0,0:0:0:0:
64,192,323106,1,0,0:0:0:50:soft-hitclap2.wav
320,192,323106,1,0,0:0:0:0:
320,192,323506,1,0,0:0:0:0:
192,192,323706,1,0,0:0:0:0:
448,192,323906,1,0,0:0:0:0:
320,192,323906,1,0,0:0:0:50:soft-hitwhistle.wav
192,192,324106,1,0,0:0:0:50:soft-hitwhistle.wav
64,192,324106,1,0,0:0:0:0:
448,192,324306,1,0,0:0:0:0:
192,192,324506,1,0,0:0:0:0:
64,192,324506,1,0,0:0:0:50:soft-hitwhistle.wav
320,192,324706,1,0,0:0:0:0:
64,192,324706,1,0,0:0:0:0:
448,192,324706,1,0,0:0:0:50:soft-hitclap2.wav
448,192,325106,1,0,0:0:0:0:
64,192,325306,1,0,0:0:0:0:
192,192,325506,1,0,0:0:0:0:
320,192,325506,1,0,0:0:0:0:
448,192,325706,1,0,0:0:0:0:
64,192,325906,1,0,0:0:0:0:
192,192,325906,1,0,0:0:0:50:soft-hitwhistle.wav
64,192,326306,1,0,0:0:0:50:soft-hitclap2.wav
448,192,326306,1,0,0:0:0:0:
320,192,326306,1,0,0:0:0:0:
64,192,326506,1,0,0:0:0:0:
192,192,326506,1,0,0:0:0:0:
320,192,326706,1,0,0:0:0:0:
448,192,326706,1,0,0:0:0:0:
192,192,326906,1,0,0:0:0:0:
64,192,327106,128,0,329506:0:0:0:0:
448,192,327106,1,0,0:0:0:0:
192,192,327506,1,0,0:0:0:0:
320,192,327906,1,0,0:0:0:0:
448,192,328306,1,0,0:0:0:0:
320,192,328706,1,0,0:0:0:0:
192,192,329106,1,0,0:0:0:0:
320,192,329506,1,0,0:0:0:70:soft-hitfinish.wav
192,192,329506,128,0,330306:0:0:0:0:
448,192,329906,1,0,0:0:0:0:
448,192,330306,1,0,0:0:0:0:
320,192,330306,128,0,331706:0:0:0:0:
192,192,330706,1,0,0:0:0:0:
64,192,331106,1,0,0:0:0:0:
192,192,331506,1,0,0:0:0:0:
448,192,331706,128,0,335906:0:0:0:0:
64,192,331906,1,0,0:0:0:0:
192,192,332306,1,0,0:0:0:0:
64,192,332706,1,0,0:0:0:50:soft-hitfinish.wav
320,192,332706,1,0,0:0:0:0:
192,192,333106,1,0,0:0:0:0:
320,192,333506,1,0,0:0:0:0:
192,192,333906,1,0,0:0:0:0:
192,192,334306,1,0,0:0:0:0:
64,192,334356,1,0,0:0:0:0:
320,192,334706,1,0,0:0:0:0:
64,192,335106,1,0,0:0:0:0:
192,192,335506,1,0,0:0:0:0:
64,192,335906,1,0,0:0:0:50:soft-hitfinish.wav
320,192,335906,128,0,336206:0:0:0:0:
192,192,336206,128,0,336506:0:0:0:0:
64,192,336506,128,0,336706:0:0:0:0:
448,192,336706,1,0,0:0:0:0:
192,192,336706,128,0,337906:0:0:0:0:
320,192,337106,1,0,0:0:0:0:
64,192,337506,1,0,0:0:0:0:
320,192,337906,1,0,0:0:0:0:
448,192,337906,128,0,342306:0:0:0:0:
64,192,338306,1,0,0:0:0:0:
192,192,338706,1,0,0:0:0:0:
320,192,339106,1,0,0:0:0:50:soft-hitfinish.wav
64,192,339106,1,0,0:0:0:0:
192,192,339506,1,0,0:0:0:0:
320,192,339906,1,0,0:0:0:0:
64,192,340306,1,0,0:0:0:0:
192,192,340706,1,0,0:0:0:0:
320,192,341106,1,0,0:0:0:0:
64,192,341506,1,0,0:0:0:0:
192,192,341906,1,0,0:0:0:0:
64,192,342306,1,0,0:0:0:50:soft-hitfinish.wav
320,192,342306,128,0,342706:0:0:0:0:
448,192,342706,1,0,0:0:0:0:
64,192,342706,128,0,343106:0:0:0:0:
320,192,343106,1,0,0:0:0:0:
192,192,343106,128,0,345106:0:0:0:0:
64,192,343506,1,0,0:0:0:0:
320,192,343906,1,0,0:0:0:0:
448,192,344306,1,0,0:0:0:0:
320,192,344706,1,0,0:0:0:0:
320,192,345106,128,0,345506:0:0:0:0:
192,192,345506,1,0,0:0:0:50:soft-hitfinish.wav
448,192,345506,128,0,345906:0:0:0:0:
64,192,345906,128,0,346306:0:0:0:0:
320,192,346306,1,0,0:0:0:0:
192,192,346306,128,0,352706:0:0:0:0:
448,192,346706,1,0,0:0:0:0:
64,192,347106,1,0,0:0:0:0:
448,192,347506,1,0,0:0:0:0:
320,192,347906,1,0,0:0:0:0:
64,192,348306,1,0,0:0:0:0:
320,192,348706,1,0,0:0:0:0:
448,192,348706,1,0,0:0:0:50:soft-hitfinish.wav
64,192,349106,1,0,0:0:0:0:
448,192,349506,1,0,0:0:0:0:
320,192,349906,1,0,0:0:0:0:
64,192,350306,1,0,0:0:0:0:
448,192,350706,1,0,0:0:0:0:
320,192,351106,1,0,0:0:0:0:
448,192,351506,1,0,0:0:0:0:
448,192,351906,1,0,0:0:0:50:soft-hitfinish.wav
320,192,351906,1,0,0:0:0:0:
64,192,352306,128,0,352706:0:0:0:0:
