osu file format v14

[General]
AudioFilename: audio.mp3
AudioLeadIn: 0
PreviewTime: -1
Countdown: 1
SampleSet: Soft
StackLeniency: 0.7
Mode: 0
LetterboxInBreaks: 0
WidescreenStoryboard: 0

[Editor]
Bookmarks: 2179
DistanceSpacing: 1
BeatDivisor: 4
GridSize: 4
TimelineZoom: 1

[Metadata]
Title:Suki (Re:Zero kara Hajimeru Isekai Seikatsu)
TitleUnicode:Suki (Re:Zero kara Hajimeru Isekai Seikatsu)
Artist:Rem
ArtistUnicode:Rem
Creator:XxJepxX
Version:Insane
Source:Re:Zero kara Hajimeru Isekai Seikatsu Episode 18
Tags:Re:Zero kara Hajimeru Isekai Seikatsu
BeatmapID:1078517
BeatmapSetID:507030

[Difficulty]
HPDrainRate:7
CircleSize:4
OverallDifficulty:10
ApproachRate:8
SliderMultiplier:1.59999990463257
SliderTickRate:2

[Events]
//Background and Video events
Video,0,"Love.mp4"
0,0,"thumb-1920-698825.jpg",0,0
//Break Periods
//Storyboard Layer 0 (Background)
//Storyboard Layer 1 (Fail)
//Storyboard Layer 2 (Pass)
//Storyboard Layer 3 (Foreground)
//Storyboard Sound Samples

[TimingPoints]
2374.06142275597,272.727272727273,4,2,0,100,1,0

[HitObjects]
140,224,16692,5,0,3:0:0:0:
140,224,16828,2,0,P|148:276|188:296,1,79.9999952316285,0|0,3:0|0:0,0:0:0:0:
216,232,17237,1,0,0:0:0:0:
368,224,17510,5,0,3:0:0:0:
368,224,17646,2,0,P|360:276|320:296,1,79.9999952316285,0|0,3:0|0:0,0:0:0:0:
292,232,18055,1,0,0:0:0:0:
256,36,18328,1,0,0:0:0:0:
192,236,18601,1,0,0:0:0:0:
368,120,18874,1,0,2:0:0:0:
160,120,19146,1,0,3:0:0:0:
352,224,19419,5,0,2:0:0:0:
348,220,19555,2,0,P|336:284|296:292,1,79.9999952316285
164,288,19964,1,0,2:0:0:0:
164,288,20100,2,0,P|156:220|168:196,1,79.9999952316285
148,72,20510,1,0,2:0:0:0:
360,72,20783,1,0,2:0:0:0:
256,168,21055,2,0,L|256:268,2,79.9999952316285,0|0|0,0:0|0:0|3:0,0:0:0:0:
256,20,21601,6,0,L|256:100,2,79.9999952316285
164,220,22146,1,0,0:0:0:0:
376,220,22419,1,0,3:0:0:0:
172,272,22692,1,0,0:0:0:0:
348,156,22964,1,0,0:0:0:0:
224,324,23237,1,0,0:0:0:0:
284,124,23510,1,0,3:0:0:0:
296,332,23783,1,0,0:0:0:0:
220,136,24055,1,0,0:0:0:0:
356,296,24328,1,0,0:0:0:0:
176,184,24601,1,0,3:0:0:0:
380,232,24874,1,0,0:0:0:0:
172,256,25146,5,0,0:0:0:0:
348,140,25419,2,0,P|436:88|412:44,1,159.999990463257,0|0,0:0|3:0,0:0:0:0:
196,48,25964,1,0,0:0:0:0:
16,156,26237,1,0,0:0:0:0:
204,248,26510,1,0,0:0:0:0:
84,72,26783,1,0,3:0:0:0:
308,68,27055,1,0,0:0:0:0:
420,248,27328,1,0,0:0:0:0:
204,248,27601,1,0,0:0:0:0:
84,72,27874,1,0,0:0:0:0:
0,228,28146,1,0,0:0:0:0:
228,240,28419,6,0,L|60:240,1,159.999990463257
40,244,28828,1,0,0:0:0:0:
40,244,28964,2,0,L|204:140,1,159.999990463257
195,130,29374,1,0,0:0:0:0:
195,130,29510,2,0,L|20:132,1,159.999990463257
196,48,30055,1,0,3:0:0:0:
196,48,30192,2,0,L|284:20,2,79.9999952316285
196,48,30601,1,0,0:0:0:0:
196,128,30874,2,0,L|60:224,1,159.999990463257,0|0,3:0|3:0,3:0:0:0:
20,248,31419,1,0,0:0:0:0:
168,308,31692,2,0,L|356:308,1,159.999990463257
440,204,32237,1,0,3:0:0:0:
440,96,32510,6,0,L|260:96,1,159.999990463257
64,108,33055,2,0,P|72:236|116:248,1,159.999990463257,0|0,0:0|3:0,0:0:0:0:
260,260,33601,2,0,P|360:168|356:136,1,159.999990463257
200,100,34146,1,0,0:0:0:0:
284,100,34419,1,0,3:0:0:0:
144,240,34964,5,0,0:0:0:0:
356,240,35237,1,0,0:0:0:0:
316,48,35510,1,0,0:0:0:0:
316,48,35646,2,0,P|372:36|384:80,2,79.9999952316285
260,104,36055,2,0,L|130:216,1,159.999990463257
121,265,36601,1,0,3:0:0:0:
121,265,37146,5,0,0:0:0:0:
120,140,37419,2,0,L|276:36,1,159.999990463257
296,148,37964,2,0,L|144:252,1,159.999990463257
121,265,38510,1,0,0:0:0:0:
332,268,38783,1,0,3:0:0:0:
220,92,39055,1,0,0:0:0:0:
444,120,39328,6,0,P|480:208|408:212,1,159.999990463257
216,228,39874,2,0,P|164:172|240:128,1,159.999990463257,0|0,3:0|0:0,0:0:0:0:
412,172,40419,2,0,L|237:173,1,159.999990463257
224,176,40828,2,0,L|107:177,1,79.9999952316285,0|0,0:0|3:0,0:0:0:0:
20,180,41237,1,0,0:0:0:0:
20,180,41510,1,0,0:0:0:0:
256,192,41646,12,0,43146,3:0:0:0:
256,152,43419,5,0,0:0:0:0:
356,188,43692,2,0,P|344:252|164:200,1,319.999980926514,0|0,0:0|3:0,0:0:0:0:
256,64,44510,1,0,0:0:0:0:
320,176,44646,2,0,L|320:88,1,79.9999952316285
188,88,44919,2,0,L|188:192,1,79.9999952316285
256,216,45328,1,0,3:0:0:0:
256,28,45874,5,0,0:0:0:0:
200,120,46146,2,0,L|376:200,1,159.999990463257,0|0,0:0|3:0,0:0:0:0:
368,200,46692,1,0,0:0:0:0:
324,268,46964,2,0,L|148:188,1,159.999990463257
134,178,47510,1,0,3:0:0:0:
204,80,47783,1,0,0:0:0:0:
300,68,48055,6,0,P|396:56|392:80,1,159.999990463257
312,144,48601,2,0,P|408:156|404:132,1,159.999990463257
432,136,49010,1,0,0:0:0:0:
452,148,49146,2,0,P|460:200|388:280,1,159.999990463257
368,280,49555,1,0,0:0:0:0:
336,280,49692,2,0,P|276:260|228:180,1,159.999990463257
224,156,50101,1,0,0:0:0:0:
224,116,50237,6,0,P|224:44|128:32,1,159.999990463257
112,80,50646,2,0,L|112:164,1,79.9999952316285
36,240,50919,2,0,L|40:124,1,79.9999952316285
32,120,51192,1,0,0:0:0:0:
0,48,51328,2,0,L|56:4,2,79.9999952316285,0|0|0,0:0|0:0|3:0,0:0:0:0:
108,52,51874,2,0,L|268:88,1,159.999990463257
256,88,52419,5,0,0:3:0:0:
340,192,52692,1,0,0:0:0:0:
252,280,52964,1,0,3:0:0:0:
176,192,53237,1,0,0:0:0:0:
256,88,53510,1,0,0:0:0:0:
336,192,53783,1,0,0:0:0:0:
252,280,54055,1,0,3:0:0:0:
176,184,54328,2,0,L|176:88,2,79.9999952316285
256,88,54874,1,0,0:0:0:0:
336,192,55146,1,0,3:0:0:0:
252,272,55419,1,0,0:0:0:0:
240,284,55692,6,0,L|80:196,1,159.999990463257
68,196,56237,2,0,L|220:96,1,159.999990463257,0|0,3:0|0:0,0:0:0:0:
220,96,56646,1,0,0:0:0:0:
240,88,56783,2,0,L|412:172,1,159.999990463257
424,176,57192,1,0,0:0:0:0:
446,191,57328,2,0,L|304:264,1,159.999990463257
276,272,57737,1,0,0:0:0:0:
255,276,57874,2,0,L|80:200,1,159.999990463257
256,92,58419,1,0,3:0:0:0:
400,272,58692,5,0,0:0:0:0:
124,272,58964,1,0,0:0:0:0:
256,92,59237,1,0,0:0:0:0:
256,276,59510,1,0,3:0:0:0:
392,92,59783,1,0,0:0:0:0:
132,92,60055,1,0,0:0:0:0:
256,276,60328,1,0,0:0:0:0:
256,276,60601,1,0,3:0:0:0:
256,152,60874,1,0,0:0:0:0:
92,256,61146,6,0,L|92:80,1,159.999990463257
160,84,61692,2,0,L|160:252,1,159.999990463257,0|0,3:0|0:0,0:0:0:0:
232,160,62237,1,0,0:0:0:0:
232,232,62510,2,0,L|232:320,2,79.9999952316285,0|0|0,3:0|0:0|0:0,0:0:0:0:
308,160,63055,1,0,0:0:0:0:
376,96,63328,2,0,L|376:272,1,159.999990463257
456,152,63874,2,0,L|456:240,2,79.9999952316285
452,148,64283,1,0,0:0:0:0:
452,148,64419,1,0,0:0:0:0:
356,144,64692,1,0,0:0:0:0:
256,192,64964,1,0,3:0:0:0:
104,192,65237,2,0,L|104:280,2,79.9999952316285
256,192,65783,1,0,0:0:0:0:
400,92,66055,1,0,3:0:0:0:
152,72,66328,5,0,0:0:0:0:
236,64,66601,2,0,P|224:136|168:208,1,159.999990463257
72,196,67146,2,0,P|112:248|208:288,1,159.999990463257,0|0,3:0|0:0,0:0:0:0:
184,184,67692,1,0,0:0:0:0:
120,132,67964,1,0,0:0:0:0:
264,88,68237,2,0,L|360:96,2,79.9999952316285
260,120,68646,1,0,0:0:0:0:
260,128,68783,1,0,0:0:0:0:
284,216,69055,1,0,0:0:0:0:
284,216,69328,2,0,P|332:160|304:76,1,159.999990463257,0|0,3:0|0:0,0:0:0:0:
256,44,69874,5,0,0:0:0:0:
288,176,70146,2,0,L|288:268,2,79.9999952316285
200,176,70692,2,0,L|200:264,2,79.9999952316285
124,176,71237,2,0,L|124:64,2,79.9999952316285
384,168,71783,2,0,L|384:76,2,79.9999952316285
388,292,72328,5,0,0:0:0:0:
180,268,72601,1,0,0:0:0:0:
256,188,72874,1,0,0:0:0:0:
328,108,73146,1,0,0:0:0:0:
140,76,73419,1,0,0:0:0:0:
136,80,73692,2,0,P|104:140|152:208,1,159.999990463257
412,76,74237,5,0,0:0:0:0:
436,160,74510,2,0,L|340:160,2,79.9999952316285
216,160,75055,2,0,L|308:160,2,79.9999952316285
368,240,75601,2,0,L|456:240,2,79.9999952316285
288,88,76146,2,0,L|204:88,2,79.9999952316285
320,240,76692,1,0,0:0:0:0:
144,240,76964,1,0,0:0:0:0:
32,104,77237,1,0,0:0:0:0:
227,100,77510,1,0,0:0:0:0:
408,96,77783,1,0,0:0:0:0:
92,80,78328,5,0,0:0:0:0:
192,88,78601,1,0,0:0:0:0:
192,196,78874,1,0,0:0:0:0:
192,196,79010,2,0,L|192:276,1,79.9999952316285
288,192,79419,1,0,0:0:0:0:
288,192,79555,2,0,L|288:108,1,79.9999952316285
392,132,79964,1,0,0:0:0:0:
388,136,80101,2,0,L|388:220,1,79.9999952316285
180,187,80510,2,0,L|180:104,1,79.9999952316285
180,96,80783,1,0,0:0:0:0:
256,64,81055,5,0,0:0:0:0:
256,244,81328,1,0,0:0:0:0:
436,64,81601,1,0,0:0:0:0:
436,244,81874,1,0,0:0:0:0:
256,64,82146,1,0,0:0:0:0:
80,244,82419,1,0,0:0:0:0:
80,64,82692,1,0,0:0:0:0:
256,248,82964,1,0,0:0:0:0:
256,328,83237,6,0,B|320:296|376:268|448:232|516:196|416:136|324:80|248:32|240:28,1,479.999971389771
256,328,84328,2,0,B|192:296|136:268|64:232|-4:196|96:136|188:80|264:32|272:28,1,479.999971389771
256,192,85419,12,0,86783,0:0:0:0:
256,196,87055,5,0,3:0:0:0:
256,172,87328,2,0,L|256:76,2,79.9999952316285
144,104,87873,1,0,3:0:0:0:
368,104,88146,1,0,0:0:0:0:
252,300,88418,1,0,0:0:0:0:
256,40,88691,1,0,0:0:0:0:
368,244,88964,1,0,3:0:0:0:
144,244,89237,1,0,0:0:0:0:
256,148,89509,1,0,0:0:0:0:
304,56,89782,1,0,0:0:0:0:
300,64,90055,2,0,L|368:136,2,79.9999952316285,0|0|0,3:0|0:0|0:0,0:0:0:0:
212,60,90464,1,0,0:0:0:0:
212,60,90600,2,0,L|144:136,2,79.9999952316285
256,264,91147,5,0,3:0:0:0:
428,192,91419,1,0,0:0:0:0:
256,124,91692,1,0,0:0:0:0:
108,192,91965,1,0,0:0:0:0:
256,192,92238,1,0,3:0:0:0:
412,192,92510,1,0,0:0:0:0:
256,280,92783,1,0,0:0:0:0:
116,192,93056,1,0,0:0:0:0:
256,192,93329,2,0,L|256:24,2,159.999990463257,0|0|0,3:0|0:0|0:0,0:0:0:0:
256,56,94146,1,0,0:0:0:0:
356,56,94419,1,0,0:0:0:0:
160,56,94691,1,0,3:0:0:0:
160,56,94964,1,0,0:0:0:0:
160,56,95237,1,0,0:0:0:0:
160,56,95510,1,0,0:0:0:0:
256,188,95783,5,0,3:0:0:0:
256,64,96056,1,0,0:0:0:0:
256,64,96192,1,0,0:0:0:0:
256,64,96329,1,0,0:0:0:0:
256,188,96602,1,0,0:0:0:0:
256,192,96874,1,0,3:0:0:0:
260,324,97147,1,0,0:0:0:0:
260,324,97283,1,0,0:0:0:0:
260,324,97420,1,0,0:0:0:0:
168,280,97692,1,0,0:0:0:0:
168,280,97964,5,0,0:0:0:0:
168,112,98237,1,0,0:3:0:0:
348,112,98510,1,0,0:0:0:0:
352,280,98783,1,0,0:0:0:0:
488,192,99055,2,0,L|292:192,1,159.999990463257,0|0,0:0|3:0,0:0:0:0:
256,192,99601,1,0,0:0:0:0:
24,192,99874,2,0,L|216:192,1,159.999990463257
256,192,100419,1,0,3:0:0:0:
256,112,100692,2,0,L|256:16,2,79.9999952316285
256,192,101237,5,0,0:0:0:0:
256,192,101510,1,0,3:0:0:0:
256,268,101783,2,0,L|256:364,2,79.9999952316285
128,72,102328,1,0,0:0:0:0:
0,276,102601,1,0,3:0:0:0:
256,280,102874,1,0,0:0:0:0:
256,280,103146,1,0,0:0:0:0:
392,72,103419,1,0,0:0:0:0:
504,276,103692,1,0,3:0:0:0:
260,276,103964,1,0,0:0:0:0:
260,72,104237,1,0,0:0:0:0:
256,192,104783,5,0,3:0:0:0:
48,36,106010,2,0,L|48:120,1,79.9999952316285
128,88,106283,2,0,L|128:176,1,79.9999952316285
44,196,106555,2,0,L|44:280,1,79.9999952316285
128,248,106828,2,0,L|128:336,1,79.9999952316285
240,224,107237,5,0,3:0:0:0:
208,164,107510,2,0,P|304:192|296:264,1,159.999990463257
172,100,108055,1,0,0:0:0:0:
172,100,108328,1,0,3:0:0:0:
168,20,108601,2,0,P|104:56|128:152,1,159.999990463257
228,148,109010,1,0,0:0:0:0:
228,148,109146,1,0,0:0:0:0:
60,124,109419,5,0,0:0:0:0:
176,268,109692,1,0,3:0:0:0:
340,264,109964,1,0,0:0:0:0:
448,112,110237,1,0,0:0:0:0:
320,16,110510,1,0,0:0:0:0:
256,216,110783,1,0,3:0:0:0:
168,44,111055,6,0,L|168:148,2,79.9999952316285
84,252,111601,1,0,0:0:0:0:
200,252,111874,1,0,3:0:0:0:
316,256,112146,1,0,0:0:0:0:
256,172,112419,1,0,0:0:0:0:
132,172,112692,1,0,0:0:0:0:
196,88,112964,1,0,3:0:0:0:
384,40,113237,2,0,L|384:148,2,79.9999952316285
280,40,113783,2,0,L|280:144,2,79.9999952316285,0|0|0,0:0|0:0|3:0,0:0:0:0:
184,40,114328,1,0,0:0:0:0:
68,48,114601,6,0,L|68:128,1,79.9999952316285
144,164,114874,2,0,L|144:80,1,79.9999952316285
68,204,115146,2,0,L|68:296,1,79.9999952316285
140,320,115419,2,0,L|140:239,1,79.9999952316285
144,223,115692,1,0,0:0:0:0:
232,228,115964,1,0,0:0:0:0:
316,228,116237,1,0,3:0:0:0:
404,224,116510,1,0,0:0:0:0:
404,224,116783,1,0,0:0:0:0:
404,116,117055,6,0,P|396:64|304:40,1,159.999990463257,0|0,0:0|3:0,0:0:0:0:
236,56,117601,1,0,0:0:0:0:
236,56,117737,1,0,0:0:0:0:
228,64,117874,2,0,P|208:136|284:184,1,159.999990463257
340,144,118283,1,0,0:0:0:0:
340,144,118419,1,0,3:0:0:0:
388,208,118692,1,0,0:0:0:0:
316,232,118964,2,0,L|240:264,1,79.9999952316285
208,272,119237,2,0,B|208:268|199:231|196:212|220:192|223:195,2,79.9999952316285
208,272,119646,2,0,L|112:296,1,79.9999952316285
100,300,119919,1,0,0:0:0:0:
80,304,120055,1,0,0:0:0:0:
292,288,120328,5,0,0:0:0:0:
444,160,120601,1,0,3:0:0:0:
288,28,120874,1,0,0:0:0:0:
440,28,121146,1,0,0:0:0:0:
292,160,121419,1,0,0:0:0:0:
448,288,121692,1,0,0:0:0:0:
332,232,121964,2,0,P|208:228|204:212,1,159.999990463257
272,192,122510,2,0,P|292:92|236:72,1,159.999990463257,0|0,0:0|3:0,0:0:0:0:
228,136,123055,2,0,P|176:68|212:16,1,159.999990463257
332,40,123601,1,0,0:0:0:0:
332,40,123874,1,0,3:0:0:0:
328,264,124419,5,0,0:0:0:0:
256,28,124692,1,0,0:0:0:0:
204,268,124964,1,0,3:0:0:0:
364,116,125237,1,0,0:0:0:0:
160,120,125510,1,0,0:0:0:0:
336,264,125783,1,0,0:0:0:0:
264,152,126055,1,0,3:0:0:0:
296,96,126328,2,0,L|388:96,2,79.9999952316285
212,96,126874,2,0,L|120:96,2,79.9999952316285,0|0|0,0:0|0:0|3:0,0:0:0:0:
256,184,127419,1,0,0:0:0:0:
104,192,127692,6,0,L|104:280,1,79.9999952316285
208,256,127964,2,0,L|208:172,1,79.9999952316285
312,192,128237,2,0,L|312:288,1,79.9999952316285
412,252,128510,2,0,L|408:168,1,79.9999952316285
408,164,128783,1,0,0:0:0:0:
416,88,129055,1,0,0:0:0:0:
296,8,129328,1,0,3:0:0:0:
264,160,129601,1,0,0:0:0:0:
404,224,129874,1,0,0:0:0:0:
280,332,130146,1,0,0:0:0:0:
264,96,130419,1,0,3:0:0:0:
144,220,130692,1,0,0:0:0:0:
284,220,130964,1,0,0:0:0:0:
472,32,131237,6,0,L|400:76,2,79.9999952316285
340,28,131646,2,0,L|248:76,2,79.9999952316285
344,112,132055,2,0,L|264:156,2,79.9999952316285
196,152,132464,2,0,P|144:96|116:96,1,79.9999952316285
72,128,132737,2,0,P|100:188|144:188,1,79.9999952316285
184,216,133010,2,0,P|156:264|108:260,1,79.9999952316285
64,292,133419,6,0,P|128:344|200:320,1,159.999990463257,0|0,0:0|3:0,0:0:0:0:
248,332,133964,1,0,0:0:0:0:
248,332,134237,2,0,P|376:256|396:216,1,159.999990463257
400,200,134783,1,0,3:0:0:0:
400,100,135055,1,0,0:0:0:0:
392,100,135328,2,0,P|336:52|224:36,1,159.999990463257
132,60,135874,1,0,3:0:0:0:
96,164,136146,1,0,0:0:0:0:
80,253,136419,2,0,P|168:293|260:292,1,159.999990463257
280,296,136964,1,0,3:0:0:0:
328,196,137237,6,0,L|328:96,2,79.9999952316285
352,280,137783,2,0,P|420:272|432:240,2,79.9999952316285,0|0|0,0:0|0:0|3:0,0:0:0:0:
272,276,138328,1,0,0:0:0:0:
144,148,138601,1,0,0:0:0:0:
272,44,138874,1,0,0:0:0:0:
392,152,139146,1,0,3:0:0:0:
184,308,139692,6,0,L|252:240,1,79.9999952316285
155,228,139964,2,0,L|212:172,1,79.9999952316285
302,189,140237,2,0,L|368:120,1,79.9999952316285
280,104,140510,2,0,L|344:40,1,79.9999952316285
348,48,140783,1,0,0:0:0:0:
436,40,141055,1,0,0:0:0:0:
448,36,141328,1,0,3:0:0:0:
256,348,141874,6,0,L|256:0,1,319.999980926514
328,104,142692,1,0,0:0:0:0:
416,192,142964,2,0,L|64:192,1,319.999980926514
176,112,143783,1,0,0:0:0:0:
256,32,144055,2,0,L|256:352,1,314.999985694885
176,272,144874,1,0,0:0:0:0:
100,192,145146,2,0,L|424:192,1,314.999985694885
256,148,145964,1,0,0:0:0:0:
252,232,146237,2,0,L|248:320,2,79.9999952316285
