osu file format v14

[General]
AudioFilename: audio.mp3
AudioLeadIn: 0
PreviewTime: 109185
Countdown: 0
SampleSet: Soft
StackLeniency: 0.4
Mode: 0
LetterboxInBreaks: 0
WidescreenStoryboard: 0

[Editor]
DistanceSpacing: 2.6
BeatDivisor: 4
GridSize: 32
TimelineZoom: 0.9500001

[Metadata]
Title:Wishing
TitleUnicode:Wishing
Artist:Rem (CV: Minase Inori)
ArtistUnicode:レム (CV:水瀬いのり)
Creator:fieryrage
Version:let's start time again, from zero!
Source:Re:ゼロから始める異世界生活
Tags:re:zero kara hajimeru isekai seikatsu rezero starting life in another world different from zero anime insert japanese pop relaxing stay alive mayflower
BeatmapID:2378490
BeatmapSetID:1138605

[Difficulty]
HPDrainRate:5
CircleSize:3.2
OverallDifficulty:6.4
ApproachRate:8.2
SliderMultiplier:1.8
SliderTickRate:1

[Events]
//Background and Video events
0,0,"emilia lovers btfo.jpg",0,0
//Break Periods
//Storyboard Layer 0 (Background)
//Storyboard Layer 1 (Fail)
//Storyboard Layer 2 (Pass)
//Storyboard Layer 3 (Foreground)
//Storyboard Layer 4 (Overlay)
//Storyboard Sound Samples

[TimingPoints]
490,800,4,2,1,40,1,0
490,-133.333333333333,4,2,1,40,0,0
690,-133.333333333333,4,2,95,5,0,0
3690,-133.333333333333,4,2,1,40,0,0
3890,-133.333333333333,4,2,95,5,0,0
5090,-133.333333333333,4,2,1,40,0,0
13490,-133.333333333333,4,2,95,5,0,0
14490,-133.333333333333,4,2,1,40,0,0
25290,821.917808219178,4,2,1,40,1,0
25290,-133.333333333333,4,2,1,40,0,0
26933,833.333333333333,4,1,1,40,1,0
26933,-133.333333333333,4,1,1,40,0,0
27349,779.220779220779,4,1,1,40,1,0
27349,-133.333333333333,4,1,1,40,0,0
27608,833.333333333333,4,1,1,40,1,0
27608,-133.333333333333,4,1,1,40,0,0
28163,731.707317073171,4,1,1,40,1,0
28163,-133.333333333333,4,1,1,40,0,0
28894,845.070422535211,4,1,1,40,1,0
28894,-133.333333333333,4,1,1,40,0,0
29175,681.818181818182,4,1,1,40,1,0
29175,-133.333333333333,4,1,1,40,0,0
29402,789.473684210526,4,1,1,40,1,0
29402,-133.333333333333,4,1,1,40,0,0
30980,722.89156626506,4,1,1,40,1,0
30980,-133.333333333333,4,1,1,40,0,0
31702,800,4,1,1,40,1,0
31702,-133.333333333333,4,1,1,40,0,0
32502,833.333333333333,4,1,1,40,1,0
32502,-133.333333333333,4,1,1,40,0,0
33196,789.473684210526,4,1,1,40,1,0
33196,-133.333333333333,4,1,1,40,0,0
33853,740.740740740741,4,1,1,40,1,0
33853,-133.333333333333,4,1,1,40,0,0
34099,800,4,1,1,40,1,0
34099,-133.333333333333,4,1,1,40,0,0
35699,779.220779220779,4,1,1,40,1,0
35699,-133.333333333333,4,1,1,40,0,0
36283,808.625336927224,4,1,1,40,1,0
36283,-133.333333333333,4,1,1,40,0,0
38102,800,4,1,1,40,1,0
38102,-133.333333333333,4,1,1,40,0,0
39702,857.142857142857,4,1,1,40,1,0
39702,-133.333333333333,4,1,1,40,0,0
40130,750,4,1,1,40,1,0
40130,-133.333333333333,4,1,1,40,0,0
40380,821.917808219178,4,1,1,40,1,0
40380,-133.333333333333,4,1,1,40,0,0
40927,810.810810810811,4,1,1,40,1,0
40927,-133.333333333333,4,1,1,40,0,0
41737,759.493670886076,4,1,1,40,1,0
41737,-133.333333333333,4,1,1,40,0,0
41990,895.522388059701,4,1,1,40,1,0
41990,-133.333333333333,4,1,1,40,0,0
42139,769.230769230769,4,1,1,40,1,0
42139,-133.333333333333,4,1,1,40,0,0
42331,-133.333333333333,4,2,95,5,0,0
44446,857.142857142857,4,1,1,40,1,0
44446,-133.333333333333,4,1,1,40,0,0
45303,779.220779220779,4,1,1,40,1,0
45303,-133.333333333333,4,1,1,40,0,0
45887,705.882352941176,4,1,1,40,1,0
45887,-133.333333333333,4,1,1,40,0,0
46063,882.352941176471,4,1,1,40,1,0
46063,-133.333333333333,4,1,1,40,0,0
46651,731.707317073171,4,1,1,40,1,0
46651,-133.333333333333,4,1,1,40,0,0
46894,821.917808219178,4,1,1,40,1,0
46894,-133.333333333333,4,1,1,40,0,0
47715,909.090909090909,4,1,1,40,1,0
47715,-133.333333333333,4,1,1,40,0,0
48321,1016.94915254237,4,1,1,40,1,0
48321,-133.333333333333,4,1,1,40,0,0
48490,800,4,1,1,40,1,0
48490,-133.333333333333,4,1,1,40,0,0
51690,800,4,1,1,52,1,0
51690,-100,4,1,1,52,0,0
55690,-100,4,1,1,42,0,0
56490,-100,4,1,1,32,0,0
56890,-100,4,1,1,52,0,0
57290,-100,4,1,1,52,0,0
82090,-100,4,2,95,5,0,0
82890,-100,4,1,1,52,0,0
87090,-100,4,1,1,32,0,0
88090,-100,4,1,1,52,0,0
88490,-100,4,1,1,52,0,0
106490,-100,4,1,1,5,0,0
107690,-100,4,2,0,55,0,0
108290,-100,4,2,95,5,0,0
108490,-100,4,2,0,55,0,0
109090,-100,4,2,95,5,0,0
109290,-83.3333333333333,4,2,9,62,0,0
132690,-83.3333333333333,4,2,8,62,0,0
134890,-100,4,2,2,47,0,0
160490,-100,4,2,3,47,0,0
186090,-83.3333333333333,4,2,4,50,0,0
211690,-83.3333333333333,4,2,4,40,0,0
214890,-83.3333333333333,4,2,5,40,0,0
215290,-83.3333333333333,4,2,5,42,0,0
215690,-83.3333333333333,4,2,5,44,0,0
216090,-83.3333333333333,4,2,5,46,0,0
216490,-76.9230769230769,4,2,0,45,0,0
217090,-76.9230769230769,4,2,0,25,0,0
217290,-71.4285714285714,4,2,0,50,0,0
217690,-71.4285714285714,4,2,0,35,0,0
217890,-71.4285714285714,4,2,0,50,0,0
218090,-66.6666666666667,4,2,6,55,0,1
229290,-66.6666666666667,4,2,5,55,0,1
230756,-66.6666666666667,4,2,5,55,0,0
230890,-66.6666666666667,4,2,6,55,0,1
243290,-66.6666666666667,4,2,5,55,0,1
243490,-66.6666666666667,4,2,6,55,0,1
243690,-83.3333333333333,4,2,8,57,0,0
269290,-250,4,2,7,43,0,0
270090,-250,4,2,7,33,0,0
275690,833.333333333333,4,2,1,40,1,0
275690,-133.333333333333,4,2,1,40,0,0
275898,-133.333333333333,4,2,95,5,0,0
276940,701.754385964912,4,2,1,40,1,0
276940,-133.333333333333,4,2,1,40,0,0
277290,800,4,2,1,40,1,0
277290,-133.333333333333,4,2,1,40,0,0
277490,-133.333333333333,4,2,95,5,0,0
278490,-133.333333333333,4,2,1,40,0,0
278890,827.586206896552,4,2,1,40,1,0
278890,-133.333333333333,4,2,1,40,0,0
279096,-133.333333333333,4,2,95,5,0,0
280131,952.380952380952,4,2,1,40,1,0
280131,-133.333333333333,4,2,1,40,0,0
280369,487.80487804878,4,2,1,40,1,0
280369,-133.333333333333,4,2,1,40,0,0
280490,800,4,2,1,40,1,0
280490,-133.333333333333,4,2,1,40,0,0
282090,821.917808219178,4,2,1,40,1,0
282090,-133.333333333333,4,2,1,40,0,0
282706,769.230769230769,4,2,1,40,1,0
282706,-133.333333333333,4,2,1,40,0,0
283475,845.070422535211,4,2,1,40,1,0
283475,-133.333333333333,4,2,1,40,0,0
283686,882.352941176471,4,2,1,40,1,0
283686,-133.333333333333,4,2,1,40,0,0
284127,769.230769230769,4,2,1,40,1,0
284127,-133.333333333333,4,2,1,40,0,0
284511,857.142857142857,4,2,1,40,1,0
284511,-133.333333333333,4,2,1,40,0,0
284939,703.812316715542,4,2,1,40,1,0
284939,-133.333333333333,4,2,1,40,0,0
285290,800,4,2,1,40,1,0
285290,-133.333333333333,4,2,1,40,0,0
287090,-133.333333333333,4,2,95,5,0,0
288090,-133.333333333333,4,2,1,40,0,0
288490,800,4,2,1,40,1,0
288490,-100,4,2,1,40,0,0
298090,-83.3333333333333,4,2,1,45,0,0
299690,-76.9230769230769,4,2,0,50,0,0
300290,-76.9230769230769,4,2,0,5,0,0
300490,-71.4285714285714,4,2,0,55,0,0
301090,-71.4285714285714,4,2,0,35,0,0
301290,-66.6666666666667,4,2,6,57,0,1
312490,-66.6666666666667,4,2,5,57,0,1
313956,-66.6666666666667,4,2,5,57,0,0
314090,-66.6666666666667,4,2,6,57,0,1
326890,-125,4,2,3,40,0,0
339690,845.070422535211,4,2,3,40,1,0
339690,-125,4,2,3,40,0,0
340535,769.230769230769,4,2,3,40,1,0
340535,-125,4,2,3,40,0,0
341304,789.473684210526,4,2,3,40,1,0
341304,-125,4,2,3,40,0,0
342093,797.872340425532,4,2,3,40,1,0
342093,-125,4,2,3,40,0,0
342890,800,4,2,3,40,1,0
342890,-125,4,2,3,40,0,0
351690,-125,4,2,3,30,0,0
352490,-125,4,2,3,10,0,0
353290,-125,4,2,3,5,0,0
354090,-125,4,2,95,5,0,0

[Colours]
Combo1 : 202,138,138
Combo2 : 61,113,171
Combo3 : 198,177,136
Combo4 : 107,91,140
Combo5 : 231,160,131
Combo6 : 167,188,237

[HitObjects]
207,43,490,6,0,B|175:3|123:-6|74:13|36:68|34:130|83:187|150:195|209:143|209:143|169:186|168:222|177:262,1,506.250019311906,8|0,0:0|0:0,0:0:0:0:
109,336,3690,6,0,B|159:367|228:355|261:308|261:308|266:323|282:338,1,202.500007724762,8|0,0:0|0:0,0:0:0:0:
451,315,5090,5,2,0:2:0:0:
452,306,5190,1,2,0:2:0:0:
455,282,5290,5,2,0:2:0:0:
420,192,5556,1,2,0:2:0:0:
474,112,5823,1,2,0:2:0:0:
307,50,6090,5,10,0:3:0:0:
229,91,6356,1,2,0:3:0:0:
144,62,6623,1,2,0:3:0:0:
24,91,6890,6,0,P|12:141|24:202,1,101.250003862381,10|0,0:0|0:0,0:0:0:0:
34,224,8490,5,8,0:0:0:0:
25,228,8540,1,2,0:0:0:0:
137,287,8890,1,0,0:0:0:0:
239,276,9290,1,2,0:0:0:0:
293,254,9690,1,0,0:0:0:0:
301,243,10090,6,0,P|346:231|409:243,1,101.250003862381,8|0,0:0|0:0,0:0:0:0:
442,259,10790,1,0,0:0:0:0:
415,141,11290,1,0,0:0:0:0:
420,129,11690,5,0,0:0:0:0:
297,83,12090,1,0,0:0:0:0:
479,39,12390,1,2,0:0:0:0:
491,15,12490,5,10,0:0:0:0:
420,129,12690,1,2,0:3:0:0:
424,239,12890,1,2,0:3:0:0:
451,319,13090,1,2,0:0:0:0:
305,272,13290,6,0,B|231:313|157:289|157:289|166:258|196:245,1,202.500007724762,14|2,0:3|0:3,0:0:0:0:
200,242,15290,5,0,0:0:0:0:
16,207,15690,1,2,0:0:0:0:
51,125,16090,1,0,0:0:0:0:
381,56,16490,6,0,P|393:98|387:164,1,101.250003862381,8|2,0:0|0:0,0:0:0:0:
377,179,18890,6,0,P|323:191|273:179,1,101.250003862381,8|0,0:0|0:0,0:0:0:0:
209,126,19690,5,8,0:0:0:0:
399,314,20290,1,2,0:0:0:0:
63,120,21290,5,8,0:0:0:0:
139,53,21690,1,0,0:0:0:0:
232,88,22090,2,0,P|265:90|304:78,1,67.5000025749208
450,234,22890,6,0,P|458:286|445:347,1,101.250003862381,8|2,0:0|0:2,0:0:0:0:
443,347,25290,5,2,0:0:0:0:
15,89,26111,5,4,0:0:0:0:
14,95,26163,1,0,0:0:0:0:
21,103,26933,6,0,P|28:139|24:177,1,67.5000025749208,2|2,0:0|0:0,0:0:0:0:
18,195,27608,1,2,0:0:0:0:
50,349,28163,1,2,0:0:0:0:
185,261,28894,2,0,P|208:257|238:260,1,45.0000017166138,2|2,0:0|0:0,0:0:0:0:
315,283,29402,5,8,0:2:0:0:
334,292,31702,6,0,L|336:234,2,45.0000017166138,10|2|2,0:0|0:0|0:0,0:0:0:0:
397,166,32502,6,0,P|343:152|288:160,1,112.500004291535,8|2,0:0|0:1,0:0:0:0:
269,169,33853,5,2,0:0:0:0:
176,134,34099,2,0,P|171:173|179:210,1,67.5000025749208,10|2,0:0|0:0,0:0:0:0:
234,55,34765,2,0,P|192:39|137:46,1,90.0000034332277,2|0,0:0|0:0,0:0:0:0:
323,85,35565,1,2,0:0:0:0:
339,95,35699,6,0,P|397:100|447:80,1,101.250003862381,8|2,0:0|0:0,0:0:0:0:
458,79,38102,5,8,0:0:0:0:
120,219,38902,5,2,0:0:0:0:
109,211,39702,6,0,P|101:166|107:130,1,67.5000025749208,2|2,0:0|0:0,0:0:0:0:
112,115,40380,1,2,0:0:0:0:
325,166,40927,1,2,0:0:0:0:
113,209,41737,2,0,P|109:234|114:261,1,45.0000017166138,2|2,0:0|0:0,0:0:0:0:
123,282,42139,6,0,B|171:301|228:279|228:279|275:303|275:303|333:280|391:295,1,270.000010299683,8|0,0:0|0:0,0:0:0:0:
482,117,44446,6,0,P|484:94|478:63,2,45.0000017166138,10|2|2,0:0|0:0|0:0,0:0:0:0:
394,99,45303,5,8,0:0:0:0:
175,149,45887,1,8,0:0:0:0:
185,133,46063,6,0,P|159:130|134:136,2,45.0000017166138,2|2|2,0:0|0:0|0:0,0:0:0:0:
73,66,46894,5,8,0:0:0:0:
181,7,47304,1,2,0:0:0:0:
284,110,47715,2,0,P|287:131|284:159,2,45.0000017166138,2|2|2,0:0|0:0|0:0,0:0:0:0:
313,86,48490,6,0,P|309:139|321:194,1,101.250003862381,8|2,0:0|0:0,0:0:0:0:
5,371,50890,5,8,0:0:0:0:
377,342,51690,5,12,3:1:0:0:
390,350,52490,6,0,P|395:317|382:246,1,90,2|2,3:1|0:1,0:1:0:0:
372,224,53156,1,2,0:1:0:0:
270,0,53690,1,2,0:1:0:0:
459,16,54490,1,2,0:1:0:0:
383,59,54690,1,2,0:1:0:0:
477,0,54890,6,0,B|511:63|479:120|479:120|491:152|491:152|510:214|466:295|466:295|384:255|397:167,1,450,8|0,3:1|3:1,0:1:0:0:
233,282,57290,5,10,3:1:0:0:
146,309,57590,1,2,0:1:0:0:
71,261,57890,2,0,P|45:258|12:264,1,45,2|8,0:1|3:1,0:1:0:0:
45,11,58890,5,0,3:1:0:0:
53,13,58940,1,0,0:1:0:0:
226,98,59556,5,2,0:1:0:0:
233,109,59690,2,0,P|240:168|235:209,1,90,10|2,3:1|3:1,3:1:0:0:
340,141,60356,1,2,0:1:0:0:
347,154,60490,2,0,P|340:213|345:254,1,90,10|2,3:1|3:1,3:1:0:0:
475,372,61156,1,2,0:1:0:0:
491,359,61290,6,0,P|508:268|488:171,1,180,8|2,3:1|3:1,3:1:0:0:
483,163,63690,5,8,3:1:0:0:
73,77,64490,5,8,3:1:0:0:
61,90,65290,6,0,P|53:141|59:186,1,90,2|2,3:1|3:1,3:1:0:0:
68,203,65890,1,2,0:1:0:0:
14,384,66490,1,2,3:1:0:0:
203,132,67290,1,2,3:1:0:0:
286,166,67690,6,0,P|342:175|466:138,1,180,10|0,3:1|3:1,3:1:0:0:
489,123,68690,1,2,0:1:0:0:
512,169,68890,1,2,3:1:0:0:
492,259,69156,1,2,0:1:0:0:
218,314,70090,6,0,P|187:308|155:311,2,60,8|2|2,3:1|0:1|0:1,0:1:0:0:
300,357,70890,1,8,3:1:0:0:
88,164,71690,5,10,3:1:0:0:
33,95,71990,1,2,0:1:0:0:
95,4,72290,1,2,0:1:0:0:
112,16,72490,2,0,P|157:20|204:8,1,90,8|2,3:1|3:1,0:1:0:0:
385,129,73290,5,2,3:1:0:0:
429,207,73590,1,2,0:1:0:0:
357,274,73890,1,2,0:1:0:0:
374,290,74090,6,0,P|303:273|179:304,1,180,8|0,3:1|3:1,0:1:0:0:
174,305,76490,5,8,3:1:0:0:
510,360,77290,5,12,3:2:0:0:
500,348,78090,6,0,P|492:302|499:253,1,90,2|2,0:2|0:2,0:2:0:0:
455,166,78690,1,2,0:2:0:0:
215,118,79290,5,2,0:2:0:0:
103,157,79690,1,2,0:2:0:0:
11,276,80090,1,2,0:2:0:0:
189,304,80490,6,0,P|239:284|378:303,1,180,10|0,0:2|0:2,0:2:0:0:
176,316,81690,5,2,0:2:0:0:
288,279,81890,2,0,B|359:280|413:330|413:330|359:344|317:311,1,225,2|0,0:2|0:2,0:2:0:0:
165,302,83690,5,8,0:2:0:0:
156,312,84490,6,0,P|104:319|61:306,1,90,2|2,0:2|0:2,0:2:0:0:
12,245,85090,2,0,P|9:220|13:189,1,45,2|2,0:2|0:2,0:2:0:0:
154,152,85690,1,2,0:2:0:0:
283,154,86090,1,2,0:2:0:0:
452,242,86490,1,2,0:2:0:0:
247,48,86890,6,0,B|171:25|79:63|79:63|130:91|173:79,1,270,8|0,0:2|0:2,0:2:0:0:
348,66,88490,5,2,0:3:0:0:
344,73,88540,1,2,0:3:0:0:
352,80,89290,6,0,P|345:131|354:175,1,90,2|2,0:3|0:3,0:3:0:0:
322,322,90090,5,8,0:2:0:0:
329,332,90890,6,0,P|371:334|416:314,1,90,2|2,0:2|0:2,0:2:0:0:
461,242,91490,1,2,0:2:0:0:
140,182,92090,1,2,0:2:0:0:
72,279,92356,2,0,P|120:297|199:285,1,120,2|0,0:2|0:2,0:2:0:0:
19,35,93290,5,8,0:2:0:0:
10,27,94090,2,0,P|1:71|11:125,1,90,2|2,0:2|0:2,0:2:0:0:
72,190,94690,1,2,0:2:0:0:
339,219,95290,1,2,0:2:0:0:
443,160,95490,1,2,0:2:0:0:
451,170,95690,6,0,P|464:226|459:271,1,90,8|2,0:2|0:2,0:2:0:0:
399,339,96290,2,0,L|396:389,1,45,2|8,0:2|0:2,0:2:0:0:
217,242,97290,6,0,P|167:226|79:243,1,135,2|2,0:2|0:2,0:2:0:0:
18,281,98090,1,10,0:2:0:0:
34,175,98490,1,2,0:2:0:0:
114,74,98890,1,2,0:2:0:0:
260,10,99290,1,2,0:2:0:0:
146,327,99690,5,8,0:2:0:0:
395,108,100090,2,0,P|442:100|493:109,1,90,2|0,0:2|0:2,0:2:0:0:
270,139,100890,2,0,P|226:148|187:171,1,90,2|0,0:2|0:2,0:2:0:0:
441,193,101690,2,0,P|478:217|507:251,1,90,2|8,0:2|0:2,0:2:0:0:
263,233,102490,2,0,P|235:268|220:310,1,90,2|8,0:2|0:2,0:2:0:0:
216,330,103690,5,2,0:2:0:0:
115,345,104490,5,2,0:2:0:0:
60,246,105290,5,2,0:2:0:0:
58,254,105340,2,0,P|92:257|135:246,1,78.75,2|2,0:2|0:2,0:2:0:0:
14,61,106090,6,0,P|7:105|16:149,1,90,2|0,0:2|0:2,0:2:0:0:
148,15,107690,6,0,P|82:5|17:22,1,135,2|0,0:0|0:0,0:0:0:0:
216,49,108490,2,0,B|188:58|155:46|155:46|120:34|83:45,1,135,2|0,0:0|0:0,0:0:0:0:
447,222,109290,6,0,P|373:243|219:77,1,323.999990112305,2|2,3:2|0:2,0:2:0:0:
100,182,110756,1,2,0:2:0:0:
76,148,110890,2,0,P|96:206|81:363,1,215.999993408203,0|0,3:2|3:2,0:2:0:0:
392,150,112490,6,0,B|321:123|248:151|248:151|210:138|210:138|146:166|64:135,1,323.999990112305,2|2,3:2|0:2,0:2:0:0:
173,283,113890,1,2,0:2:0:0:
253,341,114090,2,0,P|267:287|257:230,1,107.999996704102,2|0,3:2|0:2,0:2:0:0:
417,347,114890,5,2,3:2:0:0:
465,245,115156,1,2,0:2:0:0:
426,126,115423,1,2,0:2:0:0:
483,14,115690,6,0,P|496:66|488:119,1,107.999996704102,2|2,3:2|0:2,0:2:0:0:
399,202,116290,2,0,P|395:266|464:223,1,161.999995056153,2|2,0:2|0:2,0:2:0:0:
250,131,117090,1,2,0:2:0:0:
167,81,117290,6,0,P|160:139|173:189,1,107.999996704102,2|2,3:2|0:2,0:2:0:0:
38,249,118090,1,2,3:2:0:0:
84,320,118490,1,2,0:2:0:0:
328,90,118890,6,0,B|368:154|368:154|361:314,1,215.999993408203,2|0,3:2|0:2,0:2:0:0:
361,318,120090,1,2,0:2:0:0:
159,220,120356,1,2,0:2:0:0:
138,197,120490,2,0,P|131:139|240:187,1,215.999993408203,0|0,3:2|3:2,0:2:0:0:
56,342,122090,6,0,B|179:349|179:349|247:316|247:316|394:321,1,323.999990112305,2|2,3:2|0:2,0:2:0:0:
512,372,123556,1,2,0:2:0:0:
498,351,123690,2,0,P|477:255|505:128,1,215.999993408203,0|0,3:2|3:2,0:2:0:0:
189,38,125023,5,2,0:2:0:0:
25,99,125290,2,0,P|17:197|197:155,1,323.999990112305,2|2,3:2|0:2,0:2:0:0:
102,310,126690,1,2,0:2:0:0:
186,363,126890,2,0,P|196:304|182:251,1,107.999996704102,0|0,3:2|0:2,0:2:0:0:
370,147,127690,5,2,3:2:0:0:
284,261,127956,1,2,0:2:0:0:
424,278,128223,1,2,0:2:0:0:
241,163,128490,6,0,P|176:149|100:170,1,107.999996704102,2|0,3:2|0:2,0:2:0:0:
20,339,129090,2,0,B|28:305|28:305|23:272|23:272|35:240|35:240|6:151|39:76,1,269.999991760254,2|0,0:2|3:2,0:2:0:0:
47,63,130890,1,0,3:2:0:0:
241,163,131290,1,2,0:2:0:0:
444,15,131690,6,0,P|490:44|377:69,1,287.999991210938,6|0,3:2|0:2,0:2:0:0:
350,265,133090,1,2,0:3:0:0:
333,241,133290,2,0,P|287:270|379:288,1,215.999993408203,2|0,0:3|0:2,0:2:0:0:
222,155,134490,1,2,0:3:0:0:
99,336,134756,1,2,0:3:0:0:
87,321,134890,6,0,P|96:244|80:182,1,135,4|0,3:0|3:0,3:0:0:0:
39,55,135690,1,8,0:0:0:0:
91,59,136090,2,8,L|47:62,1,45,8|8,3:0|3:0,3:0:0:0:
194,30,136490,5,4,3:0:0:0:
223,154,136890,1,0,3:0:0:0:
112,260,137290,1,8,0:1:0:0:
377,174,137690,1,2,0:1:0:0:
224,65,138090,6,0,P|216:111|224:157,1,90,2|2,3:1|3:1,3:0:0:0:
237,176,138690,1,0,0:0:0:0:
217,259,138890,1,8,0:0:0:0:
435,335,139290,2,8,P|410:338|381:334,1,45,10|8,3:0|3:0,3:0:0:0:
512,294,139690,5,4,3:0:0:0:
406,116,140090,1,2,3:1:0:0:
217,259,140490,5,10,0:1:0:0:
98,297,140790,1,2,0:1:0:0:
33,194,141090,1,2,0:1:0:0:
207,129,141290,5,0,0:0:0:0:
214,135,141340,2,0,P|224:182|217:256,1,123.75,2|0,3:1|3:0,3:0:0:0:
190,339,142090,1,8,0:0:0:0:
368,222,142490,2,8,P|345:221|323:226,1,45,10|8,3:0|3:0,3:0:0:0:
471,241,142890,5,4,3:0:0:0:
429,145,143290,1,0,3:0:0:0:
244,176,143690,1,8,0:1:0:0:
231,186,143890,2,0,P|184:193|140:184,1,90
0,206,144490,5,4,3:0:0:0:
54,294,144690,1,0,3:0:0:0:
49,306,145090,1,0,3:0:0:0:
170,257,145290,1,8,0:0:0:0:
231,263,145690,2,8,L|187:263,1,45,8|8,3:0|3:0,3:0:0:0:
361,231,146090,5,4,3:0:0:0:
285,365,146490,1,0,3:0:0:0:
183,95,146890,1,8,0:1:0:0:
284,125,147290,1,2,0:1:0:0:
86,172,147690,5,2,0:1:0:0:
80,182,147740,2,0,P|64:241|74:308,1,123.75,4|0,3:0|3:0,0:0:0:0:
147,372,148490,1,8,0:0:0:0:
283,124,148890,2,8,L|283:169,1,45,8|8,3:0|3:0,3:0:0:0:
285,33,149290,5,4,3:0:0:0:
179,68,149690,1,0,3:0:0:0:
464,207,150090,1,8,0:1:0:0:
389,0,150490,1,2,0:1:0:0:
216,258,150890,6,0,P|284:273|359:245,1,135,6|2,3:0|3:0,3:0:0:0:
209,248,151690,1,10,0:0:0:0:
37,292,152090,2,8,P|59:294|81:291,1,45,10|8,3:0|3:0,3:0:0:0:
165,337,152490,5,4,3:0:0:0:
279,169,152890,1,0,3:0:0:0:
190,133,153290,1,8,0:1:0:0:
470,243,153690,1,0,0:0:0:0:
87,214,154090,6,0,P|81:164|93:114,1,90,2|0,3:0|0:0,0:0:0:0:
153,29,154690,1,2,3:0:0:0:
159,37,154890,1,8,0:0:0:0:
308,154,155290,2,8,P|287:161|265:162,1,45,8|8,3:0|3:0,3:0:0:0:
373,96,155690,5,4,3:0:0:0:
93,225,156090,1,2,3:0:0:0:
328,346,156490,1,10,0:1:0:0:
340,338,156690,2,0,P|388:326|436:336,1,90
497,270,157290,5,6,3:0:0:0:
457,164,157490,1,0,3:0:0:0:
451,150,157890,1,0,3:0:0:0:
294,207,158090,1,8,0:0:0:0:
275,156,158490,2,8,L|278:201,1,45,8|8,3:0|3:0,3:0:0:0:
270,54,158890,5,4,3:0:0:0:
438,62,159290,2,0,P|451:97|448:159,1,90,0|10,3:0|0:1,0:0:0:0:
447,50,160090,1,0,0:0:0:0:
176,305,160490,5,6,0:1:0:0:
168,316,161290,6,0,P|123:324|69:312,1,90,10|10,0:0|0:3,0:0:0:0:
10,230,161890,1,10,0:3:0:0:
18,237,162090,1,4,0:3:0:0:
130,132,162490,2,0,P|174:124|218:132,1,90,2|8,0:0|0:0,0:0:0:0:
334,243,163290,2,0,L|384:241,1,45,2|2,0:0|0:0,0:0:0:0:
459,319,163690,6,0,B|480:262|480:262|463:108,1,180,2|8,0:0|0:0,0:0:0:0:
330,47,164890,1,8,0:3:0:0:
368,39,165090,1,8,0:3:0:0:
378,46,165290,1,4,0:3:0:0:
291,149,165690,1,0,0:0:0:0:
112,69,166090,6,0,P|80:66|42:75,2,60,10|2|2,0:0|0:0|0:0,0:0:0:0:
139,79,166890,5,2,0:0:0:0:
35,238,167490,2,0,P|32:267|34:290,1,45,0|8,0:0|0:0,0:0:0:0:
37,310,168090,1,8,0:3:0:0:
151,269,168290,5,10,0:3:0:0:
237,308,168490,2,0,P|245:262|227:204,1,90,6|2,0:3|0:0,0:0:0:0:
197,135,169090,1,2,0:0:0:0:
188,123,169290,2,0,P|181:72|196:17,1,90,8|2,0:0|0:0,0:0:0:0:
295,77,169890,1,2,0:0:0:0:
310,85,170090,6,0,B|387:106|449:64|449:64|407:47,1,180,2|8,0:0|0:0,0:0:0:0:
317,217,171290,1,8,0:3:0:0:
321,231,171490,1,8,0:3:0:0:
305,309,171690,5,4,0:3:0:0:
393,362,172090,1,0,0:0:0:0:
477,148,172490,1,8,0:0:0:0:
508,240,172890,1,0,0:0:0:0:
185,161,173290,5,2,0:1:0:0:
172,153,174090,6,0,P|163:198|171:246,1,90,10|10,0:0|0:3,0:0:0:0:
110,332,174690,1,10,0:3:0:0:
112,343,174890,1,4,0:3:0:0:
54,207,175290,2,0,P|60:162|51:118,1,90,2|8,0:0|0:0,0:0:0:0:
187,0,176090,1,2,0:0:0:0:
54,207,176490,5,2,0:0:0:0:
50,220,177290,1,8,0:0:0:0:
126,280,177490,5,2,0:0:0:0:
210,234,177690,1,10,0:3:0:0:
365,308,177990,2,0,P|422:314|477:294,1,112.5,2|0,0:0|0:0,0:0:0:0:
405,159,178890,6,0,L|408:92,2,60,10|2|2,0:0|0:0|0:0,0:0:0:0:
322,220,179690,5,2,0:0:0:0:
66,84,180290,1,0,0:0:0:0:
56,179,180490,2,0,L|48:267,2,67.5,10|2|2,0:0|0:0|0:0,0:0:0:0:
145,140,181290,5,6,0:3:0:0:
229,321,181690,1,2,0:0:0:0:
392,252,182090,1,10,0:0:0:0:
407,245,182290,2,0,P|413:197|407:151,1,90,2|2,0:0|0:0,0:0:0:0:
467,65,182890,6,0,P|404:48|326:82,1,135,2|0,0:0|0:0,0:0:0:0:
326,84,183690,1,8,0:0:0:0:
167,54,184090,2,8,P|189:52|211:55,1,45,8|8,0:3|0:3,0:3:0:0:
85,71,184490,5,4,0:3:0:0:
48,168,184890,2,0,P|43:210|53:259,1,90,0|8,0:0|0:0,0:0:0:0:
41,159,185690,1,0,0:0:0:0:
234,355,186090,5,4,3:2:0:0:
323,319,186290,2,0,P|349:314|382:319,1,53.9999983520508,0|2,3:0|0:0,0:0:0:0:
394,322,186690,1,0,3:0:0:0:
481,228,186890,2,0,P|488:175|472:119,1,107.999996704102,8|2,0:0|0:1,0:0:0:0:
348,88,187490,6,0,P|343:54|348:25,1,53.9999983520508,10|2,0:1|0:1,0:0:0:0:
353,9,187890,1,0,3:0:0:0:
232,78,188090,2,0,P|204:83|169:82,1,53.9999983520508,2|0,3:1|0:0,0:0:0:0:
35,196,188490,2,0,P|20:138|34:77,1,107.999996704102,8|2,0:0|0:1,0:0:0:0:
39,69,189090,1,8,0:3:0:0:
132,173,189290,6,0,P|136:197|131:232,1,53.9999983520508,0|0,3:0|3:0,3:0:0:0:
126,248,189890,1,0,3:0:0:0:
35,331,190090,1,8,0:0:0:0:
241,295,190490,2,0,P|270:292|300:298,1,53.9999983520508,2|2,0:1|0:0,0:0:0:0:
389,371,190890,5,2,0:1:0:0:
419,353,191090,1,8,0:3:0:0:
498,370,191290,1,0,3:0:0:0:
505,355,191490,1,2,0:1:0:0:
464,275,191690,2,0,P|456:216|468:161,1,107.999996704102,8|2,0:0|0:1,0:0:0:0:
475,148,192290,1,8,0:1:0:0:
319,187,192490,6,0,P|292:190|253:186,1,53.9999983520508,0|0,3:0|3:0,3:0:0:0:
239,183,193090,1,0,3:0:0:0:
126,241,193290,2,0,P|112:188|126:118,1,107.999996704102,8|2,0:0|0:1,0:0:0:0:
153,35,193890,1,8,0:1:0:0:
42,16,194090,6,0,L|36:83,1,53.9999983520508,0|0,0:0|3:0,0:0:0:0:
118,135,194490,2,0,L|111:208,1,53.9999983520508,0|2,3:0|0:2,0:0:0:0:
197,250,194890,1,8,0:0:0:0:
21,291,195290,2,0,P|17:320|22:350,1,53.9999983520508,2|8,0:1|0:1,0:0:0:0:
144,377,195690,5,0,3:0:0:0:
156,371,195890,1,0,3:0:0:0:
257,341,196290,1,0,3:0:0:0:
290,364,196490,2,0,P|353:367|396:350,1,107.999996704102,8|2,0:0|0:1,0:0:0:0:
460,304,197090,1,2,0:2:0:0:
471,318,197290,6,0,P|476:344|473:378,1,53.9999983520508,2|0,0:3|3:0,0:0:0:0:
384,211,197690,2,0,P|379:237|382:271,1,53.9999983520508,2|0,3:3|0:0,0:0:0:0:
234,384,198090,1,10,0:3:0:0:
121,222,198490,1,2,0:3:0:0:
112,211,198690,1,8,0:1:0:0:
176,137,198890,6,0,P|180:113|176:77,1,53.9999983520508,0|0,3:0|3:0,0:0:0:0:
169,57,199490,1,0,3:0:0:0:
310,119,199690,2,0,P|376:122|421:104,1,107.999996704102,8|2,0:0|0:1,0:0:0:0:
333,240,200290,6,0,P|328:267|333:301,1,53.9999983520508,10|2,0:1|0:1,0:0:0:0:
337,313,200690,1,0,3:0:0:0:
242,371,200890,1,0,3:0:0:0:
154,300,201090,1,2,0:0:0:0:
136,293,201290,2,0,P|78:293|29:322,1,107.999996704102,8|2,0:0|0:1,0:0:0:0:
17,340,201890,1,8,0:3:0:0:
45,197,202090,6,0,P|47:169|40:138,1,53.9999983520508,0|0,3:0|3:0,3:0:0:0:
32,122,202690,1,0,3:0:0:0:
155,41,202890,2,0,P|213:26|274:41,1,107.999996704102,8|2,0:0|0:1,0:0:0:0:
389,111,203490,6,0,P|419:113|448:107,1,53.9999983520508,2|0,0:1|0:0,0:0:0:0:
467,98,203890,1,8,0:3:0:0:
380,206,204090,1,0,3:0:0:0:
254,135,204290,1,2,0:1:0:0:
242,148,204490,2,0,P|184:163|123:148,1,107.999996704102,8|2,0:0|0:1,0:0:0:0:
23,208,205090,1,8,0:1:0:0:
31,218,205290,6,0,P|36:245|34:282,1,53.9999983520508,0|0,3:0|3:0,3:0:0:0:
30,298,205890,1,0,3:0:0:0:
156,351,206090,2,0,P|146:296|162:223,1,107.999996704102,8|2,0:0|0:1,0:0:0:0:
180,144,206690,1,8,0:1:0:0:
187,133,206890,6,0,L|183:67,1,53.9999983520508,0|0,0:0|3:0,0:0:0:0:
350,0,207290,2,0,L|345:81,1,53.9999983520508,0|2,3:0|0:0,0:0:0:0:
341,143,207690,1,8,0:0:0:0:
442,286,208090,2,0,P|451:317|450:347,1,53.9999983520508,2|8,0:1|0:1,0:0:0:0:
350,325,208490,5,0,3:0:0:0:
337,329,208690,1,0,3:0:0:0:
246,280,208890,2,0,P|188:271|135:288,1,107.999996704102,0|8,0:0|0:0,0:0:0:0:
19,77,209690,6,0,L|15:191,1,107.999996704102,2|2,0:1|0:1,0:0:0:0:
14,210,210290,1,8,0:3:0:0:
151,36,210490,2,0,L|155:182,1,107.999996704102,0|8,3:0|0:0,0:0:0:0:
377,230,211290,2,0,P|381:200|378:171,1,53.9999983520508,2|8,0:1|0:1,0:0:0:0:
357,12,211690,5,4,0:0:0:0:
436,40,212090,1,2,0:0:0:0:
500,155,212490,5,8,0:0:0:0:
483,238,212890,2,0,P|481:265|486:293,1,53.9999983520508,2|8,0:1|0:1,0:0:0:0:
261,186,213290,5,2,0:1:0:0:
92,160,213690,1,2,0:1:0:0:
208,352,214090,1,8,0:0:0:0:
253,277,214490,2,2,P|279:269|311:270,1,53.9999983520508,2|2,0:1|0:1,0:1:0:0:
102,294,214890,6,0,P|106:315|105:341,2,35.9999989013672,6|2|2,0:0|0:0|0:0,0:0:0:0:
17,322,215290,2,0,P|15:343|7:368,2,35.9999989013672,6|2|2,0:0|0:0|0:0,0:0:0:0:
32,234,215690,5,6,0:1:0:0:
12,179,215823,1,6,0:2:0:0:
18,161,215956,1,6,0:2:0:0:
43,97,216090,5,6,0:1:0:0:
51,111,216223,1,6,0:2:0:0:
119,128,216356,1,6,0:2:0:0:
206,86,216490,6,0,B|274:84|274:84|309:102|309:102|380:100,1,175.499991966248,6|0,1:2|0:0,0:0:0:0:
240,177,217290,6,0,P|233:232|261:300,1,125.999996154785,6|0,1:2|0:0,0:0:0:0:
272,313,217890,1,2,0:0:0:0:
470,164,218090,6,0,P|483:87|452:22,1,135.000005149842,6|2,3:2|0:0,0:0:0:0:
426,7,218690,1,0,3:0:0:0:
329,55,218890,1,10,0:2:0:0:
82,21,219290,2,0,P|88:54|82:100,1,67.5000025749208,6|2,0:3|0:3,0:0:0:0:
67,176,219690,5,6,0:3:0:0:
128,238,220090,1,2,3:2:0:0:
72,363,220490,1,10,0:0:0:0:
159,319,220890,2,0,P|169:350|169:384,1,67.5000025749208,2|0,0:0|0:0,0:0:0:0:
388,188,221290,6,0,B|412:240|412:240|404:326,1,135.000005149842,6|2,3:0|0:0,0:0:0:0:
400,353,221890,1,0,3:0:0:0:
497,322,222090,1,10,0:0:0:0:
220,217,222490,1,6,0:3:0:0:
176,144,222690,1,2,0:3:0:0:
166,129,222890,6,0,P|100:119|24:142,1,135.000005149842,6|2,0:3|3:2,0:0:0:0:
244,47,223490,1,2,0:3:0:0:
404,171,223690,5,14,0:3:0:0:
276,314,223990,1,2,0:3:0:0:
464,352,224290,1,2,0:3:0:0:
255,326,224490,6,0,P|267:260|247:184,1,135.000005149842,6|6,3:0|0:3,0:0:0:0:
148,124,225090,1,2,0:3:0:0:
83,179,225290,2,0,P|48:185|8:178,1,67.5000025749208,10|0,0:0|0:0,0:0:0:0:
163,208,225690,1,2,0:3:0:0:
287,75,225890,2,0,P|253:70|220:76,1,67.5000025749208,2|2,0:3|3:2,0:0:0:0:
512,148,226490,5,6,3:3:0:0:
304,292,226890,1,14,0:3:0:0:
163,208,227290,2,0,P|130:200|84:207,1,67.5000025749208,6|0,0:3|0:0,0:0:0:0:
309,23,227690,6,0,P|331:77|319:165,1,135.000005149842,6|2,3:3|0:0,0:0:0:0:
314,175,228290,1,0,3:0:0:0:
230,98,228490,1,10,0:0:0:0:
398,249,228890,2,0,P|403:287|396:327,1,67.5000025749208,6|2,0:3|0:3,0:0:0:0:
144,328,229290,6,0,P|120:326|88:332,2,45.0000017166138,6|2|2,0:0|0:0|0:0,0:0:0:0:
117,231,229690,2,0,P|94:222|61:220,2,45.0000017166138,6|2|2,3:2|0:0|0:0,0:0:0:0:
158,139,230090,5,6,0:1:0:0:
230,98,230223,1,6,0:0:0:0:
276,124,230356,1,6,0:0:0:0:
357,94,230490,5,6,0:1:0:0:
442,136,230623,1,6,0:0:0:0:
512,73,230756,1,6,0:0:0:0:
363,186,230890,6,0,P|357:253|381:314,1,135.000005149842,6|2,3:2|0:0,0:0:0:0:
400,330,231490,1,0,3:0:0:0:
270,307,231690,1,10,0:0:0:0:
120,115,232090,2,0,P|111:160|114:196,1,67.5000025749208,6|2,0:3|0:3,0:0:0:0:
123,270,232490,5,6,0:3:0:0:
203,227,232890,1,2,3:2:0:0:
292,33,233290,1,10,0:0:0:0:
358,84,233690,1,2,0:0:0:0:
407,280,233890,5,2,0:3:0:0:
489,81,234090,2,0,P|424:69|352:86,1,135.000005149842,6|2,3:3|0:0,0:0:0:0:
334,95,234690,1,0,3:0:0:0:
422,190,234890,1,10,0:0:0:0:
223,342,235290,1,6,0:3:0:0:
117,267,235490,1,2,0:3:0:0:
105,252,235690,6,0,P|94:192|115:115,1,135.000005149842,6|2,0:3|3:2,0:0:0:0:
332,20,236490,5,14,0:3:0:0:
422,157,236790,1,2,0:3:0:0:
382,275,237090,1,2,0:3:0:0:
256,191,237290,6,0,P|190:179|113:198,1,135.000005149842,6|6,3:0|0:3,0:0:0:0:
33,278,237890,1,2,0:3:0:0:
25,294,238090,2,0,P|22:330|30:366,1,67.5000025749208,10|0,0:2|0:0,0:0:0:0:
192,284,238490,2,0,P|195:320|187:356,1,67.5000025749208,2|8,0:2|0:1,0:0:0:0:
186,262,238890,5,2,0:0:0:0:
286,286,239290,1,2,3:2:0:0:
467,201,239690,1,10,0:0:0:0:
165,27,240090,2,0,P|200:18|239:23,1,67.5000025749208,6|0,0:3|0:0,0:0:0:0:
80,51,240490,5,6,3:0:0:0:
35,123,240690,1,0,3:0:0:0:
30,134,241090,1,0,3:0:0:0:
95,219,241290,1,10,0:0:0:0:
104,228,241690,1,2,0:0:0:0:
242,159,241890,5,2,0:3:0:0:
319,220,242090,2,0,P|338:283|326:354,1,135.000005149842,6|2,0:3|3:2,0:0:0:0:
382,143,242890,1,8,0:0:0:0:
104,228,243290,1,8,3:0:0:0:
60,142,243490,1,8,0:1:0:0:
127,27,243690,6,0,P|176:12|244:26,1,107.999996704102,6|2,3:2|0:0,0:0:0:0:
371,72,244490,1,10,0:2:0:0:
382,79,244890,2,0,L|385:142,1,53.9999983520508,2|8,0:0|0:1,0:0:0:0:
388,219,245290,5,2,0:0:0:0:
321,276,245690,1,2,3:2:0:0:
476,374,246090,1,10,0:0:0:0:
506,297,246490,1,2,0:0:0:0:
263,283,246890,5,2,3:2:0:0:
128,197,247290,2,0,P|116:139|127:91,1,107.999996704102,6|14,0:3|0:3,0:0:0:0:
264,10,248090,1,6,0:3:0:0:
353,87,248290,1,2,0:3:0:0:
363,97,248490,6,0,P|367:120|362:157,1,53.9999983520508,6|0,0:3|0:0,0:0:0:0:
461,12,248890,1,6,3:0:0:0:
132,136,249290,1,14,0:3:0:0:
333,265,249690,1,6,0:3:0:0:
318,301,249890,1,2,0:3:0:0:
237,280,250090,5,2,3:2:0:0:
90,222,250490,2,0,P|76:269|89:337,1,107.999996704102,2|10,3:0|0:0,0:0:0:0:
280,129,251290,2,0,P|282:103|274:70,1,53.9999983520508,6|8,0:3|0:1,0:0:0:0:
357,38,251690,5,2,3:2:0:0:
424,92,252090,1,2,3:2:0:0:
273,235,252490,1,10,0:0:0:0:
285,135,252890,2,0,P|257:134|231:143,1,53.9999983520508,2|0,0:2|0:0,0:0:0:0:
110,174,253290,5,2,3:2:0:0:
379,219,253690,1,6,0:3:0:0:
50,352,254090,2,0,P|38:301|52:236,1,107.999996704102,14|6,0:3|0:3,0:0:0:0:
110,174,254690,1,2,0:3:0:0:
120,164,254890,6,0,P|124:134|118:98,1,53.9999983520508,2|0,3:2|0:0,0:0:0:0:
35,0,255290,1,6,3:3:0:0:
299,88,255690,1,6,0:3:0:0:
244,155,255890,1,2,0:3:0:0:
287,231,256090,2,0,P|292:256|289:292,1,53.9999983520508,6|0,0:3|0:0,0:0:0:0:
465,381,256490,6,0,B|494:318|494:318|486:145,1,215.999993408203,6|10,3:2|0:0,0:0:0:0:
479,21,257690,2,0,L|483:82,1,53.9999983520508,2|8,0:0|0:1,0:0:0:0:
478,5,258090,5,2,0:0:0:0:
388,35,258490,1,2,3:2:0:0:
223,203,258890,1,10,0:0:0:0:
139,164,259290,2,0,P|110:159|80:163,1,53.9999983520508,2|0,0:0|0:0,0:0:0:0:
0,295,259690,5,2,3:2:0:0:
139,164,260090,2,0,P|150:112|144:56,1,107.999996704102,6|14,0:3|0:3,0:0:0:0:
304,304,260890,1,6,0:3:0:0:
0,179,261290,6,0,L|67:175,1,53.9999983520508,6|0,0:3|0:0,0:0:0:0:
237,107,261690,1,6,3:3:0:0:
455,182,262090,1,14,0:3:0:0:
269,300,262490,1,6,0:3:0:0:
215,278,262690,1,2,0:3:0:0:
135,306,262890,5,6,3:3:0:0:
59,181,263290,2,0,P|48:114|62:64,1,107.999996704102,6|10,0:3|0:2,0:0:0:0:
286,31,264090,2,0,P|293:54|292:87,1,53.9999983520508,6|8,0:3|0:1,0:0:0:0:
379,51,264490,5,2,0:0:0:0:
447,108,264890,1,2,3:2:0:0:
317,269,265290,1,10,0:0:0:0:
326,350,265690,1,2,0:0:0:0:
168,285,266090,5,2,3:2:0:0:
292,163,266490,2,0,P|300:107|290:43,1,107.999996704102,6|14,0:3|0:3,0:0:0:0:
132,26,267290,1,6,0:3:0:0:
75,99,267490,1,2,0:3:0:0:
69,111,267690,6,0,P|65:140|71:174,1,53.9999983520508,6|0,0:3|0:0,0:0:0:0:
135,344,268090,1,6,3:3:0:0:
264,210,268490,1,14,0:3:0:0:
348,283,268756,2,0,P|417:297|500:259,1,143.999995605469,2|0,0:3|0:0,0:0:0:0:
484,272,270090,5,8,0:0:0:0:
493,275,270890,2,0,L|494:226,1,36,0|0,1:0|0:0,0:0:0:0:
496,156,271690,1,8,0:0:0:0:
283,262,272490,6,0,L|280:186,1,72,0|8,1:0|0:0,0:0:0:0:
280,190,274090,1,0,1:0:0:0:
280,176,274490,1,0,0:0:0:0:
214,129,274890,1,8,0:0:0:0:
214,129,275690,6,0,B|144:100|74:130|74:130|93:148|133:152,1,202.500007724762,10|2,0:2|0:0,0:0:0:0:
201,217,277115,1,2,0:0:0:0:
211,230,277290,6,0,B|295:228|295:228|321:249|321:249|421:247,1,202.500007724762,10|0,0:0|0:0,0:0:0:0:
474,87,278890,6,0,P|434:58|453:139,1,202.500007724762,10|2,0:0|0:0,0:0:0:0:
506,234,280369,1,2,0:0:0:0:
496,246,280490,6,0,P|491:281|497:316,1,67.5000025749208,8|0,0:0|0:0,0:0:0:0:
294,350,281290,6,0,P|320:347|348:352,2,45.0000017166138,10|2|2,0:0|0:0|0:0,0:0:0:0:
195,302,282090,6,0,P|161:296|125:303,1,67.5000025749208,10|2,0:0|0:0,0:0:0:0:
51,338,282706,1,2,0:0:0:0:
131,175,283282,1,2,0:0:0:0:
68,124,283475,1,2,0:0:0:0:
62,111,283686,6,0,P|58:74|70:33,1,67.5000025749208,10|2,0:0|0:0,0:0:0:0:
274,23,284511,2,0,L|241:28,1,33.7500012874604,2|2,0:0|0:0,0:0:0:0:
355,15,284939,1,2,0:0:0:0:
269,199,285290,6,0,B|249:255|249:255|268:292|254:330,1,135.000005149842,8|0,0:0|0:0,0:0:0:0:
328,122,286490,1,2,0:0:0:0:
322,112,286890,2,0,B|272:94|223:115|223:115|174:136|123:119,1,202.500007724762,10|0,0:0|0:0,0:0:0:0:
59,250,288490,6,0,B|38:308|70:361|70:361|48:325|7:317,1,180,10|8,0:0|0:0,0:0:0:0:
197,291,289690,2,0,P|220:285|252:288,1,45,2|0,0:0|0:0,0:0:0:0:
346,330,290090,6,0,P|353:283|336:223,1,90,10|0,0:0|0:0,0:0:0:0:
304,158,290890,2,0,P|292:100|299:63,1,90,8|0,0:0|0:0,0:0:0:0:
396,103,291490,1,2,0:0:0:0:
304,158,291690,6,0,P|206:172|124:134,1,180,10|8,0:0|0:0,0:0:0:0:
23,229,292890,2,0,P|18:259|23:299,1,60,2|2,0:0|0:0,0:0:0:0:
28,312,293290,5,8,0:0:0:0:
110,349,293690,1,0,0:0:0:0:
253,254,294090,2,0,P|279:249|319:252,2,60,2|2|2,0:0|0:0|0:0,0:0:0:0:
171,207,294890,6,0,P|152:149|236:179,1,180,10|8,0:0|0:0,0:0:0:0:
50,117,296290,5,2,0:0:0:0:
146,39,296490,2,0,P|181:29|243:42,1,90,10|2,0:0|0:0,0:0:0:0:
331,113,297090,1,2,0:0:0:0:
345,126,297290,2,0,P|386:129|444:108,1,90,8|2,0:0|0:0,0:0:0:0:
218,166,297890,1,2,0:0:0:0:
207,175,298090,6,0,B|164:244|164:244|173:390,1,215.999993408203,8|8,0:0|0:0,0:0:0:0:
432,114,299690,6,0,P|411:171|480:134,1,175.499991966248,4|0,0:1|0:0,0:0:0:0:
353,280,300490,6,0,P|279:255|298:330,1,188.999994232178,4|0,0:1|0:0,0:0:0:0:
363,156,301290,6,0,P|298:146|221:174,1,135.000005149842,6|2,3:2|0:0,0:0:0:0:
214,184,301890,1,0,3:0:0:0:
119,149,302090,1,10,0:2:0:0:
39,346,302490,2,0,P|33:314|41:264,1,67.5000025749208,6|2,0:3|0:3,0:0:0:0:
120,239,302890,5,6,0:3:0:0:
36,188,303290,1,2,3:2:0:0:
326,277,303690,1,10,0:0:0:0:
286,354,304090,1,2,0:0:0:0:
155,114,304490,6,0,P|217:100|308:115,1,135.000005149842,6|2,3:0|0:0,0:0:0:0:
313,121,305090,1,0,3:0:0:0:
447,64,305290,1,10,0:0:0:0:
225,17,305690,2,0,P|218:52|223:88,1,67.5000025749208,6|2,0:3|0:3,0:0:0:0:
108,32,306090,5,6,0:3:0:0:
134,117,306490,1,2,3:2:0:0:
58,341,306890,5,14,0:3:0:0:
238,369,307190,1,2,0:3:0:0:
375,236,307490,1,2,0:3:0:0:
435,171,307690,6,0,P|423:97|436:33,1,135.000005149842,6|6,3:0|0:3,0:0:0:0:
265,125,308290,1,2,0:3:0:0:
193,157,308490,2,0,P|157:158|119:146,1,67.5000025749208,10|0,0:0|0:0,0:0:0:0:
69,94,308890,1,2,0:3:0:0:
20,239,309090,2,0,P|16:278|23:315,1,67.5000025749208,2|2,0:3|3:2,0:0:0:0:
377,221,309690,5,6,3:3:0:0:
59,104,310090,1,14,0:3:0:0:
255,48,310490,1,6,0:3:0:0:
462,149,310890,6,0,P|487:221|475:286,1,135.000005149842,6|2,3:3|0:0,0:0:0:0:
467,302,311490,1,0,3:0:0:0:
377,221,311690,1,10,0:0:0:0:
157,307,312090,2,0,P|123:314|87:308,1,67.5000025749208,6|2,0:3|0:3,0:0:0:0:
29,152,312490,6,0,P|31:132|26:102,2,45.0000017166138,6|2|2,0:0|0:0|0:0,0:0:0:0:
125,119,312890,2,0,P|121:99|109:71,2,45.0000017166138,6|2|2,3:2|0:0|0:0,0:0:0:0:
220,124,313290,5,6,0:1:0:0:
275,191,313423,1,6,0:0:0:0:
280,238,313556,1,6,0:0:0:0:
343,307,313690,5,6,0:1:0:0:
434,338,313823,1,6,0:0:0:0:
418,244,313956,1,6,0:0:0:0:
251,332,314090,6,0,P|180:343|116:321,1,135.000005149842,6|2,3:2|0:0,0:0:0:0:
96,306,314690,1,0,3:0:0:0:
157,173,314890,1,10,0:0:0:0:
365,304,315290,2,0,P|402:309|437:302,1,67.5000025749208,6|2,0:3|0:3,0:0:0:0:
483,214,315690,5,6,0:3:0:0:
395,177,316090,1,2,3:2:0:0:
132,352,316490,1,10,0:0:0:0:
229,367,316890,1,2,0:0:0:0:
177,166,317090,5,2,0:3:0:0:
93,77,317290,2,0,P|155:48|238:61,1,135.000005149842,6|2,3:3|0:0,0:0:0:0:
245,63,317890,1,0,3:0:0:0:
365,20,318090,1,10,0:0:0:0:
477,292,318490,2,0,P|443:292|406:305,1,67.5000025749208,6|2,0:3|0:3,0:0:0:0:
348,372,318890,5,6,0:3:0:0:
270,326,319290,1,2,3:2:0:0:
44,358,319690,5,14,0:3:0:0:
15,255,319956,1,2,0:3:0:0:
52,112,320223,1,2,0:3:0:0:
230,28,320490,6,0,P|299:19|376:47,1,135.000005149842,6|6,3:0|0:3,0:0:0:0:
380,50,321090,1,2,0:3:0:0:
286,144,321290,2,0,P|264:204|274:288,1,135.000005149842,10|2,0:2|0:2,0:0:0:0:
282,304,321890,1,8,0:1:0:0:
204,346,322090,5,2,0:0:0:0:
124,307,322490,1,2,3:2:0:0:
385,164,322890,1,10,0:0:0:0:
412,354,323290,2,0,P|416:316|410:277,1,67.5000025749208,6|0,0:3|0:0,0:0:0:0:
290,160,323690,5,6,3:0:0:0:
276,149,323890,2,0,P|228:140|141:169,1,135.000005149842,0|0,3:0|3:0,0:0:0:0:
59,252,324490,1,10,0:0:0:0:
55,262,324890,1,2,0:0:0:0:
226,265,325090,5,2,0:3:0:0:
147,164,325290,2,0,P|136:86|151:27,1,135.000005149842,6|2,0:3|3:2,0:0:0:0:
336,29,326090,5,8,0:0:0:0:
419,93,326290,1,8,0:0:0:0:
358,255,326490,5,8,3:0:0:0:
319,177,326690,1,8,0:1:0:0:
439,83,326890,6,0,P|462:130|456:223,1,144,2|2,0:0|0:0,0:0:0:0:
449,241,328090,1,2,0:0:0:0:
317,199,328490,2,0,P|280:193|238:205,1,72,2|2,0:0|0:0,0:0:0:0:
158,172,329290,2,0,P|152:209|164:251,1,72,10|2,0:0|0:0,0:0:0:0:
384,57,330090,6,0,B|329:38|275:54|275:54|229:68|167:53,1,216,2|2,0:0|0:0,0:0:0:0:
75,87,331490,1,2,0:0:0:0:
56,98,331690,2,0,P|42:154|64:242,1,144,2|10,0:0|0:0,0:0:0:0:
232,356,332890,2,0,L|233:315,1,36,2|0,0:0|0:0,0:0:0:0:
316,296,333290,5,2,0:0:0:0:
399,320,333690,1,2,0:0:0:0:
483,160,334090,5,2,0:0:0:0:
488,169,334140,1,2,0:0:0:0:
400,66,334490,1,2,0:0:0:0:
234,153,334890,6,0,P|196:159|159:154,1,72,2|2,0:0|0:0,0:0:0:0:
67,119,335690,2,0,P|39:115|10:118,2,54,10|0|0,0:0|0:0|0:0,0:0:0:0:
147,57,336490,6,0,B|193:27|193:27|297:33,1,144,2|2,0:0|0:0,0:0:0:0:
393,37,337690,1,2,0:0:0:0:
401,48,338090,2,0,P|409:83|403:131,1,72,2|2,0:0|0:0,0:0:0:0:
369,342,338890,1,10,0:0:0:0:
377,353,339690,6,0,L|296:350,1,72,2|0,0:0|0:0,0:0:0:0:
148,344,340535,2,0,L|219:346,1,72,2|2,0:0|0:0,0:0:0:0:
382,264,341304,2,0,L|301:261,1,72,2|2,0:0|0:0,0:0:0:0:
162,90,342093,2,0,B|177:138|177:138|166:214,1,108,10|0,0:0|0:0,0:0:0:0:
133,273,342890,6,0,P|169:280|213:269,1,72,2|2,0:0|0:0,0:0:0:0:
279,195,343690,1,2,0:0:0:0:
356,237,344090,1,2,0:0:0:0:
372,232,344490,1,2,0:0:0:0:
459,151,344890,1,2,0:0:0:0:
281,361,345290,2,0,P|275:327|281:279,1,72,10|0,0:0|0:0,0:0:0:0:
170,137,346090,6,0,B|138:191|138:191|151:303,1,144,2|2,0:0|0:0,0:0:0:0:
90,374,347290,1,2,0:0:0:0:
295,276,347690,2,0,P|332:266|377:270,1,72,2|2,0:0|0:0,0:0:0:0:
470,96,348490,1,10,0:0:0:0:
503,197,348890,1,2,0:0:0:0:
344,100,349290,6,0,P|274:86|204:109,1,144,2|2,0:0|0:0,0:0:0:0:
373,185,350490,1,2,0:0:0:0:
322,257,350890,2,0,P|315:296|323:339,1,72,2|2,0:0|0:0,0:0:0:0:
149,280,351690,6,0,B|141:248|103:224|65:200|26:176|26:176|-12:152|-19:121|-27:90|-3:52|29:44|60:37|98:61|98:61|122:23|153:16|184:8|223:32|230:64|237:95|213:133|213:133|189:172|165:210|172:241,1,720,14|0,0:0|0:0,0:0:0:0:
