osu file format v14

[General]
AudioFilename: audio.mp3
AudioLeadIn: 0
PreviewTime: 26990
Countdown: 0
SampleSet: Soft
StackLeniency: 0.2
Mode: 0
LetterboxInBreaks: 0
SkinPreference:Rem
EpilepsyWarning: 1
WidescreenStoryboard: 1

[Editor]
Bookmarks: 26193,51793,77393,109393,134993,160593,186193,218193,243790,269393,301393,326993
DistanceSpacing: 0.8
BeatDivisor: 4
GridSize: 16
TimelineZoom: 1.2

[Metadata]
Title:Wishing
TitleUnicode:Wishing
Artist:Rem (CV: Minase Inori)
ArtistUnicode:レム (CV: 水瀬いのり)
Creator:Deppyforce
Version:I love Emilia.
Source:Re:ゼロから始める異世界生活
Tags:re:zero kara hajimeru isekai seikatsu re: life in a different world from zero character song ep episode 18 ending ed full ver version maakkeli mkl tehron
BeatmapID:1092309
BeatmapSetID:514157

[Difficulty]
HPDrainRate:2
CircleSize:2
OverallDifficulty:2
ApproachRate:2
SliderMultiplier:1.1
SliderTickRate:1

[Events]
//Background and Video events
0,0,"yehaj.jpg",0,0
//Break Periods
//Storyboard Layer 0 (Background)
//Storyboard Layer 1 (Fail)
//Storyboard Layer 2 (Pass)
//Storyboard Layer 3 (Foreground)
//Storyboard Sound Samples

[TimingPoints]
590,800,4,2,1,40,1,0
1390,-100,4,2,1,5,0,0
3790,-100,4,2,1,40,0,0
14190,-100,4,2,1,5,0,0
15790,-100,4,2,1,40,0,0
26990,-100,4,2,1,35,0,0
43040,-100,4,2,1,5,0,0
44540,-100,4,2,1,35,0,0
51790,-100,4,2,1,35,0,0
51840,-100,4,2,1,45,0,0
107790,-100,4,2,1,60,0,0
109390,-100,4,2,1,55,0,1
134990,-100,4,2,2,50,0,0
186190,-100,4,2,1,55,0,0
216590,-100,4,2,1,70,0,0
218190,-100,4,2,1,65,0,1
243790,-100,4,2,1,55,0,0
269390,-100,4,2,1,30,0,0
275790,-100,4,2,1,40,0,0
288590,-100,4,2,1,50,0,0
299790,-100,4,2,1,70,0,0
301390,-100,4,2,1,65,0,1
326990,-100,4,2,1,40,0,0

[Colours]
Combo1 : 2,141,208
Combo2 : 132,192,253
SliderBorder : 2,163,240

[HitObjects]
500,169,590,6,0,B|452:184|391:172|391:172|403:223|389:280|389:280|346:248|269:245|212:284|195:321,1,440,2|2,0:0|0:0,0:0:0:0:
36,245,5390,2,0,B|64:198|64:198|71:143,1,110,2|0,0:0|0:0,0:0:0:0:
127,75,6990,6,0,P|165:59|206:55,1,82.5,2|0,0:0|0:0,0:0:0:0:
299,113,8590,2,0,P|351:131|406:128,1,110,2|0,0:0|0:0,0:0:0:0:
468,190,10190,2,0,L|460:282,1,82.5,2|0,0:0|0:0,0:0:0:0:
269,316,12590,1,2,0:0:0:0:
200,261,13390,6,0,B|144:249|92:273|92:273|33:242|21:171|52:113|90:91,1,330,4|0,0:0|0:0,0:0:0:0:
164,139,16590,2,0,P|203:154|244:151,1,82.5,2|0,0:0|0:0,0:0:0:0:
419,59,18990,1,2,0:0:0:0:
387,141,19790,6,0,P|380:181|383:222,1,82.5,2|0,0:0|0:0,0:0:0:0:
467,292,21390,2,0,P|429:251|383:222,1,110,2|0,0:0|0:0,0:0:0:0:
314,277,22990,2,0,P|275:291|233:292,1,82.5,2|0,0:0|0:0,0:0:0:0:
46,228,25390,2,0,L|50:119,1,110,2|4,0:0|0:0,0:0:0:0:
320,166,29490,5,2,0:0:0:0:
81,250,31840,2,0,P|78:199|105:155,1,103.125,0|2,0:0|0:0,0:0:0:0:
269,223,34190,6,0,P|217:238|165:221,1,110,0|2,0:0|0:0,0:0:0:0:
106,156,35790,2,0,B|142:136|142:136|169:104,1,82.5,0|2,0:0|0:0,0:0:0:0:
360,162,38190,2,0,L|366:277,1,110,2|0,0:0|0:0,0:0:0:0:
66,74,42240,6,0,B|139:30|232:59|232:59|313:87|371:56,1,316.25,2|0,0:0|0:0,0:0:0:0:
448,109,45390,2,0,P|459:148|457:189,1,82.5,0|2,0:0|0:0,0:0:0:0:
370,257,46990,2,0,P|322:230|268:226,1,110,2|0,0:0|0:0,0:0:0:0:
204,287,48590,6,0,L|195:373,1,82.5,0|2,0:0|0:0,0:0:0:0:
391,343,50990,1,2,0:0:0:0:
370,257,51790,6,0,P|366:201|392:150,1,110,6|0,0:2|0:0,0:0:0:0:
454,94,53390,2,0,P|398:98|347:72,1,110
267,49,54990,2,0,B|208:67|164:30|164:30|108:9|55:26,1,220,2|0,0:0|0:0,0:0:0:0:
33,111,57390,1,2,0:0:0:0:
11,196,58190,6,0,L|4:310,1,110,0|2,0:0|0:0,0:0:0:0:
59,374,59790,2,0,P|113:378|162:355,1,110,0|2,0:0|0:0,0:0:0:0:
212,282,61390,1,0,0:0:0:0:
298,299,62190,2,0,B|352:310|352:310|433:255|386:161,1,220,2|2,0:0|0:0,0:0:0:0:
299,155,64590,6,0,B|245:166|245:166|164:111|211:17,1,220,6|0,0:0|0:0,0:0:0:0:
383,71,67790,2,0,B|437:118|409:202|409:202|440:234|428:289,1,220,2|0,0:0|0:0,0:0:0:0:
343,261,70190,1,2,0:0:0:0:
273,314,70990,6,0,P|220:328|167:315,1,110,0|2,0:0|0:0,0:0:0:0:
125,238,72590,2,0,L|131:128,1,110,2|0,0:0|0:0,0:0:0:0:
194,67,74190,2,0,B|255:62|295:101|295:101|346:73|401:93,1,220,2|0,0:0|0:0,0:0:0:0:
445,169,76590,1,2,0:0:0:0:
378,226,77390,6,0,L|392:341,2,110,4|0|0,0:0|0:0|0:0,0:0:0:0:
312,167,79790,1,0,0:0:0:0:
237,213,80590,2,0,B|111:240|162:158|12:187,1,220,2|0,0:0|0:0,0:0:0:0:
191,124,83790,6,0,B|203:74|203:74|193:8,2,110,2|0|0,0:0|0:0|0:0,0:0:0:0:
134,191,86190,1,0,0:0:0:0:
210,234,86990,2,0,B|301:228|301:228|333:253|333:253|439:248,1,220,2|2,0:0|0:0,0:0:0:0:
481,185,89390,1,2,0:0:0:0:
407,136,90190,6,0,P|392:82|389:4,2,110,2|0|0,0:0|0:0|0:0,0:0:0:0:
481,185,92590,1,0,0:0:0:0:
421,248,93390,2,0,L|288:255,2,110,2|0|0,0:0|0:0|0:0,0:0:0:0:
481,185,95790,1,2,0:0:0:0:
407,136,96590,6,0,B|354:118|354:118|282:125,1,110,2|0,0:0|0:0,0:0:0:0:
259,201,98190,2,0,L|139:206,1,110,2|0,0:0|0:0,0:0:0:0:
61,195,99790,2,0,P|45:152|38:81,1,110,2|0,0:0|0:0,0:0:0:0:
106,33,101390,1,2,0:0:0:0:
191,12,102190,1,2,0:0:0:0:
267,55,102990,6,0,L|395:52,1,110,2|0,0:0|0:0,0:0:0:0:
389,139,104590,2,0,L|266:142,1,110,2|0,0:0|0:0,0:0:0:0:
207,192,106190,1,2,0:0:0:0:
371,254,107790,2,0,P|392:202|397:135,1,110,2|2,0:0|2:0,0:0:0:0:
332,89,109390,6,0,L|213:80,1,110,4|0,0:1|0:0,0:0:0:0:
174,154,110990,2,0,L|28:159,1,110,2|0,0:0|0:0,0:0:0:0:
60,245,112590,2,0,L|183:241,1,110,2|0,0:0|0:0,0:0:0:0:
229,305,114190,1,2,0:0:0:0:
316,316,114990,1,2,0:0:0:0:
398,286,115790,6,0,P|420:233|418:164,1,110,2|0,0:0|0:0,0:0:0:0:
338,155,117390,2,0,P|320:106|319:36,1,110,2|0,0:0|0:0,0:0:0:0:
232,25,118990,2,0,L|100:18,1,110,2|0,0:0|0:0,0:0:0:0:
54,75,120590,1,2,0:0:0:0:
20,156,121390,1,2,0:0:0:0:
62,233,122190,6,0,B|116:249|116:249|181:241,1,110,2|0,0:0|0:0,0:0:0:0:
224,172,123790,2,0,L|357:167,1,110,2|0,0:0|0:0,0:0:0:0:
417,194,125390,2,0,P|437:253|441:309,1,110,2|0,0:0|0:0,0:0:0:0:
370,352,126990,1,2,0:0:0:0:
284,371,127790,1,2,0:0:0:0:
215,315,128590,6,0,L|79:307,1,110,2|0,0:0|0:0,0:0:0:0:
37,252,130190,2,0,P|26:207|25:129,1,110,2|0,0:0|0:0,0:0:0:0:
86,81,131790,2,0,B|216:61|174:146|316:115,1,220,2|2,0:0|0:0,0:0:0:0:
456,42,134990,6,0,P|445:95|451:149,1,110,4|2,0:0|0:3,0:0:0:0:
431,235,136590,2,0,P|380:255|325:257,1,110,0|8,0:0|0:0,0:0:0:0:
252,210,138190,2,0,B|287:168|287:168|296:114,2,110,2|2|0,0:0|0:3|3:0,0:0:0:0:
165,194,140590,1,8,0:0:0:0:
136,277,141390,6,0,B|183:314|239:297|239:297|288:330|346:305,1,220,4|2,0:0|0:3,0:0:0:0:
408,245,143790,1,8,0:0:0:0:
496,251,144590,2,0,L|501:361,2,110,2|2|0,0:0|0:3|0:0,0:0:0:0:
408,245,146990,1,8,0:0:0:0:
344,306,147790,6,0,P|290:316|238:299,1,110,2|0,0:0|0:0,0:0:0:0:
208,216,149390,1,2,0:3:0:0:
235,132,150190,6,0,P|289:142|341:125,1,110,8|4,0:0|0:0,0:0:0:0:
416,80,151790,1,0,0:0:0:0:
494,120,152590,2,0,B|503:177|503:177|496:232,1,110,2|8,0:3|0:0,0:0:0:0:
419,272,154190,6,0,P|377:237|357:186,2,110,2|2|0,0:0|0:3|3:0,0:0:0:0:
379,350,156590,1,8,0:0:0:0:
292,336,157390,2,0,L|275:227,1,110,2|2,0:0|0:3,0:0:0:0:
197,187,158990,2,0,B|164:234|164:234|147:287,1,110,0|8,3:3|0:0,0:0:0:0:
205,352,160590,5,2,0:0:0:0:
292,336,161390,2,0,P|346:339|392:369,2,110,0|0|2,0:0|0:0|0:3,0:0:0:0:
292,248,163790,2,0,P|271:198|282:132,1,110,2|2,0:0|0:3,0:0:0:0:
327,72,165390,1,0,0:0:0:0:
412,51,166190,1,2,0:0:0:0:
327,72,166990,6,0,P|272:77|222:56,1,110,0|2,0:0|0:3,0:0:0:0:
136,35,168590,1,0,0:0:0:0:
58,75,169390,1,2,0:3:0:0:
33,159,170190,2,0,B|22:213|22:213|37:270,1,110,0|2,0:0|0:3,0:0:0:0:
96,329,171790,2,0,B|207:324,1,110,0|2,0:0|0:3,0:0:0:0:
276,271,173390,5,2,0:0:0:0:
263,183,174190,2,0,P|275:130|312:90,2,110,2|0|2,0:3|0:0|0:3,0:0:0:0:
276,271,176590,2,0,P|222:262|183:225,1,110,2|2,0:0|0:3,0:0:0:0:
188,135,178190,1,0,0:0:0:0:
158,52,178990,1,2,0:0:0:0:
188,135,179790,6,0,P|194:189|173:239,1,110,0|2,0:0|0:3,0:0:0:0:
90,269,181390,1,0,0:0:0:0:
10,231,182190,1,2,0:3:0:0:
9,143,182990,2,0,B|63:132|63:132|120:147,1,110,0|2,0:0|0:3,0:0:0:0:
179,206,184590,2,0,B|177:317,1,110,0|2,0:0|0:3,0:0:0:0:
255,361,186190,6,0,P|310:357|354:326,2,110,4|8|0,0:0|0:0|0:0,0:0:0:0:
177,315,188590,1,8,0:0:0:0:
92,337,189390,2,0,P|60:292|57:238,1,110,4|8,3:0|0:0,0:0:0:0:
102,163,190990,1,2,0:0:0:0:
179,206,191790,1,8,0:0:0:0:
263,180,192590,6,0,B|319:166|372:180|372:180|418:147|413:83,1,220,4|0,0:3|0:0,0:0:0:0:
334,45,194990,1,8,0:0:0:0:
259,92,195790,2,0,B|203:96|203:96|154:73,2,110,4|8|2,0:3|0:0|0:0,0:0:0:0:
334,45,198190,1,8,0:0:0:0:
411,89,198990,6,0,L|420:198,1,110,4|8,0:3|0:0,0:0:0:0:
400,284,200590,1,2,0:0:0:0:
325,334,201390,1,8,0:0:0:0:
237,318,202190,2,0,P|222:266|228:212,1,110,4|8,0:3|0:0,0:0:0:0:
314,183,203790,2,0,B|365:203|365:203|420:198,1,110,2|8,0:0|0:0,0:0:0:0:
493,149,205390,6,0,L|503:34,2,110,4|8|2,0:3|0:0|0:0,0:0:0:0:
420,198,207790,1,8,0:0:0:0:
451,280,208590,2,0,P|430:330|385:360,1,110,4|8,0:3|0:0,0:0:0:0:
302,332,210190,2,0,P|277:283|230:257,1,110,2|8,0:0|0:0,0:0:0:0:
159,310,211790,6,0,P|93:239|174:187,1,220,2|0,0:0|0:0,0:0:0:0:
230,257,214190,1,2,0:0:0:0:
317,246,214990,2,0,B|362:213|362:213|380:161,1,110,4|8,0:3|0:0,0:0:0:0:
342,82,216590,1,2,0:0:0:0:
256,103,217390,1,2,0:0:0:0:
170,82,218190,6,0,P|115:85|66:117,1,110,4|8,0:1|0:0,0:0:0:0:
31,192,219790,1,0,0:0:0:0:
56,276,220590,1,10,0:0:0:0:
137,308,221390,2,0,L|255:299,1,110,4|8,0:0|0:0,0:0:0:0:
334,291,222990,1,2,0:0:0:0:
343,203,223790,1,8,0:0:0:0:
352,115,224590,6,0,P|404:137|430:194,1,110,0|8,3:0|0:0,0:0:0:0:
343,203,226190,2,0,P|291:181|265:124,1,110,2|8,0:0|0:0,0:0:0:0:
225,57,227790,1,0,3:0:0:0:
146,98,228590,1,8,0:0:0:0:
187,177,229390,1,2,0:0:0:0:
266,135,230190,1,8,0:0:0:0:
187,177,230990,6,0,P|175:230|193:286,1,110,4|8,0:1|0:0,0:0:0:0:
267,327,232590,1,0,0:0:0:0:
354,327,233390,1,10,0:0:0:0:
429,282,234190,2,0,P|444:229|433:176,1,110,0|8,3:0|0:0,0:0:0:0:
362,124,235790,1,2,0:0:0:0:
281,159,236590,1,8,0:0:0:0:
199,123,237390,6,0,P|172:77|177:23,1,110,0|8,3:0|0:0,0:0:0:0:
259,58,238990,2,0,P|286:105|280:159,1,110,0|10,0:0|0:0,0:0:0:0:
200,124,240590,1,0,3:0:0:0:
193,211,241390,1,8,0:0:0:0:
268,255,242190,1,2,0:0:0:0:
275,342,242990,1,8,0:0:0:0:
346,292,243790,6,0,L|463:278,1,110,4|8,0:1|0:0,0:0:0:0:
503,205,245390,1,0,0:0:0:0:
461,127,246190,1,10,0:0:0:0:
392,72,246990,2,0,B|339:55|339:55|277:64,1,110,4|8,0:3|0:0,0:0:0:0:
252,144,248590,1,0,0:0:0:0:
174,184,249390,1,10,0:0:0:0:
91,154,250190,5,4,0:3:0:0:
140,276,251390,2,0,B|244:246|244:246|312:268,1,165,2|8,0:0|0:0,0:0:0:0:
355,330,253390,2,0,L|479:333,1,110,4|8,0:3|0:0,0:0:0:0:
509,256,254990,1,2,0:0:0:0:
463,180,255790,1,8,0:0:0:0:
391,128,256590,6,0,P|342:114|270:116,1,110,4|8,0:1|0:0,0:0:0:0:
228,182,258190,1,2,0:0:0:0:
142,204,258990,1,8,0:0:0:0:
58,174,259790,2,0,L|49:55,1,110,4|8,0:3|0:0,0:0:0:0:
126,21,261390,1,0,0:0:0:0:
211,40,262190,1,10,0:0:0:0:
296,17,262990,5,4,0:3:0:0:
249,140,264190,2,0,B|183:143|183:143|152:129|152:129|85:132,1,165,2|8,0:0|0:0,0:0:0:0:
24,194,266190,2,0,P|11:250|12:308,1,110,4|8,0:3|0:0,0:0:0:0:
82,353,267790,1,0,0:0:0:0:
160,313,268590,1,10,0:0:0:0:
240,348,269390,6,0,L|351:340,3,110,0|2|0|2,0:0|0:3|0:0|0:3,0:0:0:0:
414,280,272590,2,0,P|431:225|426:159,3,110,0|2|0|2,0:0|0:3|0:0|0:3,0:0:0:0:
361,117,275790,6,0,B|208:98|308:167|130:143,1,220,4|2,0:1|0:0,0:0:0:0:
5,42,278990,2,0,B|53:190|53:190|14:265,1,220,2|2,0:0|0:0,0:0:0:0:
55,329,281390,1,0,0:0:0:0:
130,283,282190,6,0,B|217:280|217:280|250:310|250:310|363:306,1,220,2|2,0:0|0:0,0:0:0:0:
510,266,285390,2,0,P|465:171|471:50,1,220,2|2,0:0|0:0,0:0:0:0:
378,209,288590,6,0,L|261:216,1,110,2|0,0:0|0:0,0:0:0:0:
201,158,290190,2,0,L|84:152,1,110,2|0,0:0|0:0,0:0:0:0:
16,198,291790,2,0,P|3:263|4:310,1,110,2|0,0:0|0:0,0:0:0:0:
72,361,293390,1,2,0:0:0:0:
137,301,294190,1,0,0:0:0:0:
214,343,294990,6,0,B|273:361|273:361|341:354,1,110,2|0,0:0|0:0,0:0:0:0:
387,298,296590,2,0,P|405:244|398:169,1,110,2|0,0:0|0:0,0:0:0:0:
323,156,298190,2,0,L|317:38,1,110,2|0,0:0|0:0,0:0:0:0:
235,14,299790,1,2,0:0:0:0:
158,57,300590,1,2,0:0:0:0:
73,34,301390,6,0,B|59:88|59:88|66:141,2,110,4|8|2,0:1|0:0|0:0,0:0:0:0:
158,57,303790,1,8,0:0:0:0:
154,144,304590,2,0,P|135:195|90:225,1,110,0|8,3:0|0:0,0:0:0:0:
112,311,306190,2,0,P|151:347|205:352,1,110,2|8,0:0|0:0,0:0:0:0:
281,306,307790,5,0,3:0:0:0:
367,323,308590,1,8,0:0:0:0:
450,295,309390,2,0,L|459:185,1,110,2|8,0:0|0:0,0:0:0:0:
426,101,310990,2,0,P|384:136|368:188,1,110,0|8,3:0|0:0,0:0:0:0:
280,193,312590,1,2,0:0:0:0:
206,145,313390,1,8,0:0:0:0:
151,214,314190,6,0,B|180:262|246:257|246:257|296:277|299:345,1,220,4|2,1:0|0:0,0:0:0:0:
214,370,316590,1,8,0:0:0:0:
135,331,317390,2,0,P|81:321|27:332,1,110,0|8,0:0|0:0,0:0:0:0:
0,248,318990,2,0,P|17:196|52:154,1,110,2|8,0:0|0:0,0:0:0:0:
139,172,320590,5,0,3:0:0:0:
184,95,321390,1,8,0:0:0:0:
124,28,322190,1,2,0:0:0:0:
41,64,322990,1,8,0:0:0:0:
52,154,323790,6,0,L|35:262,1,110,0|8,3:0|0:0,0:0:0:0:
105,315,325390,2,0,B|143:274|143:274|194:259,1,110,0|8,0:0|0:0,0:0:0:0:
283,286,326990,6,0,B|337:284|382:244|382:244|430:194|478:200|478:200|507:232|503:278|478:308,1,330,2|2,0:0|0:3,0:0:0:0:
433,375,330190,2,0,B|409:360|400:338|400:338|373:351|354:375|354:375|313:311|245:302|202:322|202:322|186:346|171:353,1,330,2|2,0:0|0:3,0:0:0:0:
83,315,333390,6,0,P|93:262|131:224,2,110,0|2|2,0:0|0:0|0:0,0:0:0:0:
171,303,335791,1,2,0:3:0:0:
251,337,336590,2,0,L|360:327,1,110,0|2,0:0|0:0,0:0:0:0:
424,266,338190,2,0,L|414:156,1,110,0|2,0:0|0:3,0:0:0:0:
371,79,339790,6,0,B|330:117|330:117|278:134,2,110,2|0|0,0:0|0:0|0:0,0:0:0:0:
414,156,342190,1,2,0:3:0:0:
383,237,342990,2,0,P|386:292|412:340,2,110,2|0|0,0:0|0:0|0:0,0:0:0:0:
414,156,345390,1,2,0:3:0:0:
344,103,346190,6,0,B|290:91|290:91|236:104,2,110,2|0|0,0:0|0:0|0:0,0:0:0:0:
414,156,348590,1,0,0:0:0:0:
256,192,349390,12,0,352190,0:0:0:0:
