osu file format v14

[General]
AudioFilename: audio.mp3
AudioLeadIn: 0
PreviewTime: -1
Countdown: 0
SampleSet: None
StackLeniency: 0.7
Mode: 0
LetterboxInBreaks: 0
WidescreenStoryboard: 0

[Editor]
DistanceSpacing: 1
BeatDivisor: 4
GridSize: 32
TimelineZoom: 1.4

[Metadata]
Title:No tilt
TitleUnicode:No tilt
Artist:Relol
ArtistUnicode:Relol
Creator:Asahina Momoko
Version:anime
Source:https://osu.ppy.sh/s/320118
Tags:
BeatmapID:1288797
BeatmapSetID:610381

[Difficulty]
HPDrainRate:6
CircleSize:4
OverallDifficulty:8
ApproachRate:9.4
SliderMultiplier:0.800000005960464
SliderTickRate:1

[Events]
//Background and Video events
0,0,"83a85ff2d39ec35bad314f56610f1670_how-to-study-for-the-cscs-thinking-emoji_560-375.jpg",0,0
//Break Periods
//Storyboard Layer 0 (Background)
//Storyboard Layer 1 (Fail)
//Storyboard Layer 2 (Pass)
//Storyboard Layer 3 (Foreground)
//Storyboard Sound Samples

[TimingPoints]
0,300,4,2,1,60,1,0
2400,-200,4,2,1,60,0,0
3300,-66.6666666666667,4,2,1,60,0,0
3600,-200,4,2,1,60,0,0
4350,-66.6666666666667,4,2,1,60,0,0
4800,-200,4,2,1,60,0,0
5550,-66.6666666666667,4,2,1,60,0,0
9600,-10,4,2,1,60,0,0
12000,-200,4,2,1,60,0,0
12900,-66.6666666666667,4,2,1,60,0,0
13200,-200,4,2,1,60,0,0
13950,-66.6666666666667,4,2,1,60,0,0

[HitObjects]
365,158,2400,6,0,L|425:130,1,60.0000004470348
419,132,3300,6,0,L|365:158,1,60.0000004470348
63,299,3600,6,0,L|123:271,1,60.0000004470348
63,299,4350,6,0,L|123:271,1,60.0000004470348
364,158,4650,1,0,0:0:0:0:
117,273,4800,6,0,L|177:245,1,60.0000004470348
117,273,5550,6,0,L|177:245,1,60.0000004470348
419,132,5850,1,0,0:0:0:0:
171,247,6000,5,0,0:0:0:0:
419,132,6150,1,0,0:0:0:0:
239,214,6450,5,0,0:0:0:0:
487,99,6750,1,0,0:0:0:0:
307,184,6900,6,0,L|367:156,1,60.0000004470348
205,184,7200,6,0,L|145:156,1,60.0000004470348
53,117,7500,1,0,0:0:0:0:
407,270,7650,1,0,0:0:0:0:
407,270,8100,5,0,0:0:0:0:
53,117,8250,1,0,0:0:0:0:
307,184,8400,6,0,L|367:156,1,60.0000004470348
459,117,8700,1,0,0:0:0:0:
105,270,8850,1,0,0:0:0:0:
204,224,9000,1,0,0:0:0:0:
50,295,9150,2,0,L|110:267,2,60.0000004470348
462,295,9600,6,0,L|402:267,1,60.0000004470348
317,228,9900,1,0,0:0:0:0:
462,295,10050,6,0,L|402:267,1,60.0000004470348
317,228,10350,1,0,0:0:0:0:
462,295,10500,6,0,L|402:267,1,60.0000004470348
317,228,10650,1,0,0:0:0:0:
177,342,10800,6,0,B|247:293|247:293|187:323|234:336|244:341|244:341|198:337|198:337|246:337|272:351|273:353|188:280|188:280|220:370|224:369|242:303|276:331|308:354|311:354|311:352|255:273,7,400.000002980232
50,295,12000,6,0,L|110:267,1,60.0000004470348
50,295,12900,6,0,L|110:267,1,60.0000004470348
462,89,13200,6,0,L|402:117,1,60.0000004470348
407,114,13950,6,0,L|462:89,2,60.0000004470348
193,228,14400,5,0,0:0:0:0:
316,162,14550,1,0,0:0:0:0:
222,133,14700,1,0,0:0:0:0:
288,257,14850,1,0,0:0:0:0:
170,222,15000,5,0,0:0:0:0:
336,168,15150,1,0,0:0:0:0:
226,111,15300,1,0,0:0:0:0:
281,279,15450,1,0,0:0:0:0:
152,209,15600,5,0,0:0:0:0:
352,180,15750,1,0,0:0:0:0:
238,94,15900,1,0,0:0:0:0:
267,296,16050,1,0,0:0:0:0:
407,114,16200,6,0,L|462:89,2,60.0000004470348
104,269,16650,1,0,0:0:0:0:
353,139,16800,6,0,L|407:113,5,60.0000004470348
159,245,17700,6,0,L|104:270,5,60.0000004470348
353,139,18600,6,0,L|407:113,5,60.0000004470348
159,245,19500,6,0,L|104:270,5,60.0000004470348
