osu file format v14

[General]
AudioFilename: audio.mp3
AudioLeadIn: 0
PreviewTime: 340365
Countdown: 0
SampleSet: Normal
StackLeniency: 0.7
Mode: 0
LetterboxInBreaks: 0
WidescreenStoryboard: 0

[Editor]
Bookmarks: 26920,36820,275620,322120,338920,344770,360520,365020,366370
DistanceSpacing: 0.2
BeatDivisor: 4
GridSize: 4
TimelineZoom: 3.299999

[Metadata]
Title:Chronostasis
TitleUnicode:Chronostasis
Artist:Release hallucination
ArtistUnicode:Release hallucination
Creator:Wishkey
Version:Illusions
Source:
Tags:M3-38 symphonic metal marathon emi gothic kaorin
BeatmapID:1222063
BeatmapSetID:577414

[Difficulty]
HPDrainRate:5
CircleSize:4
OverallDifficulty:9
ApproachRate:9.5
SliderMultiplier:1.7
SliderTickRate:1

[Events]
//Background and Video events
0,0,"BG.jpg",0,0
//Break Periods
//Storyboard Layer 0 (Background)
//Storyboard Layer 1 (Fail)
//Storyboard Layer 2 (Pass)
//Storyboard Layer 3 (Foreground)
//Storyboard Sound Samples

[TimingPoints]
2017,300,4,2,1,20,1,0
2017,-200,4,2,1,20,0,0
19417,-100,4,2,1,20,0,0
19717,-100,4,1,1,30,0,0
20017,272.727272727273,4,1,1,45,1,0
20017,-133.333333333333,4,1,1,45,0,0
20289,300,4,1,1,35,1,0
20289,-133.333333333333,4,1,1,35,0,0
21489,-133.333333333333,4,1,1,35,0,0
21789,352.941176470588,4,2,1,40,1,0
22141,279.06976744186,4,2,1,40,1,0
22420,300,4,1,1,65,1,0
36820,-83.3333333333333,4,1,1,65,0,0
39220,-83.3333333333333,4,1,1,50,0,0
41620,-83.3333333333333,4,1,1,75,0,0
49420,-100,4,1,1,75,0,0
50620,-125,4,1,1,75,0,0
51220,-111.111111111111,4,1,1,65,0,0
53320,-90.9090909090908,4,1,1,75,0,0
53545,-90.9090909090908,4,2,1,5,0,0
53620,-111.111111111111,4,1,1,65,0,0
59620,-90.9090909090909,4,1,1,75,0,0
59845,-90.9090909090909,4,1,1,5,0,0
59920,-111.111111111111,4,1,1,75,0,0
60820,-111.111111111111,4,1,1,65,0,0
62920,-90.9090909090908,4,1,1,75,0,0
63145,-90.9090909090908,4,1,1,5,0,0
63220,-111.111111111111,4,1,1,65,0,0
70420,-83.3333333333333,4,1,1,75,0,0
78820,-142.857142857143,4,1,1,75,0,0
79045,-142.857142857143,4,2,1,5,0,0
79120,-142.857142857143,4,1,1,75,0,0
79195,-142.857142857143,4,2,1,5,0,0
79270,-100,4,1,1,75,0,0
79495,-100,4,2,1,5,0,0
79570,-100,4,1,1,65,0,0
80020,-111.111111111111,4,1,1,65,0,0
82120,-90.9090909090908,4,1,1,75,0,0
82345,-90.9090909090908,4,2,1,5,0,0
82420,-111.111111111111,4,1,1,65,0,0
84145,-111.111111111111,4,2,1,5,0,0
84220,-111.111111111111,4,1,1,65,0,0
84370,-111.111111111111,4,2,1,5,0,0
84445,-111.111111111111,4,1,1,65,0,0
84595,-111.111111111111,4,2,1,5,0,0
84670,-111.111111111111,4,1,1,65,0,0
84745,-111.111111111111,4,2,1,5,0,0
84820,-111.111111111111,4,1,1,65,0,0
85045,-111.111111111111,4,2,1,5,0,0
85120,-111.111111111111,4,1,1,65,0,0
85195,-111.111111111111,4,2,1,5,0,0
85270,-111.111111111111,4,1,1,65,0,0
86545,-111.111111111111,4,2,1,5,0,0
86620,-111.111111111111,4,1,1,65,0,0
86770,-111.111111111111,4,2,1,5,0,0
86845,-111.111111111111,4,1,1,65,0,0
86995,-111.111111111111,4,2,1,5,0,0
87070,-111.111111111111,4,1,1,65,0,0
87145,-111.111111111111,4,2,1,5,0,0
87220,-111.111111111111,4,1,1,65,0,0
88420,-90.9090909090908,4,1,1,75,0,0
88645,-90.9090909090908,4,2,1,5,0,0
88720,-111.111111111111,4,1,1,75,0,0
89620,-111.111111111111,4,1,1,65,0,0
91720,-90.9090909090908,4,1,1,75,0,0
91945,-90.9090909090908,4,2,1,5,0,0
92020,-111.111111111111,4,1,1,65,0,0
93745,-111.111111111111,4,2,1,5,0,0
93820,-111.111111111111,4,1,1,65,0,0
93970,-111.111111111111,4,2,1,5,0,0
94045,-111.111111111111,4,1,1,65,0,0
94195,-111.111111111111,4,2,1,5,0,0
94270,-111.111111111111,4,1,1,65,0,0
94345,-111.111111111111,4,2,1,5,0,0
94420,-111.111111111111,4,1,1,65,0,0
94645,-111.111111111111,4,2,1,5,0,0
94720,-111.111111111111,4,1,1,65,0,0
94795,-111.111111111111,4,2,1,5,0,0
94870,-111.111111111111,4,1,1,65,0,0
96520,-90.9090909090909,4,1,1,75,0,0
96745,-90.9090909090909,4,2,1,5,0,0
96820,-111.111111111111,4,1,1,65,0,0
97720,-100,4,1,1,50,0,0
98020,-100,4,1,1,75,0,0
98395,-100,4,2,1,5,0,0
98470,-100,4,1,1,75,0,0
99220,-142.857142857143,4,1,1,50,0,0
103720,-142.857142857143,4,1,1,35,0,0
104020,-111.111111111111,4,1,1,50,0,0
106420,-111.111111111111,4,1,1,75,0,0
106870,-111.111111111111,4,2,1,40,0,0
107620,-83.3333333333333,4,1,1,80,0,1
107845,-83.3333333333333,4,2,1,5,0,1
107920,-83.3333333333333,4,1,1,80,0,1
112645,-83.3333333333333,4,2,1,5,0,1
112720,-83.3333333333333,4,1,1,80,0,1
117445,-83.3333333333333,4,2,1,5,0,1
117520,-83.3333333333333,4,1,1,80,0,1
117745,-83.3333333333333,4,2,1,5,0,1
117820,-83.3333333333333,4,1,1,80,0,1
118645,-83.3333333333333,4,2,1,5,0,1
118720,-83.3333333333333,4,1,1,80,0,1
118945,-83.3333333333333,4,2,1,5,0,1
119020,-83.3333333333333,4,1,1,80,0,1
121045,-83.3333333333333,4,2,1,5,0,1
121120,-83.3333333333333,4,1,1,80,0,1
121345,-83.3333333333333,4,2,1,5,0,1
121420,-83.3333333333333,4,1,1,80,0,1
122245,-83.3333333333333,4,2,1,5,0,1
122320,-83.3333333333333,4,1,1,80,0,1
123445,-83.3333333333333,4,2,1,5,0,1
123520,-83.3333333333333,4,1,1,80,0,1
124345,-83.3333333333333,4,2,1,5,0,1
124420,-71.4285714285714,4,1,1,80,0,1
124795,-71.4285714285714,4,2,1,5,0,1
124870,-71.4285714285714,4,1,1,80,0,1
125245,-71.4285714285714,4,2,1,5,0,1
125320,-71.4285714285714,4,1,1,80,0,1
125545,-71.4285714285714,4,2,1,5,0,1
125620,-71.4285714285714,4,1,1,60,0,1
126070,-83.3333333333333,4,2,1,40,0,0
126820,-100,4,1,1,65,0,0
136345,-100,4,2,1,5,0,0
136420,-111.111111111111,4,1,1,50,0,0
144820,-90.9090909090908,4,1,1,75,0,0
145045,-90.9090909090908,4,2,1,5,0,0
145120,-111.111111111111,4,1,1,75,0,0
146020,-111.111111111111,4,1,1,65,0,0
148120,-90.9090909090908,4,1,1,75,0,0
148345,-90.9090909090908,4,2,1,5,0,0
148420,-111.111111111111,4,1,1,65,0,0
152920,-90.9090909090908,4,1,1,75,0,0
153145,-90.9090909090908,4,2,1,5,0,0
153220,-111.111111111111,4,1,1,65,0,0
155620,-83.3333333333333,4,1,1,75,0,0
164020,-142.857142857143,4,1,1,75,0,0
164245,-142.857142857143,4,2,1,5,0,0
164320,-142.857142857143,4,1,1,75,0,0
164470,-100,4,1,1,75,0,0
164695,-100,4,2,1,5,0,0
164770,-100,4,1,1,75,0,0
164995,-100,4,2,1,5,0,0
165070,-100,4,1,1,75,0,0
165220,-111.111111111111,4,1,1,65,0,0
167320,-90.9090909090909,4,1,1,75,0,0
167545,-90.9090909090909,4,2,1,5,0,0
167620,-111.111111111111,4,1,1,65,0,0
169345,-111.111111111111,4,2,1,5,0,0
169420,-111.111111111111,4,1,1,65,0,0
169570,-111.111111111111,4,2,1,5,0,0
169645,-111.111111111111,4,1,1,65,0,0
169795,-111.111111111111,4,2,1,5,0,0
169870,-111.111111111111,4,1,1,65,0,0
169945,-111.111111111111,4,2,1,5,0,0
170020,-111.111111111111,4,1,1,65,0,0
170245,-111.111111111111,4,2,1,5,0,0
170320,-111.111111111111,4,1,1,65,0,0
170395,-111.111111111111,4,2,1,5,0,0
170470,-111.111111111111,4,1,1,65,0,0
171745,-111.111111111111,4,2,1,5,0,0
171820,-111.111111111111,4,1,1,65,0,0
171970,-111.111111111111,4,2,1,5,0,0
172045,-111.111111111111,4,1,1,65,0,0
172195,-111.111111111111,4,2,1,5,0,0
172270,-111.111111111111,4,1,1,65,0,0
172345,-111.111111111111,4,2,1,5,0,0
172420,-111.111111111111,4,1,1,65,0,0
173620,-90.9090909090908,4,1,1,75,0,0
173845,-90.9090909090908,4,2,1,5,0,0
173920,-111.111111111111,4,1,1,75,0,0
174820,-111.111111111111,4,1,1,65,0,0
176920,-90.9090909090908,4,1,1,75,0,0
177145,-90.9090909090908,4,2,1,5,0,0
177220,-111.111111111111,4,1,1,65,0,0
178945,-111.111111111111,4,2,1,5,0,0
179020,-111.111111111111,4,1,1,65,0,0
179170,-111.111111111111,4,2,1,5,0,0
179245,-111.111111111111,4,1,1,65,0,0
179395,-111.111111111111,4,2,1,5,0,0
179470,-111.111111111111,4,1,1,65,0,0
179545,-111.111111111111,4,2,1,5,0,0
179620,-111.111111111111,4,1,1,65,0,0
179845,-111.111111111111,4,2,1,5,0,0
179920,-111.111111111111,4,1,1,65,0,0
179995,-111.111111111111,4,2,1,5,0,0
180070,-111.111111111111,4,1,1,65,0,0
181720,-90.9090909090908,4,1,1,75,0,0
181945,-90.9090909090908,4,2,1,5,0,0
182020,-111.111111111111,4,1,1,65,0,0
182920,-100,4,1,1,50,0,0
183220,-100,4,1,1,75,0,0
183595,-100,4,2,1,5,0,0
183670,-100,4,1,1,75,0,0
184420,-142.857142857143,4,1,1,50,0,0
189220,-111.111111111111,4,1,1,50,0,0
191620,-111.111111111111,4,1,1,35,0,0
191920,-90.9090909090909,4,1,1,65,0,0
192820,-83.3333333333333,4,1,1,80,0,1
193045,-83.3333333333333,4,2,1,5,0,1
193120,-83.3333333333333,4,1,1,80,0,1
197845,-83.3333333333333,4,2,1,5,0,1
197920,-83.3333333333333,4,1,1,80,0,1
202645,-83.3333333333333,4,2,1,5,0,1
202720,-83.3333333333333,4,1,1,80,0,1
202945,-83.3333333333333,4,2,1,5,0,1
203020,-83.3333333333333,4,1,1,80,0,1
203845,-83.3333333333333,4,2,1,80,0,1
203920,-83.3333333333333,4,1,1,80,0,1
204145,-83.3333333333333,4,2,1,80,0,1
204220,-83.3333333333333,4,1,1,80,0,1
206245,-83.3333333333333,4,2,1,5,0,1
206320,-83.3333333333333,4,1,1,80,0,1
206545,-83.3333333333333,4,2,1,5,0,1
206620,-83.3333333333333,4,1,1,80,0,1
207445,-83.3333333333333,4,2,1,5,0,1
207520,-83.3333333333333,4,1,1,80,0,1
208645,-83.3333333333333,4,2,1,5,0,1
208720,-83.3333333333333,4,1,1,80,0,1
209545,-83.3333333333333,4,2,1,5,0,1
209620,-71.4285714285714,4,1,1,80,0,1
209995,-71.4285714285714,4,2,1,5,0,1
210070,-71.4285714285714,4,1,1,80,0,1
210445,-71.4285714285714,4,2,1,5,0,1
210520,-71.4285714285714,4,1,1,80,0,1
210745,-71.4285714285714,4,2,1,5,0,1
210820,-71.4285714285714,4,1,1,60,0,1
211120,-71.4285714285714,4,1,1,50,0,1
211420,-71.4285714285714,4,1,1,40,0,1
211720,-71.4285714285714,4,1,1,60,0,1
212020,-111.111111111111,4,1,1,50,0,0
214720,-125,4,1,1,45,0,0
216820,-90.9090909090909,4,1,1,55,0,0
234820,-90.9090909090909,4,1,1,35,0,0
236020,-125,4,1,1,40,0,0
237220,-111.111111111111,4,1,1,40,0,0
238420,-100,4,1,1,40,0,0
240820,-125,4,1,1,40,0,0
242020,-111.111111111111,4,1,1,40,0,0
243220,-100,4,1,1,40,0,0
245620,-125,4,1,1,40,0,0
246820,-111.111111111111,4,1,1,40,0,0
248020,-100,4,1,1,40,0,0
249220,-83.3333333333333,4,1,1,40,0,0
249445,-83.3333333333333,4,2,1,5,0,0
249520,-100,4,1,1,40,0,0
250420,-125,4,1,1,40,0,0
251620,-111.111111111111,4,1,1,40,0,0
252820,-100,4,1,1,40,0,0
255220,-125,4,1,1,40,0,0
256420,-111.111111111111,4,1,1,40,0,0
257620,-100,4,1,1,40,0,0
258820,-83.3333333333333,4,1,1,40,0,0
259045,-83.3333333333333,4,2,1,5,0,0
259120,-100,4,1,1,40,0,0
260020,-125,4,1,1,40,0,0
261220,-111.111111111111,4,1,1,40,0,0
262420,-100,4,1,1,40,0,0
264820,-125,4,1,1,40,0,0
266020,-111.111111111111,4,1,1,40,0,0
267220,-100,4,1,1,40,0,0
268420,-83.3333333333333,4,1,1,40,0,0
268645,-100,4,2,1,5,0,0
268720,-100,4,1,1,40,0,0
269620,-125,4,1,1,40,0,0
270820,-111.111111111111,4,1,1,40,0,0
272020,-100,4,1,1,40,0,0
274420,-125,4,1,1,40,0,0
275620,-100,4,1,1,40,0,0
279220,-100,3,1,1,65,0,0
279820,300,4,1,1,65,1,0
281920,300,4,1,1,65,1,0
285520,-83.3333333333333,4,1,1,65,0,0
287470,-71.4285714285714,4,1,1,50,0,0
287920,-71.4285714285714,4,1,1,65,0,0
291220,-71.4285714285714,4,1,1,50,0,0
291520,-71.4285714285714,4,1,1,65,0,0
291820,-71.4285714285714,4,1,1,50,0,0
292120,-71.4285714285714,4,1,1,65,0,0
292420,-71.4285714285714,4,1,1,50,0,0
292720,-71.4285714285714,4,1,1,65,0,0
293020,-71.4285714285714,4,1,1,50,0,0
293320,300,4,1,1,65,1,0
293320,-76.9230769230769,4,1,1,65,0,0
294445,-76.9230769230769,4,2,1,5,0,0
294520,-76.9230769230769,4,1,1,65,0,0
295045,-76.9230769230769,4,2,1,5,0,0
295120,-76.9230769230769,4,1,1,65,0,0
295645,-76.9230769230769,4,2,1,5,0,0
295720,-76.9230769230769,4,1,1,65,0,0
296095,-76.9230769230769,4,2,1,5,0,0
296170,-76.9230769230769,4,1,1,65,0,0
296545,-76.9230769230769,4,2,1,5,0,0
296620,-76.9230769230769,4,1,1,65,0,0
296920,-100,4,1,1,65,0,0
297145,-100,4,2,1,5,0,0
297220,-100,4,1,1,65,0,0
297520,-76.9230769230769,4,1,1,65,0,0
298120,-76.9230769230769,4,1,1,55,0,0
302920,-76.9230769230769,4,1,1,65,0,0
304720,-100,4,1,1,65,0,0
305320,-76.9230769230769,4,1,1,65,0,0
306520,-100,4,1,1,65,0,0
308320,-90.9090909090909,4,1,1,65,0,0
308920,-83.3333333333333,4,1,1,65,0,0
309520,-76.9230769230769,4,1,1,65,0,0
314320,-76.9230769230769,4,1,1,75,0,0
320995,-76.9230769230769,4,1,1,55,0,0
321520,-76.9230769230769,4,1,1,75,0,0
321595,-76.9230769230769,4,1,1,55,0,0
322120,-111.111111111111,4,1,1,50,0,0
336520,-111.111111111111,4,1,1,40,0,0
337720,-111.111111111111,4,1,1,50,0,0
338320,-111.111111111111,4,1,1,60,0,0
338920,-76.9230769230769,4,1,1,70,0,0
339295,-76.9230769230769,4,2,1,5,0,0
339370,-76.9230769230769,4,1,1,70,0,0
339745,-76.9230769230769,4,2,1,5,0,0
339820,-76.9230769230769,4,1,1,70,0,0
340045,-76.9230769230769,4,2,1,5,0,0
340120,-76.9230769230769,4,1,1,60,0,0
340720,-76.9230769230769,4,1,1,40,0,0
341020,-76.9230769230769,4,1,1,60,0,0
341320,-83.3333333333333,4,1,1,80,0,1
341545,-83.3333333333333,4,2,1,5,0,1
341620,-83.3333333333333,4,1,1,80,0,1
346345,-83.3333333333333,4,2,1,5,0,1
346420,-83.3333333333333,4,1,1,80,0,1
351145,-83.3333333333333,4,2,1,5,0,1
351220,-83.3333333333333,4,1,1,80,0,1
351445,-83.3333333333333,4,2,1,5,0,1
351520,-83.3333333333333,4,1,1,80,0,1
352345,-83.3333333333333,4,2,1,5,0,1
352420,-83.3333333333333,4,1,1,80,0,1
352645,-83.3333333333333,4,2,1,5,0,1
352720,-83.3333333333333,4,1,1,80,0,1
354745,-83.3333333333333,4,2,1,5,0,1
354820,-83.3333333333333,4,1,1,80,0,1
355045,-83.3333333333333,4,2,1,5,0,1
355120,-83.3333333333333,4,1,1,80,0,1
355945,-83.3333333333333,4,2,1,5,0,1
356020,-83.3333333333333,4,1,1,80,0,1
357145,-83.3333333333333,4,2,1,5,0,1
357220,-83.3333333333333,4,1,1,80,0,1
358045,-83.3333333333333,4,2,1,5,0,1
358120,-83.3333333333333,4,1,1,60,0,1
359320,-83.3333333333333,4,1,1,70,0,1
359770,-83.3333333333333,4,2,1,40,0,0
360520,-100,4,1,1,65,0,0
370120,-100,4,1,1,55,0,0
371320,-90.9090909090909,4,1,1,60,0,0
372520,-83.3333333333333,4,1,1,65,0,0
373720,-76.9230769230769,4,1,1,70,0,0
374920,-100,4,1,1,55,0,0
375220,-111.111111111111,4,1,1,55,0,0
375520,-125,4,1,1,55,0,0
375820,-142.857142857143,4,1,1,55,0,0
376120,-111.111111111111,4,1,1,55,0,0
376570,-166.666666666667,4,1,1,55,0,0
376945,-166.666666666667,4,2,1,5,0,0
377020,-83.3333333333333,4,1,1,75,0,0
377395,-83.3333333333333,4,2,1,5,0,0
377470,-166.666666666667,4,1,1,55,0,0
377845,-166.666666666667,4,2,1,5,0,0
377920,-166.666666666667,4,1,1,75,0,0
378370,-100,4,1,1,95,0,0
378445,-100,4,2,1,20,0,0
379720,-100,4,2,1,5,0,0

[Colours]
Combo1 : 255,0,0
Combo2 : 230,138,0
Combo3 : 255,128,128
Combo4 : 255,255,0

[HitObjects]
74,38,2467,6,0,B|79:83|79:83|63:120|63:120|87:149|87:149|93:214,1,170,0|0,0:0|0:0,2:0:0:0:
155,102,3217,6,0,L|239:87,1,85,2|0,0:0|0:0,0:0:0:0:
316,140,3667,1,0,0:0:0:0:
176,12,3967,1,0,0:0:0:0:
108,180,4267,1,0,0:0:0:0:
316,140,4717,2,0,P|328:100|320:58,2,85
352,316,5617,6,0,B|421:356|421:356|512:353,1,170,2|0,0:0|0:0,0:0:0:0:
412,236,6517,1,0,0:0:0:0:
352,316,6667,1,0,0:0:0:0:
220,352,7267,6,0,B|174:347|174:347|142:323|142:323|108:340|108:340|44:331,1,170
7,261,8017,6,0,P|-2:215|3:165,1,85,2|0,0:0|0:0,0:0:0:0:
84,132,8467,2,0,B|100:92|88:36,2,85
84,132,9517,1,0,0:0:0:0:
196,100,9817,1,0,0:0:0:0:
300,164,10117,1,0,0:0:0:0:
108,156,10417,6,0,B|191:137|191:137|276:180,1,170,2|0,0:0|0:0,0:0:0:0:
266,175,11467,1,0,0:0:0:0:
168,340,12217,6,0,L|72:333,1,85,0|0,0:0|0:0,0:0:0:0:
58,252,12667,1,2,0:0:0:0:
344,340,13417,2,0,L|440:333,1,85,0|0,0:0|0:0,0:0:0:0:
454,252,13867,1,2,0:0:0:0:
256,193,14617,6,0,L|256:289,1,85,0|0,0:0|0:0,0:0:0:0:
312,347,15067,2,0,P|256:368|195:343,1,127.5,0|0,0:0|0:0,0:0:0:0:
212,168,15817,2,0,L|304:168,1,85
256,84,16267,1,2,0:0:0:0:
340,235,17017,6,0,B|364:247|403:241|403:241|439:235|468:250,1,127.5,0|2,0:0|0:0,0:0:0:0:
172,235,18217,2,0,B|147:247|108:241|108:241|72:235|47:248,1,127.5,0|2,0:0|0:0,0:0:0:0:
236,32,19417,5,4,0:1:0:0:
248,56,19717,1,0,0:3:0:0:
256,80,20017,6,0,P|232:176|192:192,1,127.500004863739,2|4,0:3|0:3,0:3:0:0:
95,269,20439,1,4,0:3:0:0:
95,269,20514,1,4,0:3:0:0:
95,269,20589,2,4,L|80:344,1,63.7500024318696,8|4,0:3|0:3,0:3:0:0:
188,296,20889,5,4,0:3:0:0:
188,312,20964,1,4,0:3:0:0:
188,328,21039,1,8,0:3:0:0:
280,252,21189,1,4,0:3:0:0:
370,313,21339,1,4,0:3:0:0:
370,313,21414,1,4,0:3:0:0:
370,313,21489,6,0,B|385:238|385:238|353:174,1,127.500004863739,8|2,0:3|0:0,0:0:0:0:
188,328,22141,5,2,0:0:0:0:
70,221,22420,5,4,0:1:0:0:
67,178,22495,1,0,0:0:0:0:
77,136,22570,1,0,0:0:0:0:
100,101,22645,1,0,0:0:0:0:
123,65,22720,2,0,P|140:37|139:2,1,42.5,8|0,0:0|0:0,0:0:0:0:
244,20,22870,1,0,0:0:0:0:
256,28,22945,1,0,0:0:0:0:
264,40,23020,2,0,P|271:63|268:92,1,42.5,2|2,0:2|0:2,0:2:0:0:
216,180,23170,1,0,0:0:0:0:
204,188,23245,1,0,0:0:0:0:
196,200,23320,2,0,P|189:223|192:252,1,42.5,10|2,0:2|0:2,0:2:0:0:
292,300,23470,2,0,P|297:331|294:360,1,42.5,2|2,0:2|0:2,0:2:0:0:
412,320,23620,5,8,0:3:0:0:
446,299,23695,1,0,0:0:0:0:
469,264,23770,1,0,0:0:0:0:
480,224,23845,1,0,0:0:0:0:
476,180,23920,2,0,P|459:163|440:156,1,42.5,10|2,0:2|0:2,0:0:0:0:
332,192,24070,1,0,0:0:0:0:
325,203,24145,1,0,0:0:0:0:
313,211,24220,2,0,P|292:221|271:220,1,42.5,2|2,0:2|0:2,0:0:0:0:
196,136,24370,1,0,0:0:0:0:
189,125,24445,1,0,0:0:0:0:
177,117,24520,2,0,P|156:107|135:108,3,42.5,10|2|2|2,0:2|0:2|0:2|0:2,0:0:0:0:
36,144,24820,5,8,0:3:0:0:
31,101,24895,1,0,0:0:0:0:
48,62,24970,1,0,0:0:0:0:
78,32,25045,1,0,0:0:0:0:
119,20,25120,2,0,L|178:36,1,42.5,10|2,0:2|0:2,0:0:0:0:
271,78,25270,1,0,0:0:0:0:
275,90,25345,1,0,0:0:0:0:
279,102,25420,2,0,L|287:146,1,42.5,2|2,0:2|0:2,0:2:0:0:
397,67,25570,1,0,0:0:0:0:
401,55,25645,1,0,0:0:0:0:
405,43,25720,2,0,L|413:-1,1,42.5,10|2,0:2|0:2,0:2:0:0:
504,136,25870,2,0,L|512:192,1,42.5,2|2,0:2|0:2,0:2:0:0:
419,259,26020,5,8,0:3:0:0:
377,256,26095,1,0,0:0:0:0:
337,269,26170,1,0,0:0:0:0:
305,295,26245,1,0,0:0:0:0:
282,330,26320,2,0,L|271:387,1,42.5,10|2,0:2|0:2,0:2:0:0:
193,266,26470,1,0,0:0:0:0:
188,255,26545,1,0,0:0:0:0:
184,244,26620,2,0,L|168:184,3,42.5,2|2|2|2,0:2|0:2|0:2|0:2,0:2:0:0:
104,344,26920,5,8,0:3:0:0:
92,136,27220,5,4,0:1:0:0:
125,113,27295,1,0,0:0:0:0:
166,104,27370,1,0,0:0:0:0:
207,112,27445,1,0,0:0:0:0:
245,131,27520,2,0,L|262:69,1,42.5,10|2,0:2|0:2,0:0:0:0:
156,8,27670,1,0,0:0:0:0:
148,18,27745,1,0,0:0:0:0:
140,28,27820,2,0,L|123:90,1,42.5,2|2,0:2|0:2,0:0:0:0:
10,87,27970,1,0,0:0:0:0:
4,98,28045,1,0,0:0:0:0:
0,108,28120,2,0,L|5:172,1,42.5,10|2,0:2|0:2,0:0:0:0:
84,243,28270,2,0,L|132:263,1,42.5,2|2,0:2|0:2,0:2:0:0:
248,224,28420,5,8,0:3:0:0:
286,205,28495,1,0,0:0:0:0:
327,210,28570,1,0,0:0:0:0:
361,233,28645,1,0,0:0:0:0:
384,268,28720,2,0,P|391:286|383:313,1,42.5,10|2,0:2|0:2,0:2:0:0:
440,200,28870,1,0,0:0:0:0:
450,203,28945,1,0,0:0:0:0:
459,212,29020,2,0,P|473:225|477:254,1,42.5,2|2,0:2|0:2,0:2:0:0:
440,108,29170,1,0,0:0:0:0:
450,105,29245,1,0,0:0:0:0:
462,108,29320,2,0,P|480:112|499:135,3,42.5,10|2|2|2,0:2|0:2|0:2|0:2,0:2:0:0:
320,116,29620,5,8,0:3:0:0:
277,120,29695,1,0,0:0:0:0:
237,110,29770,1,0,0:0:0:0:
204,84,29845,1,0,0:0:0:0:
184,46,29920,2,0,L|204:-4,1,42.5,10|2,0:2|0:2,0:0:0:0:
348,88,30070,1,0,0:0:0:0:
360,92,30145,1,0,0:0:0:0:
372,96,30220,2,0,L|351:45,1,42.5,2|2,0:2|0:2,0:0:0:0:
256,184,30370,1,0,0:0:0:0:
244,188,30445,1,0,0:0:0:0:
232,192,30520,2,0,L|252:141,1,42.5,10|2,0:2|0:2,0:0:0:0:
388,236,30670,2,0,L|403:196,1,42.5,2|2,0:2|0:2,0:0:0:0:
320,332,30820,5,8,0:3:0:0:
354,357,30895,1,0,0:0:0:0:
397,363,30970,1,0,0:0:0:0:
439,353,31045,1,0,0:0:0:0:
472,326,31120,2,0,P|484:300|488:268,1,42.5,10|2,0:2|0:2,0:2:0:0:
382,172,31270,1,0,0:0:0:0:
376,184,31345,1,0,0:0:0:0:
374,196,31420,2,0,P|381:223|399:250,3,42.5,2|2|2|2,0:2|0:2|0:2|0:2,0:2:0:0:
500,108,31720,5,8,0:3:0:0:
219,237,32020,5,4,0:1:0:0:
194,203,32095,1,0,0:0:0:0:
210,164,32170,1,0,0:0:0:0:
251,157,32245,1,0,0:0:0:0:
288,177,32320,2,0,P|296:204|288:240,1,42.5,10|2,0:2|0:2,0:0:0:0:
244,316,32470,1,0,0:0:0:0:
232,321,32545,1,0,0:0:0:0:
219,323,32620,2,0,P|182:310|169:286,1,42.5,2|2,0:2|0:2,0:2:0:0:
78,242,32770,1,0,0:0:0:0:
66,236,32845,1,0,0:0:0:0:
53,235,32920,2,0,P|16:247|3:271,1,42.5,10|2,0:2|0:2,0:2:0:0:
116,146,33070,2,0,P|125:127|125:106,1,42.5,2|2,0:2|0:2,0:2:0:0:
67,16,33220,5,8,0:3:0:0:
107,30,33295,1,0,0:0:0:0:
149,33,33370,1,0,0:0:0:0:
190,26,33445,1,0,0:0:0:0:
228,7,33520,2,0,P|251:1|287:8,1,42.5,10|2,0:2|0:2,0:0:0:0:
363,55,33670,1,0,0:0:0:0:
369,65,33745,1,0,0:0:0:0:
371,77,33820,2,0,P|377:100|370:136,1,42.5,2|2,0:2|0:2,0:0:0:0:
304,206,33970,1,0,0:0:0:0:
294,212,34045,1,0,0:0:0:0:
282,214,34120,2,0,P|259:220|223:213,3,42.5,10|2|2|2,0:2|0:2|0:2|0:2,0:0:0:0:
124,195,34420,5,8,0:3:0:0:
89,219,34495,1,0,0:0:0:0:
76,259,34570,1,0,0:0:0:0:
85,300,34645,1,0,0:0:0:0:
115,329,34720,2,0,L|122:374,1,42.5,10|2,0:2|0:2,0:0:0:0:
217,297,34870,1,0,0:0:0:0:
229,294,34945,1,0,0:0:0:0:
241,297,35020,2,0,L|248:342,1,42.5,2|2,0:2|0:2,0:0:0:0:
347,323,35170,1,0,0:0:0:0:
358,326,35245,1,0,0:0:0:0:
367,335,35320,2,0,L|350:377,1,42.5,10|2,0:2|0:2,0:0:0:0:
472,311,35470,2,0,L|490:265,1,42.5,2|2,0:2|0:2,0:0:0:0:
367,195,35620,5,8,0:3:0:0:
362,152,35695,1,0,0:0:0:0:
391,121,35770,1,0,0:0:0:0:
433,123,35845,1,0,0:0:0:0:
463,152,35920,2,0,P|459:183|442:202,1,42.5,10|2,0:2|0:2,0:0:0:0:
351,280,36070,1,0,0:0:0:0:
338,277,36145,1,0,0:0:0:0:
326,271,36220,2,0,P|301:251|294:226,1,42.5,2|2,0:2|0:2,0:0:0:0:
146,216,36370,1,0,0:0:0:0:
133,219,36445,1,0,0:0:0:0:
121,225,36520,2,0,P|96:244|89:269,3,42.5,10|2|2|2,0:2|0:2|0:2|0:2,0:0:0:0:
216,167,36820,6,0,P|216:99|199:47,1,101.999996887207,12|0,0:1|0:0,0:0:0:0:
24,312,37120,2,0,P|68:340|128:337,1,101.999996887207,8|0,0:0|0:0,0:0:0:0:
413,290,37420,2,0,P|463:291|505:319,1,101.999996887207,8|0,0:0|0:0,0:0:0:0:
296,167,37720,2,0,P|296:99|320:39,1,101.999996887207,8|0,0:0|0:0,0:0:0:0:
217,328,38020,6,0,L|110:341,1,101.999996887207,8|0,0:0|0:0,0:0:0:0:
29,129,38320,2,0,L|136:142,1,101.999996887207,8|0,0:0|0:0,0:0:0:0:
295,328,38620,2,0,L|402:341,1,101.999996887207,8|0,0:0|0:0,0:0:0:0:
483,129,38920,2,0,L|376:142,1,101.999996887207,8|0,0:0|0:0,0:0:0:0:
144,299,39220,5,4,0:3:0:0:
87,286,39295,1,4,0:3:0:0:
41,253,39370,1,4,0:3:0:0:
28,197,39445,1,4,0:3:0:0:
32,140,39520,2,4,L|64:84,3,50.9999984436036,4|4|4|4,0:3|0:3|0:3|0:3,0:3:0:0:
148,187,39820,5,4,0:3:0:0:
206,192,39895,1,4,0:3:0:0:
260,176,39970,1,4,0:3:0:0:
290,127,40045,1,4,0:3:0:0:
306,72,40120,2,4,L|293:8,3,50.9999984436036,4|4|4|4,0:3|0:3|0:3|0:3,0:3:0:0:
162,103,40420,5,0,3:0:0:0:
178,105,40495,1,0,3:0:0:0:
195,108,40570,1,0,3:0:0:0:
212,111,40645,1,0,3:0:0:0:
229,114,40720,1,0,3:0:0:0:
246,117,40795,1,0,3:0:0:0:
263,121,40870,1,0,3:0:0:0:
278,124,40945,1,0,3:0:0:0:
290,127,41020,5,8,0:3:0:0:
324,148,41095,1,8,0:3:0:0:
364,144,41170,1,8,0:3:0:0:
399,124,41245,1,8,0:3:0:0:
409,84,41320,1,8,0:3:0:0:
396,45,41395,1,8,0:3:0:0:
363,20,41470,1,8,0:3:0:0:
322,16,41545,1,8,0:3:0:0:
282,24,41620,6,0,B|240:64|264:117|264:117|224:155|248:216,1,203.999993774414,4|4,0:1|0:3,0:0:0:0:
312,288,42070,1,4,0:3:0:0:
509,216,42220,2,8,P|476:177|429:158,1,101.999996887207,8|0,0:0|0:0,0:0:0:0:
385,360,42520,1,8,0:3:0:0:
246,210,42670,2,8,P|278:171|326:153,1,101.999996887207,8|0,0:0|0:1,0:0:0:0:
452,292,42970,1,8,0:0:0:0:
184,320,43120,1,4,0:3:0:0:
184,320,43270,1,4,0:3:0:0:
28,85,43420,6,0,B|1:130|1:130|69:162|69:162|84:121|113:86|177:86|213:122,1,305.999990661621,12|8,0:2|0:0,2:0:0:0:
349,221,44020,2,0,B|356:183|356:183|293:133|293:133|284:193|239:218|168:225|134:149,1,305.999990661621,4|4,0:2|0:3,2:0:0:0:
36,300,44620,2,0,B|-8:260|-8:260|58:204|58:204|100:272|192:296,1,305.999990661621,12|8,0:2|0:0,2:0:0:0:
368,192,45220,5,0,0:1:0:0:
276,372,45370,1,8,0:0:0:0:
268,248,45520,1,4,0:3:0:0:
372,304,45670,1,4,0:3:0:0:
429,124,45820,2,8,B|470:158|457:209|457:209|442:264|497:273|512:243|494:185,1,203.999993774414,8|8,0:0|0:3,0:0:0:0:
484,48,46270,1,8,0:0:0:0:
368,192,46420,6,0,B|314:214|272:178|272:178|222:206|178:168,1,203.999993774414,4|4,0:1|0:3,0:0:0:0:
124,68,46870,1,4,0:3:0:0:
325,16,47020,2,0,B|340:64|340:64|329:115,1,101.999996887207,8|0,0:0|0:0,0:0:0:0:
178,168,47320,1,8,0:3:0:0:
44,16,47470,2,0,B|27:64|27:64|37:116,1,101.999996887207,8|0,0:0|0:1,0:0:0:0:
237,76,47770,1,8,0:0:0:0:
256,264,47920,1,4,0:3:0:0:
256,264,48070,1,4,0:3:0:0:
387,123,48220,6,0,B|391:80|338:43|338:43|314:102|336:135|336:135|373:195|339:250,1,305.999990661621,12|8,0:2|0:0,2:0:0:0:
164,242,48820,2,0,B|134:195|171:135|171:135|193:102|169:43|169:43|116:80|121:123,1,305.999990661621,4|4,0:2|0:3,2:0:0:0:
255,194,49420,6,0,B|310:216|343:195|354:184|354:184|405:217|405:217|449:179|502:198,1,255,4|0,0:2|0:0,2:0:0:0:
256,340,50020,2,0,B|228:349|197:323|197:323|161:346|161:346|130:323|91:339,1,170,4|0,0:2|0:0,0:0:0:0:
255,194,50470,1,0,0:0:0:0:
336,288,50620,6,0,P|352:328|348:368,1,68,8|0,0:3|0:0,0:0:0:0:
136,256,50920,2,0,P|124:224|128:176,1,68,8|0,0:3|0:0,0:0:0:0:
268,112,51220,5,4,0:1:0:0:
297,125,51295,1,0,0:0:0:0:
327,125,51370,1,0,0:0:0:0:
355,114,51445,1,0,0:0:0:0:
380,97,51520,2,0,L|408:9,1,76.4999976654053,8|0,0:0|0:0,0:0:0:0:
210,6,51820,1,0,0:3:0:0:
312,35,51970,1,0,0:3:0:0:
120,76,52120,2,0,L|98:2,1,76.4999976654053,8|0,0:0|0:0,0:0:0:0:
200,116,52420,5,0,0:3:0:0:
213,150,52495,1,0,0:0:0:0:
213,188,52570,1,0,0:0:0:0:
198,222,52645,1,0,0:0:0:0:
172,250,52720,1,8,0:0:0:0:
376,304,52870,1,0,0:3:0:0:
376,264,52945,1,0,0:0:0:0:
389,230,53020,1,8,0:3:0:0:
413,201,53095,1,0,0:3:0:0:
448,185,53170,1,4,0:3:0:0:
276,64,53320,2,0,P|332:99|409:84,1,140.25000428009,8|0,0:0|0:0,0:0:0:0:
324,136,53620,6,0,L|296:216,1,76.4999976654053,4|0,0:1|0:0,0:0:0:0:
128,232,53920,2,0,L|102:159,1,76.4999976654053,8|0,0:0|0:0,0:0:0:0:
174,51,54220,1,0,0:0:0:0:
206,139,54370,1,0,0:0:0:0:
2,135,54520,1,8,0:0:0:0:
38,51,54670,1,0,0:0:0:0:
102,159,54820,5,0,0:0:0:0:
108,188,54895,1,0,0:0:0:0:
106,223,54970,1,0,0:0:0:0:
94,255,55045,1,0,0:0:0:0:
79,283,55120,2,0,P|62:297|41:298,1,38.2499988327027,8|0,0:0|0:0,0:0:0:0:
184,224,55270,2,0,P|202:224|218:235,1,38.2499988327027
276,376,55420,5,0,0:0:0:0:
270,347,55495,1,0,0:0:0:0:
272,312,55570,1,0,0:0:0:0:
284,280,55645,1,0,0:0:0:0:
299,252,55720,2,0,P|316:238|337:237,1,38.2499988327027,8|0,0:0|0:0,0:0:0:0:
194,311,55870,2,0,P|175:310|159:299,1,38.2499988327027
356,328,56020,6,0,P|399:321|443:290,1,76.4999976654053,4|0,0:1|0:0,0:0:0:0:
508,132,56320,2,0,P|474:114|436:108,1,76.4999976654053,8|0,0:0|0:0,0:0:0:0:
331,236,56620,1,0,0:0:0:0:
286,156,56770,1,0,0:0:0:0:
472,224,56920,1,8,0:0:0:0:
427,304,57070,1,0,0:0:0:0:
297,265,57220,5,0,0:0:0:0:
277,229,57295,1,0,0:0:0:0:
260,194,57370,1,0,0:0:0:0:
243,160,57445,1,0,0:0:0:0:
223,126,57520,2,0,L|132:176,1,76.4999976654053,8|0,0:0|0:0,0:0:0:0:
36,247,57820,1,0,0:0:0:0:
189,261,57970,1,0,0:0:0:0:
117,69,58120,1,8,0:0:0:0:
21,274,58270,1,8,0:3:0:0:
155,162,58420,5,4,0:1:0:0:
129,147,58495,1,0,0:0:0:0:
98,145,58570,1,0,0:0:0:0:
70,149,58645,1,0,0:0:0:0:
41,162,58720,2,0,L|18:81,1,76.4999976654053,8|0,0:0|0:0,0:0:0:0:
104,249,59020,1,0,0:0:0:0:
7,360,59170,1,0,0:0:0:0:
0,256,59320,1,8,0:0:0:0:
111,353,59470,1,0,0:0:0:0:
352,264,59620,6,0,P|239:258|194:292,1,140.25000428009,2|0,0:3|0:0,0:0:0:0:
181,292,59920,1,8,0:0:0:0:
292,64,60070,1,4,0:3:0:0:
292,64,60370,1,4,0:3:0:0:
391,292,60520,1,8,0:0:0:0:
484,252,60670,1,0,0:0:0:0:
493,238,60745,1,0,0:0:0:0:
496,222,60820,6,0,P|498:180|483:134,1,76.4999976654053,4|0,0:1|0:0,0:0:0:0:
292,64,61120,2,0,P|280:100|284:138,1,76.4999976654053,8|0,0:0|0:0,0:0:0:0:
419,191,61420,1,0,0:0:0:0:
360,108,61570,1,0,0:0:0:0:
259,215,61720,2,0,P|227:196|206:164,1,76.4999976654053,8|0,0:0|0:0,0:0:0:0:
130,37,62020,5,0,0:3:0:0:
109,68,62095,1,0,0:3:0:0:
91,103,62170,1,0,0:3:0:0:
73,136,62245,1,0,0:3:0:0:
54,170,62320,1,8,0:0:0:0:
4,38,62470,1,0,0:0:0:0:
37,46,62545,1,0,0:0:0:0:
72,59,62620,1,0,0:0:0:0:
109,68,62695,1,0,0:0:0:0:
145,79,62770,1,0,0:0:0:0:
386,45,62920,2,0,P|321:19|254:38,1,140.25000428009,8|0,0:0|0:0,0:0:0:0:
230,86,63220,6,0,L|216:11,1,76.4999976654053,4|0,0:1|0:1,0:0:0:0:
352,184,63520,2,0,L|332:288,1,76.4999976654053,8|0,0:0|0:0,0:0:0:0:
224,196,63820,1,0,0:0:0:0:
352,160,63970,1,0,0:0:0:0:
230,86,64120,1,8,0:0:0:0:
352,136,64270,1,0,0:0:0:0:
137,140,64420,5,0,0:0:0:0:
112,165,64495,1,0,0:0:0:0:
99,195,64570,1,0,0:0:0:0:
102,229,64645,1,0,0:0:0:0:
117,255,64720,2,0,L|109:328,1,38.2499988327027,8|0,0:0|0:0,0:0:0:0:
21,200,64870,2,0,L|25:161,1,38.2499988327027
203,200,65020,5,0,0:0:0:0:
228,225,65095,1,0,0:0:0:0:
241,255,65170,1,0,0:0:0:0:
238,289,65245,1,0,0:0:0:0:
223,315,65320,2,0,L|231:388,1,38.2499988327027,8|0,0:0|0:0,0:0:0:0:
319,260,65470,2,0,L|314:221,1,38.2499988327027
203,200,65620,6,0,P|197:156|214:105,1,76.4999976654053,4|0,0:1|0:0,0:0:0:0:
393,110,65920,2,0,P|407:144|412:210,1,76.4999976654053,8|0,0:0|0:0,0:0:0:0:
512,284,66220,1,0,0:0:0:0:
508,191,66370,1,0,0:0:0:0:
412,288,66520,1,8,0:0:0:0:
408,381,66670,1,0,0:0:0:0:
328,248,66820,5,0,0:0:0:0:
298,240,66895,1,0,0:0:0:0:
267,242,66970,1,0,0:0:0:0:
240,257,67045,1,0,0:0:0:0:
224,283,67120,2,0,L|182:182,1,76.4999976654053,8|0,0:0|0:0,0:0:0:0:
360,164,67420,1,0,0:0:0:0:
148,116,67570,1,0,0:0:0:0:
400,148,67720,1,8,0:0:0:0:
292,316,67870,1,8,0:3:0:0:
220,144,68020,5,4,0:1:0:0:
226,114,68095,1,0,0:0:0:0:
244,88,68170,1,0,0:0:0:0:
265,70,68245,1,0,0:0:0:0:
302,50,68320,2,0,L|201:59,1,76.4999976654053,8|0,0:0|0:0,0:0:0:0:
56,74,68620,1,0,0:0:0:0:
135,2,68770,1,0,0:0:0:0:
144,171,68920,2,0,L|152:261,1,76.4999976654053,8|0,0:0|0:0,0:0:0:0:
243,279,69220,6,8,P|256:256|259:231,2,50.9999984436036,8|8|8,0:3|0:3|0:3,0:3:0:0:
112,336,69520,6,4,P|93:328|65:298,2,50.9999984436036,4|4|4,0:3|0:3|0:3,0:3:0:0:
276,356,69820,5,8,0:3:0:0:
331,344,69920,1,8,0:3:0:0:
385,332,70020,1,8,0:3:0:0:
372,239,70120,5,4,0:3:0:0:
325,299,70220,1,4,0:3:0:0:
276,356,70320,1,4,0:3:0:0:
185,290,70420,6,0,L|390:333,1,203.999993774414,4|4,0:1|0:3,0:0:0:0:
471,218,70870,1,4,0:3:0:0:
271,219,71020,2,0,L|379:240,1,101.999996887207,8|0,0:0|0:0,0:0:0:0:
315,100,71320,1,4,0:3:0:0:
506,122,71470,2,0,L|371:139,1,101.999996887207,8|0,0:0|0:0,0:0:0:0:
512,16,71770,1,8,0:0:0:0:
471,218,71920,1,4,0:3:0:0:
471,218,72070,1,4,0:3:0:0:
248,154,72220,6,0,P|244:254|272:210,1,305.999990661621,12|8,0:2|0:0,2:0:0:0:
139,86,72820,2,0,P|69:213|155:329,1,305.999990661621,4|0,0:2|0:0,2:0:0:0:
248,154,73420,2,0,P|363:152|269:220,1,305.999990661621,12|8,0:2|0:0,2:0:0:0:
133,123,74020,5,0,0:0:0:0:
12,264,74170,1,8,0:0:0:0:
135,153,74320,1,4,0:3:0:0:
155,329,74470,1,4,0:3:0:0:
247,153,74620,2,0,B|261:85|206:39|206:39|252:58|293:37,1,203.999993774414,8|4,0:0|0:3,0:0:0:0:
347,121,75070,1,8,0:0:0:0:
208,268,75220,6,0,B|53:225|53:225|124:198,1,203.999993774414,4|4,0:1|0:3,0:0:0:0:
248,154,75670,1,4,0:3:0:0:
370,310,75820,2,0,L|487:294,1,101.999996887207,8|0,0:0|0:0,0:0:0:0:
310,228,76120,1,4,0:3:0:0:
188,384,76270,2,0,L|71:368,1,101.999996887207,8|0,0:0|0:0,0:0:0:0:
228,184,76570,1,8,0:0:0:0:
284,344,76720,1,4,0:3:0:0:
284,344,76870,1,4,0:3:0:0:
356,120,77020,6,0,B|360:61|299:24|299:24|219:32|219:32|159:88|187:152,1,305.999990661621,12|8,0:2|0:0,2:0:0:0:
269,125,77620,2,0,B|248:36|165:27|120:68|120:68|64:24|4:60,1,305.999990661621,4|0,0:2|0:0,2:0:0:0:
180,127,78220,2,0,B|156:22|156:22|129:18|116:-1|116:-1|102:18|79:22|79:22|55:144,1,305.999990661621,12|0,0:2|0:0,2:0:0:0:
128,300,78820,6,0,B|156:312|156:312|192:308|192:308|240:324,1,89.2499972763062,10|0,0:3|0:0,0:0:0:0:
256,244,79120,2,0,L|256:274,1,29.7499990921021,4|0,0:3|0:3,0:3:0:0:
416,284,79270,6,0,B|384:296|384:296|328:296|328:296|292:315,1,127.5,8|0,0:0|0:0,0:0:0:0:
256,347,79570,1,8,0:3:0:0:
176,156,79720,1,8,0:0:0:0:
74,360,79870,1,8,0:3:0:0:
11,277,80020,5,4,0:1:0:0:
37,261,80095,1,0,0:0:0:0:
67,255,80170,1,0,0:0:0:0:
97,258,80245,1,0,0:0:0:0:
124,270,80320,2,0,P|162:283|221:272,1,76.4999976654053,8|0,0:0|0:0,0:0:0:0:
357,248,80620,1,0,0:0:0:0:
268,208,80770,1,0,0:0:0:0:
366,339,80920,2,0,P|403:329|430:305,1,76.4999976654053,8|0,0:0|0:0,0:0:0:0:
502,138,81220,5,0,0:0:0:0:
475,111,81295,1,0,0:0:0:0:
447,98,81370,1,0,0:0:0:0:
408,92,81445,1,0,0:0:0:0:
372,94,81520,1,8,0:0:0:0:
418,168,81670,1,0,0:0:0:0:
437,138,81745,1,0,0:0:0:0:
447,98,81820,1,0,0:0:0:0:
446,67,81895,1,0,0:0:0:0:
433,34,81970,1,0,0:0:0:0:
361,234,82120,2,0,P|306:275|238:270,1,140.25000428009,8|0,0:0|0:0,0:0:0:0:
210,227,82420,6,0,L|194:302,1,76.4999976654053,4|0,0:1|0:0,0:0:0:0:
40,206,82720,2,0,L|24:131,1,76.4999976654053,8|0,0:0|0:0,0:0:0:0:
164,76,83020,1,0,0:0:0:0:
244,114,83170,1,0,0:0:0:0:
169,160,83320,1,8,0:0:0:0:
80,64,83470,2,0,P|44:47|7:46,1,76.4999976654053
236,28,83770,2,0,P|278:19|323:-16,1,76.4999976654053,0|8,0:0|0:0,0:0:0:0:
169,160,84070,6,0,L|153:206,1,38.2499988327027,0|0,0:0|0:3,0:3:0:0:
105,243,84220,2,0,P|142:246|200:279,1,76.4999976654053,0|0,0:3|0:3,0:3:0:0:
287,298,84445,2,0,P|253:280|215:274,1,76.4999976654053,0|0,0:3|0:3,0:3:0:0:
285,197,84670,2,0,L|272:233,1,38.2499988327027,0|0,0:3|0:3,0:3:0:0:
356,144,84820,6,0,P|299:148|250:121,1,114.749996498108,4|0,0:1|2:3,2:3:0:0:
272,47,85120,2,0,L|259:84,1,38.2499988327027,8|0,0:0|0:0,0:0:0:0:
113,67,85270,2,0,P|175:110|273:116,1,152.999995330811
446,89,85720,2,0,L|466:15,1,76.4999976654053,8|0,0:0|0:0,0:0:0:0:
348,192,86020,5,0,0:0:0:0:
337,220,86095,1,0,0:0:0:0:
326,249,86170,1,0,0:0:0:0:
315,277,86245,1,0,0:0:0:0:
304,306,86320,1,8,0:0:0:0:
192,220,86470,2,0,L|163:192,1,38.2499988327027
90,194,86620,2,0,P|130:185|190:211,1,76.4999976654053
127,265,86845,2,0,P|91:273|54:265,1,76.4999976654053
25,239,87070,2,0,L|54:264,1,38.2499988327027
164,193,87220,6,0,B|177:129|151:80|151:80|215:55|250:-15,1,229.499992996216,4|0,0:2|0:0,2:0:0:0:
348,232,87820,2,0,B|363:169|408:135|408:135|361:85|359:8,1,229.499992996216,4|0,0:2|0:0,2:0:0:0:
251,221,88420,6,0,L|222:372,1,140.25000428009,2|0,0:3|0:0,0:0:0:0:
179,360,88720,1,8,0:0:0:0:
426,299,88870,1,4,0:3:0:0:
426,299,89170,1,4,0:3:0:0:
208,204,89320,1,8,0:0:0:0:
252,294,89470,1,4,0:3:0:0:
369,231,89620,5,4,0:1:0:0:
403,216,89695,1,0,0:0:0:0:
441,215,89770,1,0,0:0:0:0:
476,230,89845,1,0,0:0:0:0:
505,255,89920,2,0,L|510:145,1,76.4999976654053,8|0,0:0|0:0,0:0:0:0:
359,145,90220,1,0,0:0:0:0:
444,101,90370,1,0,0:0:0:0:
425,300,90520,2,0,P|449:330|494:345,1,76.4999976654053,8|0,0:0|0:0,0:0:0:0:
331,262,90820,5,0,0:0:0:0:
291,268,90895,1,0,0:0:0:0:
252,276,90970,1,0,0:0:0:0:
214,284,91045,1,0,0:0:0:0:
175,295,91120,1,8,0:0:0:0:
266,355,91270,1,0,0:0:0:0:
258,316,91345,1,0,0:0:0:0:
252,276,91420,1,0,0:0:0:0:
245,238,91495,1,0,0:0:0:0:
241,198,91570,1,0,0:0:0:0:
142,65,91720,2,0,P|92:115|155:137,1,140.25000428009,8|0,0:0|0:0,0:0:0:0:
179,138,92020,6,0,P|213:112|225:79,1,76.4999976654053,4|0,0:1|0:0,0:0:0:0:
65,6,92320,2,0,P|31:32|18:64,1,76.4999976654053,8|0,0:0|0:0,0:0:0:0:
125,232,92620,1,0,0:0:0:0:
41,178,92770,1,0,0:0:0:0:
133,144,92920,1,8,0:0:0:0:
203,277,93070,2,0,B|198:361,1,76.4999976654053
45,254,93370,2,0,B|39:160,1,76.4999976654053,0|8,0:0|0:0,0:0:0:0:
219,205,93670,6,0,P|243:203|268:207,1,38.2499988327027
278,276,93820,2,0,P|240:280|202:276,1,76.4999976654053
364,244,94045,2,0,P|396:223|422:195,1,76.4999976654053
363,151,94270,2,0,P|347:161|333:175,1,38.2499988327027
345,324,94420,6,0,L|295:190,1,114.749996498108,4|0,0:1|2:3,2:3:0:0:
219,205,94720,2,0,P|243:207|268:203,1,38.2499988327027,8|0,0:0|0:0,0:0:0:0:
316,24,94870,2,0,L|287:186,1,152.999995330811
400,76,95320,2,0,P|412:40|408:0,1,76.4999976654053,8|0,0:0|0:0,0:0:0:0:
195,79,95620,5,0,0:0:0:0:
159,96,95695,1,0,0:0:0:0:
124,82,95770,1,0,0:0:0:0:
111,46,95845,1,0,0:0:0:0:
129,12,95920,1,8,0:0:0:0:
200,171,96070,1,0,0:0:0:0:
235,156,96145,1,0,0:0:0:0:
250,121,96220,1,0,0:0:0:0:
232,87,96295,1,0,0:0:0:0:
195,79,96370,1,0,0:0:0:0:
122,231,96520,2,0,P|182:261|289:231,1,140.25000428009,8|0,0:0|0:0,0:0:0:0:
278,242,96820,5,4,0:1:0:0:
307,236,96895,1,0,0:0:0:0:
338,240,96970,1,0,0:0:0:0:
367,249,97045,1,0,0:0:0:0:
390,265,97120,2,0,L|482:249,1,76.4999976654053,8|0,0:0|0:0,0:0:0:0:
439,92,97420,2,0,L|454:189,1,76.4999976654053,8|0,0:3|0:0,0:0:0:0:
483,334,97720,2,4,L|491:367,5,28.3333333333333,12|4|4|4|4|4,0:3|0:3|0:3|0:3|0:3|0:3,0:3:0:0:
465,251,98020,5,4,0:1:0:0:
195,368,98170,2,0,L|331:308,1,127.5,8|0,0:3|0:0,0:0:0:0:
389,284,98470,5,8,0:0:0:0:
51,190,98770,1,8,0:0:0:0:
362,84,99070,1,8,0:0:0:0:
228,40,99220,6,0,B|200:108|244:148|244:148|200:180|224:256|304:260|344:212|332:140|284:132|244:148,1,356.999989105225,4|0,0:1|0:0,2:0:0:0:
64,192,100420,2,0,B|132:96|132:96|132:136|160:168,1,178.499994552612,4|0,0:1|0:0,2:0:0:0:
180,272,101020,2,0,B|293:306|293:306|272:280|272:240,1,178.499994552612,12|8,0:1|0:3,2:0:0:0:
412,184,101620,6,0,B|478:199|475:285|404:319|337:271|354:214|354:214|404:160|376:100,1,356.999989105225,4|0,0:1|0:0,2:0:0:0:
179,212,102820,5,6,0:3:0:0:
268,95,102970,1,4,0:3:0:0:
183,122,103120,1,4,0:3:0:0:
325,163,103270,1,4,0:3:0:0:
200,37,103420,5,8,0:0:0:0:
269,239,103570,1,4,0:3:0:0:
401,127,103720,1,8,0:0:0:0:
365,89,103795,1,8,0:0:0:0:
314,78,103870,1,8,0:0:0:0:
268,95,103945,1,8,0:0:0:0:
233,126,104020,6,4,P|204:143|178:141,1,38.2499988327027,4|0,3:2|3:0,3:3:0:0:
72,120,104170,2,4,P|62:103|59:86,1,38.2499988327027,4|0,3:2|3:0,3:3:0:0:
120,24,104320,1,0,3:0:0:0:
135,32,104395,1,0,3:0:0:0:
145,44,104470,2,4,P|151:61|148:80,1,38.2499988327027,4|0,3:2|3:0,3:3:0:0:
124,184,104620,1,0,3:3:0:0:
115,195,104695,1,0,3:3:0:0:
103,204,104770,2,4,P|78:210|46:209,1,38.2499988327027,4|0,3:2|3:3,3:3:0:0:
157,284,104920,2,4,P|187:276|214:281,1,38.2499988327027,4|0,3:2|3:3,3:3:0:0:
263,345,105070,1,0,3:3:0:0:
283,341,105145,1,0,3:3:0:0:
303,337,105220,6,4,L|359:329,1,38.2499988327027,4|0,3:2|3:3,3:3:0:0:
494,292,105370,1,0,3:3:0:0:
474,288,105445,1,0,3:3:0:0:
454,284,105520,2,4,L|398:276,1,38.2499988327027,4|0,3:2|3:3,3:3:0:0:
355,193,105670,2,4,P|347:169|355:129,1,38.2499988327027,4|0,3:2|3:3,3:3:0:0:
434,91,105820,1,0,3:3:0:0:
433,73,105895,1,0,3:3:0:0:
428,54,105970,2,4,P|412:18|393:-1,1,38.2499988327027,4|0,3:2|3:3,3:3:0:0:
286,15,106120,1,0,3:3:0:0:
285,33,106195,1,0,3:3:0:0:
280,52,106270,2,4,P|264:87|245:106,1,38.2499988327027,4|0,3:2|3:3,3:3:0:0:
176,272,106420,5,8,0:0:0:0:
448,195,106570,1,8,0:0:0:0:
184,160,106720,1,8,0:0:0:0:
328,224,106870,5,2,0:0:0:0:
317,213,107020,1,2,2:0:0:0:
302,206,107170,1,2,2:0:0:0:
286,205,107320,1,2,2:0:0:0:
271,209,107470,1,2,2:0:0:0:
380,136,107620,6,0,P|422:202|381:289,1,152.999995330811,4|0,0:1|0:0,0:3:0:0:
360,292,107920,1,8,0:0:0:0:
152,192,108070,2,0,B|119:153|125:96,1,101.999996887207
406,40,108370,2,0,B|412:97|372:145,1,101.999996887207,0|8,0:0|0:0,0:0:0:0:
152,192,108670,2,0,B|122:168|67:188|96:249|191:261|259:196,1,203.999993774414
296,80,109120,6,0,L|219:-14,1,101.999996887207,8|0,0:0|0:0,0:0:0:0:
400,176,109420,2,0,L|380:56,1,101.999996887207
460,272,109720,2,0,L|502:159,1,101.999996887207,8|0,0:0|0:0,0:0:0:0:
200,116,110020,6,0,B|164:160|170:211|170:211|180:262|141:318,1,203.999993774414,4|0,0:1|0:0,0:0:0:0:
292,196,110470,1,0,0:0:0:0:
148,308,110620,2,0,P|94:305|41:268,1,101.999996887207
32,128,110920,1,8,0:0:0:0:
236,288,111070,2,0,B|287:312|336:294|336:294|383:273|447:299,1,203.999993774414
292,196,111520,1,8,0:0:0:0:
156,364,111670,5,0,0:0:0:0:
320,300,111820,1,0,0:0:0:0:
196,180,111970,1,0,0:0:0:0:
364,132,112120,1,8,0:0:0:0:
244,8,112270,1,0,0:0:0:0:
408,244,112420,6,0,B|468:246|520:178|488:110,1,152.999995330811,4|0,0:1|0:0,0:3:0:0:
488,100,112720,1,8,0:0:0:0:
324,284,112870,2,0,P|316:344|344:404,1,101.999996887207
196,180,113170,2,0,P|204:120|176:60,1,101.999996887207,0|8,0:0|0:0,0:0:0:0:
116,284,113470,2,0,B|61:315|-26:278|-38:212|20:207|42:237,1,203.999993774414
248,256,113920,6,0,L|324:128,1,101.999996887207,8|0,0:0|0:0,0:0:0:0:
408,180,114220,2,0,L|320:80,1,101.999996887207
472,16,114520,2,0,L|340:40,1,101.999996887207,8|0,0:0|0:0,0:0:0:0:
156,144,114820,6,0,P|101:140|56:116,1,101.999996887207,4|0,0:1|0:0,0:0:0:0:
273,13,115120,2,0,P|329:17|381:40,1,101.999996887207,8|0,0:0|0:0,0:0:0:0:
300,168,115420,1,0,0:0:0:0:
188,48,115570,1,0,0:0:0:0:
128,224,115720,2,0,P|84:220|28:192,1,101.999996887207,8|0,0:0|0:0,0:0:0:0:
216,292,116020,6,0,P|227:342|259:382,1,101.999996887207
448,332,116320,2,0,P|470:286|471:235,1,101.999996887207,8|0,0:0|0:0,0:0:0:0:
304,220,116620,1,0,0:0:0:0:
352,363,116770,1,0,0:0:0:0:
496,140,116920,2,0,P|445:137|398:158,1,101.999996887207,8|0,0:0|0:0,0:0:0:0:
183,219,117220,6,0,P|101:224|30:180,1,152.999995330811,4|0,0:1|0:0,0:0:0:0:
85,127,117520,2,0,P|132:193|131:277,1,152.999995330811,8|0,0:0|0:0,0:0:0:0:
111,342,117820,1,0,0:0:0:0:
256,177,117970,1,0,0:0:0:0:
48,285,118120,1,8,0:0:0:0:
255,348,118270,1,0,0:0:0:0:
332,128,118420,6,0,L|203:43,1,152.999995330811
198,116,118720,2,0,L|337:54,1,152.999995330811,8|0,0:0|0:0,0:0:0:0:
275,1,119020,1,0,0:0:0:0:
146,182,119170,1,0,0:0:0:0:
371,201,119320,1,8,0:0:0:0:
242,384,119470,1,0,0:0:0:0:
63,239,119620,6,0,P|52:189|85:109,1,101.999996887207,4|0,0:1|0:0,0:0:0:0:
232,143,119919,2,0,P|239:193|224:241,1,101.999996887207,8|0,0:0|0:0,0:0:0:0:
76,376,120220,1,0,0:0:0:0:
249,310,120371,1,0,0:0:0:0:
32,312,120520,1,8,0:0:0:0:
146,182,120670,1,0,0:0:0:0:
319,334,120820,6,0,P|384:344|378:278,1,152.999995330811
303,250,121120,2,0,P|300:183|365:196,1,152.999995330811,8|0,0:0|0:0,0:0:0:0:
378,278,121420,1,0,0:0:0:0:
193,334,121570,2,0,L|77:314,1,101.999996887207,0|8,0:0|0:0,0:0:0:0:
297,345,121870,1,0,0:0:0:0:
88,229,122020,6,0,B|40:181|52:125|52:125|80:145|72:177,1,152.999995330811,4|0,0:1|0:0,0:0:0:0:
160,181,122320,1,8,0:0:0:0:
160,181,122620,1,0,0:0:0:0:
322,254,122770,2,0,L|443:236,1,101.999996887207,0|8,0:0|0:0,0:0:0:0:
220,273,123070,1,0,0:0:0:0:
432,149,123220,6,0,B|484:105|476:48|476:48|447:66|452:98,1,152.999995330811
378,85,123520,1,8,0:0:0:0:
378,85,123820,1,0,0:0:0:0:
220,273,123970,1,0,0:0:0:0:
101,62,124120,2,0,L|177:206,1,152.999995330811,8|0,0:0|0:0,0:0:0:0:
220,273,124420,6,0,P|254:163|94:151,1,297.499990921021,4|0,0:1|0:0,2:0:0:0:
173,198,124870,2,0,B|270:203|310:123|310:123|342:139|382:131|382:131|378:171|350:191,1,297.499990921021,4|0,0:2|0:0,2:0:0:0:
354,59,125320,2,0,P|422:67|450:171,1,178.499994552612,12|0,0:2|0:0,0:0:0:0:
430,203,125620,5,12,0:2:0:0:
410,247,125695,1,8,0:3:0:0:
402,295,125770,1,8,0:3:0:0:
414,343,125845,1,8,0:3:0:0:
446,379,125920,1,8,0:0:0:0:
256,240,126070,5,2,0:0:0:0:
256,40,126520,1,2,0:0:0:0:
228,172,126820,5,4,0:1:0:0:
196,200,126895,1,0,0:0:0:0:
154,208,126970,1,0,0:0:0:0:
111,203,127045,1,0,0:0:0:0:
70,188,127120,2,0,P|52:170|42:144,1,42.5,10|2,0:2|0:2,0:2:0:0:
8,64,127270,1,0,0:0:0:0:
8,52,127345,1,0,0:0:0:0:
16,44,127420,2,0,P|40:45|65:59,1,42.5,2|2,0:2|0:2,0:2:0:0:
164,104,127570,1,0,0:0:0:0:
164,116,127645,1,0,0:0:0:0:
156,124,127720,2,0,P|132:123|107:109,1,42.5,2|2,0:2|0:2,0:2:0:0:
240,60,127870,2,0,P|264:61|289:75,1,42.5,2|2,0:2|0:2,0:2:0:0:
405,129,128020,5,8,0:3:0:0:
447,128,128095,1,0,0:0:0:0:
477,97,128170,1,0,0:0:0:0:
472,54,128245,1,0,0:0:0:0:
442,23,128320,2,0,P|413:15|366:26,1,42.5,10|2,0:2|0:2,0:0:0:0:
318,97,128470,1,0,0:0:0:0:
314,109,128545,1,0,0:0:0:0:
315,121,128620,2,0,P|315:143|325:172,1,42.5,2|2,0:2|0:2,0:2:0:0:
404,248,128770,1,0,0:0:0:0:
415,254,128845,1,0,0:0:0:0:
427,255,128920,2,0,P|449:258|479:253,3,42.5,10|2|2|2,0:2|0:2|0:2|0:2,0:2:0:0:
308,200,129220,5,8,0:3:0:0:
265,194,129295,1,0,0:0:0:0:
222,198,129370,1,0,0:0:0:0:
184,218,129445,1,0,0:0:0:0:
151,245,129520,2,0,P|122:252|76:239,1,42.5,10|2,0:2|0:2,0:0:0:0:
6,220,129670,1,0,0:0:0:0:
0,231,129745,1,0,0:0:0:0:
0,243,129820,2,0,P|0:264|6:284,1,42.5,2|2,0:2|0:2,0:0:0:0:
108,352,129970,1,0,0:0:0:0:
117,343,130045,1,0,0:0:0:0:
121,332,130120,2,0,P|127:310|128:290,1,42.5,10|2,0:2|0:2,0:0:0:0:
224,200,130270,2,0,P|224:221|230:241,1,42.5,2|2,0:2|0:2,0:0:0:0:
336,356,130420,5,8,0:3:0:0:
375,370,130495,1,0,0:0:0:0:
417,373,130570,1,0,0:0:0:0:
458,365,130645,1,0,0:0:0:0:
495,345,130720,2,0,L|504:284,1,42.5,10|2,0:2|0:2,0:2:0:0:
421,247,130870,1,0,0:0:0:0:
410,239,130945,1,0,0:0:0:0:
402,228,131020,2,0,L|396:180,3,42.5,2|2|2|2,0:2|0:2|0:2|0:2,0:2:0:0:
316,317,131320,5,8,0:3:0:0:
488,160,131620,5,4,0:1:0:0:
468,122,131695,1,0,0:0:0:0:
430,101,131770,1,0,0:0:0:0:
387,96,131845,1,0,0:0:0:0:
348,113,131920,2,0,P|328:137|325:173,1,42.5,10|2,0:2|0:2,0:0:0:0:
305,259,132070,1,0,0:0:0:0:
308,271,132145,1,0,0:0:0:0:
304,283,132220,2,0,P|293:301|276:314,1,42.5,2|2,0:2|0:2,0:0:0:0:
157,350,132370,1,0,0:0:0:0:
144,349,132445,1,0,0:0:0:0:
132,342,132520,2,0,P|116:327|107:308,1,42.5,10|2,0:2|0:2,0:0:0:0:
173,192,132670,2,0,P|164:172|148:158,1,42.5,2|2,0:2|0:2,0:0:0:0:
10,240,132820,5,8,0:3:0:0:
47,260,132895,1,0,0:0:0:0:
82,237,132970,1,0,0:0:0:0:
74,195,133045,1,0,0:0:0:0:
39,170,133120,2,0,P|32:135|40:101,1,42.5,10|2,0:2|0:2,0:0:0:0:
101,35,133270,1,0,0:0:0:0:
113,36,133345,1,0,0:0:0:0:
124,42,133420,2,0,P|150:66|163:98,1,42.5,2|2,0:2|0:2,0:0:0:0:
242,152,133570,1,0,0:0:0:0:
251,157,133645,1,0,0:0:0:0:
264,160,133720,2,0,P|299:156|329:138,3,42.5,10|2|2|2,0:2|0:2|0:2|0:2,0:0:0:0:
435,61,134020,5,8,0:3:0:0:
395,77,134095,1,0,0:0:0:0:
376,115,134170,1,0,0:0:0:0:
385,156,134245,1,0,0:0:0:0:
413,187,134320,2,0,P|423:214|418:268,1,42.5,10|2,0:2|0:2,0:0:0:0:
355,313,134470,1,0,0:0:0:0:
350,325,134545,1,0,0:0:0:0:
348,338,134620,2,0,P|354:366|387:408,1,42.5,2|2,0:2|0:2,0:0:0:0:
505,374,134770,1,0,0:0:0:0:
510,362,134845,1,0,0:0:0:0:
512,349,134920,2,0,P|505:320|472:278,1,42.5,2|2,0:2|0:2,0:0:0:0:
424,227,135070,2,0,P|425:205|432:185,1,42.5,2|2,0:2|0:2,0:2:0:0:
489,86,135220,5,4,0:3:0:0:
468,88,135295,1,4,0:3:0:0:
446,86,135370,1,4,0:3:0:0:
425,81,135445,1,4,0:3:0:0:
412,70,135520,5,0,3:0:0:0:
406,75,135595,1,0,3:0:0:0:
401,82,135670,1,0,3:0:0:0:
394,87,135745,1,0,3:0:0:0:
389,94,135820,5,4,0:3:0:0:
354,56,135895,1,4,0:3:0:0:
309,30,135970,1,4,0:3:0:0:
258,28,136045,1,4,0:3:0:0:
209,45,136120,2,0,P|172:98|186:167,1,127.5,8|0,0:0|0:0,0:0:0:0:
268,174,136420,6,0,B|230:178|230:178|166:227|166:227|124:230,1,152.999995330811,4|8,0:1|0:0,0:0:0:0:
376,288,137020,2,0,B|357:254|357:254|361:216,1,76.4999976654053
260,272,137320,1,8,0:0:0:0:
376,16,137620,6,0,B|414:20|414:20|478:69|478:69|520:72,1,152.999995330811,4|8,0:1|0:0,0:0:0:0:
268,130,138220,2,0,B|287:96|287:96|283:58,1,76.4999976654053
384,114,138520,1,8,0:0:0:0:
400,352,138820,6,0,L|388:192,1,152.999995330811,4|8,0:1|0:0,0:0:0:0:
314,370,139420,2,0,L|305:268,1,76.4999976654053
488,332,139720,1,8,0:0:0:0:
100,192,140020,6,0,L|111:26,1,152.999995330811,4|12,0:2|0:1,0:0:0:0:
187,208,140620,2,0,L|193:119,1,76.4999976654053
14,174,140920,1,8,0:0:0:0:
100,348,141220,6,0,P|29:331|74:280,1,152.999995330811,4|8,0:1|0:0,0:0:0:0:
284,327,141820,1,0,0:0:0:0:
284,327,141970,1,0,0:0:0:0:
139,278,142120,1,8,0:0:0:0:
444,192,142420,6,0,P|514:208|469:259,1,152.999995330811,4|8,0:2|0:0,0:0:0:0:
260,213,143020,1,0,0:0:0:0:
260,213,143170,1,0,0:0:0:0:
405,262,143320,1,8,0:0:0:0:
184,144,143620,6,0,P|107:136|51:190,1,152.999995330811,4|8,0:1|0:0,0:0:0:0:
256,8,144220,1,0,0:0:0:0:
256,8,144370,1,0,0:0:0:0:
356,112,144520,1,8,0:0:0:0:
323,215,144670,1,0,0:0:0:0:
326,226,144745,1,0,0:0:0:0:
332,236,144820,6,0,P|391:264|474:253,1,140.25000428009,2|0,0:3|0:0,0:0:0:0:
502,223,145120,1,8,0:0:0:0:
308,324,145270,1,4,0:3:0:0:
256,8,145570,1,4,0:3:0:0:
32,228,145870,1,4,0:3:0:0:
168,232,146020,5,4,0:1:0:0:
188,212,146095,1,0,0:0:0:0:
200,184,146170,1,0,0:0:0:0:
204,152,146245,1,0,0:0:0:0:
192,124,146320,2,0,P|152:88|104:88,1,76.4999976654053,8|0,0:0|0:0,0:0:0:0:
30,110,146620,1,0,0:0:0:0:
59,11,146770,1,0,0:0:0:0:
218,39,146920,2,0,P|268:53|315:30,1,76.4999976654053,8|0,0:0|0:0,0:0:0:0:
446,11,147220,5,0,0:0:0:0:
443,42,147295,1,0,0:0:0:0:
440,74,147370,1,0,0:0:0:0:
437,106,147445,1,0,0:0:0:0:
435,138,147520,1,8,0:0:0:0:
505,76,147670,1,0,0:0:0:0:
472,75,147745,1,0,0:0:0:0:
440,74,147820,1,0,0:0:0:0:
408,72,147895,1,0,0:0:0:0:
376,72,147970,1,0,0:0:0:0:
364,204,148120,2,0,P|426:234|493:217,1,140.25000428009,8|0,0:0|0:0,0:0:0:0:
423,270,148420,6,0,L|410:354,1,76.4999976654053,4|0,0:1|0:0,0:0:0:0:
225,334,148720,2,0,L|212:257,1,76.4999976654053,8|0,0:0|0:0,0:0:0:0:
201,131,149020,1,0,0:0:0:0:
271,189,149170,1,0,0:0:0:0:
116,322,149320,1,8,0:0:0:0:
59,249,149470,1,0,0:0:0:0:
183,254,149620,5,0,0:0:0:0:
213,259,149695,1,0,0:0:0:0:
240,272,149770,1,0,0:0:0:0:
262,293,149845,1,0,0:0:0:0:
272,321,149920,2,0,P|271:351|256:381,1,38.2499988327027,8|0,0:0|0:0,0:0:0:0:
358,283,150070,2,0,P|362:312|353:344,1,38.2499988327027
452,225,150220,5,0,0:0:0:0:
422,220,150295,1,0,0:0:0:0:
395,207,150370,1,0,0:0:0:0:
373,186,150445,1,0,0:0:0:0:
363,158,150520,2,0,P|364:128|379:98,1,38.2499988327027,8|0,0:0|0:0,0:0:0:0:
277,196,150670,2,0,P|272:166|281:134,1,38.2499988327027
362,321,150820,6,0,P|402:341|451:340,1,76.4999976654053,4|0,0:1|0:0,0:0:0:0:
512,167,151120,2,0,P|471:141|422:142,1,76.4999976654053,8|0,0:0|0:0,0:0:0:0:
277,196,151420,1,0,0:0:0:0:
363,241,151570,1,0,0:0:0:0:
274,114,151720,1,8,0:0:0:0:
202,247,151870,1,0,0:0:0:0:
56,183,152020,5,0,0:0:0:0:
57,144,152095,1,0,0:0:0:0:
76,111,152170,1,0,0:0:0:0:
110,95,152245,1,0,0:0:0:0:
148,95,152320,1,8,0:0:0:0:
249,17,152470,1,0,0:0:0:0:
209,12,152545,1,0,0:0:0:0:
174,27,152620,1,0,0:0:0:0:
152,58,152695,1,0,0:0:0:0:
148,95,152770,1,0,0:0:0:0:
306,182,152920,2,0,P|374:186|434:137,1,140.25000428009,8|0,0:0|0:0,0:0:0:0:
386,222,153220,6,0,L|368:308,1,76.4999976654053,4|0,0:1|0:0,0:0:0:0:
267,91,153520,2,0,L|247:10,1,76.4999976654053,8|0,0:0|0:0,0:0:0:0:
136,208,153820,1,0,0:0:0:0:
240,120,153970,1,0,0:0:0:0:
317,249,154120,2,0,P|354:244|386:223,1,76.4999976654053,8|0,0:0|0:0,0:0:0:0:
186,216,154420,6,8,L|114:204,2,50.9999984436036,8|8|8,0:3|0:3|0:3,0:3:0:0:
264,332,154720,6,4,L|256:388,2,50.9999984436036,4|4|4,0:3|0:3|0:3,0:3:0:0:
372,248,155020,5,8,0:3:0:0:
424,216,155120,1,8,0:3:0:0:
484,216,155220,1,8,0:3:0:0:
510,304,155320,5,4,0:3:0:0:
433,292,155420,1,4,0:3:0:0:
372,248,155520,1,4,0:3:0:0:
340,128,155620,6,0,L|340:352,1,203.999993774414,4|4,0:1|0:3,0:0:0:0:
336,36,156070,1,4,0:3:0:0:
232,204,156220,2,0,P|188:179|161:136,1,101.999996887207,8|0,0:0|0:0,0:0:0:0:
336,24,156520,1,4,0:3:0:0:
442,205,156670,2,0,P|485:180|512:137,1,101.999996887207,8|0,0:0|0:0,0:0:0:0:
335,7,156970,1,8,0:0:0:0:
344,232,157120,1,4,0:3:0:0:
344,232,157270,1,4,0:3:0:0:
152,360,157420,6,0,B|136:368|96:360|96:360|104:320|80:288|80:288|132:256|212:268|240:303,1,305.999990661621,12|8,0:2|0:0,2:0:0:0:
168,140,158020,2,0,B|152:96|120:68|120:68|80:120|16:108|16:108|16:168|80:208,1,305.999990661621,4|0,0:2|0:0,2:0:0:0:
258,204,158620,2,0,B|252:178|288:134|288:134|326:160|375:158|375:158|373:232|339:288,1,305.999990661621,12|8,0:2|0:0,2:0:0:0:
184,384,159220,5,0,0:0:0:0:
160,204,159370,1,8,0:0:0:0:
280,344,159520,1,4,0:3:0:0:
72,368,159670,1,4,0:3:0:0:
168,172,159820,2,0,B|141:120|85:112|85:112|37:79|62:20,1,203.999993774414,8|4,0:0|0:3,0:0:0:0:
171,24,160270,1,8,0:0:0:0:
74,215,160420,6,0,P|123:282|247:234,1,203.999993774414,4|4,0:0|0:3,0:0:0:0:
316,58,160870,1,4,0:3:0:0:
506,123,161020,2,0,P|495:171|457:204,1,101.999996887207,8|0,0:0|0:0,0:0:0:0:
312,48,161320,1,4,0:3:0:0:
230,260,161470,2,0,P|274:283|324:276,1,101.999996887207,8|0,0:0|0:0,0:0:0:0:
304,36,161770,1,8,0:0:0:0:
405,259,161920,1,4,0:3:0:0:
405,259,162070,1,4,0:3:0:0:
260,168,162220,6,0,B|203:153|160:192|160:192|122:177|94:121|112:64|198:49|224:88,1,305.999990661621,12|8,0:2|0:0,2:0:0:0:
230,260,162820,2,0,B|217:338|157:378|157:378|73:346|73:346|-7:370,1,305.999990661621,4|0,0:2|0:0,2:0:0:0:
0,116,163420,2,0,B|42:185|2:273|2:273|78:253|78:253|138:273,1,305.999990661621,12|0,0:2|0:0,2:0:0:0:
376,231,164020,6,0,B|390:207|390:207|390:169|390:169|405:144,1,89.2499972763062,2|0,0:3|0:0,0:0:0:0:
393,106,164320,2,4,L|395:60,1,29.7499990921021,4|4,0:3|0:3,0:3:0:0:
281,267,164470,6,0,B|264:232|264:232|268:186|268:186|247:126,1,127.5,8|0,0:0|0:0,0:0:0:0:
228,214,164770,2,0,B|211:179|211:179|215:133|215:133|194:73,1,127.5,8|0,0:0|0:0,0:0:0:0:
168,157,165070,1,8,0:0:0:0:
316,74,165220,5,4,0:1:0:0:
345,65,165295,1,0,0:0:0:0:
375,68,165370,1,0,0:0:0:0:
403,79,165445,1,0,0:0:0:0:
430,94,165520,2,0,L|514:105,1,76.4999976654053,8|0,0:0|0:0,0:0:0:0:
354,185,165820,1,0,0:0:0:0:
446,198,165970,1,0,0:0:0:0:
292,287,166120,2,0,L|376:298,1,76.4999976654053,8|0,0:0|0:0,0:0:0:0:
198,205,166420,5,0,0:0:0:0:
177,234,166495,1,0,0:0:0:0:
167,268,166570,1,0,0:0:0:0:
170,304,166645,1,0,0:0:0:0:
184,337,166720,1,8,0:0:0:0:
16,339,166870,1,0,0:0:0:0:
30,306,166945,1,0,0:0:0:0:
32,270,167020,1,0,0:0:0:0:
22,236,167095,1,0,0:0:0:0:
4,207,167170,1,0,0:0:0:0:
29,30,167320,2,0,P|98:38|166:24,1,140.25000428009,8|0,0:0|0:0,0:0:0:0:
96,82,167620,6,0,L|98:176,1,76.4999976654053,4|0,0:1|0:0,0:0:0:0:
272,242,167920,1,8,0:0:0:0:
184,121,168070,1,0,0:0:0:0:
184,213,168220,1,0,0:0:0:0:
325,167,168370,1,0,0:0:0:0:
272,93,168520,1,8,0:0:0:0:
203,298,168670,2,0,L|122:323,1,76.4999976654053
404,213,168970,2,0,L|485:238,1,76.4999976654053,0|8,0:0|0:0,0:0:0:0:
352,104,169270,6,0,P|348:76|357:35,1,38.2499988327027,0|0,0:3|0:3,0:3:0:0:
415,31,169420,2,0,P|383:53|331:69,1,76.4999976654053,0|0,0:3|0:3,0:3:0:0:
203,32,169645,2,0,P|234:53|270:66,1,76.4999976654053,0|0,0:3|0:3,0:3:0:0:
266,104,169870,2,0,P|269:85|270:55,1,38.2499988327027,0|0,0:3|0:3,0:3:0:0:
310,0,170020,6,0,L|310:115,1,114.749996498108,4|0,0:1|0:0,0:0:0:0:
310,153,170320,2,0,L|310:114,1,38.2499988327027,8|0,0:0|0:0,0:0:0:0:
246,215,170470,2,0,P|327:186|396:225,1,152.999995330811
436,364,170920,2,0,L|512:356,1,76.4999976654053,8|0,0:0|0:0,0:0:0:0:
319,297,171220,5,0,0:0:0:0:
289,302,171295,1,0,0:0:0:0:
259,307,171370,1,0,0:0:0:0:
230,313,171445,1,0,0:0:0:0:
200,318,171520,1,8,0:0:0:0:
63,270,171670,2,0,L|44:218,1,38.2499988327027
119,208,171820,2,0,P|87:230|49:235,1,76.4999976654053
148,179,172045,2,0,P|181:159|218:156,1,76.4999976654053
231,191,172270,2,0,L|218:155,1,38.2499988327027
75,138,172420,6,0,B|33:102|32:39|63:8|63:8|112:38|112:38|119:68,1,229.499992996216,4|0,0:2|0:0,2:0:0:0:
312,194,173020,2,0,B|366:198|411:154|411:110|411:110|355:97|355:97|329:113,1,229.499992996216,4|0,0:2|0:0,2:0:0:0:
200,345,173620,6,0,L|37:365,1,140.25000428009,2|0,0:3|0:0,0:0:0:0:
42,315,173920,1,8,0:0:0:0:
280,364,174070,1,4,0:3:0:0:
284,368,174370,1,4,0:3:0:0:
91,236,174520,1,8,0:0:0:0:
42,315,174670,1,4,0:3:0:0:
182,262,174820,5,4,0:1:0:0:
189,232,174895,1,0,0:0:0:0:
182,202,174970,1,0,0:0:0:0:
166,175,175045,1,0,0:0:0:0:
141,156,175120,2,0,P|119:120|128:53,1,76.4999976654053,8|0,0:0|0:0,0:0:0:0:
304,40,175420,1,0,0:0:0:0:
204,92,175570,1,0,0:0:0:0:
376,104,175720,2,0,P|398:68|389:1,1,76.4999976654053,8|0,0:0|0:0,0:0:0:0:
284,204,176020,5,0,0:0:0:0:
264,234,176095,1,0,0:0:0:0:
246,266,176170,1,0,0:0:0:0:
226,296,176245,1,0,0:0:0:0:
207,327,176320,1,8,0:0:0:0:
283,203,176470,1,0,0:0:0:0:
295,238,176545,1,0,0:0:0:0:
306,273,176620,1,0,0:0:0:0:
318,306,176695,1,0,0:0:0:0:
330,341,176770,1,0,0:0:0:0:
484,238,176920,2,0,L|371:156,1,140.25000428009,8|0,0:0|0:0,0:0:0:0:
439,163,177220,6,0,P|477:146|526:174,1,76.4999976654053,4|0,0:1|0:0,0:0:0:0:
337,246,177520,1,8,0:0:0:0:
296,120,177670,1,0,0:0:0:0:
376,240,177820,1,0,0:0:0:0:
284,336,177970,2,0,P|246:333|211:317,1,76.4999976654053,0|8,0:0|0:0,0:0:0:0:
94,132,178270,2,0,L|110:207,1,76.4999976654053
355,122,178570,2,0,L|370:47,1,76.4999976654053,0|8,0:0|0:0,0:0:0:0:
181,66,178870,6,0,P|182:85|188:104,1,38.2499988327027
263,107,179020,2,0,P|262:69|253:32,1,76.4999976654053
199,184,179245,2,0,P|201:222|210:258,1,76.4999976654053
285,230,179470,2,0,P|284:211|279:193,1,38.2499988327027
124,156,179620,6,0,B|49:169|49:169|-8:168,1,114.749996498108,4|0,0:1|0:3,2:3:0:0:
8,92,179920,2,0,L|52:92,1,38.2499988327027,8|0,0:0|0:0,0:0:0:0:
160,40,180070,2,0,B|64:16|64:16|0:16,1,152.999995330811,0|0,0:3|0:3,2:3:0:0:
224,124,180520,2,0,P|264:124|328:100,1,76.4999976654053,8|0,0:0|0:0,0:0:0:0:
416,14,180820,5,0,0:0:0:0:
389,42,180895,1,0,0:0:0:0:
377,78,180970,1,0,0:0:0:0:
384,115,181045,1,0,0:0:0:0:
404,147,181120,1,8,0:0:0:0:
512,297,181270,1,0,0:0:0:0:
497,261,181345,1,0,0:0:0:0:
471,234,181420,1,0,0:0:0:0:
435,223,181495,1,0,0:0:0:0:
396,228,181570,1,0,0:0:0:0:
168,272,181720,6,0,L|340:296,1,140.25000428009,8|0,0:0|0:0,0:0:0:0:
288,268,182020,5,4,0:1:0:0:
268,244,182095,1,0,0:0:0:0:
249,219,182170,1,0,0:0:0:0:
228,196,182245,1,0,0:0:0:0:
211,170,182320,2,0,L|307:182,1,76.4999976654053,8|0,0:0|0:0,0:0:0:0:
259,380,182620,2,0,L|184:371,1,76.4999976654053,8|0,0:3|0:0,0:0:0:0:
67,176,182920,2,4,L|58:124,5,28.3333333333333,4|4|4|4|4|4,0:3|0:3|0:3|0:3|0:3|0:3,0:3:0:0:
85,258,183220,5,4,0:1:0:0:
297,288,183370,2,0,L|162:270,1,127.5,8|0,0:3|0:0,0:0:0:0:
85,258,183670,5,8,0:0:0:0:
388,298,183970,1,8,0:0:0:0:
0,246,184270,1,8,0:0:0:0:
155,187,184420,6,0,B|183:119|144:82|144:82|196:6|110:-16|58:29|35:106|111:145,1,356.999989105225,4|0,0:1|0:0,2:0:0:0:
424,45,185620,2,0,B|373:41|373:41|314:77|314:77|257:71,1,178.499994552612,4|0,0:1|0:0,2:0:0:0:
88,45,186220,2,0,B|139:40|139:40|198:76|198:76|255:70,1,178.499994552612,12|8,0:1|0:0,2:0:0:0:
293,175,186820,6,0,B|343:187|354:269|276:304|205:262|215:202|256:164|256:164|272:112|252:58,1,356.999989105225,4|0,0:1|0:0,2:0:0:0:
113,343,188020,5,6,0:3:0:0:
190,315,188220,1,4,0:3:0:0:
251,365,188420,1,4,0:3:0:0:
484,356,188620,5,4,0:3:0:0:
399,248,188820,1,4,0:3:0:0:
265,283,189020,1,4,0:3:0:0:
128,121,189220,5,4,0:2:0:0:
212,84,189370,2,4,P|231:48|241:7,1,76.4999976654053,4|4,0:3|0:3,0:3:0:0:
289,135,189670,2,0,P|325:118|357:89,1,76.4999976654053,4|0,0:2|0:0,0:0:0:0:
311,224,189970,1,4,0:3:0:0:
444,104,190120,5,8,0:0:0:0:
312,236,190270,1,8,0:0:0:0:
212,84,190420,1,8,0:0:0:0:
312,248,190570,1,8,0:0:0:0:
216,175,190720,5,8,0:0:0:0:
203,168,190795,1,0,0:0:0:0:
188,164,190870,2,0,P|160:162|130:175,1,38.2499988327027
80,280,191020,1,8,0:0:0:0:
90,291,191095,1,0,0:0:0:0:
103,301,191170,2,0,P|127:312|160:311,1,38.2499988327027
244,259,191320,1,8,0:0:0:0:
258,252,191395,1,0,0:0:0:0:
273,247,191470,2,0,P|300:245|331:257,1,38.2499988327027
440,272,191620,5,8,0:0:0:0:
448,316,191695,1,8,0:0:0:0:
428,356,191770,1,8,0:0:0:0:
384,368,191845,1,8,0:0:0:0:
340,356,191920,2,0,P|315:343|290:309,1,46.7500014266968,12|0,0:2|0:0,0:0:0:0:
283,143,192070,5,8,0:3:0:0:
122,259,192220,1,8,0:3:0:0:
182,70,192370,1,8,0:3:0:0:
244,259,192520,1,8,0:3:0:0:
84,143,192670,1,8,0:3:0:0:
304,32,192820,6,0,P|395:38|462:89,1,152.999995330811,4|0,0:1|0:0,0:0:0:0:
468,104,193120,1,8,0:0:0:0:
416,320,193270,2,0,P|369:339|319:334,1,101.999996887207
200,216,193570,2,0,P|127:216|76:259,1,101.999996887207,0|8,0:0|0:0,0:0:0:0:
348,244,193870,2,0,B|437:257|499:218|501:181|476:153|399:196,1,203.999993774414
200,216,194320,6,0,L|210:342,1,101.999996887207,8|0,0:0|0:0,0:0:0:0:
108,100,194620,2,0,L|98:226,1,101.999996887207
0,12,194920,2,0,L|10:138,1,101.999996887207,8|0,0:0|0:0,0:0:0:0:
200,216,195220,6,0,B|253:210|293:173|293:173|338:136|404:146,1,203.999993774414,4|0,0:1|0:0,0:0:0:0:
376,276,195670,1,0,0:0:0:0:
204,104,195820,2,0,P|197:71|237:7,1,101.999996887207
360,40,196120,1,8,0:0:0:0:
208,308,196270,2,0,B|155:304|114:269|114:269|67:234|1:245,1,203.999993774414
204,104,196720,1,8,0:0:0:0:
344,300,196870,5,0,0:0:0:0:
503,159,197020,1,0,0:0:0:0:
326,132,197170,1,0,0:0:0:0:
499,198,197320,1,8,0:0:0:0:
405,4,197470,1,0,0:0:0:0:
292,148,197620,6,0,P|214:158|120:112,1,152.999995330811,4|0,0:1|0:0,0:0:0:0:
112,96,197920,1,8,0:0:0:0:
80,264,198070,2,0,P|64:318|28:360,1,101.999996887207
16,152,198370,2,0,P|-1:107|3:50,1,101.999996887207,0|8,0:0|0:0,0:0:0:0:
186,279,198670,2,0,B|263:327|334:315|351:281|339:246|251:255,1,203.999993774414
212,24,199120,6,0,P|185:66|181:117,1,101.999996887207,8|0,0:0|0:0,0:0:0:0:
409,50,199420,2,0,P|358:47|312:69,1,101.999996887207
467,239,199720,2,0,P|442:193|401:164,1,101.999996887207,8|0,0:0|0:0,0:0:0:0:
168,344,200020,6,0,L|66:350,1,101.999996887207,4|0,0:1|0:0,0:0:0:0:
248,240,200320,2,0,L|350:247,1,101.999996887207,8|0,0:0|0:0,0:0:0:0:
204,340,200620,1,0,0:0:0:0:
136,188,200770,1,0,0:0:0:0:
324,96,200920,2,0,L|304:198,1,101.999996887207,8|0,0:0|0:0,0:0:0:0:
160,96,201220,6,0,P|144:40|77:5,1,101.999996887207
8,208,201520,2,0,P|23:263|90:298,1,101.999996887207,8|0,0:0|0:0,0:0:0:0:
180,120,201820,1,0,0:0:0:0:
40,200,201970,1,0,0:0:0:0:
160,344,202120,2,0,P|207:328|237:288,1,101.999996887207,8|0,0:0|0:0,0:0:0:0:
344,136,202420,6,0,P|391:104|499:144,1,152.999995330811,4|0,0:1|0:0,0:0:0:0:
429,180,202720,2,0,P|384:121|397:47,1,152.999995330811,8|0,0:0|0:0,0:0:0:0:
476,28,203020,1,0,0:0:0:0:
348,220,203170,1,0,0:0:0:0:
304,68,203320,1,8,0:0:0:0:
512,196,203470,1,0,0:0:0:0:
304,293,203620,6,0,L|160:244,1,152.999995330811
187,330,203920,2,0,L|265:197,1,152.999995330811,8|0,0:0|0:0,0:0:0:0:
188,165,204220,1,0,0:0:0:0:
264,360,204370,1,0,0:0:0:0:
348,220,204520,1,8,0:0:0:0:
116,301,204670,1,0,0:0:0:0:
356,384,204820,6,0,P|402:363|435:325,1,101.999996887207,4|0,0:1|0:0,0:0:0:0:
339,134,205120,2,0,P|293:158|264:198,1,101.999996887207,8|0,0:0|0:0,0:0:0:0:
472,231,205421,1,0,0:0:0:0:
412,92,205571,1,0,0:0:0:0:
328,288,205720,1,8,0:0:0:0:
264,80,205870,1,0,0:0:0:0:
104,208,206020,6,0,B|80:283|80:283|100:355,1,152.999995330811
177,357,206320,2,0,B|201:282|201:282|181:210,1,152.999995330811,8|0,0:0|0:0,0:0:0:0:
146,141,206620,1,0,0:0:0:0:
285,269,206770,2,0,L|392:256,1,101.999996887207,0|8,0:0|0:0,0:0:0:0:
143,281,207070,1,0,0:0:0:0:
377,185,207220,6,0,L|397:336,1,152.999995330811,4|0,0:1|0:0,0:0:0:0:
317,341,207520,1,8,0:0:0:0:
317,341,207820,1,0,0:0:0:0:
177,217,207970,2,0,L|72:230,1,101.999996887207,0|8,0:0|0:0,0:0:0:0:
321,205,208270,1,0,0:0:0:0:
85,305,208420,6,0,L|64:153,1,152.999995330811
145,141,208720,1,8,0:0:0:0:
145,141,209020,1,0,0:0:0:0:
1,317,209170,1,0,0:0:0:0:
227,361,209320,2,0,L|167:189,1,152.999995330811,8|0,0:0|0:0,0:0:0:0:
145,141,209620,6,0,B|214:118|247:176|247:176|287:128|287:128|314:202|420:177,1,297.499990921021,4|0,0:1|0:0,2:0:0:0:
373,92,210070,2,0,B|349:49|294:22|241:59|241:59|187:-4|136:5|127:45|180:52|216:41,1,297.499990921021,4|0,0:2|0:0,2:0:0:0:
79,86,210520,2,0,P|9:68|74:34,1,178.499994552612,12|0,0:2|0:0,0:0:0:0:
109,51,210820,5,8,0:3:0:0:
125,98,210895,1,8,0:3:0:0:
125,146,210970,1,8,0:3:0:0:
105,188,211045,1,8,0:3:0:0:
80,226,211120,5,8,0:3:0:0:
74,255,211195,1,8,0:3:0:0:
80,284,211270,1,8,0:3:0:0:
96,306,211345,1,8,0:3:0:0:
117,328,211420,5,4,0:3:0:0:
121,339,211495,1,4,0:3:0:0:
121,351,211570,1,4,0:3:0:0:
116,363,211645,1,4,0:3:0:0:
109,373,211720,5,8,0:3:0:0:
153,332,211795,1,8,0:3:0:0:
208,312,211870,1,8,0:3:0:0:
268,314,211945,1,8,0:3:0:0:
321,337,212020,6,0,B|428:405|539:329|544:195|443:121|336:140|336:140|246:157|198:77|236:-37|367:-27|424:55|348:142|348:142|303:196|385:249|385:249|316:212|262:240|219:274|182:244|188:188|237:189|249:225,1,1223.99996264649,2|8,0:3|0:3,2:0:0:0:
72,68,214720,6,0,L|54:26,2,45.3333333333333
168,52,215020,2,0,L|167:6,2,45.3333333333333
264,64,215320,2,0,L|281:22,2,45.3333333333333
196,144,215620,5,0,0:0:0:0:
172,140,215720,1,0,0:0:0:0:
148,144,215820,1,0,0:0:0:0:
136,200,215920,5,0,0:0:0:0:
173,193,216020,1,0,0:0:0:0:
210,200,216120,1,0,0:0:0:0:
228,256,216220,5,8,0:3:0:0:
174,246,216320,1,8,0:3:0:0:
118,256,216420,1,8,0:3:0:0:
100,312,216520,5,8,0:3:0:0:
176,297,216620,1,8,0:3:0:0:
252,312,216720,1,8,0:3:0:0:
264,364,216820,6,0,P|228:352|192:356,2,62.3333352355958,4|0|0,0:1|0:0|0:0,0:0:0:0:
368,324,217120,2,0,P|404:336|440:332,2,62.3333352355958,8|0|0,0:0|0:0|0:0,0:0:0:0:
304,236,217420,1,0,0:0:0:0:
296,192,217520,1,0,0:0:0:0:
312,152,217620,1,0,0:0:0:0:
348,112,217720,5,8,0:0:0:0:
356,84,217820,1,0,0:0:0:0:
352,52,217920,1,0,0:0:0:0:
312,16,218020,6,0,P|288:12|232:24,2,62.3333352355958
200,108,218320,2,0,P|176:112|120:100,2,62.3333352355958,8|0|0,0:0|0:0|0:0,0:0:0:0:
80,16,218620,1,0,0:0:0:0:
48,44,218720,1,0,0:0:0:0:
36,88,218820,1,0,0:0:0:0:
60,140,218920,5,8,0:0:0:0:
28,188,219020,1,0,0:0:0:0:
36,244,219120,1,0,0:0:0:0:
81,282,219220,6,0,P|85:317|73:372,2,62.3333352355958
168,208,219520,2,0,P|164:172|136:128,2,62.3333352355958,8|0|0,0:0|0:0|0:0,0:0:0:0:
252,292,219820,1,0,0:0:0:0:
296,304,219920,1,0,0:0:0:0:
340,292,220020,1,0,0:0:0:0:
388,244,220120,5,8,0:0:0:0:
443,272,220220,1,0,0:0:0:0:
461,331,220320,1,0,0:0:0:0:
422,379,220420,6,0,P|386:379|330:355,2,62.3333352355958
448,196,220720,2,0,P|484:196|532:220,2,62.3333352355958,8|0|0,0:0|0:0|0:0,0:0:0:0:
348,140,221020,1,0,0:0:0:0:
332,72,221120,1,0,0:0:0:0:
356,8,221220,1,0,0:0:0:0:
384,52,221320,5,8,0:0:0:0:
396,80,221420,1,0,0:0:0:0:
392,112,221520,1,0,0:0:0:0:
372,164,221620,6,0,P|312:176|200:176,1,124.666670471192,4|0,0:1|0:0,0:0:0:0:
152,52,221920,2,0,P|90:39|28:36,1,124.666670471192,12|0,0:2|0:0,0:0:0:0:
72,188,222220,1,0,0:0:0:0:
116,192,222320,1,0,0:0:0:0:
160,196,222420,1,0,0:0:0:0:
156,148,222520,5,8,0:0:0:0:
124,144,222620,1,0,0:0:0:0:
92,140,222720,1,0,0:0:0:0:
44,156,222820,6,0,P|12:208|72:272,1,124.666670471192,4|0,0:2|0:0,0:0:0:0:
192,272,223120,2,0,P|224:324|164:388,1,124.666670471192,12|0,0:2|0:0,0:0:0:0:
114,267,223420,1,0,0:0:0:0:
125,226,223520,1,0,0:0:0:0:
160,196,223620,1,0,0:0:0:0:
216,188,223720,5,8,0:0:0:0:
276,156,223820,1,0,0:0:0:0:
292,88,223920,1,0,0:0:0:0:
252,32,224020,6,0,L|112:88,1,124.666670471192,4|0,0:2|0:0,0:0:0:0:
276,156,224320,2,0,L|420:224,1,124.666670471192,12|0,0:2|0:0,0:0:0:0:
440,88,224620,1,0,0:0:0:0:
400,100,224720,1,0,0:0:0:0:
356,112,224820,1,0,0:0:0:0:
319,75,224920,5,8,2:0:0:0:
384,52,225020,1,0,2:0:0:0:
449,30,225120,1,0,2:0:0:0:
512,0,225220,6,0,P|500:64|516:148,1,124.666670471192,4|0,0:2|0:0,0:0:0:0:
436,272,225520,2,0,P|373:290|288:282,1,124.666670471192,12|0,0:2|0:0,0:0:0:0:
172,248,225820,1,0,0:0:0:0:
130,231,225920,1,0,0:0:0:0:
85,231,226020,1,0,0:0:0:0:
88,280,226120,5,8,0:0:0:0:
120,282,226220,1,0,0:0:0:0:
151,292,226320,1,0,0:0:0:0:
113,318,226420,6,0,L|146:165,1,124.666670471192,4|0,0:1|0:0,0:0:0:0:
168,88,226720,5,0,3:0:0:0:
196,128,226820,1,0,3:0:0:0:
240,152,226920,1,0,3:0:0:0:
288,164,227020,1,8,3:0:0:0:
336,160,227120,1,0,3:0:0:0:
380,140,227220,1,0,3:0:0:0:
412,104,227320,2,0,L|432:208,2,62.3333352355958,0|0|0,3:0|3:0|3:0,3:0:0:0:
440,280,227620,5,4,3:2:0:0:
403,247,227720,1,0,3:0:0:0:
356,230,227820,1,0,3:0:0:0:
307,234,227920,1,0,3:0:0:0:
264,257,228020,1,0,3:0:0:0:
233,296,228120,1,0,3:0:0:0:
212,340,228220,1,8,3:0:0:0:
178,302,228320,1,0,3:0:0:0:
133,281,228420,1,0,3:0:0:0:
84,280,228520,1,0,3:0:0:0:
38,298,228620,1,0,3:0:0:0:
2,333,228720,1,0,3:0:0:0:
0,382,228820,5,4,3:2:0:0:
48,378,228920,1,0,3:0:0:0:
97,374,229020,1,0,3:0:0:0:
145,370,229120,1,0,3:0:0:0:
194,366,229220,1,0,3:0:0:0:
242,363,229320,1,0,3:0:0:0:
291,355,229420,1,8,3:0:0:0:
244,343,229520,1,0,3:0:0:0:
197,330,229620,1,0,3:0:0:0:
150,318,229720,1,0,3:0:0:0:
102,306,229820,1,0,3:0:0:0:
55,294,229920,1,0,3:0:0:0:
7,278,230020,5,4,3:2:0:0:
54,259,230120,1,0,3:0:0:0:
97,236,230220,1,0,3:0:0:0:
124,195,230320,1,0,3:0:0:0:
138,148,230420,1,0,3:0:0:0:
135,99,230520,1,0,3:0:0:0:
121,52,230620,1,8,3:0:0:0:
94,92,230720,1,0,3:0:0:0:
105,142,230820,1,0,3:0:0:0:
142,177,230920,2,0,P|194:196|249:187,2,62.3333352355958,0|0|0,3:0|3:0|3:0,3:0:0:0:
301,275,231220,6,0,P|358:255|460:256,1,124.666670471192,2|0,3:3|3:0,3:0:0:0:
457,316,231520,1,0,3:0:0:0:
391,352,231620,1,0,3:0:0:0:
315,349,231720,1,0,3:0:0:0:
301,275,231820,2,0,P|361:271|455:232,1,124.666670471192,12|0,3:1|3:0,3:0:0:0:
426,176,232120,1,0,3:0:0:0:
353,176,232220,1,0,3:0:0:0:
282,199,232320,1,0,3:0:0:0:
225,251,232420,6,0,P|189:291|155:248,1,124.666670471192,2|0,3:3|3:0,3:0:0:0:
189,177,232720,1,0,3:0:0:0:
113,157,232820,1,0,3:0:0:0:
41,177,232920,1,0,3:0:0:0:
78,245,233020,2,0,P|44:288|7:247,1,124.666670471192,12|0,3:1|3:0,3:0:0:0:
41,177,233320,1,0,3:0:0:0:
113,157,233420,1,0,3:0:0:0:
189,177,233520,1,0,3:0:0:0:
237,120,233620,6,0,L|277:-32,1,124.666670471192,2|0,3:3|3:0,3:0:0:0:
184,13,233920,1,0,3:0:0:0:
111,34,234020,1,0,3:0:0:0:
166,85,234120,1,0,3:0:0:0:
237,120,234220,2,0,L|347:41,1,124.666670471192,12|0,3:1|3:0,3:0:0:0:
353,125,234520,1,0,3:0:0:0:
365,198,234620,1,0,3:0:0:0:
295,167,234720,1,0,3:0:0:0:
237,120,234820,6,4,L|236:64,5,31.1666676177979,4|4|4|4|4|4,0:3|0:3|0:3|0:3|0:3|0:3,0:3:0:0:
216,216,235120,2,4,L|226:258,5,31.1666676177979,4|4|4|4|4|4,0:3|0:3|0:3|0:3|0:3|0:3,0:3:0:0:
112,236,235420,2,4,L|120:284,5,31.1666676177979,4|4|4|4|4|4,0:3|0:3|0:3|0:3|0:3|0:3,0:3:0:0:
40,164,235719,2,4,L|20:140,5,31.1666676177979,4|4|4|4|4|4,0:3|0:3|0:3|0:3|0:3|0:3,0:3:0:0:
105,91,236020,5,4,0:1:0:0:
101,63,236320,1,0,0:0:0:0:
97,35,236620,1,4,0:2:0:0:
185,59,236770,1,0,0:0:0:0:
93,7,236920,2,0,L|49:59,1,68,8|8,0:0|0:3,0:0:0:0:
176,182,237220,5,4,0:3:0:0:
170,143,237520,1,4,0:2:0:0:
164,104,237820,1,0,0:0:0:0:
290,140,237970,1,0,0:0:0:0:
160,64,238120,2,0,L|104:136,1,76.4999976654053,8|8,0:0|0:3,0:0:0:0:
314,229,238420,6,0,P|378:253|478:225,2,170,4|0|4,0:1|0:0|0:2,0:0:0:0:
324,203,239320,1,8,0:0:0:0:
332,179,239395,1,8,0:0:0:0:
336,155,239470,1,8,0:0:0:0:
332,131,239545,1,8,0:0:0:0:
320,108,239620,6,0,P|304:56|320:4,1,85,12|0,0:1|0:0,0:0:0:0:
72,64,239920,1,4,0:2:0:0:
239,140,240070,1,8,0:0:0:0:
86,198,240220,1,8,0:0:0:0:
211,271,240370,1,4,0:3:0:0:
100,323,240520,1,4,0:3:0:0:
187,381,240670,1,4,0:3:0:0:
132,128,240820,5,4,0:1:0:0:
116,148,241120,1,0,0:0:0:0:
100,172,241420,1,8,0:0:0:0:
176,64,241570,1,0,0:0:0:0:
264,176,241720,2,0,L|168:176,1,68,8|8,0:0|0:3,0:0:0:0:
360,136,242020,5,4,0:3:0:0:
373,170,242320,1,4,0:2:0:0:
391,206,242620,1,8,0:0:0:0:
313,41,242770,1,0,0:0:0:0:
512,24,242920,2,0,L|472:93,1,76.4999976654053,8|8,0:0|0:3,0:0:0:0:
336,180,243220,6,0,P|256:156|167:190,2,170,4|0|4,0:1|0:0|0:3,0:0:0:0:
288,288,243970,1,8,0:3:0:0:
256,296,244045,1,8,0:3:0:0:
224,288,244120,1,8,0:0:0:0:
256,72,244270,1,8,0:0:0:0:
414,220,244420,6,0,P|411:138|340:100,1,170,4|0,0:1|0:0,0:0:0:0:
171,99,244870,2,0,P|100:138|97:220,1,170,4|0,0:1|0:0,0:0:0:0:
256,240,245320,2,0,L|256:155,1,85,4|0,0:1|0:0,0:0:0:0:
344,340,245620,6,0,P|408:356|500:336,1,136,4|0,0:1|0:0,0:0:0:0:
476,346,246220,1,4,0:2:0:0:
416,272,246370,1,0,0:0:0:0:
381,190,246520,2,0,P|414:182|448:188,1,68,8|8,0:0|0:3,0:0:0:0:
256,340,246820,6,0,P|184:357|81:335,1,152.999995330811,4|4,0:3|0:2,0:0:0:0:
106,347,247420,1,8,0:0:0:0:
172,240,247570,1,0,0:0:0:0:
208,120,247720,2,0,P|170:115|132:122,1,76.4999976654053,8|8,0:0|0:3,0:0:0:0:
342,329,248020,6,0,B|430:321|430:321|510:273,2,170,4|0|4,0:1|0:0|0:2,0:0:0:0:
342,329,248920,2,8,P|326:293|326:257,1,42.5,8|8,0:3|0:3,0:3:0:0:
258,173,249070,2,8,P|249:192|246:213,1,42.5,8|8,0:3|0:3,0:3:0:0:
182,315,249220,6,0,B|135:313|135:313|81:278|81:278|37:275,1,152.999995330811,12|0,0:1|0:0,0:0:0:0:
21,203,249520,1,4,0:2:0:0:
189,154,249670,1,8,0:0:0:0:
21,123,249820,1,8,0:0:0:0:
161,231,249970,1,4,0:3:0:0:
117,71,250120,1,4,0:3:0:0:
101,163,250270,1,4,0:3:0:0:
247,214,250420,6,0,L|411:202,1,136,4|0,0:1|0:0,0:0:0:0:
199,286,251020,1,4,0:2:0:0:
247,214,251170,1,0,0:0:0:0:
409,265,251320,2,0,L|382:204,1,68,8|8,0:0|0:3,0:0:0:0:
216,51,251620,6,0,L|386:38,1,152.999995330811,4|4,0:3|0:2,0:0:0:0:
168,191,252220,1,8,0:0:0:0:
216,51,252370,1,0,0:0:0:0:
408,105,252520,2,0,L|365:33,1,76.4999976654053,8|8,0:0|0:3,0:0:0:0:
320,248,252820,6,0,B|404:260|404:260|508:204,2,170,4|0|4,0:1|0:0|0:3,0:0:0:0:
176,232,253570,1,8,0:3:0:0:
144,244,253645,1,8,0:3:0:0:
115,264,253720,1,8,0:0:0:0:
220,136,253870,1,8,0:0:0:0:
188,328,254020,6,0,P|104:364|32:316,1,170,4|0,0:1|0:0,0:0:0:0:
262,264,254470,2,0,P|178:228|106:276,1,170,4|0,0:1|0:0,0:0:0:0:
262,361,254920,2,0,P|220:354|187:327,1,85,4|0,0:1|0:0,0:0:0:0:
384,304,255220,5,4,0:1:0:0:
396,280,255520,1,0,0:0:0:0:
408,256,255820,1,4,0:2:0:0:
323,140,255970,1,0,0:0:0:0:
459,184,256120,1,8,0:0:0:0:
408,112,256270,1,8,0:3:0:0:
324,228,256420,5,0,0:1:0:0:
293,249,256720,1,4,0:2:0:0:
263,271,257020,1,8,0:0:0:0:
84,179,257170,1,0,0:0:0:0:
174,358,257320,1,8,0:0:0:0:
63,303,257470,1,8,0:3:0:0:
208,156,257620,6,0,P|240:80|200:4,2,170,4|0|4,0:1|0:0|0:2,0:0:0:0:
192,176,258520,1,8,0:0:0:0:
184,200,258595,1,8,0:0:0:0:
180,224,258670,1,8,0:0:0:0:
184,248,258745,1,8,0:0:0:0:
192,272,258820,6,0,B|244:272|244:272|288:296|288:296|340:292,1,152.999995330811,4|0,0:1|0:0,0:0:0:0:
304,216,259120,1,4,0:2:0:0:
380,384,259270,1,8,0:0:0:0:
457,240,259420,1,8,0:0:0:0:
510,374,259570,1,4,0:3:0:0:
443,268,259720,1,4,0:3:0:0:
388,356,259870,1,4,0:3:0:0:
396,128,260020,5,4,0:1:0:0:
392,156,260320,1,0,0:0:0:0:
388,184,260620,1,4,0:2:0:0:
312,136,260770,1,0,0:0:0:0:
244,212,260920,1,8,0:0:0:0:
156,136,261070,1,8,0:3:0:0:
24,232,261220,5,4,0:3:0:0:
29,193,261520,1,4,0:2:0:0:
35,154,261820,1,8,0:0:0:0:
141,221,261970,1,0,0:0:0:0:
236,115,262120,1,8,0:0:0:0:
360,220,262270,1,8,0:3:0:0:
496,80,262420,6,0,P|512:168|484:260,2,170,4|0|4,0:1|0:0|0:2,0:0:0:0:
352,32,263170,1,8,0:3:0:0:
319,28,263245,1,8,0:3:0:0:
287,39,263320,1,8,0:0:0:0:
228,200,263470,1,8,0:0:0:0:
56,68,263620,6,0,B|95:97|136:88|136:88|176:80|220:112,1,170,4|0,0:1|0:0,0:0:0:0:
56,68,264070,2,0,B|62:116|97:139|97:139|130:162|138:216,1,170,4|0,0:1|0:0,0:0:0:0:
56,68,264520,2,0,B|12:94|15:173,1,85,4|0,0:1|0:0,0:0:0:0:
132,290,264820,6,0,L|221:273,1,68,4|0,0:1|0:0,0:0:0:0:
266,267,265120,2,0,L|198:278,1,68
137,211,265420,1,4,0:2:0:0:
232,194,265570,1,0,0:0:0:0:
162,76,265720,2,0,L|175:154,1,68,8|8,0:0|0:3,0:0:0:0:
412,140,266020,6,0,P|404:102|385:69,1,76.4999976654053,4|0,0:3|0:0,0:0:0:0:
412,176,266320,2,0,P|419:213|437:247,1,76.4999976654053,4|0,0:2|0:0,0:0:0:0:
294,106,266620,1,8,0:0:0:0:
338,273,266770,1,0,0:0:0:0:
198,223,266920,2,0,P|231:205|268:198,1,76.4999976654053,8|8,0:0|0:3,0:0:0:0:
412,176,267220,6,0,B|440:256|440:256|424:376,2,170,4|0|4,0:1|0:0|0:2,0:0:0:0:
412,175,268120,2,8,P|390:172|371:165,1,42.5,8|8,0:3|0:3,0:3:0:0:
192,108,268270,2,8,P|220:104|256:80,1,42.5,8|8,0:3|0:3,0:3:0:0:
320,12,268420,6,0,B|300:60|300:60|312:108|312:108|284:180,1,152.999995330811,4|0,0:1|0:0,0:0:0:0:
252,224,268720,1,4,0:2:0:0:
394,338,268870,1,8,0:0:0:0:
250,262,269020,1,8,0:0:0:0:
390,301,269170,1,4,0:3:0:0:
266,303,269320,1,4,0:3:0:0:
369,267,269470,1,4,0:3:0:0:
216,376,269620,6,0,P|176:380|132:368,1,68,4|0,0:1|0:0,0:0:0:0:
67,261,269920,2,0,P|33:255|0:260,1,68
124,344,270220,1,4,0:2:0:0:
144,216,270370,1,0,0:0:0:0:
200,288,270520,2,0,P|233:293|267:289,1,68,8|8,0:0|0:3,0:0:0:0:
408,104,270820,6,0,P|378:80|343:65,1,76.4999976654053,4|0,0:3|0:0,0:0:0:0:
184,140,271120,2,0,P|149:123|120:98,1,76.4999976654053,4|0,0:2|0:0,0:0:0:0:
276,10,271420,1,8,0:0:0:0:
151,26,271570,1,0,0:0:0:0:
268,104,271720,2,0,P|272:141|266:179,1,76.4999976654053,8|8,0:0|0:3,0:0:0:0:
160,300,272020,6,0,P|208:296|268:320,1,85,4|0,0:1|0:0,0:0:0:0:
428,256,272320,2,0,P|380:252|320:276,1,85
196,380,272620,1,4,0:1:0:0:
360,340,272770,1,8,0:3:0:0:
391,333,272845,1,8,0:3:0:0:
424,338,272920,1,8,0:0:0:0:
256,192,273070,1,8,0:0:0:0:
104,368,273220,6,0,P|64:348|28:292,1,85,4|0,0:1|0:0,0:0:0:0:
332,240,273520,2,0,P|346:197|332:132,1,85,0|0,0:2|0:0,0:0:0:0:
180,240,273820,2,0,P|165:197|180:132,1,85,4|0,0:1|0:0,0:0:0:0:
408,368,274120,2,0,P|448:348|484:292,1,85,0|0,0:2|0:0,0:0:0:0:
256,192,274420,6,0,B|256:280|256:280|244:304|220:316|220:316|244:328|256:348|256:348|268:328|292:316|292:316|268:304|256:280,1,272,4|0,0:1|0:0,2:0:0:0:
256,8,275620,5,2,0:3:0:0:
256,192,275920,1,4,0:2:0:0:
256,8,276820,5,2,0:3:0:0:
256,376,277120,1,4,0:2:0:0:
256,192,277420,1,4,0:2:0:0:
256,8,278020,5,8,0:0:0:0:
256,100,278170,1,4,0:3:0:0:
256,192,278320,1,4,0:2:0:0:
256,376,278620,1,4,0:2:0:0:
256,8,278920,1,4,0:3:0:0:
256,192,279220,5,4,0:3:0:0:
216,180,279295,1,4,0:3:0:0:
176,168,279370,1,4,0:3:0:0:
136,156,279445,1,4,0:3:0:0:
96,144,279520,5,8,0:3:0:0:
148,128,279595,1,0,0:0:0:0:
200,112,279670,1,0,0:0:0:0:
252,96,279745,1,0,0:0:0:0:
304,80,279820,6,0,P|320:44|316:-4,1,85,4|0,0:1|0:0,0:0:0:0:
152,48,280120,1,8,0:0:0:0:
152,48,280195,1,0,0:0:0:0:
152,48,280270,1,0,0:0:0:0:
127,233,280420,1,0,0:0:0:0:
336,151,280570,1,0,0:0:0:0:
129,266,280720,1,8,0:0:0:0:
340,308,280870,1,0,0:0:0:0:
252,96,281020,5,4,0:1:0:0:
233,295,281170,1,0,0:0:0:0:
419,203,281320,2,0,P|432:163|428:121,1,85
196,171,281620,1,8,0:0:0:0:
196,171,281695,1,0,0:0:0:0:
196,171,281770,1,0,0:0:0:0:
344,55,281920,5,0,0:0:0:0:
336,224,282070,1,0,0:0:0:0:
140,96,282220,1,4,0:1:0:0:
316,132,282370,1,0,0:0:0:0:
96,168,282520,1,0,0:0:0:0:
216,56,282670,1,0,0:0:0:0:
176,252,282820,1,8,0:0:0:0:
176,252,282895,1,0,0:0:0:0:
176,252,282970,1,0,0:0:0:0:
359,315,283120,6,0,B|395:287|395:287|419:239,1,85,8|4,0:0|0:3,0:0:0:0:
236,140,283420,1,4,0:1:0:0:
228,172,283495,1,0,0:0:0:0:
236,204,283570,1,0,0:0:0:0:
435,115,283720,1,8,0:0:0:0:
265,41,283870,1,4,0:3:0:0:
417,141,284020,1,4,0:3:0:0:
277,286,284170,5,0,0:0:0:0:
243,295,284245,1,0,0:0:0:0:
209,291,284320,1,8,0:0:0:0:
102,126,284470,1,4,0:1:0:0:
49,309,284620,1,8,0:3:0:0:
236,204,284770,1,8,0:3:0:0:
12,147,284920,1,4,0:3:0:0:
2,115,284995,1,4,0:3:0:0:
10,81,285070,1,4,0:3:0:0:
30,54,285145,1,4,0:3:0:0:
61,40,285220,5,8,0:3:0:0:
92,80,285295,1,0,0:3:0:0:
102,126,285370,1,0,0:3:0:0:
91,171,285445,1,0,0:3:0:0:
76,216,285520,6,0,P|108:288|140:308,1,101.999996887207,4|0,0:1|0:0,0:0:0:0:
320,198,285820,1,8,0:0:0:0:
269,190,285895,1,0,0:0:0:0:
219,201,285970,1,0,0:0:0:0:
441,289,286120,1,0,0:0:0:0:
320,104,286270,1,0,0:0:0:0:
271,281,286420,1,8,0:0:0:0:
112,96,286570,5,0,0:0:0:0:
112,48,286645,1,0,0:0:0:0:
144,8,286720,1,4,0:1:0:0:
368,0,286870,1,0,0:0:0:0:
228,128,287020,1,8,0:0:0:0:
448,164,287170,1,0,0:0:0:0:
451,58,287320,5,4,0:1:0:0:
444,50,287395,1,0,0:0:0:0:
438,44,287470,5,8,0:0:0:0:
394,73,287545,1,8,0:0:0:0:
372,119,287620,1,8,0:0:0:0:
375,168,287695,1,8,0:0:0:0:
395,217,287770,1,8,0:0:0:0:
433,253,287845,1,8,0:0:0:0:
481,272,287920,6,0,P|492:341|434:417,1,118.999996368408,4|0,0:1|0:0,0:0:0:0:
336,262,288220,5,8,0:0:0:0:
397,325,288370,1,0,0:0:0:0:
303,356,288520,1,0,0:0:0:0:
307,232,288670,5,8,0:0:0:0:
408,288,288820,1,0,0:0:0:0:
303,356,288970,1,0,0:0:0:0:
268,202,289120,5,8,0:0:0:0:
409,241,289270,1,0,0:0:0:0:
303,356,289420,1,0,0:0:0:0:
211,181,289570,5,8,0:0:0:0:
394,183,289720,1,0,0:0:0:0:
303,356,289870,1,0,0:0:0:0:
135,176,290020,5,8,0:0:0:0:
357,117,290170,1,0,0:0:0:0:
303,356,290320,1,0,0:0:0:0:
40,192,290470,5,8,0:0:0:0:
290,52,290620,1,8,0:3:0:0:
303,356,290770,1,8,0:3:0:0:
150,294,290920,5,8,0:3:0:0:
119,265,290995,1,0,0:0:0:0:
79,252,291070,1,0,0:0:0:0:
37,252,291145,1,0,0:0:0:0:
1,274,291220,5,8,0:0:0:0:
60,280,291295,1,8,0:0:0:0:
119,287,291370,1,8,0:0:0:0:
178,293,291445,1,8,0:0:0:0:
233,302,291520,5,8,0:3:0:0:
212,253,291595,1,0,0:0:0:0:
232,205,291670,1,0,0:0:0:0:
280,185,291745,1,0,0:0:0:0:
333,194,291820,5,4,0:3:0:0:
321,224,291895,1,4,0:3:0:0:
333,253,291970,1,4,0:3:0:0:
356,268,292045,1,4,0:3:0:0:
384,276,292120,5,4,0:3:0:0:
419,252,292195,1,4,0:3:0:0:
451,223,292270,1,4,0:3:0:0:
484,195,292345,1,4,0:3:0:0:
511,169,292420,5,4,0:3:0:0:
502,175,292495,1,4,0:3:0:0:
489,175,292570,1,4,0:3:0:0:
477,172,292645,1,4,0:3:0:0:
466,169,292720,6,8,P|453:136|458:88,1,59.4999981842042,8|8,0:3|0:3,0:3:0:0:
356,56,292870,2,8,P|371:24|408:-6,1,59.4999981842042,8|8,0:3|0:3,0:3:0:0:
247,120,293020,5,8,0:0:0:0:
233,177,293095,1,8,0:0:0:0:
219,235,293170,1,8,0:0:0:0:
205,292,293245,1,8,0:0:0:0:
193,347,293320,6,0,B|269:367|401:379|465:339|532:159|393:67|227:110|226:287|305:359|441:287|513:259|513:259|526:306|504:353|435:360,1,828.749962062837,4|0,0:1|0:0,2:0:0:0:
487,177,294520,6,0,B|442:108|370:71|282:85|176:177|247:297,1,386.749982295991,4|0,0:2|0:0,2:0:0:0:
118,311,295120,2,0,B|174:255|150:183|81:154|38:151|38:151|30:199|-2:215|-2:215|25:252|110:247,1,386.749982295991,4|0,0:2|0:0,2:0:0:0:
230,258,295720,6,0,B|294:214|382:218|418:250|418:250|382:274|322:258,1,276.249987354279,4|0,0:2|0:0,2:0:0:0:
190,186,296170,2,0,B|160:121|204:61|204:61|245:47|243:-10|181:-26|145:18|188:57,1,276.249987354279,4|0,0:2|0:0,2:0:0:0:
205,85,296620,5,8,0:0:0:0:
263,105,296720,1,0,0:0:0:0:
319,93,296820,1,0,0:0:0:0:
348,44,296920,6,0,B|332:96|332:96|352:120|352:120|340:184,1,127.5,4|0,0:1|0:0,0:0:0:0:
332,232,297220,5,8,0:0:0:0:
409,227,297320,1,0,0:0:0:0:
471,187,297420,1,0,0:0:0:0:
504,120,297520,6,0,B|496:268|496:268|444:292|428:324|428:324|392:312|320:336,1,331.499984825135,2|0,0:3|0:0,2:0:0:0:
120,356,298120,5,4,0:1:0:0:
132,353,298195,1,0,0:0:0:0:
144,351,298270,1,0,0:0:0:0:
156,349,298345,1,0,0:0:0:0:
168,347,298420,5,8,0:0:0:0:
146,314,298495,1,0,0:0:0:0:
132,280,298570,1,0,0:0:0:0:
129,240,298645,1,0,0:0:0:0:
134,203,298720,5,0,0:0:0:0:
120,193,298795,1,0,0:0:0:0:
103,188,298870,1,0,0:0:0:0:
87,187,298945,1,0,0:0:0:0:
71,190,299020,5,8,0:0:0:0:
113,154,299095,1,0,0:0:0:0:
151,115,299170,1,0,0:0:0:0:
194,79,299245,1,0,0:0:0:0:
236,43,299320,5,0,0:0:0:0:
228,64,299395,1,0,0:0:0:0:
227,85,299470,1,0,0:0:0:0:
236,104,299545,1,0,0:0:0:0:
248,124,299620,5,8,0:0:0:0:
312,112,299695,1,0,0:0:0:0:
376,128,299770,1,0,0:0:0:0:
420,176,299845,1,0,0:0:0:0:
424,244,299920,5,0,0:0:0:0:
391,275,299995,1,0,0:0:0:0:
347,290,300070,1,0,0:0:0:0:
303,279,300145,1,0,0:0:0:0:
264,248,300220,5,8,0:0:0:0:
283,229,300295,1,0,0:0:0:0:
310,220,300370,1,0,0:0:0:0:
336,227,300445,1,0,0:0:0:0:
356,244,300520,6,0,P|328:256|288:248,1,55.2499974708558
134,157,300670,2,0,P|109:170|93:192,1,55.2499974708558
248,152,300820,1,8,0:0:0:0:
278,128,300895,1,0,0:0:0:0:
298,95,300970,1,0,0:0:0:0:
307,58,301045,1,0,0:0:0:0:
296,20,301120,6,0,P|268:8|228:16,1,55.2499974708558
73,101,301270,2,0,P|48:87|32:64,1,55.2499974708558
198,95,301420,1,8,0:0:0:0:
228,119,301495,1,0,0:0:0:0:
248,152,301570,1,8,0:3:0:0:
257,189,301645,1,8,0:3:0:0:
260,228,301720,5,0,3:3:0:0:
277,240,301795,1,0,3:3:0:0:
299,242,301870,1,0,3:3:0:0:
319,232,301945,1,0,3:3:0:0:
331,214,302020,1,0,3:3:0:0:
331,192,302095,1,0,3:3:0:0:
321,173,302170,1,8,3:3:0:0:
302,162,302245,1,8,3:3:0:0:
280,156,302320,5,4,0:3:0:0:
234,126,302395,1,4,0:3:0:0:
218,74,302470,1,4,0:3:0:0:
239,24,302545,1,4,0:3:0:0:
286,0,302620,5,8,0:0:0:0:
352,0,302695,1,8,0:0:0:0:
397,47,302770,1,8,0:0:0:0:
392,113,302845,1,8,0:0:0:0:
340,152,302920,6,0,B|352:220|424:240|496:308|580:240|564:136|516:112|440:100|384:196|412:152|428:280|368:284|296:268|252:244,1,552.499974708558,4|0,0:1|0:0,2:0:0:0:
144,88,303820,1,8,0:0:0:0:
108,48,303895,1,0,0:0:0:0:
55,66,303970,1,0,0:0:0:0:
55,121,304045,1,0,0:0:0:0:
108,134,304120,6,0,B|183:128|198:32|198:32|239:54|223:125,1,220.999989883423,2|8,0:3|0:0,0:0:0:0:
260,248,304570,1,0,0:0:0:0:
220,252,304645,1,0,0:0:0:0:
182,241,304720,6,0,P|118:215|176:300,1,255,4|0,0:1|0:0,2:0:0:0:
363,247,305320,5,4,0:1:0:0:
417,255,305395,1,0,0:0:0:0:
440,304,305470,1,0,0:0:0:0:
418,355,305545,1,0,0:0:0:0:
362,351,305620,5,8,0:0:0:0:
343,330,305695,1,0,0:0:0:0:
334,303,305770,1,0,0:0:0:0:
334,275,305845,1,0,0:0:0:0:
340,248,305920,5,0,0:0:0:0:
344,209,305995,1,0,0:0:0:0:
328,173,306070,1,0,0:0:0:0:
291,161,306145,1,0,0:0:0:0:
251,169,306220,5,8,0:0:0:0:
239,181,306295,1,0,0:0:0:0:
225,190,306370,1,0,0:0:0:0:
208,191,306445,1,0,0:0:0:0:
211,201,306520,5,0,0:0:0:0:
211,201,306595,1,0,0:0:0:0:
211,201,306670,1,0,0:0:0:0:
211,201,306745,1,0,0:0:0:0:
209,200,306820,5,8,0:0:0:0:
194,225,306895,1,0,0:0:0:0:
172,245,306970,1,0,0:0:0:0:
144,256,307045,1,0,0:0:0:0:
115,257,307120,1,0,0:0:0:0:
86,248,307195,1,0,0:0:0:0:
62,231,307270,1,0,0:0:0:0:
46,206,307345,1,0,0:0:0:0:
51,177,307420,5,8,0:0:0:0:
98,195,307495,1,0,0:0:0:0:
126,237,307570,1,0,0:0:0:0:
134,287,307645,1,0,0:0:0:0:
124,336,307720,6,0,P|160:372|228:371,1,85,12|0,0:1|0:0,0:0:0:0:
388,336,308020,2,0,P|352:372|284:371,1,85,8|0,0:1|0:0,0:0:0:0:
93,253,308320,6,0,P|97:303|150:346,1,93.5000028533936,8|0,0:1|0:0,0:0:0:0:
419,253,308620,2,0,P|414:303|361:346,1,93.5000028533936,8|0,0:1|0:0,0:0:0:0:
127,174,308920,6,0,P|82:151|56:109,1,101.999996887207,8|0,0:1|0:0,0:0:0:0:
384,174,309220,2,0,P|429:151|456:109,1,101.999996887207,8|0,0:1|0:0,0:0:0:0:
55,108,309520,6,0,P|21:65|19:11,1,110.499994941712,8|0,0:1|0:0,0:0:0:0:
456,108,309820,2,0,P|490:65|493:10,1,110.499994941712,8|0,0:1|0:0,0:0:0:0:
184,156,310120,5,8,0:3:0:0:
228,276,310270,1,8,0:3:0:0:
272,136,310420,1,8,0:3:0:0:
261,269,310570,1,8,0:3:0:0:
360,160,310720,1,8,0:3:0:0:
294,276,310870,1,8,0:3:0:0:
421,225,311020,1,8,0:3:0:0:
317,301,311170,1,8,0:3:0:0:
184,156,311320,5,8,0:0:0:0:
264,380,311470,1,8,0:0:0:0:
238,134,311620,1,8,0:0:0:0:
405,308,311770,1,8,0:0:0:0:
273,84,311920,1,8,0:0:0:0:
494,171,312070,1,8,0:0:0:0:
284,24,312220,1,8,0:0:0:0:
505,8,312370,1,8,0:0:0:0:
361,48,312520,5,12,0:1:0:0:
358,51,312595,1,0,0:0:0:0:
357,56,312670,1,0,0:0:0:0:
354,62,312745,1,0,0:0:0:0:
353,67,312820,1,0,0:0:0:0:
351,73,312895,1,0,0:0:0:0:
351,78,312970,1,0,0:0:0:0:
350,84,313045,1,0,0:0:0:0:
350,89,313120,1,0,0:0:0:0:
350,95,313195,1,0,0:0:0:0:
351,100,313270,1,0,0:0:0:0:
351,106,313345,1,0,0:0:0:0:
352,111,313420,1,0,0:0:0:0:
352,116,313495,1,0,0:0:0:0:
355,122,313570,1,0,0:0:0:0:
357,127,313645,1,0,0:0:0:0:
358,132,313720,1,0,0:0:0:0:
361,137,313795,1,0,0:0:0:0:
363,141,313870,1,0,0:0:0:0:
366,146,313945,1,0,0:0:0:0:
369,151,314020,1,0,0:0:0:0:
373,155,314095,1,0,0:0:0:0:
376,160,314170,1,0,0:0:0:0:
380,164,314245,1,0,0:0:0:0:
380,164,314320,5,12,0:2:0:0:
333,132,314395,1,0,0:0:0:0:
281,114,314470,1,0,0:0:0:0:
226,108,314545,1,0,0:0:0:0:
171,114,314620,1,0,0:0:0:0:
119,134,314695,1,0,0:0:0:0:
74,165,314770,1,0,0:0:0:0:
38,206,314845,1,0,0:0:0:0:
15,257,314920,5,12,0:2:0:0:
44,232,314995,1,0,0:0:0:0:
76,212,315070,1,0,0:0:0:0:
114,201,315145,1,0,0:0:0:0:
152,197,315220,1,0,0:0:0:0:
190,204,315295,1,0,0:0:0:0:
225,220,315370,1,0,0:0:0:0:
256,243,315445,1,0,0:0:0:0:
272,276,315520,5,12,0:2:0:0:
257,267,315595,1,0,0:0:0:0:
244,265,315670,1,0,0:0:0:0:
231,265,315745,1,0,0:0:0:0:
217,268,315820,1,0,0:0:0:0:
205,272,315895,1,0,0:0:0:0:
196,282,315970,1,0,0:0:0:0:
187,292,316045,1,0,0:0:0:0:
181,304,316120,1,0,0:0:0:0:
179,318,316195,1,0,0:0:0:0:
178,331,316270,1,0,0:0:0:0:
182,345,316345,1,0,0:0:0:0:
187,355,316420,1,0,0:0:0:0:
196,367,316495,1,0,0:0:0:0:
207,375,316570,1,0,0:0:0:0:
221,380,316645,1,0,0:0:0:0:
234,384,316720,1,0,0:0:0:0:
246,383,316795,1,0,0:0:0:0:
259,380,316870,1,0,0:0:0:0:
271,372,316945,1,0,0:0:0:0:
280,364,317020,6,0,P|296:332|292:296,1,55.2499974708558,8|0,0:3|0:0,0:0:0:0:
240,160,317170,2,0,P|242:124|264:95,1,55.2499974708558,8|0,0:3|0:0,0:0:0:0:
405,40,317320,5,12,0:1:0:0:
409,39,317395,1,0,0:0:0:0:
413,39,317470,1,0,0:0:0:0:
417,40,317545,1,0,0:0:0:0:
421,40,317620,1,0,0:0:0:0:
425,42,317695,1,0,0:0:0:0:
429,43,317770,1,0,0:0:0:0:
433,46,317845,1,0,0:0:0:0:
436,48,317920,1,0,0:0:0:0:
440,51,317995,1,0,0:0:0:0:
442,54,318070,1,0,0:0:0:0:
445,57,318145,1,0,0:0:0:0:
447,61,318220,1,0,0:0:0:0:
449,65,318295,1,0,0:0:0:0:
450,69,318370,1,0,0:0:0:0:
451,73,318445,1,0,0:0:0:0:
452,77,318520,1,0,0:0:0:0:
452,81,318595,1,0,0:0:0:0:
451,86,318670,1,0,0:0:0:0:
451,90,318745,1,0,0:0:0:0:
449,94,318820,1,0,0:0:0:0:
448,98,318895,1,0,0:0:0:0:
446,101,318970,1,0,0:0:0:0:
443,105,319045,1,0,0:0:0:0:
439,109,319120,5,12,0:2:0:0:
382,103,319195,1,0,0:0:0:0:
329,99,319270,1,0,0:0:0:0:
274,96,319345,1,0,0:0:0:0:
220,91,319420,1,0,0:0:0:0:
165,86,319495,1,0,0:0:0:0:
110,83,319570,1,0,0:0:0:0:
57,78,319645,1,0,0:0:0:0:
1,72,319720,6,0,P|14:102|17:140,1,55.2499974708558,12|0,0:2|0:0,0:0:0:0:
57,263,319870,2,0,P|64:232|82:201,1,55.2499974708558,8|0,0:1|0:0,0:0:0:0:
164,112,320020,2,0,P|177:142|180:180,1,55.2499974708558,8|0,0:1|0:0,0:0:0:0:
235,288,320170,2,0,P|242:257|260:226,1,55.2499974708558,8|0,0:1|0:0,0:0:0:0:
351,127,320320,5,12,0:2:0:0:
324,124,320395,1,0,0:0:0:0:
297,122,320470,1,0,0:0:0:0:
271,120,320545,1,0,0:0:0:0:
244,117,320620,1,0,0:0:0:0:
217,116,320695,1,0,0:0:0:0:
191,114,320770,1,0,0:0:0:0:
164,112,320845,1,0,0:0:0:0:
136,109,320920,5,12,0:2:0:0:
177,93,320995,1,8,0:3:0:0:
221,91,321070,1,8,0:3:0:0:
260,109,321145,1,8,0:3:0:0:
287,143,321220,1,8,0:3:0:0:
296,186,321295,1,8,0:3:0:0:
277,226,321370,1,8,0:3:0:0:
241,251,321445,1,8,0:3:0:0:
195,256,321520,5,12,0:2:0:0:
185,249,321595,1,4,0:3:0:0:
174,246,321670,1,4,0:3:0:0:
163,242,321745,1,4,0:3:0:0:
152,240,321820,1,4,0:3:0:0:
140,239,321895,1,4,0:3:0:0:
129,241,321970,1,4,0:3:0:0:
118,245,322045,1,4,0:3:0:0:
111,249,322120,6,0,P|176:174|194:106,1,152.999995330811,4|0,0:1|0:0,0:0:0:0:
256,57,322570,1,0,0:0:0:0:
320,124,322720,2,0,P|347:194|401:249,1,152.999995330811,8|0,0:0|0:0,0:0:0:0:
484,289,323170,1,0,0:0:0:0:
484,289,323320,6,0,L|308:297,1,152.999995330811,4|0,0:1|0:0,0:0:0:0:
176,132,323920,2,0,L|23:125,1,152.999995330811,8|0,0:0|0:0,0:0:0:0:
48,296,324520,6,0,B|84:304|124:288|124:288|164:272|224:272,1,152.999995330811,4|0,0:1|0:0,0:0:0:0:
252,196,324970,1,0,0:0:0:0:
315,272,325120,2,0,B|349:271|389:287|389:287|429:303|465:295,1,152.999995330811,8|0,0:0|0:0,0:0:0:0:
402,212,325570,1,0,0:0:0:0:
402,212,325720,6,0,P|375:325|406:379,1,152.999995330811,4|0,0:1|0:0,0:0:0:0:
124,355,326320,2,0,P|139:281|110:212,1,152.999995330811,8|0,0:0|0:0,0:0:0:0:
312,128,326920,6,0,P|376:113|342:58,1,152.999995330811,4|0,0:1|0:0,0:0:0:0:
254,54,327370,1,0,0:0:0:0:
193,122,327520,2,0,P|129:107|162:50,1,152.999995330811,8|0,0:0|0:0,0:0:0:0:
254,54,327970,1,0,0:0:0:0:
254,54,328120,6,0,B|278:126|278:126|242:202,1,152.999995330811,4|0,0:1|0:0,0:0:0:0:
476,192,328720,2,0,B|442:122|442:122|466:50,1,152.999995330811,8|0,0:0|0:0,0:0:0:0:
295,260,329320,6,0,P|243:304|159:312,1,152.999995330811,4|0,0:1|0:0,0:0:0:0:
99,244,329770,1,0,0:0:0:0:
91,152,329920,2,0,P|143:108|227:100,1,152.999995330811,8|0,0:0|0:0,0:0:0:0:
291,164,330370,1,0,0:0:0:0:
291,164,330520,6,0,P|355:156|427:92,1,152.999995330811,4|0,0:1|0:0,0:0:0:0:
512,282,331120,2,0,P|448:290|376:354,1,152.999995330811,8|0,0:0|0:0,0:0:0:0:
220,288,331720,6,0,L|44:268,1,152.999995330811,4|0,0:1|0:0,0:0:0:0:
4,336,332170,1,0,0:0:0:0:
67,270,332320,2,0,L|87:94,1,152.999995330811,8|0,0:0|0:0,0:0:0:0:
24,64,332770,1,0,0:0:0:0:
24,64,332845,1,0,0:0:0:0:
24,64,332920,6,0,P|92:80|200:56,1,152.999995330811,4|0,0:1|0:0,0:0:0:0:
358,156,333520,2,0,P|433:143|508:160,1,152.999995330811,8|0,0:0|0:0,0:0:0:0:
284,56,334120,6,0,B|260:108|260:108|256:160|256:160|228:216,1,152.999995330811,4|0,0:1|0:0,0:0:0:0:
179,271,334570,1,0,0:0:0:0:
121,199,334720,2,0,B|97:147|97:147|93:95|93:95|65:39,1,152.999995330811,8|0,0:0|0:0,0:0:0:0:
159,24,335170,1,0,0:0:0:0:
159,24,335245,1,0,0:0:0:0:
159,24,335320,6,0,P|219:60|323:60,1,152.999995330811,4|0,0:1|0:0,0:0:0:0:
438,201,335920,2,0,P|368:209|286:273,1,152.999995330811,8|0,0:0|0:0,0:0:0:0:
76,308,336520,6,0,L|-24:300,1,76.4999976654053,12|8,0:1|0:3,0:0:0:0:
156,264,336820,2,8,L|56:272,1,76.4999976654053,8|8,0:3|0:3,0:3:0:0:
236,312,337120,2,8,L|136:304,1,76.4999976654053,8|8,0:3|0:3,0:3:0:0:
316,268,337420,2,8,L|216:276,1,76.4999976654053,8|8,0:3|0:3,0:3:0:0:
377,337,337720,5,8,0:3:0:0:
386,208,337870,1,8,0:3:0:0:
445,277,338020,1,8,0:3:0:0:
316,268,338170,1,8,0:3:0:0:
469,201,338320,5,8,0:0:0:0:
294,350,338470,1,8,0:0:0:0:
457,362,338620,1,8,0:0:0:0:
306,189,338770,1,8,0:0:0:0:
480,68,338920,6,0,B|456:132|384:152|324:120|304:68|304:68|272:76|260:116,1,276.249987354279,4|0,0:1|0:0,2:0:0:0:
192,32,339370,2,0,B|160:76|160:124|192:152|200:160|200:160|208:212|172:228|132:220|128:180|168:160,1,276.249987354279,4|0,0:2|0:0,2:0:0:0:
48,60,339820,2,0,B|80:28|80:28|96:92|48:152,1,165.749992412568,12|0,0:2|0:0,0:0:0:0:
32,180,340120,5,8,0:3:0:0:
17,221,340195,1,8,0:3:0:0:
19,265,340270,1,8,0:3:0:0:
37,305,340345,1,8,0:3:0:0:
69,335,340420,1,8,0:3:0:0:
110,351,340495,1,8,0:3:0:0:
153,350,340570,1,8,0:3:0:0:
194,333,340645,1,8,0:3:0:0:
226,303,340720,5,4,0:3:0:0:
220,281,340795,1,4,0:3:0:0:
200,268,340870,1,4,0:3:0:0:
177,269,340945,1,4,0:3:0:0:
165,287,341020,5,8,0:3:0:0:
194,319,341095,1,8,0:3:0:0:
234,337,341170,1,8,0:3:0:0:
278,338,341245,1,8,0:3:0:0:
316,323,341320,6,0,P|396:287|476:299,1,152.999995330811,4|0,0:1|0:0,0:0:0:0:
497,321,341620,1,0,0:0:0:0:
312,188,341770,2,0,P|300:140|316:84,1,101.999996887207
162,298,342070,2,0,P|111:284|50:226,1,101.999996887207,0|8,0:0|0:0,0:0:0:0:
380,244,342370,2,0,B|432:224|456:184|456:128|412:84|372:112|372:152|408:160,1,203.999993774414
113,159,342820,6,0,B|228:193,1,101.999996887207,8|0,0:0|0:0,0:0:0:0:
192,304,343120,2,0,B|303:279,1,101.999996887207
360,384,343420,2,0,B|454:308,1,101.999996887207,8|0,0:0|0:0,0:0:0:0:
432,120,343720,6,0,B|408:69|360:51|360:51|343:99|366:150,1,203.999993774414,4|0,0:1|0:0,0:0:0:0:
496,56,344170,1,0,0:0:0:0:
360,244,344320,2,0,P|296:212|274:142,1,101.999996887207
352,24,344620,1,8,0:0:0:0:
440,224,344770,2,0,B|463:274|511:292|511:292|528:244|505:193,1,203.999993774414
339,109,345220,1,8,0:0:0:0:
244,272,345370,5,0,0:0:0:0:
408,147,345520,1,0,0:0:0:0:
264,128,345670,1,0,0:0:0:0:
388,291,345820,1,8,0:0:0:0:
327,210,345970,1,0,0:0:0:0:
197,358,346120,6,0,B|137:374|69:342|65:258,1,152.999995330811,4|0,0:1|0:0,0:0:0:0:
84,248,346420,1,8,0:0:0:0:
256,104,346570,2,0,P|236:56|180:28,1,101.999996887207
336,288,346870,2,0,P|384:272|408:216,1,101.999996887207,0|8,0:0|0:0,0:0:0:0:
172,112,347170,2,0,B|131:150|124:196|144:248|202:272|228:231|213:194|177:200,1,203.999993774414
407,141,347620,6,0,B|457:150|488:200,1,101.999996887207,8|0,0:0|0:0,0:0:0:0:
299,63,347920,2,0,B|341:23|392:28,1,101.999996887207
172,112,348220,2,0,B|157:55|187:14,1,101.999996887207,8|0,0:0|0:0,0:0:0:0:
295,185,348520,6,0,P|308:238|280:304,1,101.999996887207,4|0,0:1|0:0,0:0:0:0:
1,273,348820,2,0,P|17:225|59:196,1,101.999996887207,8|0,0:0|0:0,0:0:0:0:
276,316,349120,1,0,0:0:0:0:
90,276,349270,1,0,0:0:0:0:
340,384,349420,2,0,P|366:341|367:289,1,101.999996887207,8|0,0:0|0:0,0:0:0:0:
192,48,349720,6,0,B|160:96|160:96|160:152,1,101.999996887207
497,80,350020,2,0,B|481:38|481:38|434:5,1,101.999996887207,8|0,0:0|0:0,0:0:0:0:
217,17,350320,1,0,0:0:0:0:
400,96,350470,1,0,0:0:0:0:
160,140,350620,2,0,B|122:117|122:117|97:65,1,101.999996887207,8|0,0:0|0:0,0:0:0:0:
400,96,350920,6,0,P|400:176|368:288,1,152.999995330811,4|0,0:1|0:0,0:0:0:0:
304,240,351220,2,0,P|304:160|336:48,1,152.999995330811,8|0,0:0|0:0,0:0:0:0:
360,24,351520,1,0,0:0:0:0:
222,215,351670,1,0,0:0:0:0:
480,224,351820,1,8,0:0:0:0:
360,24,351970,1,0,0:0:0:0:
221,214,352120,6,0,B|143:222|143:222|71:206,1,152.999995330811
72,125,352420,2,0,B|151:118|151:118|223:134,1,152.999995330811,8|0,0:0|0:0,0:0:0:0:
295,178,352720,1,0,0:0:0:0:
82,298,352870,1,0,0:0:0:0:
153,86,353020,1,8,0:0:0:0:
218,302,353170,1,0,0:0:0:0:
71,206,353320,6,0,P|11:229|-13:269,1,101.999996887207,4|0,0:1|0:0,0:0:0:0:
295,178,353620,2,0,P|310:115|291:73,1,101.999996887207,8|0,0:0|0:0,0:0:0:0:
100,36,353920,1,0,0:0:0:0:
320,8,354070,1,0,0:0:0:0:
141,193,354220,1,8,0:0:0:0:
215,56,354370,1,0,0:0:0:0:
315,253,354520,6,0,B|393:254|393:254|456:213,1,152.999995330811
436,139,354820,2,0,B|357:137|357:137|294:178,1,152.999995330811,8|0,0:0|0:0,0:0:0:0:
232,232,355120,1,0,0:0:0:0:
212,6,355270,2,0,L|220:142,1,101.999996887207,0|8,0:0|0:0,0:0:0:0:
104,299,355570,1,0,0:0:0:0:
315,253,355720,6,0,P|317:326|261:286,1,152.999995330811,4|0,0:1|0:0,0:0:0:0:
232,232,356020,1,8,0:0:0:0:
232,232,356320,1,0,0:0:0:0:
72,72,356470,2,0,L|167:168,1,101.999996887207,0|8,0:0|0:0,0:0:0:0:
367,180,356770,1,0,0:0:0:0:
191,307,356920,6,0,P|243:358|251:289,1,152.999995330811
232,232,357220,1,8,0:0:0:0:
232,232,357520,1,0,0:0:0:0:
1,159,357670,1,0,0:0:0:0:
194,18,357820,2,0,P|107:-1|30:28,1,152.999995330811,8|0,0:0|0:0,0:0:0:0:
47,65,358120,5,12,3:1:0:0:
73,108,358195,1,0,3:0:0:0:
117,132,358270,1,0,3:0:0:0:
167,132,358345,1,0,3:0:0:0:
215,115,358420,2,0,P|248:135|270:177,1,50.9999984436036,4|0,3:2|3:0,3:0:0:0:
371,268,358570,5,8,3:1:0:0:
345,311,358645,1,0,3:0:0:0:
301,335,358720,1,0,3:0:0:0:
251,335,358795,1,0,3:0:0:0:
203,318,358870,2,0,P|170:338|148:380,1,50.9999984436036,4|0,3:2|3:0,3:0:0:0:
274,245,359020,5,8,3:1:0:0:
269,194,359095,1,0,3:0:0:0:
255,144,359170,2,0,P|238:113|208:77,1,50.9999984436036,4|0,3:2|3:0,3:0:0:0:
85,322,359320,5,12,0:1:0:0:
440,232,359470,1,8,0:0:0:0:
112,128,359620,1,8,0:1:0:0:
222,0,359770,5,2,0:0:0:0:
305,93,360220,1,2,0:0:0:0:
220,84,360520,5,4,0:1:0:0:
224,126,360595,1,0,0:0:0:0:
250,159,360670,1,0,0:0:0:0:
289,175,360745,1,0,0:0:0:0:
331,179,360820,2,0,P|359:176|390:163,1,42.5,10|2,0:2|0:2,0:0:0:0:
479,133,360970,1,0,0:0:0:0:
490,127,361045,1,0,0:0:0:0:
498,117,361120,2,0,P|495:89|482:58,1,42.5,2|2,0:2|0:2,0:0:0:0:
358,44,361270,1,0,0:0:0:0:
346,49,361345,1,0,0:0:0:0:
339,60,361420,2,0,P|342:88|355:119,1,42.5,10|2,0:2|0:2,0:0:0:0:
413,197,361570,2,0,P|410:225|397:256,1,42.5,2|2,0:2|0:2,0:0:0:0:
325,311,361720,5,8,0:3:0:0:
367,305,361795,1,0,0:0:0:0:
408,314,361870,1,0,0:0:0:0:
438,343,361945,1,0,0:0:0:0:
456,381,362020,2,0,L|490:329,1,42.5,10|2,0:2|0:2,0:2:0:0:
512,248,362170,1,0,0:0:0:0:
507,236,362245,1,0,0:0:0:0:
503,223,362320,2,0,L|469:275,1,42.5,2|2,0:2|0:2,0:2:0:0:
380,195,362470,1,0,0:0:0:0:
367,200,362545,1,0,0:0:0:0:
355,204,362620,2,0,L|407:238,3,42.5,10|2|2|2,0:2|0:2|0:2|0:2,0:2:0:0:
280,279,362920,5,8,0:3:0:0:
245,304,362995,1,0,0:0:0:0:
202,300,363070,1,0,0:0:0:0:
169,272,363145,1,0,0:0:0:0:
159,231,363220,2,0,P|165:210|184:197,1,42.5,10|2,0:2|0:2,0:0:0:0:
231,86,363370,1,0,0:0:0:0:
226,73,363445,1,0,0:0:0:0:
216,65,363520,2,0,P|196:73|184:93,1,42.5,2|2,0:2|0:2,0:0:0:0:
73,144,363670,1,0,0:0:0:0:
61,141,363745,1,0,0:0:0:0:
52,131,363820,2,0,P|58:110|77:97,1,42.5,10|2,0:2|0:2,0:0:0:0:
213,177,363970,2,0,P|231:186|252:184,1,42.5,2|2,0:2|0:2,0:0:0:0:
387,156,364120,5,8,0:3:0:0:
415,124,364195,1,0,0:0:0:0:
412,81,364270,1,0,0:0:0:0:
382,50,364345,1,0,0:0:0:0:
343,31,364420,2,0,L|329:79,1,42.5,10|2,0:2|0:2,0:2:0:0:
494,95,364570,1,0,0:0:0:0:
496,83,364645,1,0,0:0:0:0:
499,71,364720,2,0,L|513:-5,3,42.5,2|2|2|2,0:2|0:2|0:2|0:2,0:2:0:0:
470,199,365020,5,8,0:3:0:0:
231,297,365320,5,4,0:1:0:0:
265,272,365395,1,0,0:0:0:0:
307,277,365470,1,0,0:0:0:0:
340,303,365545,1,0,0:0:0:0:
353,343,365620,2,0,P|343:370|324:383,1,42.5,10|2,0:2|0:2,0:0:0:0:
187,365,365770,1,0,0:0:0:0:
175,358,365845,1,0,0:0:0:0:
165,350,365920,2,0,P|151:333|148:312,1,42.5,2|2,0:2|0:2,0:0:0:0:
24,318,366070,1,0,0:0:0:0:
24,332,366145,1,0,0:0:0:0:
23,345,366220,2,0,P|15:364|0:378,1,42.5,10|2,0:2|0:2,0:0:0:0:
83,233,366370,2,0,P|79:212|66:195,1,42.5,2|2,0:2|0:2,0:0:0:0:
182,290,366520,5,8,0:3:0:0:
223,280,366595,1,0,0:0:0:0:
256,253,366670,1,0,0:0:0:0:
273,214,366745,1,0,0:0:0:0:
276,171,366820,2,0,L|266:114,1,42.5,10|2,0:2|0:2,0:2:0:0:
154,64,366970,1,0,0:0:0:0:
152,76,367045,1,0,0:0:0:0:
150,88,367120,2,0,L|140:145,1,42.5,2|2,0:2|0:2,0:2:0:0:
24,74,367270,1,0,0:0:0:0:
22,62,367345,1,0,0:0:0:0:
20,50,367420,2,0,L|10:-7,3,42.5,10|2|2|2,0:2|0:2|0:2|0:2,0:2:0:0:
44,193,367720,5,8,0:3:0:0:
80,178,367795,1,0,0:0:0:0:
65,143,367870,1,0,0:0:0:0:
25,146,367945,1,0,0:0:0:0:
1,180,368020,2,0,P|4:214|29:243,1,42.5,10|2,0:2|0:2,0:2:0:0:
105,279,368170,1,0,0:0:0:0:
117,277,368245,1,0,0:0:0:0:
129,279,368320,2,0,P|135:298|135:320,1,42.5,2|2,0:2|0:2,0:2:0:0:
246,373,368470,1,0,0:0:0:0:
258,375,368545,1,0,0:0:0:0:
270,373,368620,2,0,P|276:353|276:331,1,42.5,10|2,0:2|0:2,0:2:0:0:
413,348,368770,2,0,P|419:328|419:306,1,42.5,2|2,0:2|0:2,0:2:0:0:
345,220,368920,5,8,0:3:0:0:
379,245,368995,1,0,0:0:0:0:
420,255,369070,1,0,0:0:0:0:
462,250,369145,1,0,0:0:0:0:
494,222,369220,2,0,P|500:198|490:163,1,42.5,10|2,0:2|0:2,0:2:0:0:
398,74,369370,1,0,0:0:0:0:
393,85,369445,1,0,0:0:0:0:
389,97,369520,2,0,P|382:120|392:155,3,42.5,2|2|2|2,0:2|0:2|0:2|0:2,0:2:0:0:
512,40,369820,5,8,0:3:0:0:
200,90,370120,6,0,P|185:54|197:-27,1,85,12|0,0:1|0:0,0:0:0:0:
70,157,370420,1,8,0:0:0:0:
70,157,370495,1,0,0:0:0:0:
70,157,370570,2,0,B|72:157|57:218,1,42.5
150,251,370720,1,8,0:0:0:0:
150,251,370795,1,0,0:0:0:0:
150,251,370870,2,0,B|148:251|163:312,1,42.5
64,382,371020,1,8,0:0:0:0:
79,376,371095,1,0,0:0:0:0:
95,373,371170,1,0,0:0:0:0:
111,375,371245,1,0,0:0:0:0:
127,381,371320,6,0,L|28:342,1,93.5000028533936,12|0,0:2|0:0,0:0:0:0:
248,256,371620,1,8,0:0:0:0:
247,267,371695,1,0,0:0:0:0:
245,276,371770,2,0,B|247:276|229:350,1,46.7500014266968
156,168,371920,1,8,0:0:0:0:
153,158,371995,1,0,0:0:0:0:
151,149,372070,2,0,B|153:149|135:75,1,46.7500014266968
215,15,372220,1,8,0:0:0:0:
233,22,372295,1,0,0:0:0:0:
252,26,372370,1,0,0:0:0:0:
271,23,372445,1,0,0:0:0:0:
290,16,372520,6,0,L|270:162,1,101.999996887207,12|0,0:1|0:0,0:0:0:0:
487,103,372820,1,8,0:0:0:0:
490,83,372895,1,0,0:0:0:0:
493,63,372970,2,0,L|501:-1,1,50.9999984436036
394,166,373120,1,8,0:0:0:0:
391,146,373195,1,0,0:0:0:0:
388,126,373270,2,0,L|381:75,1,50.9999984436036
471,222,373420,1,8,0:0:0:0:
433,207,373495,1,0,0:0:0:0:
392,206,373570,1,0,0:0:0:0:
355,216,373645,1,0,0:0:0:0:
319,241,373720,6,0,P|258:278|181:266,1,110.499994941712,12|0,0:2|0:0,0:0:0:0:
310,371,374020,1,8,0:0:0:0:
341,362,374095,1,0,0:0:0:0:
371,343,374170,2,0,P|400:316|422:271,1,55.2499974708558
231,181,374320,1,8,0:0:0:0:
218,148,374395,1,0,0:0:0:0:
217,114,374470,2,0,P|222:74|246:30,1,55.2499974708558
73,25,374620,1,8,0:0:0:0:
73,80,374695,1,0,0:0:0:0:
74,135,374770,1,0,0:0:0:0:
75,190,374845,1,0,0:0:0:0:
77,244,374920,6,8,P|51:257|23:258,2,56.6666666666667,10|8|8,0:3|0:3|0:3,0:3:0:0:
169,205,375220,6,4,L|169:154,2,50.9999984436036,4|4|4,0:3|0:3|0:3,0:3:0:0:
256,269,375520,2,4,L|257:223,2,45.3333333333333,4|4|4,0:3|0:3|0:3,0:3:0:0:
344,327,375820,2,4,L|344:287,2,39.6666654561361,4|4|4,0:3|0:3|0:3,0:3:0:0:
498,252,376120,6,0,P|460:246|423:254,1,76.4999976654053,12|4,0:1|0:3,0:0:0:0:
271,376,376420,1,4,0:3:0:0:
396,178,376570,6,0,B|401:137|401:137|392:95|392:95|396:50,1,127.499996109009,12|0,0:1|0:0,2:0:0:0:
447,1,377020,6,0,P|316:27|178:-10,1,254.999992218018,12|0,0:1|0:0,2:0:0:0:
257,47,377470,6,0,B|260:90|260:90|251:132|251:132|256:173,1,127.499996109009,12|0,0:1|0:0,2:0:0:0:
327,136,377920,1,8,0:3:0:0:
128,288,378070,1,8,0:3:0:0:
368,200,378220,1,8,0:3:0:0:
84,56,378370,6,0,B|58:66|9:105|24:144|29:145|20:186|-1:241|-1:241|49:155|96:233|163:257|180:193|211:153|217:113|196:77|78:47|-9:104|66:261|149:234|178:220|198:197|261:236|254:303,1,765,2|0,0:3|0:0,2:0:0:0:
