osu file format v14

[General]
AudioFilename: audio.mp3
AudioLeadIn: 0
PreviewTime: 167377
Countdown: 0
SampleSet: Normal
StackLeniency: 0.7
Mode: 2
LetterboxInBreaks: 0
WidescreenStoryboard: 1

[Editor]
Bookmarks: 28062,54538,84808,111430,128592,158997,185620,203458,220755,233728,259674,272647,272748,272850,272951,273052,273154,273255,273356,273458,273559,273660,273762,273863,273964,274066,274167,274269,274370,274471,274573,274674,274775,274877,274978,275079,275181,275282,275383,275485,275586,275687,275789,275890,275991,276093,276194,276296,276397,276498,276600,276701,276802,276904,277005,277106,277208,277309,277410,277512,277613,277714,277816,277917,278019,278120,278221,278323,278424,278525,278627,278728,278829,278931,279032,279133,279235,279336,279437,279539,279640,279741,279843,279944,280046,280147,280248,280350,280451,280552,280654,280755,280856,280958,281059,281160,281262,281363,281464,281566,281667,281769,281870,281971,282073,282174,282275,282377,282478,282579,282681,282782,282883,282985,283086,283187,283289,283390,283491,283593,283694,283796,283897,283998,284100,284201,284302,284404,284505,284606,284708,284809,284910,285012,285113,285214,285316,285417,285519,285620,285721,285823,285924,286025,286127,286228,286329,286431,286532,286633,286735,286836,286937,287039,287140,287241,287343,287444,287546,287647,287748,287850,287951,288052,288154,288255,288356,288458,288559,288660,288762,288863,314809,332241,332376,332511,332647,332782,332917,333052,333187,333322,333457,333593,333728,333863,333998,334133,334268,334403,334538,334674,334809,334944,335079,335214,335349,335484,335620,335755,335890,336025,336160,336295,336430,336565,336701,336836,336971,337106,337241,337376,337511,337647,337782,337917,338052,338187,338322,338457,338593,338728,338863,338998,339133,339268,339403,339538,339674,339809,339944,340079,340214,340349,340484,340620,340755,340890,358052,375349,403457
DistanceSpacing: 1
BeatDivisor: 4
GridSize: 8
TimelineZoom: 2.5

[Metadata]
Title:VANITAS
TitleUnicode:VANITAS
Artist:Release Hallucination
ArtistUnicode:Release Hallucination
Creator:Spectator
Version:Recollections of Past Betrayal
Source:osu! World Cup 2023
Tags:daletto nyalettowo x3 kukkai -rustyy mordred owc2023 hayu kaoru emi gothic rock japanese jrock j-rock jmetal j-metal symphonic progressive metal fa featured artist mappers' guild mpg mg
BeatmapID:4453867
BeatmapSetID:2119948

[Difficulty]
HPDrainRate:6
CircleSize:4
OverallDifficulty:9.8
ApproachRate:9.8
SliderMultiplier:1.8
SliderTickRate:2

[Events]
//Background and Video events
0,0,"BG.jpg",0,0
//Break Periods
2,272715,287779
2,332445,340437
//Storyboard Layer 0 (Background)
//Storyboard Layer 1 (Fail)
//Storyboard Layer 2 (Pass)
//Storyboard Layer 3 (Foreground)
//Storyboard Layer 4 (Overlay)
//Storyboard Sound Samples

[TimingPoints]
1484,270.27027027027,4,1,1,65,1,0
26349,285.714285714286,4,1,1,65,1,0
26634,315.789473684211,4,1,1,65,1,0
26949,357.142857142857,4,1,1,65,1,0
27306,379.746835443038,4,1,1,65,1,0
28066,270.27027027027,4,1,1,65,1,0
28066,-500,4,1,1,65,0,0
28133,-500,4,1,1,5,0,0
30228,-500,4,1,1,10,0,0
31309,-500,4,1,1,20,0,0
32110,270.27027027027,4,1,1,30,1,0
32110,-100,4,1,1,30,0,0
33191,-100,4,1,1,40,0,0
34272,-100,4,1,1,50,0,0
35353,-100,4,1,1,60,0,0
35893,-100,4,1,1,5,0,0
36096,-100,4,1,1,5,0,0
36164,270.27027027027,4,1,1,65,1,0
36164,-66.6666666666667,4,1,1,65,0,0
40219,270.27027027027,4,1,1,65,1,0
40219,-66.6666666666667,4,1,1,65,0,0
44273,270.27027027027,6,1,1,65,1,0
45759,-76.9230769230769,6,1,1,65,0,0
45894,270.27027027027,4,1,1,55,1,0
50083,-100,4,1,1,55,0,0
52380,-100,4,1,1,55,0,0
54002,-100,4,1,1,55,0,0
54407,-83.3333333333333,4,1,1,55,0,0
54542,-83.3333333333333,4,1,1,55,0,0
56704,-83.3333333333333,4,1,1,55,0,0
56772,-83.3333333333333,4,1,1,55,0,0
61029,-83.3333333333333,4,1,1,55,0,0
61096,-83.3333333333333,4,1,1,55,0,0
63191,-83.3333333333333,4,1,1,60,0,0
67110,-76.9230769230769,4,1,1,60,0,0
67380,-83.3333333333333,4,1,1,55,0,0
69677,-83.3333333333333,4,1,1,55,0,0
69745,-83.3333333333333,4,1,1,55,0,0
74002,-83.3333333333333,4,1,1,55,0,0
74069,-83.3333333333333,4,1,1,55,0,0
76164,-83.3333333333333,4,1,1,55,0,0
82380,-83.3333333333333,4,1,1,65,0,0
82650,-83.3333333333333,4,1,1,55,0,0
83191,-83.3333333333333,4,1,1,65,0,0
83731,-83.3333333333333,4,1,1,55,0,0
84542,-71.4285714285714,4,1,1,55,0,0
84812,-83.3333333333333,4,1,1,55,0,0
89137,270.27027027027,5,1,1,55,1,0
89137,-83.3333333333333,5,1,1,55,0,0
91839,-71.4285714285714,5,1,1,56,0,0
91974,-71.4285714285714,5,1,1,57,0,0
92109,-71.4285714285714,5,1,1,58,0,0
92245,-71.4285714285714,5,1,1,59,0,0
92380,-71.4285714285714,5,1,1,60,0,0
92515,-71.4285714285714,5,1,1,61,0,0
92650,-71.4285714285714,5,1,1,62,0,0
92785,-71.4285714285714,5,1,1,63,0,0
92920,-71.4285714285714,5,1,1,65,0,0
93055,-71.4285714285714,5,1,1,65,0,0
93191,-32.258064516129,5,1,1,65,0,0
94001,-55.5555555555556,5,1,1,65,0,1
94137,270.27027027027,4,1,1,65,1,1
94137,-71.4285714285714,5,1,1,65,0,1
98461,-71.4285714285714,5,1,1,65,0,1
102650,-71.4285714285714,5,1,1,65,0,1
107109,-71.4285714285714,5,1,1,65,0,1
111164,-71.4285714285714,5,1,1,65,0,1
111434,-76.9230769230769,5,1,1,65,0,1
113326,-76.9230769230769,5,1,1,65,0,1
119947,-76.9230769230769,4,1,1,60,0,0
124272,-76.9230769230769,4,1,1,60,0,0
128596,-83.3333333333333,4,1,1,55,0,0
137380,-83.3333333333333,4,1,1,60,0,0
141569,-83.3333333333333,4,1,1,55,0,0
149272,-76.9230769230769,4,1,1,55,0,0
150353,-83.3333333333333,4,1,1,55,0,0
152920,-83.3333333333333,4,1,1,55,0,0
153326,-83.3333333333333,4,1,1,55,0,0
156839,-83.3333333333333,4,1,1,55,0,0
159001,-83.3333333333333,4,1,1,60,0,0
163326,270.27027027027,5,1,1,55,1,0
163326,-83.3333333333333,5,1,1,55,0,0
166028,-83.3333333333333,5,1,1,56,0,0
166163,-83.3333333333333,5,1,1,57,0,0
166298,-83.3333333333333,5,1,1,58,0,0
166434,-83.3333333333333,5,1,1,59,0,0
166569,-83.3333333333333,5,1,1,60,0,0
166704,-83.3333333333333,5,1,1,61,0,0
166839,-83.3333333333333,5,1,1,62,0,0
166974,-83.3333333333333,5,1,1,63,0,0
167109,-83.3333333333333,5,1,1,64,0,0
167244,-83.3333333333333,5,1,1,65,0,0
167381,270.27027027027,5,1,1,66,1,0
167381,-90.9090909090909,5,1,1,66,0,0
168191,-71.4285714285714,5,1,1,65,0,1
168327,270.27027027027,4,1,1,65,1,1
168327,-76.9230769230769,4,1,1,65,0,1
172651,-76.9230769230769,4,1,1,65,0,1
176840,-76.9230769230769,4,1,1,65,0,1
181299,-76.9230769230769,4,1,1,65,0,1
185489,-76.9230769230769,4,1,1,65,0,1
193732,-76.9230769230769,4,1,1,66,0,1
193822,-76.9230769230769,4,1,1,67,0,1
193912,-76.9230769230769,4,1,1,68,0,1
194002,-76.9230769230769,4,1,1,69,0,1
194092,-76.9230769230769,4,1,1,70,0,1
194272,-83.3333333333333,4,1,1,60,0,0
198327,270.27027027027,4,1,1,60,1,0
198327,-76.9230769230769,4,1,1,60,0,0
198597,-76.9230769230769,4,1,1,60,0,0
201390,-76.9230769230769,4,1,1,60,0,0
202381,270.27027027027,4,1,1,60,1,0
202381,-83.3333333333333,4,1,1,60,0,0
203552,-250,4,2,1,55,0,0
211029,-80,4,1,1,60,0,0
212110,-76.9230769230769,4,1,1,60,0,0
216164,-66.6666666666667,4,1,1,65,0,0
218597,-90.9090909090909,4,1,1,65,0,0
220759,405.405405405405,4,1,1,60,1,0
220759,-52.6315789473684,4,1,1,60,0,0
224407,-55.5555555555556,4,1,1,60,0,0
227246,-55.5555555555556,4,1,1,60,0,0
232110,-55.5555555555556,4,1,1,50,0,0
232245,-55.5555555555556,4,1,1,53,0,0
232380,-55.5555555555556,4,1,1,56,0,0
232515,-55.5555555555556,4,1,1,60,0,0
232650,-55.5555555555556,4,1,1,63,0,0
232786,-55.5555555555556,4,1,1,66,0,0
232921,-55.5555555555556,4,1,1,70,0,0
233529,-55.5555555555556,4,1,1,55,0,0
233732,-55.5555555555556,4,1,1,55,0,0
234948,-55.5555555555556,4,1,1,55,0,0
246705,-52.6315789473684,4,1,1,60,0,0
253191,-52.6315789473684,4,1,1,65,0,0
258867,-52.6315789473684,4,1,1,65,0,0
259678,-58.8235294117647,4,2,1,60,0,0
266164,-58.8235294117647,4,2,1,60,0,0
270218,-58.8235294117647,4,1,1,60,0,0
272245,-33.3333333333333,4,1,1,65,0,0
273056,-250,4,1,1,25,0,0
288259,-25,4,1,1,65,0,0
288867,-57.1428571428571,4,1,1,65,0,0
290894,-57.1428571428571,4,1,1,65,0,0
292110,-57.1428571428571,4,1,1,65,0,0
292515,-57.1428571428571,4,1,1,65,0,0
294137,-57.1428571428571,4,1,1,65,0,0
295354,-57.1428571428571,4,1,1,65,0,0
295759,-57.1428571428571,4,1,1,65,0,0
302245,-57.1428571428571,4,1,1,65,0,0
312381,-57.1428571428571,4,1,1,65,0,0
313191,-57.1428571428571,4,1,1,65,0,0
314813,270.27027027027,4,1,1,65,1,0
314813,-83.3333333333333,4,1,1,65,0,0
317110,-83.3333333333333,4,1,1,65,0,0
322380,270.27027027027,5,1,1,65,1,0
322380,-83.3333333333333,5,1,1,65,0,0
323597,270.27027027027,4,1,1,65,1,0
323597,-83.3333333333333,4,1,1,65,0,0
326840,-83.3333333333333,4,1,1,65,0,0
331254,-62.5,4,1,1,5,0,0
331344,-76.9230769230769,4,1,1,64,0,0
331434,-76.9230769230769,4,1,1,5,0,0
331524,-90.9090909090909,4,1,1,62,0,0
331615,-90.9090909090909,4,1,1,5,0,0
331705,-111.111111111111,4,1,1,62,0,0
331795,-111.111111111111,4,1,1,5,0,0
331885,-142.857142857143,4,1,1,60,0,0
331975,-142.857142857143,4,1,1,5,0,0
332065,-166.666666666667,4,1,1,58,0,0
332155,-166.666666666667,4,1,1,5,0,0
332245,-166.666666666667,4,1,1,56,0,0
340916,270.27027027027,4,2,1,40,1,0
340916,-100,4,2,1,40,0,0
356997,-100,4,2,1,30,0,0
357110,270.27027027027,4,2,1,30,1,0
357380,-100,4,2,1,35,0,0
358055,-71.4285714285714,4,1,1,65,0,1
358461,-71.4285714285714,4,1,1,65,0,1
369002,-71.4285714285714,4,1,1,65,0,1
375353,-76.9230769230769,4,1,1,65,0,1
377651,-76.9230769230769,4,1,1,65,0,1
381975,-76.9230769230769,4,1,1,65,0,1
383055,-100,4,1,1,60,0,0
385691,-76.9230769230769,4,1,1,5,0,0
385759,-76.9230769230769,4,1,1,55,0,0
386164,-76.9230769230769,4,1,1,65,0,0
388056,-76.9230769230769,4,1,1,65,0,0
399542,-76.9230769230769,4,1,1,65,0,0
402515,-76.9230769230769,4,1,1,65,0,0
402651,-76.9230769230769,4,1,1,67,0,0
402786,-76.9230769230769,4,1,1,69,0,0
402921,-76.9230769230769,4,1,1,71,0,0
403056,-76.9230769230769,4,1,1,73,0,0
403191,-76.9230769230769,4,1,1,75,0,0
403326,-76.9230769230769,4,1,1,77,0,0

[Colours]
Combo1 : 142,193,148
Combo2 : 182,165,167
Combo3 : 252,164,126
Combo4 : 226,131,131

[HitObjects]
256,192,28066,5,2,2:0:0:0:
256,192,28133,12,0,35893,0:0:0:0:
32,96,36164,6,0,P|104:168|192:168,1,180.000006866455,14|0,0:2|0:2,0:0:0:0:
280,160,36434,2,0,P|208:232|120:232,1,180.000006866455,12|0,0:2|0:2,0:0:0:0:
232,160,36704,1,0,0:2:0:0:
136,168,36794,1,0,0:2:0:0:
304,184,36884,6,0,P|408:184|464:128,1,180.000006866455,14|0,0:2|0:2,0:0:0:0:
368,128,37154,2,0,L|360:224,1,90.0000034332277,0|0,0:2|0:2,0:0:0:0:
192,112,37335,1,14,0:2:0:0:
256,112,37425,1,0,0:2:0:0:
352,112,37515,1,0,0:2:0:0:
184,240,37605,6,0,P|112:168|168:112,1,180.000006866455,14|0,0:2|0:2,0:0:0:0:
240,112,37875,1,0,0:2:0:0:
144,112,37965,1,0,0:2:0:0:
312,56,38055,2,0,P|384:56|384:160,1,180.000006866455,14|0,0:2|0:0,0:0:0:0:
240,296,38326,6,0,P|312:224|400:224,1,180.000006866455,14|0,0:2|0:2,0:0:0:0:
296,176,38596,1,0,0:2:0:0:
392,176,38686,1,0,0:2:0:0:
208,256,38776,2,0,P|104:256|48:200,1,180.000006866455,14|0,0:2|0:2,0:0:0:0:
144,120,39046,1,0,0:2:0:0:
48,120,39136,1,0,0:2:0:0:
216,248,39227,6,0,P|288:176|232:120,1,180.000006866455,14|0,0:2|0:2,0:0:0:0:
88,216,39497,2,0,P|160:144|256:144,1,180.000006866455,14|0,0:2|0:2,0:0:0:0:
400,208,39767,2,0,P|328:136|232:136,1,180.000006866455,14|0,0:2|0:2,0:0:0:0:
344,128,40037,2,0,L|352:32,1,90.0000034332277,0|0,0:2|0:2,0:0:0:0:
160,160,40219,5,14,0:2:0:0:
224,160,40309,1,0,0:2:0:0:
320,160,40399,1,0,0:2:0:0:
152,264,40489,2,0,L|144:72,1,180.000006866455,14|0,0:2|0:2,0:0:0:0:
240,96,40759,2,0,L|248:200,1,90.0000034332277,0|0,0:2|0:2,0:0:0:0:
80,224,40939,6,0,P|152:152|240:152,1,180.000006866455,14|0,0:2|0:2,0:0:0:0:
128,96,41209,1,0,0:2:0:0:
224,96,41300,1,0,0:2:0:0:
392,216,41390,6,0,P|464:144|408:88,1,180.000006866455,14|0,0:2|0:2,0:0:0:0:
264,208,41660,2,0,P|192:136|248:80,1,180.000006866455,14|0,0:2|0:2,0:0:0:0:
320,112,41930,2,0,L|328:208,1,90.0000034332277,0|0,0:2|0:2,0:0:0:0:
160,240,42110,6,0,P|232:168|320:168,1,180.000006866455,14|0,0:2|0:2,0:0:0:0:
136,264,42381,2,0,L|128:72,1,180.000006866455,14|0,0:2|0:2,0:0:0:0:
224,104,42651,1,0,0:2:0:0:
128,104,42741,1,0,0:2:0:0:
296,200,42831,6,0,P|400:200|456:144,1,180.000006866455,14|0,0:2|0:2,0:0:0:0:
360,112,43101,1,0,0:2:0:0:
456,112,43191,1,0,0:2:0:0:
288,256,43282,2,0,P|216:184|272:128,1,180.000006866455,14|0,0:2|0:2,0:0:0:0:
416,224,43552,2,0,P|344:152|256:152,1,180.000006866455,14|0,0:2|0:2,0:0:0:0:
96,192,43822,6,0,L|104:96,1,90.0000034332277,14|0,0:2|0:2,0:0:0:0:
200,144,44002,2,0,L|208:48,1,90.0000034332277,0|0,0:2|0:2,0:0:0:0:
304,144,44182,2,0,L|312:48,1,90.0000034332277,0|0,0:2|2:2,0:0:0:0:
184,256,45354,5,2,0:2:0:0:
176,248,45421,1,2,0:2:0:0:
168,240,45489,1,2,0:2:0:0:
160,232,45556,1,2,0:2:0:0:
296,192,45624,1,2,0:2:0:0:
288,184,45691,1,2,0:2:0:0:
104,248,45759,6,0,P|56:200|152:104,1,233.999989288331,14|0,0:2|0:2,0:0:0:0:
288,224,46164,1,0,0:2:0:0:
148,57,46299,2,0,L|208:56,1,45,0|0,0:2|0:2,0:0:0:0:
264,56,46434,1,12,0:2:0:0:
128,96,46569,1,0,0:2:0:0:
264,56,46704,1,0,1:2:0:0:
56,184,46839,5,8,0:2:0:0:
264,176,46975,1,4,0:2:0:0:
128,136,47110,1,0,0:2:0:0:
264,160,47245,2,0,L|272:112,1,45,0|0,0:2|0:2,0:0:0:0:
200,104,47380,2,0,L|208:56,1,45,0|0,0:2|0:2,0:0:0:0:
280,80,47515,2,0,L|392:80,1,90,12|0,0:2|0:2,0:0:0:0:
160,224,47785,2,0,L|224:224,1,45,8|8,0:2|0:2,0:0:0:0:
280,224,47921,2,0,L|344:224,1,45,8|8,0:2|0:2,0:0:0:0:
168,160,48056,6,0,L|48:160,1,90,4|0,0:1|0:2,0:0:0:0:
216,144,48326,2,0,L|224:48,1,90,0|0,0:2|0:2,0:0:0:0:
360,144,48596,1,12,0:2:0:0:
224,112,48731,2,0,L|328:112,1,90,0|0,0:2|0:2,0:0:0:0:
176,80,49002,1,8,0:2:0:0:
384,208,49137,6,0,L|376:112,1,90,4|0,0:2|0:2,0:0:0:0:
240,208,49407,2,0,L|232:112,1,90,0|0,0:2|0:2,0:0:0:0:
96,200,49677,2,0,L|88:152,1,45,14|2,0:2|0:2,0:0:0:0:
264,176,49812,2,0,L|256:128,1,45,2|2,0:2|0:2,0:0:0:0:
80,136,49948,2,0,L|32:136,1,45,2|2,0:2|0:2,0:0:0:0:
280,208,50083,6,0,P|336:208|336:104,1,180,6|0,0:2|0:2,0:0:0:0:
208,96,50488,2,0,L|264:96,1,45,2|0,0:2|0:2,0:0:0:0:
336,96,50623,2,0,L|280:96,1,45,6|0,0:1|0:2,0:0:0:0:
208,96,50758,1,10,0:2:0:0:
416,248,50893,2,0,L|232:240,1,180,0|0,0:2|0:2,0:0:0:0:
368,240,51299,6,0,L|360:144,1,90,4|0,0:2|0:2,0:0:0:0:
232,128,51569,1,0,0:2:0:0:
448,144,51704,2,0,L|384:144,1,45,14|0,0:2|0:2,0:0:0:0:
240,240,51839,2,0,L|128:240,1,90,6|0,0:2|0:2,0:0:0:0:
288,168,52110,1,0,0:2:0:0:
80,168,52245,1,8,0:2:0:0:
288,160,52380,6,0,L|360:160,1,45,12|4,0:2|0:3,0:0:0:0:
264,144,52515,2,0,L|312:144,1,45,4|4,0:3|0:3,0:0:0:0:
384,136,52650,1,4,0:3:0:0:
248,248,52785,1,8,0:2:0:0:
192,216,52853,1,4,0:3:0:0:
168,168,52921,1,4,0:3:0:0:
192,216,52988,1,4,0:3:0:0:
248,248,53056,1,4,0:3:0:0:
384,168,53191,6,0,L|320:168,1,45,8|4,0:2|0:3,0:0:0:0:
272,168,53326,2,0,L|208:168,1,45,4|4,0:3|0:3,0:0:0:0:
160,168,53461,1,4,0:3:0:0:
296,240,53596,1,8,0:2:0:0:
352,208,53664,1,4,0:3:0:0:
376,160,53732,1,4,0:3:0:0:
352,208,53799,1,4,0:3:0:0:
296,240,53867,1,4,0:3:0:0:
160,184,54002,6,0,L|168:128,1,45,12|8,0:2|0:2,0:0:0:0:
344,144,54137,2,0,L|352:88,1,45,8|8,0:2|0:2,0:0:0:0:
168,88,54272,2,0,L|104:88,1,45,4|4,0:3|0:3,0:0:0:0:
349,349,54407,6,0,P|400:333|343:224,1,215.999993408203,14|0,0:2|0:2,0:0:0:0:
87,285,54812,2,0,L|76:161,1,107.999996704102,10|2,0:2|0:2,0:0:0:0:
228,123,55083,2,0,L|105:123,1,107.999996704102,0|2,0:2|0:2,0:0:0:0:
382,83,55353,1,8,0:2:0:0:
120,123,55488,6,0,P|69:107|129:1,1,215.999993408203,2|2,0:2|0:2,0:0:0:0:
376,280,55893,2,0,L|388:163,1,107.999996704102,10|2,0:2|0:2,0:0:0:0:
254,123,56164,2,0,L|371:121,1,107.999996704102,2|2,0:2|0:2,0:0:0:0:
94,81,56434,1,8,0:2:0:0:
351,233,56569,6,0,P|417:203|338:118,1,215.999993408203,2|0,0:2|0:2,0:0:0:0:
98,336,56975,2,0,L|87:212,1,107.999996704102,10|2,0:2|0:2,0:0:0:0:
224,200,57245,2,0,L|93:191,1,107.999996704102,0|2,0:2|0:2,0:0:0:0:
399,128,57515,1,10,0:2:0:0:
136,315,57650,6,0,L|373:302,1,215.999993408203,2|2,0:2|0:2,0:0:0:0:
210,266,58056,2,0,L|87:256,1,107.999996704102,10|2,0:2|0:2,0:0:0:0:
372,252,58326,2,0,L|370:183,1,53.9999983520508,2|2,0:2|0:2,0:0:0:0:
178,175,58461,2,0,L|114:176,1,53.9999983520508,2|2,0:2|0:2,0:0:0:0:
324,86,58596,2,0,L|385:86,1,53.9999983520508,10|0,0:2|0:0,0:0:0:0:
175,326,58731,6,0,P|105:311|46:161,1,215.999993408203,12|2,0:2|0:2,0:0:0:0:
317,71,59137,2,0,L|328:186,1,107.999996704102,10|0,0:2|0:2,0:0:0:0:
189,178,59407,2,0,L|321:177,1,107.999996704102,2|2,0:2|0:2,0:0:0:0:
38,159,59677,1,10,0:2:0:0:
337,326,59812,2,0,P|397:301|476:162,1,215.999993408203,2|2,0:2|0:2,0:0:0:0:
195,71,60218,2,0,L|182:195,1,107.999996704102,10|2,0:2|0:2,0:0:0:0:
333,84,60488,2,0,L|456:84,1,107.999996704102,2|2,0:2|0:2,0:0:0:0:
147,72,60758,1,8,0:2:0:0:
416,157,60893,6,0,P|479:204|411:301,1,215.999993408203,2|2,0:2|0:2,0:0:0:0:
285,321,61299,2,0,L|407:320,1,107.999996704102,10|2,0:2|0:2,0:0:0:0:
252,238,61569,2,0,L|378:238,1,107.999996704102,2|2,0:2|0:2,0:0:0:0:
77,172,61839,1,8,0:2:0:0:
359,106,61975,2,0,L|129:105,1,215.999993408203,2|0,0:2|0:2,0:0:0:0:
435,151,62380,2,0,L|456:275,1,107.999996704102,10|2,0:2|0:2,0:0:0:0:
195,272,62650,2,0,L|110:271,1,53.9999983520508,2|0,0:2|0:0,0:0:0:0:
334,343,62785,2,0,L|449:343,1,107.999996704102,0|8,0:2|0:2,0:0:0:0:
334,343,63056,1,2,0:2:0:0:
41,115,63191,6,0,L|172:112,1,107.999996704102,12|0,0:2|0:2,0:0:0:0:
401,209,63461,2,0,L|497:210,1,53.9999983520508,8|0,0:2|0:0,0:0:0:0:
272,210,63596,1,0,0:2:0:0:
396,131,63731,2,0,L|400:56,1,53.9999983520508,8|0,0:2|0:0,0:0:0:0:
206,88,63866,1,0,0:2:0:0:
326,23,64002,2,0,L|256:16,1,53.9999983520508,10|0,0:2|0:0,0:0:0:0:
86,23,64137,1,0,0:2:0:0:
338,326,64272,6,0,P|397:297|323:199,1,215.999993408203,14|8,0:2|0:2,0:0:0:0:
150,191,64610,2,0,L|70:190,2,53.9999983520508,0|0|0,0:0|0:2|0:2,0:0:0:0:
305,96,64812,2,0,L|404:95,1,53.9999983520508,10|8,0:2|0:3,0:0:0:0:
272,22,64948,2,0,L|188:20,1,53.9999983520508,8|8,0:3|0:3,0:0:0:0:
424,256,65083,2,0,L|521:257,1,53.9999983520508,0|0,0:2|0:2,0:0:0:0:
391,182,65219,2,0,L|309:182,1,53.9999983520508,0|0,0:2|0:2,0:0:0:0:
100,336,65353,6,0,L|179:337,1,53.9999983520508,10|8,0:2|0:2,0:0:0:0:
283,327,65488,2,0,L|360:328,1,53.9999983520508,8|8,0:2|0:2,0:0:0:0:
156,232,65623,2,0,L|85:232,1,53.9999983520508,0|0,0:2|0:2,0:0:0:0:
348,124,65758,2,0,L|271:123,1,53.9999983520508,8|4,0:2|0:3,0:0:0:0:
160,68,65893,2,0,L|82:68,1,53.9999983520508,4|4,0:3|0:3,0:0:0:0:
309,32,66028,2,0,L|374:32,1,53.9999983520508,2|0,0:2|0:2,0:0:0:0:
206,206,66164,2,0,L|197:280,1,53.9999983520508,10|4,0:2|0:3,0:0:0:0:
269,276,66299,2,0,L|260:350,1,53.9999983520508,6|4,0:3|0:3,0:0:0:0:
97,331,66434,5,2,0:2:0:0:
54,303,66502,1,0,0:2:0:0:
34,256,66569,1,8,0:2:0:0:
60,208,66637,1,4,0:3:0:0:
110,176,66704,2,0,L|191:174,1,53.9999983520508,4|4,0:3|0:3,0:0:0:0:
84,100,66839,2,0,L|28:100,1,53.9999983520508,0|0,0:2|0:2,0:0:0:0:
225,159,66975,2,0,L|232:97,1,53.9999983520508,8|8,0:2|0:2,0:0:0:0:
394,120,67110,2,0,L|458:107,1,58.4999973220826,8|8,0:2|0:2,0:0:0:0:
277,14,67245,2,0,L|218:4,1,58.4999973220826,10|8,0:2|0:2,0:0:0:0:
426,297,67380,6,0,P|470:273|413:148,1,215.999993408203,6|0,1:2|0:2,0:0:0:0:
158,196,67785,2,0,L|299:183,1,107.999996704102,10|2,1:2|0:2,0:0:0:0:
123,260,68056,2,0,L|112:377,1,107.999996704102,2|2,0:2|0:2,0:0:0:0:
386,252,68326,1,8,1:2:0:0:
86,297,68461,6,0,P|42:273|106:144,1,215.999993408203,2|2,0:2|0:2,0:0:0:0:
354,196,68866,2,0,L|217:181,1,107.999996704102,8|2,1:2|0:2,0:0:0:0:
388,255,69137,2,0,L|393:382,1,107.999996704102,2|2,0:2|0:2,0:0:0:0:
126,252,69407,1,10,1:2:0:0:
398,272,69542,6,0,P|390:201|265:134,1,215.999993408203,2|2,0:2|0:2,0:0:0:0:
63,148,69948,2,0,L|170:133,1,107.999996704102,10|2,1:2|0:2,0:0:0:0:
285,44,70218,2,0,L|167:58,1,107.999996704102,2|2,0:2|0:2,0:0:0:0:
449,141,70488,1,10,1:2:0:0:
151,271,70623,6,0,P|160:210|294:140,1,215.999993408203,2|0,0:2|0:2,0:0:0:0:
498,149,71029,2,0,L|376:137,1,107.999996704102,10|0,0:2|0:2,0:0:0:0:
183,272,71299,2,0,L|178:208,1,53.9999983520508
330,158,71434,2,0,L|390:160,1,53.9999983520508
181,83,71569,2,0,L|109:85,1,53.9999983520508,10|0,0:0|0:0,0:0:0:0:
339,329,71704,6,0,P|404:297|321:212,1,215.999993408203,6|2,1:2|0:2,0:0:0:0:
88,252,72110,2,0,L|74:137,1,107.999996704102,10|2,1:2|0:2,0:0:0:0:
209,109,72380,2,0,L|89:108,1,107.999996704102,2|2,0:2|0:2,0:0:0:0:
209,109,72650,1,10,1:2:0:0:
428,329,72785,6,0,P|473:303|409:176,1,215.999993408203,2|2,0:2|0:2,0:0:0:0:
177,252,73191,2,0,L|161:131,1,107.999996704102,8|2,1:2|0:2,0:0:0:0:
311,108,73461,2,0,L|187:108,1,107.999996704102,2|2,0:2|0:2,0:0:0:0:
457,63,73731,1,10,1:2:0:0:
209,215,73866,6,0,P|149:179|230:82,1,215.999993408203,2|2,0:2|0:2,0:0:0:0:
432,147,74272,2,0,L|446:273,1,107.999996704102,2|14,0:2|1:2,0:0:0:0:
331,315,74542,2,0,L|442:314,1,107.999996704102,2|2,0:2|0:2,0:0:0:0:
309,227,74812,2,0,L|430:226,1,107.999996704102,12|2,1:2|0:2,0:0:0:0:
107,244,75083,6,0,L|101:154,1,71.9999978027344,8|8,1:2|1:2,0:0:0:0:
292,115,75263,2,0,L|219:115,1,71.9999978027344,8|8,1:2|1:2,0:0:0:0:
403,243,75443,2,0,L|409:153,1,71.9999978027344,8|8,1:2|1:2,0:0:0:0:
194,327,75623,2,0,L|115:327,1,71.9999978027344,8|8,1:3|1:3,0:0:0:0:
194,327,75803,1,8,1:3:0:0:
392,250,75893,2,0,L|306:249,1,71.9999978027344,4|4,1:3|1:3,0:0:0:0:
108,249,76074,1,4,1:3:0:0:
394,349,76164,5,6,1:2:0:0:
437,318,76231,1,0,0:2:0:0:
453,266,76299,1,0,0:2:0:0:
432,216,76366,1,0,0:2:0:0:
370,182,76434,2,0,L|292:177,1,53.9999983520508,8|0,0:2|0:2,0:0:0:0:
402,105,76569,2,0,L|470:112,1,53.9999983520508,0|0,0:2|0:2,0:0:0:0:
273,281,76704,1,0,0:2:0:0:
227,251,76772,1,0,0:2:0:0:
209,200,76839,1,0,0:2:0:0:
236,150,76907,1,0,0:2:0:0:
288,120,76975,2,0,L|360:120,1,53.9999983520508,14|0,0:2|0:2,0:0:0:0:
189,51,77110,2,0,L|98:50,1,53.9999983520508,2|0,0:2|0:2,0:0:0:0:
338,351,77245,5,2,0:2:0:0:
382,321,77312,1,0,0:2:0:0:
405,272,77380,1,0,0:2:0:0:
386,220,77448,1,0,0:2:0:0:
329,189,77515,2,0,L|321:110,3,53.9999983520508,12|0|0|0,0:2|0:2|0:0|0:0,0:0:0:0:
235,102,77785,2,0,L|304:101,1,53.9999983520508
288,101,77921,2,0,L|235:102,1,53.9999983520508
146,80,78056,2,0,L|138:1,3,53.9999983520508,12|0|0|0,1:2|1:2|1:0|1:0,0:0:0:0:
247,200,78326,6,0,L|341:202,1,53.9999983520508,2|0,1:2|0:2,0:0:0:0:
300,201,78461,2,0,L|246:202,1,53.9999983520508,0|0,0:2|0:2,0:0:0:0:
72,294,78596,2,0,L|155:291,1,53.9999983520508,12|0,0:2|0:0,0:0:0:0:
197,314,78731,2,0,L|280:311,1,53.9999983520508,0|0,0:0|2:2,0:0:0:0:
76,33,78866,2,0,L|-18:35,1,53.9999983520508,0|0,0:2|0:2,0:0:0:0:
23,34,79001,2,0,L|76:35,1,53.9999983520508,0|0,0:2|0:2,0:0:0:0:
251,127,79136,2,0,L|250:45,1,53.9999983520508,14|0,0:2|0:0,0:0:0:0:
107,149,79271,2,0,L|24:146,1,53.9999983520508,0|0,0:0|2:2,0:0:0:0:
240,352,79407,5,2,0:2:0:0:
282,318,79475,1,0,0:2:0:0:
297,266,79542,1,0,0:2:0:0:
267,220,79610,1,0,0:2:0:0:
218,197,79677,1,12,0:2:0:0:
170,171,79745,1,0,0:0:0:0:
147,122,79812,1,0,0:0:0:0:
166,71,79880,1,0,0:2:0:0:
216,49,79948,2,0,L|289:49,1,53.9999983520508,0|0,0:2|0:2,0:0:0:0:
270,49,80083,2,0,L|202:49,1,53.9999983520508,0|0,0:2|0:2,0:0:0:0:
61,137,80218,2,0,L|152:136,1,53.9999983520508,14|0,0:2|0:2,0:0:0:0:
288,176,80353,2,0,L|360:174,1,53.9999983520508,0|0,0:2|0:2,0:0:0:0:
184,208,80488,6,0,L|111:208,1,53.9999983520508,6|0,1:1|0:2,0:0:0:0:
130,208,80623,2,0,L|198:208,1,53.9999983520508,0|0,0:2|0:2,0:0:0:0:
340,208,80758,2,0,L|462:209,1,107.999996704102,12|0,0:2|0:2,0:0:0:0:
164,324,81028,6,0,L|91:324,1,53.9999983520508,0|0,0:2|0:2,0:0:0:0:
110,324,81163,2,0,L|178:324,1,53.9999983520508,0|0,0:2|0:2,0:0:0:0:
320,324,81298,2,0,L|183:324,1,107.999996704102,12|0,1:2|0:2,0:0:0:0:
438,35,81569,6,0,L|511:35,1,53.9999983520508,0|0,0:2|0:2,0:0:0:0:
492,35,81704,2,0,L|424:35,1,53.9999983520508,0|0,0:2|0:2,0:0:0:0:
282,35,81839,2,0,L|419:35,1,107.999996704102,12|0,1:2|0:2,0:0:0:0:
186,216,82110,6,0,L|113:216,1,53.9999983520508,0|0,0:2|0:2,0:0:0:0:
132,216,82245,2,0,L|200:216,1,53.9999983520508,0|0,0:2|0:2,0:0:0:0:
342,216,82380,2,0,L|205:216,1,107.999996704102,12|0,1:2|0:0,0:0:0:0:
36,239,82650,6,0,L|119:239,1,53.9999983520508,8|4,1:2|0:3,0:0:0:0:
275,189,82785,2,0,L|279:269,1,53.9999983520508,4|4,0:3|0:3,0:0:0:0:
211,308,82921,2,0,L|280:307,1,53.9999983520508,4|4,0:3|0:3,0:0:0:0:
430,227,83056,2,0,L|499:226,1,53.9999983520508,8|8,0:2|0:2,0:0:0:0:
272,132,83191,6,0,L|206:131,1,53.9999983520508,12|0,1:2|0:2,0:0:0:0:
353,48,83393,2,0,L|287:47,1,53.9999983520508,12|0,1:2|0:2,0:0:0:0:
175,134,83596,1,12,1:2:0:0:
459,340,83731,5,8,0:3:0:0:
452,276,83799,1,8,0:3:0:0:
415,225,83866,1,8,0:3:0:0:
355,202,83934,1,8,0:3:0:0:
274,234,84002,2,0,L|272:164,1,53.9999983520508,6|4,0:3|0:3,0:0:0:0:
422,112,84137,2,0,L|498:110,1,53.9999983520508,6|4,0:3|0:3,0:0:0:0:
262,84,84272,2,0,L|172:84,1,53.9999983520508,6|0,0:3|0:0,0:0:0:0:
207,75,84407,2,0,L|290:75,1,53.9999983520508,4|4,0:3|0:3,0:0:0:0:
440,194,84542,2,0,L|355:194,1,62.9999980773926,6|0,0:3|0:0,0:0:0:0:
176,280,84677,2,0,L|113:280,1,62.9999980773926,8|0,0:2|0:0,0:0:0:0:
334,336,84812,5,14,0:2:0:0:
454,275,84948,2,0,L|472:215,2,53.9999983520508,0|0|2,0:2|0:2|0:2,0:0:0:0:
196,193,85218,1,14,0:2:0:0:
299,151,85353,2,0,L|252:110,1,53.9999983520508,0|0,0:2|0:2,0:0:0:0:
197,112,85488,1,0,0:2:0:0:
424,59,85623,1,14,0:2:0:0:
188,30,85758,1,2,0:2:0:0:
424,59,85893,6,0,L|476:80,1,53.9999983520508,14|0,0:2|0:2,0:0:0:0:
301,104,86029,2,0,L|238:130,1,53.9999983520508,0|0,0:2|0:2,0:0:0:0:
75,143,86164,1,2,0:2:0:0:
315,255,86299,1,14,0:2:0:0:
212,322,86434,2,0,L|262:365,1,53.9999983520508,0|0,0:2|0:2,0:0:0:0:
313,350,86569,1,0,0:2:0:0:
73,245,86704,1,14,0:2:0:0:
317,197,86839,1,2,0:2:0:0:
67,108,86975,5,14,0:2:0:0:
170,73,87110,2,0,L|106:35,1,53.9999983520508,0|0,0:2|0:2,0:0:0:0:
63,40,87245,1,2,0:2:0:0:
333,51,87380,1,14,0:2:0:0:
230,116,87515,2,0,L|195:184,2,53.9999983520508,0|0|0,0:2|0:2|0:2,0:0:0:0:
487,123,87785,1,14,0:2:0:0:
269,87,87921,1,0,0:2:0:0:
53,42,88056,6,0,L|25:103,2,53.9999983520508,14|0|0,0:2|0:2|0:2,0:0:0:0:
112,40,88258,1,0,0:2:0:0:
244,128,88326,2,0,L|168:132,1,53.9999983520508,2|0,0:2|0:2,0:0:0:0:
332,204,88461,2,0,L|358:273,2,53.9999983520508,14|0|0,0:2|0:2|0:2,0:0:0:0:
277,208,88664,1,0,0:2:0:0:
433,281,88731,2,0,L|505:289,1,53.9999983520508,0|0,0:2|0:2,0:0:0:0:
304,340,88866,2,0,L|290:284,1,53.9999983520508,12|0,0:2|0:2,0:0:0:0:
372,272,89002,2,0,L|380:202,1,53.9999983520508,0|0,0:2|0:2,0:0:0:0:
198,187,89137,6,0,L|190:127,3,53.9999983520508,14|8|8|0,0:2|0:2|0:2|0:2,0:0:0:0:
17,83,89407,2,0,L|81:72,1,53.9999983520508,8|8,0:2|0:2,0:0:0:0:
252,62,89542,2,0,L|311:70,1,53.9999983520508,8|8,0:2|0:2,0:0:0:0:
487,140,89677,2,0,L|432:188,1,53.9999983520508,8|8,0:2|0:2,0:0:0:0:
387,187,89812,2,0,L|324:184,1,53.9999983520508,8|8,0:2|0:2,0:0:0:0:
149,275,89947,6,0,L|221:280,1,53.9999983520508,4|4,0:3|0:3,0:0:0:0:
386,328,90082,2,0,L|413:275,2,53.9999983520508,4|4|4,0:3|0:3|0:3,0:0:0:0:
332,344,90285,1,4,0:3:0:0:
273,307,90353,2,0,L|340:294,1,53.9999983520508,4|4,0:3|0:3,0:0:0:0:
141,231,90488,6,0,L|59:220,1,53.9999983520508,8|8,0:2|0:3,0:0:0:0:
267,177,90623,2,0,L|224:139,1,53.9999983520508,8|8,0:3|0:3,0:0:0:0:
165,134,90758,2,0,L|87:128,1,53.9999983520508,4|4,0:3|0:3,0:0:0:0:
292,80,90893,2,0,L|358:73,1,53.9999983520508,8|8,0:2|0:2,0:0:0:0:
269,31,91028,2,0,L|261:89,1,53.9999983520508,8|0,0:2|0:2,0:0:0:0:
456,183,91164,6,0,L|389:168,1,53.9999983520508,8|8,0:2|0:3,0:0:0:0:
340,207,91299,2,0,L|315:259,2,53.9999983520508,8|8|8,0:3|0:3|0:3,0:0:0:0:
400,168,91501,1,8,0:3:0:0:
223,145,91569,2,0,L|217:72,1,53.9999983520508,12|12,0:3|0:3,0:0:0:0:
294,59,91704,2,0,L|303:0,1,53.9999983520508,4|4,0:3|0:3,0:0:0:0:
100,38,91839,6,0,L|28:54,1,62.9999980773926,4|0,0:2|0:2,0:0:0:0:
206,140,91974,2,0,L|269:159,1,62.9999980773926,10|0,0:2|0:2,0:0:0:0:
196,188,92109,2,0,L|186:258,1,62.9999980773926,10|0,0:2|0:2,0:0:0:0:
360,328,92245,2,0,L|418:306,1,62.9999980773926,10|0,0:2|0:2,0:0:0:0:
225,354,92380,6,0,L|220:279,1,62.9999980773926,10|0,0:2|0:2,0:0:0:0:
291,263,92515,2,0,L|378:221,1,62.9999980773926,10|0,0:2|0:2,0:0:0:0:
160,248,92650,1,10,0:2:0:0:
118,209,92718,1,0,0:2:0:0:
102,154,92785,1,10,0:2:0:0:
130,101,92853,1,0,0:2:0:0:
182,71,92920,2,0,L|252:73,1,62.9999980773926,10|0,0:2|0:2,0:0:0:0:
397,98,93055,2,0,L|318:95,1,62.9999980773926,10|0,0:2|0:2,0:0:0:0:
108,44,93191,6,0,B|383:40|383:40|338:173|338:173|321:313|321:313|259:39|259:39|319:313|319:313|338:174|338:174|381:42|381:42|75:41,1,1674.00001277161,12|4,0:2|0:2,0:0:0:0:
91,149,94137,5,0,0:0:0:0:
329,227,94272,1,0,0:2:0:0:
83,272,94407,1,8,0:2:0:0:
336,308,94542,2,0,L|220:364,2,125.999996154785,2|0|0,0:2|0:2|0:2,0:0:0:0:
91,179,94947,1,10,0:2:0:0:
362,132,95082,5,2,0:2:0:0:
247,62,95218,2,0,L|183:102,1,62.9999980773926,2|0,0:2|0:2,0:0:0:0:
387,139,95353,2,0,L|396:221,1,62.9999980773926,0|0,0:2|0:2,0:0:0:0:
178,298,95488,2,0,L|53:262,1,125.999996154785,8|0,0:2|0:2,0:0:0:0:
311,217,95758,2,0,L|324:83,1,125.999996154785,2|2,0:2|0:2,0:0:0:0:
78,39,96028,1,10,0:2:0:0:
320,114,96164,1,2,0:2:0:0:
75,167,96299,5,6,0:2:0:0:
196,223,96434,2,0,L|288:272,1,62.9999980773926,0|0,0:2|0:2,0:0:0:0:
49,262,96569,2,0,L|36:392,1,125.999996154785,10|0,0:2|0:2,0:0:0:0:
316,268,96839,1,2,0:2:0:0:
201,193,96974,2,0,L|303:180,1,62.9999980773926,0|2,0:2|0:2,0:0:0:0:
459,168,97109,1,8,0:2:0:0:
234,107,97245,1,2,0:2:0:0:
448,43,97380,6,0,L|455:179,1,125.999996154785,2|0,0:2|0:0,0:0:0:0:
211,201,97650,1,8,0:2:0:0:
441,290,97785,2,0,L|301:262,1,125.999996154785,2|2,0:2|0:2,0:0:0:0:
464,297,98055,2,0,L|393:310,1,62.9999980773926,0|0,0:2|0:2,0:0:0:0:
199,324,98191,1,10,0:2:0:0:
450,353,98326,1,2,0:2:0:0:
157,357,98461,6,0,P|126:287|205:225,1,188.999994232178,6|0,0:2|0:0,0:0:0:0:
267,223,98731,1,10,0:2:0:0:
36,150,98866,1,2,0:2:0:0:
286,89,99001,1,0,0:2:0:0:
161,50,99137,2,0,L|151:120,1,62.9999980773926,2|0,0:2|0:2,0:0:0:0:
370,187,99272,2,0,L|225:204,1,125.999996154785,10|2,0:2|0:2,0:0:0:0:
479,342,99542,6,0,L|487:210,1,125.999996154785,2|0,0:2|0:2,0:0:0:0:
368,193,99812,2,0,L|482:141,1,125.999996154785,8|0,0:2|0:0,0:0:0:0:
236,58,100082,2,0,L|102:93,1,125.999996154785,0|0,0:2|0:2,0:0:0:0:
340,114,100353,1,14,0:2:0:0:
106,177,100488,1,6,0:2:0:0:
327,233,100623,5,6,0:2:0:0:
441,302,100758,2,0,L|369:325,1,62.9999980773926
189,314,100893,1,8,0:2:0:0:
431,198,101028,2,0,L|302:168,2,125.999996154785,2|0|0,0:2|0:2|0:2,0:0:0:0:
184,93,101434,2,0,L|54:72,1,125.999996154785,10|0,0:2|0:0,0:0:0:0:
273,57,101704,5,0,0:2:0:0:
141,193,101839,2,0,L|205:208,1,62.9999980773926,8|8,0:2|0:2,0:0:0:0:
381,237,101974,1,10,0:2:0:0:
94,327,102109,6,0,P|60:254|142:178,1,188.999994232178,14|0,0:2|2:2,0:0:0:0:
346,176,102380,2,0,P|275:113|171:97,1,188.999994232178,14|0,0:2|2:2,0:0:0:0:
411,32,102650,6,0,P|461:90|421:197,1,188.999994232178,14|0,0:2|0:0,0:0:0:0:
233,234,102920,2,0,L|158:220,1,62.9999980773926,0|0,0:2|0:0,0:0:0:0:
372,311,103055,2,0,L|496:329,1,125.999996154785,8|2,0:2|0:2,0:0:0:0:
241,228,103326,2,0,L|233:101,1,125.999996154785,0|2,0:2|0:2,0:0:0:0:
473,87,103596,1,10,0:2:0:0:
236,41,103731,1,2,0:2:0:0:
478,156,103866,6,0,L|346:202,1,125.999996154785,4|0,0:2|0:0,0:0:0:0:
256,239,104136,2,0,L|400:288,1,125.999996154785,8|0,0:2|0:2,0:0:0:0:
116,327,104407,2,0,L|100:194,1,125.999996154785,2|2,0:2|0:2,0:0:0:0:
342,136,104677,1,10,0:2:0:0:
95,88,104812,1,2,0:2:0:0:
340,67,104947,6,0,L|199:34,1,125.999996154785,6|0,0:2|0:0,0:0:0:0:
470,57,105218,1,10,0:2:0:0:
210,192,105353,2,0,L|353:186,1,125.999996154785,2|0,0:2|0:2,0:0:0:0:
66,227,105623,2,0,L|52:363,1,125.999996154785,2|8,0:2|0:2,0:0:0:0:
325,317,105893,1,2,0:2:0:0:
61,276,106028,6,0,L|280:238,1,188.999994232178,6|0,0:2|2:2,0:0:0:0:
60,179,106299,2,0,P|29:116|105:41,1,188.999994232178,8|0,0:2|0:0,0:0:0:0:
287,104,106569,1,8,0:2:0:0:
61,127,106704,2,0,L|172:146,1,62.9999980773926,0|8,0:2|0:2,0:0:0:0:
322,178,106839,2,0,L|404:175,1,62.9999980773926,10|8,0:2|0:3,0:0:0:0:
173,240,106974,2,0,L|105:255,1,62.9999980773926,6|0,0:3|0:0,0:0:0:0:
377,313,107109,6,0,L|395:247,2,62.9999980773926,6|0|0,0:2|0:0|0:0,0:0:0:0:
134,337,107380,1,10,0:2:0:0:
388,244,107515,2,0,L|235:232,1,125.999996154785,2|0,0:2|0:2,0:0:0:0:
481,186,107785,2,0,L|405:177,1,62.9999980773926,2|0,0:2|0:2,0:0:0:0:
227,121,107920,1,10,0:2:0:0:
474,88,108055,1,2,0:2:0:0:
225,44,108191,5,6,0:2:0:0:
169,57,108258,2,0,L|144:129,2,62.9999980773926,0|0|0,0:0|0:2|0:2,0:0:0:0:
369,110,108461,1,8,0:2:0:0:
121,201,108596,2,0,L|250:227,1,125.999996154785,0|0,0:2|0:0,0:0:0:0:
109,270,108866,2,0,L|96:352,1,62.9999980773926,0|0,0:2|0:2,0:0:0:0:
301,309,109001,1,10,0:2:0:0:
38,230,109136,1,2,0:2:0:0:
298,203,109272,6,0,L|324:142,2,62.9999980773926,6|0|0,0:2|0:0|0:0,0:0:0:0:
240,221,109474,1,0,0:0:0:0:
42,201,109542,1,10,0:2:0:0:
293,119,109677,2,0,L|162:71,1,125.999996154785,2|0,0:2|0:2,0:0:0:0:
302,42,109947,2,0,L|207:43,1,62.9999980773926,0|0,0:2|0:2,0:0:0:0:
21,52,110082,1,8,0:2:0:0:
243,119,110218,1,0,0:0:0:0:
462,181,110353,6,0,L|487:253,2,62.9999980773926,8|0|0,0:2|0:2|0:2,0:0:0:0:
405,168,110555,1,0,0:2:0:0:
252,203,110623,1,10,0:2:0:0:
99,225,110691,1,8,0:2:0:0:
264,287,110758,2,0,L|340:298,1,62.9999980773926,10|8,0:2|0:2,0:0:0:0:
127,349,110893,2,0,L|115:280,1,62.9999980773926,10|8,0:2|0:3,0:0:0:0:
320,231,111028,2,0,L|401:220,1,62.9999980773926,10|8,0:3|0:3,0:0:0:0:
172,181,111164,2,0,L|163:104,1,62.9999980773926,6|0,0:2|0:0,0:0:0:0:
401,80,111299,1,6,0:2:0:0:
168,288,111434,5,0,0:2:0:0:
308,248,111569,1,0,0:2:0:0:
52,220,111704,1,8,0:2:0:0:
168,216,111839,2,0,L|168:72,1,116.999994644165,0|0,0:2|0:2,0:0:0:0:
52,100,112109,1,0,0:2:0:0:
296,336,112245,2,0,L|156:336,1,116.999994644165,8|0,0:2|0:2,0:0:0:0:
296,336,112515,6,0,L|464:336,1,116.999994644165,0|0,0:2|0:2,0:0:0:0:
176,272,112785,2,0,L|332:272,1,116.999994644165,8|0,0:2|0:2,0:0:0:0:
412,276,113055,5,0,0:2:0:0:
459,246,113122,1,0,0:2:0:0:
453,191,113190,1,0,0:2:0:0:
401,173,113257,1,0,0:2:0:0:
228,360,113326,2,0,L|152:352,1,58.4999973220826,14|0,0:2|2:2,0:0:0:0:
340,300,113461,2,0,L|356:240,1,58.4999973220826,6|0,0:2|2:2,0:0:0:0:
212,216,113596,6,0,L|356:216,1,116.999994644165,6|0,0:2|0:2,0:0:0:0:
36,328,113866,2,0,L|176:320,1,116.999994644165,8|0,0:2|0:2,0:0:0:0:
270,314,114136,2,0,L|138:322,1,116.999994644165,0|0,0:2|0:2,0:0:0:0:
392,360,114407,2,0,L|404:236,1,116.999994644165,8|0,0:2|0:2,0:0:0:0:
160,252,114677,5,0,0:2:0:0:
104,248,114744,1,0,0:2:0:0:
44,248,114812,1,0,0:2:0:0:
104,248,114879,1,0,0:2:0:0:
312,344,114947,2,0,L|164:332,1,116.999994644165,8|0,0:2|0:2,0:0:0:0:
456,252,115218,6,0,L|352:244,1,58.4999973220826,8|8,0:2|0:2,0:0:0:0:
216,244,115353,2,0,L|196:168,1,58.4999973220826,8|8,0:3|0:3,0:0:0:0:
344,172,115488,1,10,0:3:0:0:
488,176,115555,1,4,0:3:0:0:
344,172,115623,2,0,L|280:164,1,58.4999973220826,6|4,0:3|0:3,0:0:0:0:
484,292,115758,6,0,L|348:288,1,116.999994644165,14|0,0:2|0:2,0:0:0:0:
132,288,116028,1,10,0:2:0:0:
360,288,116164,1,2,0:2:0:0:
132,248,116299,2,0,P|104:176|148:136,1,116.999994644165,8|0,0:2|0:2,0:0:0:0:
180,152,116501,1,0,0:0:0:0:
384,168,116569,1,10,0:2:0:0:
120,120,116704,1,2,0:2:0:0:
384,168,116839,6,0,L|516:160,1,116.999994644165,10|0,0:2|0:2,0:0:0:0:
240,308,117109,2,0,L|400:296,1,116.999994644165,8|0,0:2|0:2,0:0:0:0:
116,252,117380,6,0,L|28:252,1,58.4999973220826,8|0,0:2|0:2,0:0:0:0:
236,200,117515,2,0,L|336:192,1,58.4999973220826,0|0,0:2|0:2,0:0:0:0:
468,152,117650,2,0,L|376:152,1,58.4999973220826,2|0,0:2|0:2,0:0:0:0:
232,152,117785,2,0,L|216:56,1,58.4999973220826,8|8,0:2|0:0,0:0:0:0:
384,368,117920,6,0,L|496:368,1,77.9999964294435,2|0,0:0|0:0,0:0:0:0:
256,344,118100,2,0,L|248:232,1,77.9999964294435,0|2,0:0|0:2,0:0:0:0:
476,224,118281,2,0,L|388:220,1,77.9999964294435
208,216,118461,2,0,L|304:216,1,77.9999964294435,0|0,0:2|0:0,0:0:0:0:
92,200,118641,2,0,L|-8:200,1,77.9999964294435,0|2,0:0|0:2,0:0:0:0:
208,288,118821,2,0,L|312:288,1,77.9999964294435
52,128,119001,5,10,0:2:0:0:
283,149,119136,1,8,0:2:0:0:
16,128,119272,1,8,0:2:0:0:
320,120,119407,1,0,0:2:0:0:
195,208,119542,1,2,2:0:0:0:
141,187,119609,1,0,2:0:0:0:
109,139,119677,1,0,2:0:0:0:
111,81,119744,1,0,2:0:0:0:
146,36,119812,1,0,2:0:0:0:
201,19,119879,1,0,2:0:0:0:
432,380,119947,6,0,P|488:336|392:220,1,233.999989288331,6|0,1:2|0:2,0:0:0:0:
200,216,120353,2,0,L|352:216,3,116.999994644165,8|0|0|0,1:2|0:2|0:2|0:2,0:0:0:0:
76,128,120893,6,0,L|208:128,1,116.999994644165,8|0,1:2|0:2,0:0:0:0:
312,124,121164,2,0,L|152:124,1,116.999994644165,0|0,0:2|0:2,0:0:0:0:
440,296,121434,2,0,L|292:296,1,116.999994644165,8|0,1:2|0:2,0:0:0:0:
440,296,121704,2,0,L|440:144,1,116.999994644165,0|0,0:2|0:2,0:0:0:0:
192,176,121974,6,0,L|44:176,1,116.999994644165,14|0,1:2|0:2,0:0:0:0:
316,180,122245,2,0,L|456:180,1,116.999994644165,6|0,0:2|0:2,0:0:0:0:
188,360,122515,2,0,L|184:236,1,116.999994644165,8|0,1:2|0:2,0:0:0:0:
300,248,122785,2,0,L|464:248,1,116.999994644165,0|0,0:2|0:2,0:0:0:0:
140,172,123055,5,8,1:2:0:0:
257,172,123190,1,0,0:2:0:0:
374,172,123325,1,0,0:2:0:0:
490,172,123460,1,0,0:2:0:0:
220,96,123596,6,0,L|360:96,1,116.999994644165,8|0,1:2|0:2,0:0:0:0:
100,208,123866,1,0,0:2:0:0:
40,208,123934,1,0,0:2:0:0:
40,148,124001,1,0,0:2:0:0:
100,152,124069,1,0,0:2:0:0:
260,152,124136,2,0,L|336:152,1,58.4999973220826,8|0,1:2|0:2,0:0:0:0:
136,336,124272,6,0,L|408:336,1,233.999989288331,14|0,1:2|0:2,0:0:0:0:
96,248,124677,2,0,L|268:248,3,116.999994644165,14|0|0|0,1:2|0:0|0:2|0:2,0:0:0:0:
456,176,125218,6,0,L|464:40,1,116.999994644165,8|0,1:2|0:2,0:0:0:0:
344,60,125488,2,0,L|492:64,1,116.999994644165,0|0,0:2|0:2,0:0:0:0:
208,336,125758,1,8,1:2:0:0:
468,240,125893,2,0,L|304:240,2,116.999994644165,8|0|0,0:2|0:2|0:2,0:0:0:0:
196,160,126299,6,0,L|360:160,1,116.999994644165,8|0,1:2|0:2,0:0:0:0:
428,160,126569,2,0,L|276:160,1,116.999994644165,6|0,0:2|0:2,0:0:0:0:
56,296,126839,2,0,L|216:296,3,116.999994644165,8|0|0|0,1:2|0:2|0:2|0:2,0:0:0:0:
400,232,127380,6,0,L|240:232,2,116.999994644165,12|0|0,1:2|0:2|0:2,0:0:0:0:
252,232,127718,1,8,0:2:0:0:
108,228,127785,1,8,0:2:0:0:
256,232,127853,1,8,0:2:0:0:
400,180,127920,6,0,L|308:180,1,58.4999973220826,8|8,0:2|0:2,0:0:0:0:
168,180,128055,2,0,L|92:180,1,58.4999973220826,8|8,0:3|0:3,0:0:0:0:
292,132,128191,2,0,L|386:130,1,58.4999973220826,8|8,0:3|0:3,0:0:0:0:
184,128,128326,2,0,L|176:48,1,58.4999973220826,4|4,0:3|0:3,0:0:0:0:
350,130,128461,2,0,L|364:216,1,58.4999973220826,4|4,0:3|0:3,0:0:0:0:
98,182,128596,6,0,P|45:238|129:340,1,215.999993408203,6|0,0:2|0:2,0:0:0:0:
343,283,129001,2,0,L|211:257,1,107.999996704102,10|2,0:2|0:2,0:0:0:0:
351,218,129272,2,0,L|237:201,1,107.999996704102,0|2,0:2|0:2,0:0:0:0:
464,152,129542,1,8,0:2:0:0:
227,68,129677,5,2,0:2:0:0:
214,169,129812,1,0,0:0:0:0:
440,241,129947,1,0,0:2:0:0:
214,280,130082,2,0,L|58:289,1,107.999996704102,10|2,0:2|0:2,0:0:0:0:
336,181,130353,2,0,L|204:162,1,107.999996704102,2|2,0:2|0:2,0:0:0:0:
459,112,130623,1,12,0:2:0:0:
226,55,130758,5,6,0:2:0:0:
333,46,130893,1,6,0:2:0:0:
441,38,131028,1,0,0:0:0:0:
219,83,131164,2,0,L|78:80,1,107.999996704102,10|2,0:2|0:2,0:0:0:0:
334,165,131434,1,2,0:2:0:0:
99,225,131569,2,0,L|92:345,1,107.999996704102,2|8,0:2|0:2,0:0:0:0:
320,326,131839,5,2,0:2:0:0:
101,279,131974,1,0,0:2:0:0:
356,214,132109,2,0,L|216:185,2,107.999996704102,6|8|2,0:2|0:2|0:2,0:0:0:0:
131,115,132515,2,0,L|51:102,1,53.9999983520508,2|0,0:2|0:2,0:0:0:0:
262,42,132650,2,0,L|267:122,1,53.9999983520508,2|0,0:2|0:2,0:0:0:0:
50,181,132785,1,8,0:2:0:0:
286,225,132920,5,6,0:2:0:0:
178,248,133055,2,0,L|165:379,1,107.999996704102,2|0,0:2|0:2,0:0:0:0:
407,286,133326,1,10,0:2:0:0:
192,204,133461,2,0,L|319:189,1,107.999996704102,2|0,0:2|0:2,0:0:0:0:
64,149,133731,2,0,L|51:17,1,107.999996704102,2|8,0:2|0:2,0:0:0:0:
279,60,134001,1,2,0:2:0:0:
34,93,134136,6,0,L|174:121,1,107.999996704102,2|0,0:2|0:2,0:0:0:0:
376,182,134407,2,0,L|256:195,1,107.999996704102,10|2,0:2|0:2,0:0:0:0:
392,230,134677,2,0,L|402:352,1,107.999996704102,2|2,0:2|0:2,0:0:0:0:
170,308,134947,1,12,0:2:0:0:
396,280,135082,1,2,0:2:0:0:
169,223,135218,6,0,L|304:200,2,107.999996704102,2|2|10,0:2|0:2|0:2,0:0:0:0:
395,144,135623,2,0,L|407:30,1,107.999996704102,2|2,0:2|0:2,0:0:0:0:
177,52,135893,2,0,L|58:29,1,107.999996704102,2|8,0:2|0:2,0:0:0:0:
290,178,136164,6,0,L|420:191,1,107.999996704102,2|0,0:2|0:2,0:0:0:0:
156,248,136434,1,2,0:2:0:0:
263,262,136569,1,10,0:2:0:0:
370,276,136704,1,2,0:2:0:0:
131,333,136839,1,2,0:2:0:0:
72,352,136907,2,0,L|61:281,1,53.9999983520508,0|0,0:2|0:0,0:0:0:0:
257,219,137042,2,0,L|206:187,1,53.9999983520508,2|8,0:2|0:2,0:0:0:0:
151,187,137177,1,0,0:0:0:0:
339,128,137245,2,0,L|435:121,1,53.9999983520508,2|0,0:2|0:2,0:0:0:0:
180,64,137380,5,4,0:2:0:0:
63,52,137515,2,0,L|118:56,1,53.9999983520508,0|0,0:2|0:2,0:0:0:0:
301,126,137650,2,0,L|161:142,1,107.999996704102,12|0,0:2|0:2,0:0:0:0:
433,199,137920,2,0,L|450:260,2,53.9999983520508,0|0|0,0:2|0:2|0:2,0:0:0:0:
379,188,138123,1,0,0:2:0:0:
202,177,138191,1,14,0:2:0:0:
431,264,138326,1,2,0:2:0:0:
190,296,138461,6,0,L|323:322,1,107.999996704102,2|0,0:2|0:2,0:0:0:0:
171,343,138731,2,0,L|52:355,1,107.999996704102,12|0,0:2|0:2,0:0:0:0:
290,242,139001,2,0,L|353:243,1,53.9999983520508,2|0,0:2|0:2,0:0:0:0:
161,184,139136,2,0,L|148:115,1,53.9999983520508,0|0,0:2|0:2,0:0:0:0:
377,74,139272,2,0,L|488:81,1,107.999996704102,12|0,0:2|0:2,0:0:0:0:
249,141,139542,6,0,L|196:130,1,53.9999983520508,10|8,0:2|0:3,0:0:0:0:
382,172,139677,1,8,0:3:0:0:
436,198,139745,2,0,L|457:263,2,53.9999983520508,8|8|4,0:3|0:3|0:3,0:0:0:0:
242,237,139947,2,0,L|181:229,1,53.9999983520508,8|8,0:2|0:3,0:0:0:0:
369,299,140082,6,0,L|393:241,2,53.9999983520508,8|8|4,0:3|0:3|0:3,0:0:0:0:
313,316,140285,1,4,0:3:0:0:
131,343,140353,2,0,L|61:334,1,53.9999983520508,10|8,0:2|0:3,0:0:0:0:
257,289,140488,6,0,L|267:212,1,53.9999983520508,10|8,0:3|0:3,0:0:0:0:
195,214,140623,2,0,L|186:142,1,53.9999983520508,6|4,0:3|0:3,0:0:0:0:
373,107,140758,2,0,L|435:95,1,53.9999983520508,8|8,0:2|0:3,0:0:0:0:
246,68,140893,2,0,L|297:25,1,53.9999983520508,8|8,0:3|0:3,0:0:0:0:
346,32,141028,2,0,L|436:29,1,53.9999983520508,4|4,0:3|0:3,0:0:0:0:
221,122,141164,2,0,L|150:109,1,53.9999983520508,8|8,0:2|0:2,0:0:0:0:
366,177,141299,2,0,L|454:187,1,53.9999983520508,8|8,0:2|0:2,0:0:0:0:
173,237,141434,2,0,L|97:250,1,53.9999983520508,8|8,0:2|0:2,0:0:0:0:
384,240,141569,6,0,P|418:320|351:355,1,161.999995056153,6|0,0:2|0:0,0:0:0:0:
172,302,141839,2,0,L|288:291,1,107.999996704102,0|10,0:2|0:2,0:0:0:0:
48,197,142109,2,0,L|159:188,1,107.999996704102,2|2,0:2|0:2,0:0:0:0:
44,144,142380,2,0,L|34:36,1,107.999996704102,2|8,0:2|0:2,0:0:0:0:
276,82,142650,6,0,L|147:63,1,107.999996704102,2|0,0:2|0:0,0:0:0:0:
407,172,142920,2,0,L|286:157,2,107.999996704102,2|10|2,0:2|0:2|0:2,0:0:0:0:
167,262,143326,1,2,0:2:0:0:
407,324,143461,2,0,L|281:326,1,107.999996704102,2|10,0:2|0:2,0:0:0:0:
55,346,143731,1,2,0:2:0:0:
287,243,143866,6,0,L|173:236,1,107.999996704102,4|0,0:2|0:0,0:0:0:0:
300,187,144136,2,0,L|183:173,1,107.999996704102,10|2,0:2|0:2,0:0:0:0:
433,103,144407,1,2,0:2:0:0:
192,51,144542,2,0,L|318:40,1,107.999996704102,2|10,0:2|0:2,0:0:0:0:
60,96,144812,6,0,L|181:127,2,107.999996704102,2|0|2,0:2|0:2|0:2,0:0:0:0:
299,202,145218,2,0,L|310:326,1,107.999996704102,10|2,0:2|0:2,0:0:0:0:
43,299,145488,2,0,L|115:289,1,53.9999983520508,2|0,0:2|0:2,0:0:0:0:
292,264,145623,2,0,L|353:267,1,53.9999983520508,2|0,0:2|0:2,0:0:0:0:
134,178,145758,2,0,L|124:106,1,53.9999983520508,10|0,0:2|0:0,0:0:0:0:
320,67,145893,6,0,L|211:50,1,107.999996704102,6|0,0:2|0:0,0:0:0:0:
440,105,146164,1,2,0:2:0:0:
201,212,146299,2,0,L|190:331,1,107.999996704102,10|2,0:2|0:2,0:0:0:0:
323,336,146569,2,0,L|176:312,1,107.999996704102,2|2,0:2|0:2,0:0:0:0:
446,255,146839,1,10,0:2:0:0:
197,205,146974,6,0,L|315:200,1,107.999996704102,2|0,0:2|0:0,0:0:0:0:
70,138,147245,1,0,0:2:0:0:
186,130,147380,1,10,0:2:0:0:
303,122,147515,1,2,0:2:0:0:
55,42,147650,1,6,0:2:0:0:
316,62,147785,2,0,L|186:57,1,107.999996704102,2|14,0:2|0:2,0:0:0:0:
450,132,148055,1,2,0:2:0:0:
169,225,148191,6,0,L|282:248,2,107.999996704102,12|2|2,0:2|0:2|0:2,0:0:0:0:
431,297,148596,2,0,L|301:318,2,107.999996704102,10|2|2,0:2|0:2|0:2,0:0:0:0:
187,159,149001,2,0,L|46:156,1,107.999996704102,12|0,0:2|0:0,0:0:0:0:
317,62,149272,6,0,L|329:182,1,77.9999964294435,8|8,0:2|0:2,0:0:0:0:
116,221,149452,2,0,L|32:211,1,77.9999964294435,8|8,0:2|0:2,0:0:0:0:
243,263,149632,2,0,L|255:347,1,77.9999964294435,8|8,0:2|0:2,0:0:0:0:
461,277,149812,6,0,L|371:269,1,77.9999964294435,8|8,0:3|0:3,0:0:0:0:
176,212,149992,2,0,L|295:210,1,77.9999964294435,8|4,0:3|0:3,0:0:0:0:
470,179,150173,2,0,L|361:170,1,77.9999964294435,4|4,0:3|0:3,0:0:0:0:
161,105,150353,5,6,0:2:0:0:
102,74,150420,2,0,L|81:7,2,53.9999983520508,0|0|0,0:0|0:2|0:2,0:0:0:0:
293,117,150623,2,0,L|242:157,1,53.9999983520508,8|0,0:2|0:2,0:0:0:0:
190,172,150758,2,0,L|109:164,1,53.9999983520508,0|0,0:2|0:2,0:0:0:0:
207,216,150893,5,0,0:2:0:0:
267,246,150961,2,0,L|287:314,2,53.9999983520508,0|0|0,0:2|0:2|0:2,0:0:0:0:
63,279,151164,2,0,L|120:278,1,53.9999983520508,10|0,0:2|0:2,0:0:0:0:
314,293,151299,2,0,L|383:292,1,53.9999983520508,2|0,0:2|0:2,0:0:0:0:
169,338,151434,6,0,L|157:282,1,53.9999983520508,2|0,0:2|0:2,0:0:0:0:
227,235,151569,2,0,L|267:179,1,53.9999983520508,0|0,0:2|0:2,0:0:0:0:
331,172,151704,2,0,L|406:168,1,53.9999983520508,8|0,0:2|0:2,0:0:0:0:
204,95,151839,2,0,L|140:95,1,53.9999983520508,0|0,0:2|0:2,0:0:0:0:
354,49,151974,6,0,L|376:113,2,53.9999983520508,2|0|0,0:2|0:2|0:2,0:0:0:0:
296,43,152177,1,0,0:2:0:0:
231,78,152245,2,0,L|156:78,1,53.9999983520508,8|0,0:2|0:2,0:0:0:0:
370,160,152380,2,0,L|444:167,1,53.9999983520508,0|0,0:2|0:2,0:0:0:0:
223,199,152515,6,0,L|195:259,2,53.9999983520508,2|0|0,0:2|0:2|0:2,0:0:0:0:
279,182,152718,1,0,0:2:0:0:
201,191,152785,1,8,0:2:0:0:
141,212,152853,2,0,L|122:276,2,53.9999983520508,0|0|0,0:2|0:2|0:2,0:0:0:0:
343,313,153055,6,0,L|297:276,1,53.9999983520508,0|0,0:2|0:2,0:0:0:0:
240,262,153191,2,0,L|174:260,1,53.9999983520508,0|0,0:2|0:2,0:0:0:0:
379,200,153326,2,0,L|435:192,1,53.9999983520508,10|0,0:2|0:2,0:0:0:0:
222,133,153461,2,0,L|141:116,1,53.9999983520508,2|0,0:2|0:2,0:0:0:0:
372,32,153596,5,2,0:2:0:0:
431,48,153664,2,0,L|451:110,2,53.9999983520508,0|0|0,0:2|0:2|0:2,0:0:0:0:
253,77,153866,1,8,0:2:0:0:
193,99,153934,2,0,L|169:181,2,53.9999983520508,0|0|0,0:0|0:2|0:0,0:0:0:0:
385,154,154136,6,0,L|326:169,1,53.9999983520508,8|8,0:2|0:2,0:0:0:0:
189,222,154272,1,8,0:2:0:0:
49,215,154339,1,8,0:2:0:0:
211,296,154407,2,0,L|272:308,1,53.9999983520508,4|4,0:3|0:3,0:0:0:0:
76,348,154542,2,0,L|61:266,1,53.9999983520508,4|4,0:3|0:3,0:0:0:0:
291,238,154677,6,0,L|373:239,1,53.9999983520508,0|0,0:2|0:2,0:0:0:0:
272,194,154812,2,0,L|261:118,1,53.9999983520508,0|0,0:2|0:2,0:0:0:0:
339,115,154947,2,0,L|287:87,1,53.9999983520508,10|0,0:2|0:2,0:0:0:0:
232,83,155082,2,0,L|176:78,1,53.9999983520508,0|0,0:2|0:2,0:0:0:0:
369,34,155218,5,2,0:2:0:0:
428,71,155285,2,0,L|449:137,2,53.9999983520508,0|0|0,0:2|0:2|0:2,0:0:0:0:
242,140,155488,2,0,L|216:200,2,53.9999983520508,10|0|0,0:2|0:2|0:2,0:0:0:0:
301,114,155691,1,0,0:2:0:0:
116,167,155758,5,0,0:2:0:0:
56,185,155826,2,0,L|38:250,2,53.9999983520508,0|0|0,0:2|0:2|0:2,0:0:0:0:
131,200,156028,1,10,0:2:0:0:
193,224,156096,2,0,L|209:286,2,53.9999983520508,0|0|0,0:2|0:2|0:2,0:0:0:0:
17,125,156299,6,0,L|82:81,1,53.9999983520508,2|0,0:2|0:2,0:0:0:0:
121,86,156434,2,0,L|184:95,1,53.9999983520508,0|0,0:2|0:2,0:0:0:0:
384,160,156569,2,0,L|294:158,1,53.9999983520508,14|0,0:2|0:0,0:0:0:0:
146,223,156704,2,0,L|75:218,1,53.9999983520508,0|0,0:2|0:0,0:0:0:0:
318,286,156839,6,0,L|388:288,1,53.9999983520508,12|0,0:2|0:2,0:0:0:0:
189,219,156974,2,0,L|241:183,1,53.9999983520508,0|0,0:2|0:2,0:0:0:0:
292,182,157109,2,0,L|360:177,1,53.9999983520508,0|0,0:2|0:2,0:0:0:0:
157,123,157245,2,0,L|82:111,1,53.9999983520508,8|0,0:2|0:2,0:0:0:0:
301,76,157380,6,0,L|361:62,1,53.9999983520508,0|0,0:2|0:2,0:0:0:0:
173,28,157515,2,0,L|164:89,1,53.9999983520508,8|8,0:2|0:2,0:0:0:0:
236,111,157650,2,0,L|250:176,1,53.9999983520508,0|0,0:2|0:2,0:0:0:0:
31,214,157785,2,0,L|113:232,1,53.9999983520508,0|8,0:2|0:2,0:0:0:0:
268,282,157920,6,0,L|323:280,1,53.9999983520508,8|0,0:2|0:2,0:0:0:0:
245,331,158055,2,0,L|226:261,1,53.9999983520508,0|0,0:2|0:2,0:0:0:0:
427,228,158191,2,0,L|367:217,1,53.9999983520508,8|8,0:2|0:2,0:0:0:0:
230,193,158326,1,8,0:2:0:0:
89,176,158393,1,8,0:3:0:0:
257,115,158461,6,0,L|282:56,2,53.9999983520508,8|8|8,0:3|0:3|0:3,0:0:0:0:
201,129,158664,1,8,0:3:0:0:
386,184,158731,2,0,L|441:194,1,53.9999983520508,4|4,0:3|0:3,0:0:0:0:
244,245,158866,2,0,L|176:240,1,53.9999983520508,4|4,0:3|0:3,0:0:0:0:
28,322,159001,5,4,1:2:0:0:
151,253,159136,1,0,0:0:0:0:
99,234,159204,1,0,2:2:0:0:
38,214,159272,1,2,0:2:0:0:
352,195,159407,1,14,1:2:0:0:
228,123,159542,1,0,0:2:0:0:
281,107,159610,1,0,0:0:0:0:
342,87,159678,1,0,0:2:0:0:
201,269,159812,2,0,L|194:192,1,53.9999983520508,14|0,1:2|0:0,0:0:0:0:
386,282,159947,2,0,L|449:284,1,53.9999983520508,2|0,0:2|0:0,0:0:0:0:
246,348,160082,5,14,1:2:0:0:
111,306,160218,2,0,L|102:241,2,53.9999983520508,0|0|2,0:2|0:0|1:2,0:0:0:0:
355,186,160488,1,14,1:2:0:0:
490,144,160624,2,0,L|499:79,2,53.9999983520508,0|0|0,0:2|0:0|0:2,0:0:0:0:
232,103,160893,2,0,L|289:85,1,53.9999983520508,14|0,0:2|0:2,0:0:0:0:
446,274,161028,2,0,L|391:259,1,53.9999983520508,2|0,0:2|0:2,0:0:0:0:
208,325,161164,5,14,0:2:0:0:
84,239,161299,1,0,0:2:0:0:
138,228,161366,1,0,0:2:0:0:
200,219,161434,1,2,0:2:0:0:
441,153,161569,2,0,L|321:135,1,107.999996704102,14|0,0:2|0:2,0:0:0:0:
387,129,161772,1,0,0:2:0:0:
449,119,161839,1,0,0:2:0:0:
301,257,161974,2,0,L|238:244,1,53.9999983520508,14|0,0:2|0:2,0:0:0:0:
62,338,162109,2,0,L|138:317,1,53.9999983520508,2|0,0:2|0:2,0:0:0:0:
333,187,162245,5,14,0:2:0:0:
331,123,162312,1,0,0:2:0:0:
264,96,162380,1,0,0:2:0:0:
210,85,162447,1,0,0:2:0:0:
381,100,162515,2,0,L|458:104,1,53.9999983520508,2|0,0:2|0:2,0:0:0:0:
274,155,162650,1,14,0:2:0:0:
113,205,162718,1,0,0:2:0:0:
292,237,162785,2,0,L|369:241,1,53.9999983520508,0|0,0:2|0:2,0:0:0:0:
154,318,162920,2,0,L|100:315,1,53.9999983520508,0|0,0:2|0:2,0:0:0:0:
277,347,163055,2,0,L|403:326,1,107.999996704102,14|0,0:2|0:2,0:0:0:0:
48,240,163326,5,8,1:2:0:0:
284,148,163461,2,0,L|450:173,1,161.999995056153,8|0,1:2|0:0,0:0:0:0:
274,274,163731,2,0,L|160:294,1,107.999996704102,8|0,1:2|0:0,0:0:0:0:
445,330,164001,6,0,L|449:262,1,53.9999983520508,8|0,1:2|0:0,0:0:0:0:
273,143,164136,2,0,L|342:128,1,53.9999983520508,8|8,0:3|0:3,0:0:0:0:
400,71,164271,2,0,L|324:62,1,53.9999983520508,8|8,0:3|0:3,0:0:0:0:
172,239,164407,2,0,L|167:165,1,53.9999983520508,4|4,0:3|0:3,0:0:0:0:
338,222,164542,2,0,L|392:226,1,53.9999983520508,4|4,0:3|0:3,0:0:0:0:
179,333,164677,1,8,1:2:0:0:
417,323,164812,6,0,P|465:286|399:219,1,161.999995056153,8|0,1:2|0:0,0:0:0:0:
220,262,165082,2,0,L|113:278,1,107.999996704102,8|0,1:2|0:0,0:0:0:0:
349,175,165353,1,8,1:2:0:0:
195,141,165420,2,0,L|111:148,2,53.9999983520508,0|0|0,0:0|0:3|0:3,0:0:0:0:
350,94,165623,2,0,L|357:27,1,53.9999983520508,0|0,0:3|0:3,0:0:0:0:
194,45,165758,2,0,L|141:40,1,53.9999983520508,8|0,0:2|0:3,0:0:0:0:
384,289,165893,2,0,L|437:284,1,53.9999983520508,0|0,0:3|0:3,0:0:0:0:
260,352,166028,6,0,L|195:345,1,53.9999983520508,0|0,1:2|0:2,0:0:0:0:
391,209,166163,2,0,L|397:130,1,53.9999983520508,8|0,1:2|0:2,0:0:0:0:
329,114,166298,2,0,L|266:106,1,53.9999983520508,8|0,1:2|0:2,0:0:0:0:
97,307,166433,2,0,L|187:306,1,53.9999983520508,8|0,1:2|0:2,0:0:0:0:
330,230,166569,6,0,L|259:226,1,53.9999983520508,8|0,1:2|0:2,0:0:0:0:
80,152,166704,2,0,L|74:82,1,53.9999983520508,8|0,1:2|0:2,0:0:0:0:
257,163,166839,2,0,L|334:161,1,53.9999983520508,8|0,1:2|0:2,0:0:0:0:
477,102,166974,2,0,L|483:32,1,53.9999983520508,8|0,1:2|0:2,0:0:0:0:
288,260,167109,2,0,L|196:260,1,53.9999983520508,8|0,1:2|0:2,0:0:0:0:
55,188,167244,2,0,L|147:188,1,53.9999983520508,14|0,1:2|0:2,0:0:0:0:
339,356,167381,6,0,P|419:329|323:32,1,495.000015106202,8|0,1:2|0:0,0:0:0:0:
54,239,168191,6,0,L|43:103,1,125.999996154785,6|0,0:2|0:0,0:0:0:0:
178,143,168462,1,0,0:2:0:0:
426,88,168597,2,0,L|295:59,1,116.999994644165,8|2,0:2|0:2,0:0:0:0:
57,288,168867,1,0,0:2:0:0:
177,233,169002,1,2,0:2:0:0:
57,288,169137,1,10,0:2:0:0:
347,294,169272,1,2,0:2:0:0:
57,288,169408,6,0,L|49:202,1,58.4999973220826,0|0,0:2|0:0,0:0:0:0:
224,158,169543,2,0,L|341:135,1,116.999994644165,0|8,0:2|0:2,0:0:0:0:
205,79,169813,1,0,0:2:0:0:
453,245,169948,2,0,L|464:171,1,58.4999973220826,2|0,0:2|0:2,0:0:0:0:
270,250,170083,2,0,L|186:244,1,58.4999973220826,2|0,0:2|0:2,0:0:0:0:
410,122,170218,2,0,L|271:78,1,116.999994644165,14|6,0:2|0:2,0:0:0:0:
39,183,170489,5,6,0:2:0:0:
298,86,170624,1,0,0:2:0:0:
41,272,170759,1,10,0:2:0:0:
159,221,170894,1,0,0:2:0:0:
41,272,171029,2,0,L|31:149,1,116.999994644165,6|0,0:2|0:0,0:0:0:0:
332,69,171299,2,0,L|207:47,1,116.999994644165,8|2,0:2|0:2,0:0:0:0:
460,154,171570,6,0,L|469:276,1,116.999994644165,0|0,0:2|0:2,0:0:0:0:
172,215,171840,1,10,0:2:0:0:
470,271,171975,1,2,0:2:0:0:
172,215,172110,2,0,L|299:188,1,116.999994644165,0|2,0:2|0:2,0:0:0:0:
45,164,172381,2,0,L|36:47,1,116.999994644165,10|2,0:2|0:2,0:0:0:0:
99,53,172583,1,0,0:0:0:0:
288,296,172651,6,0,L|412:278,1,116.999994644165,6|0,0:2|0:0,0:0:0:0:
134,200,172921,1,10,0:2:0:0:
403,198,173056,2,0,L|409:62,1,116.999994644165,2|0,0:2|0:0,0:0:0:0:
126,147,173327,2,0,L|245:110,1,116.999994644165,2|10,0:2|0:2,0:0:0:0:
96,80,173597,1,2,0:2:0:0:
360,193,173732,6,0,L|365:265,1,58.4999973220826,2|0,0:2|0:0,0:0:0:0:
165,305,173867,2,0,L|101:302,1,58.4999973220826,0|0,0:2|0:2,0:0:0:0:
342,362,174002,2,0,L|450:318,1,116.999994644165,8|0,0:2|0:2,0:0:0:0:
216,137,174272,2,0,L|333:185,1,116.999994644165,0|0,0:2|0:2,0:0:0:0:
46,237,174543,2,0,L|169:183,1,116.999994644165,14|6,0:2|0:2,0:0:0:0:
472,120,174813,6,0,L|479:254,1,116.999994644165,4|0,0:2|0:0,0:0:0:0:
280,216,175083,2,0,L|128:208,1,116.999994644165,8|0,0:2|0:0,0:0:0:0:
303,139,175354,1,0,0:2:0:0:
48,74,175489,1,0,0:2:0:0:
303,139,175624,2,0,L|311:241,1,58.4999973220826,10|8,0:2|0:2,0:0:0:0:
153,260,175759,2,0,L|23:246,1,116.999994644165,8|0,0:2|0:2,0:0:0:0:
230,328,176029,6,0,L|305:317,1,58.4999973220826,8|8,0:2|0:2,0:0:0:0:
474,182,176164,2,0,L|479:278,1,58.4999973220826,10|8,0:2|0:2,0:0:0:0:
287,319,176299,2,0,L|230:328,1,58.4999973220826,10|8,0:2|0:2,0:0:0:0:
35,177,176435,1,10,0:3:0:0:
47,233,176502,1,8,0:3:0:0:
82,279,176570,1,10,0:3:0:0:
143,295,176637,1,4,0:3:0:0:
305,211,176705,2,0,L|237:209,1,58.4999973220826,6|4,0:3|0:3,0:0:0:0:
28,86,176840,6,0,L|153:57,1,116.999994644165,6|0,0:2|0:0,0:0:0:0:
416,160,177110,1,0,0:2:0:0:
141,324,177245,2,0,L|28:298,1,116.999994644165,8|2,0:2|0:2,0:0:0:0:
309,206,177516,1,0,0:2:0:0:
27,298,177651,1,2,0:2:0:0:
309,206,177786,2,0,L|423:232,1,116.999994644165,10|2,0:2|0:2,0:0:0:0:
144,244,178056,6,0,L|138:117,1,116.999994644165,4|0,0:2|0:2,0:0:0:0:
434,81,178327,2,0,L|298:105,1,116.999994644165,8|0,0:2|0:2,0:0:0:0:
48,291,178597,2,0,L|39:208,1,58.4999973220826,2|0,0:2|0:2,0:0:0:0:
232,194,178732,2,0,L|287:211,1,58.4999973220826,2|0,0:2|0:2,0:0:0:0:
491,65,178867,2,0,L|376:86,1,116.999994644165,10|2,0:2|0:2,0:0:0:0:
45,360,179137,6,0,L|182:341,1,116.999994644165,6|0,0:2|0:0,0:0:0:0:
423,206,179408,1,10,0:2:0:0:
157,226,179543,1,2,0:2:0:0:
428,119,179678,2,0,L|505:127,1,58.4999973220826,0|0,0:2|1:2,0:0:0:0:
270,33,179813,2,0,L|156:72,1,116.999994644165,2|8,0:2|0:2,0:0:0:0:
382,121,180083,2,0,L|459:129,1,58.4999973220826,2|0,0:2|0:0,0:0:0:0:
278,293,180218,6,0,L|155:285,1,116.999994644165,6|0,0:2|0:0,0:0:0:0:
298,168,180489,1,8,0:2:0:0:
429,192,180624,1,2,0:2:0:0:
184,200,180759,2,0,P|132:155|204:85,1,175.499991966248,8|8,0:2|0:2,0:0:0:0:
348,61,181029,2,0,L|286:54,1,58.4999973220826,10|8,0:2|0:2,0:0:0:0:
99,318,181164,2,0,L|34:314,1,58.4999973220826,2|0,0:2|0:2,0:0:0:0:
251,301,181299,6,0,L|257:216,1,58.4999973220826,6|0,0:2|0:2,0:0:0:0:
182,187,181435,2,0,L|122:172,1,58.4999973220826,0|0,0:2|0:2,0:0:0:0:
332,104,181570,2,0,L|435:160,1,116.999994644165,10|2,0:2|0:2,0:0:0:0:
210,55,181840,2,0,L|329:3,1,116.999994644165,0|2,0:2|0:2,0:0:0:0:
36,239,182110,2,0,L|30:103,1,116.999994644165,10|2,0:2|0:2,0:0:0:0:
270,177,182381,6,0,L|191:194,1,58.4999973220826,2|0,0:2|0:2,0:0:0:0:
35,346,182516,2,0,L|30:287,1,58.4999973220826,0|0,0:2|0:2,0:0:0:0:
192,281,182651,2,0,L|334:324,1,116.999994644165,8|0,0:2|0:2,0:0:0:0:
179,296,182921,1,0,0:0:0:0:
414,233,183056,2,0,L|419:155,1,58.4999973220826,0|0,0:2|0:2,0:0:0:0:
244,195,183191,2,0,L|127:180,1,116.999994644165,10|2,0:2|0:2,0:0:0:0:
422,226,183462,5,2,0:2:0:0:
443,172,183529,1,0,0:2:0:0:
423,116,183597,1,0,0:2:0:0:
360,93,183664,1,0,0:2:0:0:
168,342,183732,2,0,L|48:320,1,116.999994644165,10|2,0:2|0:2,0:0:0:0:
348,176,184002,1,0,0:0:0:0:
231,180,184137,2,0,L|171:160,1,58.4999973220826,0|0,0:2|0:2,0:0:0:0:
235,284,184272,2,0,L|362:260,1,116.999994644165,8|0,0:2|0:2,0:0:0:0:
72,339,184543,5,8,0:2:0:0:
49,285,184610,1,0,0:2:0:0:
74,231,184678,1,0,0:2:0:0:
135,216,184745,1,0,0:2:0:0:
305,93,184813,2,0,L|311:182,1,58.4999973220826,10|8,0:2|0:2,0:0:0:0:
135,131,184948,2,0,L|201:134,1,58.4999973220826,10|8,0:2|0:2,0:0:0:0:
376,237,185083,2,0,L|461:232,2,58.4999973220826,10|8|6,0:3|0:3|0:3,0:0:0:0:
64,304,185354,1,6,0:2:0:0:
371,337,185489,6,0,P|415:278|344:201,1,175.499991966248,6|0,0:2|0:0,0:0:0:0:
156,171,185759,1,0,0:2:0:0:
421,159,185894,2,0,L|433:35,1,116.999994644165,8|0,0:2|0:2,0:0:0:0:
204,110,186164,1,0,0:2:0:0:
261,119,186231,1,0,0:2:0:0:
319,128,186299,1,0,0:2:0:0:
99,192,186435,1,8,0:2:0:0:
320,237,186570,1,0,0:2:0:0:
87,314,186705,6,0,L|245:337,1,116.999994644165,0|0,0:2|0:2,0:0:0:0:
441,258,186975,1,8,0:2:0:0:
206,219,187110,1,0,0:2:0:0:
436,179,187245,2,0,L|491:150,1,58.4999973220826,0|0,0:2|0:2,0:0:0:0:
301,124,187381,2,0,L|294:59,1,58.4999973220826,0|0,0:2|0:2,0:0:0:0:
487,41,187516,1,14,0:2:0:0:
250,57,187651,5,6,0:2:0:0:
16,107,187786,2,0,L|152:132,1,116.999994644165,6|0,0:2|0:2,0:0:0:0:
357,213,188056,1,8,0:2:0:0:
111,278,188191,1,0,0:2:0:0:
227,292,188326,1,0,0:2:0:0:
343,306,188461,1,0,0:2:0:0:
95,195,188597,1,8,0:2:0:0:
339,177,188732,1,0,0:2:0:0:
97,116,188867,6,0,L|31:107,2,58.4999973220826,0|0|0,0:2|0:2|0:2,0:0:0:0:
312,73,189137,2,0,L|176:32,1,116.999994644165,8|0,0:2|0:2,0:0:0:0:
436,77,189408,2,0,L|369:77,1,58.4999973220826,8|8,0:2|0:2,0:0:0:0:
205,158,189543,2,0,L|116:157,1,58.4999973220826,8|8,0:2|0:2,0:0:0:0:
341,209,189678,2,0,L|351:283,1,58.4999973220826,10|8,0:3|0:3,0:0:0:0:
138,301,189813,1,6,0:3:0:0:
353,341,189948,6,0,L|483:348,1,116.999994644165,6|0,0:2|0:2,0:0:0:0:
235,204,190218,1,10,0:2:0:0:
473,167,190354,2,0,L|404:157,1,58.4999973220826,2|0,0:2|0:2,0:0:0:0:
191,98,190489,1,8,0:2:0:0:
308,78,190624,2,0,L|403:75,1,58.4999973220826,0|0,0:2|0:0,0:0:0:0:
163,37,190759,2,0,L|46:37,1,116.999994644165,10|0,0:2|0:2,0:0:0:0:
271,128,191029,5,10,0:2:0:0:
40,141,191164,1,0,0:2:0:0:
284,222,191299,2,0,L|456:231,1,116.999994644165,8|0,0:2|0:2,0:0:0:0:
184,298,191570,2,0,L|260:316,1,58.4999973220826,8|0,0:2|0:2,0:0:0:0:
462,316,191705,1,0,0:2:0:0:
228,199,191840,2,0,L|148:182,2,77.9999964294435,10|8|0,0:2|0:2|0:2,0:0:0:0:
434,162,192110,6,0,L|347:126,1,77.9999964294435,10|8,0:2|0:3,0:0:0:0:
181,90,192290,2,0,L|275:69,1,77.9999964294435,8|8,0:3|0:3,0:0:0:0:
436,55,192471,1,8,0:3:0:0:
249,47,192561,6,0,L|221:124,2,77.9999964294435,8|8|4,0:3|0:2|0:3,0:0:0:0:
331,45,192831,1,4,0:3:0:0:
156,86,192921,1,4,0:3:0:0:
75,96,193011,2,0,L|55:186,1,77.9999964294435,4|4,0:3|0:3,0:0:0:0:
233,260,193191,6,0,L|344:276,2,77.9999964294435,8|8|8,0:2|0:2|0:2,0:0:0:0:
441,185,193462,2,0,L|340:163,2,77.9999964294435,8|8|8,0:2|0:2|0:2,0:0:0:0:
244,119,193732,2,0,L|150:107,2,77.9999964294435,8|8|8,0:2|0:2|0:2,0:0:0:0:
429,60,194002,1,8,0:2:0:0:
257,40,194092,1,8,0:2:0:0:
85,40,194182,1,8,0:2:0:0:
286,133,194272,6,0,L|295:223,1,71.9999978027344,6|0,0:2|0:0,0:0:0:0:
212,223,194453,1,0,0:2:0:0:
385,294,194543,2,0,L|486:302,2,71.9999978027344,8|0|0,0:2|0:2|0:2,0:0:0:0:
200,336,194813,5,2,0:2:0:0:
383,239,194903,2,0,L|401:152,1,71.9999978027344,0|0,0:0|0:2,0:0:0:0:
202,130,195083,2,0,L|274:92,1,71.9999978027344,8|0,0:2|0:2,0:0:0:0:
345,97,195263,1,0,0:2:0:0:
165,72,195354,6,0,L|96:42,1,71.9999978027344,2|0,0:2|0:0,0:0:0:0:
24,40,195534,1,0,0:2:0:0:
200,45,195624,2,0,L|206:138,1,71.9999978027344,8|0,0:2|0:2,0:0:0:0:
125,130,195804,1,0,0:2:0:0:
302,235,195894,2,0,L|385:237,2,71.9999978027344,2|0|0,0:2|0:2|0:2,0:0:0:0:
471,277,196164,1,8,0:2:0:0:
309,318,196254,1,8,0:2:0:0:
146,328,196345,1,8,0:2:0:0:
315,177,196435,6,0,L|388:179,2,71.9999978027344,6|0|0,0:2|0:0|0:2,0:0:0:0:
131,145,196705,1,8,0:2:0:0:
321,92,196795,2,0,L|227:83,1,71.9999978027344,0|0,0:2|0:2,0:0:0:0:
65,88,196975,6,0,L|131:50,1,71.9999978027344,2|0,0:2|0:0,0:0:0:0:
206,55,197155,1,0,0:2:0:0:
49,42,197245,2,0,L|32:122,1,71.9999978027344,8|0,0:2|0:2,0:0:0:0:
109,137,197426,1,0,0:2:0:0:
275,227,197516,6,0,L|181:256,1,71.9999978027344,2|0,0:2|0:0,0:0:0:0:
134,255,197696,1,0,0:2:0:0:
314,298,197786,1,14,0:2:0:0:
244,316,197876,1,0,0:2:0:0:
174,335,197966,1,0,0:2:0:0:
335,356,198056,1,14,0:2:0:0:
493,366,198146,1,0,0:2:0:0:
330,284,198236,1,0,0:2:0:0:
489,247,198327,6,0,L|418:207,1,77.9999964294435,14|0,0:2|0:2,0:0:0:0:
344,195,198507,1,0,0:2:0:0:
170,153,198597,1,10,0:2:0:0:
247,156,198687,2,0,L|161:152,1,77.9999964294435,0|0,0:2|0:2,0:0:0:0:
352,84,198867,5,2,0:2:0:0:
170,67,198957,2,0,L|87:62,1,77.9999964294435,0|0,0:0|0:2,0:0:0:0:
273,115,199137,2,0,L|184:169,1,77.9999964294435,8|0,0:2|0:2,0:0:0:0:
122,157,199317,1,0,0:2:0:0:
296,230,199408,5,2,0:2:0:0:
373,257,199498,2,0,L|394:339,1,77.9999964294435,0|0,0:0|0:2,0:0:0:0:
186,279,199678,2,0,L|258:232,1,77.9999964294435,8|0,0:2|0:2,0:0:0:0:
329,230,199858,1,0,0:2:0:0:
140,202,199948,1,2,0:2:0:0:
59,194,200038,2,0,L|46:89,1,77.9999964294435,0|0,0:2|0:2,0:0:0:0:
213,70,200218,1,8,0:2:0:0:
378,45,200308,1,8,0:2:0:0:
202,21,200399,1,8,0:2:0:0:
377,91,200489,6,0,L|458:105,2,77.9999964294435,12|0|0,0:2|0:2|0:2,0:0:0:0:
200,210,200759,2,0,L|299:210,1,77.9999964294435,8|8,0:2|0:2,0:0:0:0:
101,298,200939,6,0,L|24:281,2,77.9999964294435,14|0|0,0:2|0:0|0:2,0:0:0:0:
281,270,201209,2,0,L|196:251,1,77.9999964294435,8|0,0:2|0:2,0:0:0:0:
382,209,201390,1,6,0:2:0:0:
468,189,201480,6,0,L|477:111,1,77.9999964294435,0|0,0:2|0:2,0:0:0:0:
278,89,201660,2,0,L|176:78,1,77.9999964294435,14|0,0:2|0:2,0:0:0:0:
386,31,201840,1,0,0:2:0:0:
189,37,201930,1,14,0:2:0:0:
261,66,202020,1,0,0:2:0:0:
333,95,202110,1,0,0:2:0:0:
148,178,202200,2,0,L|50:198,1,77.9999964294435,0|0,0:2|0:2,0:0:0:0:
288,258,202381,6,0,L|351:270,1,53.9999983520508,8|8,0:2|0:2,0:0:0:0:
132,311,202516,2,0,L|123:244,1,53.9999983520508,8|8,0:2|0:2,0:0:0:0:
368,166,202651,1,0,0:2:0:0:
132,118,202786,2,0,L|211:100,1,53.9999983520508,8|8,0:2|0:2,0:0:0:0:
380,77,202921,2,0,L|455:77,1,53.9999983520508,0|0,0:2|0:0,0:0:0:0:
296,49,203056,1,8,0:3:0:0:
160,32,203124,1,8,0:3:0:0:
326,117,203191,1,8,0:3:0:0:
386,148,203259,2,0,L|408:225,2,53.9999983520508,4|4|0,0:3|0:3|0:0,0:0:0:0:
96,192,203552,5,6,1:2:0:0:
48,192,203642,1,0,0:2:0:0:
88,184,203732,1,0,0:2:0:0:
56,184,203822,1,0,0:2:0:0:
80,176,203912,1,0,0:2:0:0:
64,176,204002,1,0,0:2:0:0:
88,184,204092,1,0,0:2:0:0:
56,184,204182,1,0,0:2:0:0:
96,192,204272,1,0,0:2:0:0:
264,192,204362,5,6,1:2:0:0:
256,184,204453,1,0,0:2:0:0:
248,176,204543,1,0,0:2:0:0:
416,192,204633,5,6,1:2:0:0:
464,192,204723,1,0,0:2:0:0:
424,184,204813,1,0,0:2:0:0:
456,184,204903,1,0,0:2:0:0:
432,176,204993,1,0,0:2:0:0:
448,176,205083,1,0,0:2:0:0:
424,184,205173,1,0,0:2:0:0:
456,184,205263,1,0,0:2:0:0:
416,192,205353,1,0,0:2:0:0:
152,192,205534,5,6,1:2:0:0:
176,144,205624,1,0,0:2:0:0:
232,120,205714,1,0,0:2:0:0:
312,120,205804,1,0,0:2:0:0:
152,128,205894,1,6,1:2:0:0:
144,120,205984,1,0,0:2:0:0:
136,112,206074,1,0,0:2:0:0:
296,208,206164,6,0,L|304:184,1,24,6|0,1:2|0:2,0:0:0:0:
464,144,206344,1,6,1:2:0:0:
384,144,206435,1,0,0:2:0:0:
328,168,206525,1,0,0:2:0:0:
304,216,206615,1,0,0:2:0:0:
328,168,206705,1,0,0:2:0:0:
384,144,206795,1,0,0:2:0:0:
464,144,206885,1,0,0:2:0:0:
376,136,206975,1,0,0:2:0:0:
456,136,207065,1,0,0:2:0:0:
296,144,207155,5,6,1:2:0:0:
304,136,207245,1,0,0:2:0:0:
312,128,207335,1,0,0:2:0:0:
152,104,207426,1,6,1:2:0:0:
232,104,207517,1,0,0:2:0:0:
288,128,207607,1,0,0:2:0:0:
312,176,207697,1,0,0:2:0:0:
288,128,207787,1,0,0:2:0:0:
128,176,207876,6,0,L|120:152,1,24,6|0,1:2|0:2,0:0:0:0:
200,168,208056,2,0,L|192:144,1,24,0|0,0:2|0:2,0:0:0:0:
272,80,208236,1,0,0:2:0:0:
192,80,208327,1,0,0:2:0:0:
136,104,208417,1,0,0:2:0:0:
112,152,208507,1,0,0:2:0:0:
136,104,208597,1,0,0:2:0:0:
296,192,208687,5,6,1:2:0:0:
288,184,208777,1,0,0:2:0:0:
280,176,208867,1,0,0:2:0:0:
440,192,208957,5,6,1:2:0:0:
416,144,209047,1,0,0:2:0:0:
360,120,209137,1,0,0:2:0:0:
280,120,209227,1,0,0:2:0:0:
360,120,209317,2,0,L|368:152,1,24,0|0,0:2|0:2,0:0:0:0:
288,120,209498,1,0,0:2:0:0:
312,72,209588,1,0,0:2:0:0:
368,48,209678,1,0,0:2:0:0:
448,48,209768,1,0,0:2:0:0:
288,144,209858,5,6,1:2:0:0:
208,144,209948,1,0,0:2:0:0:
152,168,210038,1,0,0:2:0:0:
128,216,210128,1,0,0:0:0:0:
288,144,210218,1,6,1:2:0:0:
208,144,210308,1,0,0:2:0:0:
296,136,210399,1,0,0:0:0:0:
136,96,210489,5,6,1:2:0:0:
216,96,210579,1,0,0:2:0:0:
56,192,210669,5,6,1:2:0:0:
80,144,210759,1,0,0:0:0:0:
136,120,210849,1,0,0:0:0:0:
216,120,210939,1,0,0:2:0:0:
448,168,211029,5,8,0:2:0:0:
304,168,211097,1,8,0:2:0:0:
160,168,211164,1,8,0:2:0:0:
104,144,211232,1,8,0:2:0:0:
88,96,211299,1,8,0:2:0:0:
104,144,211367,1,8,0:2:0:0:
232,136,211435,1,8,0:2:0:0:
360,136,211502,1,8,0:2:0:0:
136,168,211570,6,0,L|48:168,1,56.25,8|8,0:2|0:2,0:0:0:0:
304,128,211705,2,0,L|368:128,1,56.25,8|8,0:2|0:2,0:0:0:0:
136,80,211840,2,0,L|200:80,1,56.25,8|8,0:2|0:2,0:0:0:0:
416,96,211975,2,0,L|488:96,1,56.25,8|8,0:2|0:2,0:0:0:0:
200,232,212110,6,0,L|192:152,2,77.9999964294435,6|0|0,1:2|0:2|0:2,0:0:0:0:
296,192,212381,2,0,L|208:192,1,77.9999964294435,14|0,0:2|0:2,0:0:0:0:
120,184,212561,1,0,0:2:0:0:
288,120,212651,5,0,0:2:0:0:
384,120,212741,2,0,L|376:208,1,77.9999964294435,0|0,0:2|0:2,0:0:0:0:
280,120,212921,2,0,L|272:32,1,77.9999964294435,14|0,0:2|0:2,0:0:0:0:
176,144,213101,1,0,0:2:0:0:
344,160,213191,6,0,L|256:160,1,77.9999964294435,0|0,0:2|0:2,0:0:0:0:
176,168,213371,1,0,0:2:0:0:
272,128,213461,2,0,L|192:128,1,77.9999964294435,14|0,0:2|0:2,0:0:0:0:
288,104,213641,1,0,0:2:0:0:
128,248,213732,6,0,L|48:248,1,77.9999964294435,0|0,0:2|0:2,0:0:0:0:
144,232,213912,1,0,0:2:0:0:
48,200,214002,2,0,L|128:200,1,77.9999964294435,14|0,0:2|0:2,0:0:0:0:
224,192,214182,1,0,0:2:0:0:
64,176,214272,6,0,L|56:96,1,77.9999964294435,0|0,0:2|0:2,0:0:0:0:
152,128,214453,1,0,0:2:0:0:
248,144,214543,2,0,L|160:144,1,77.9999964294435,14|0,0:2|0:2,0:0:0:0:
72,136,214723,1,0,0:2:0:0:
232,128,214813,6,0,L|344:128,1,77.9999964294435,0|0,0:2|0:2,0:0:0:0:
216,112,214993,1,0,0:2:0:0:
312,104,215083,2,0,L|424:104,1,77.9999964294435,14|0,0:2|0:2,0:0:0:0:
296,88,215263,1,0,0:2:0:0:
128,168,215353,5,0,0:2:0:0:
216,168,215444,1,0,0:2:0:0:
256,112,215534,1,0,0:2:0:0:
216,168,215624,1,14,0:2:0:0:
120,160,215714,2,0,L|200:160,1,77.9999964294435,0|0,0:2|0:2,0:0:0:0:
104,160,215894,1,0,0:2:0:0:
56,136,215962,1,0,0:2:0:0:
40,96,216029,1,0,0:2:0:0:
56,136,216097,1,0,0:2:0:0:
288,176,216164,6,0,L|296:80,2,90.0000034332277,14|0|0,0:2|0:0|0:0,0:0:0:0:
104,128,216435,2,0,L|96:32,1,90.0000034332277,10|0,0:2|0:2,0:0:0:0:
192,88,216615,1,0,0:2:0:0:
360,128,216705,6,0,L|256:128,1,90.0000034332277,10|0,0:2|0:2,0:0:0:0:
176,128,216885,1,0,0:2:0:0:
352,168,216975,2,0,L|360:72,1,90.0000034332277,10|0,0:2|0:2,0:0:0:0:
264,128,217155,1,0,0:2:0:0:
448,144,217245,6,0,L|352:144,1,90.0000034332277,10|0,0:2|0:2,0:0:0:0:
176,144,217426,1,0,0:2:0:0:
360,208,217516,2,0,L|248:208,1,90.0000034332277,10|0,0:2|0:2,0:0:0:0:
456,144,217696,1,0,0:2:0:0:
272,160,217786,6,0,L|384:160,1,90.0000034332277,10|0,0:2|0:2,0:0:0:0:
176,96,217966,1,0,0:2:0:0:
360,96,218056,2,0,L|248:96,1,90.0000034332277,10|0,0:2|0:2,0:0:0:0:
88,88,218236,1,0,0:2:0:0:
272,72,218326,2,0,P|336:136|336:248,1,202.500007724762,14|0,0:2|0:2,0:0:0:0:
120,192,218597,6,0,L|184:192,1,49.5000015106202,8|8,0:2|0:2,0:0:0:0:
240,192,218732,1,0,0:2:0:0:
104,152,218867,1,8,0:2:0:0:
240,160,219002,1,8,0:2:0:0:
288,128,219070,1,8,0:2:0:0:
304,72,219137,1,8,0:3:0:0:
288,128,219205,1,8,0:3:0:0:
208,120,219272,2,0,L|200:72,1,49.5000015106202,4|4,0:3|0:3,0:0:0:0:
384,176,219408,2,0,L|448:176,1,49.5000015106202,4|0,0:3|0:0,0:0:0:0:
376,168,219543,2,0,L|312:168,1,49.5000015106202,4|0,0:3|0:0,0:0:0:0:
144,288,219678,5,4,0:3:0:0:
88,264,219745,1,4,0:3:0:0:
72,216,219813,1,4,0:3:0:0:
88,264,219880,1,4,0:3:0:0:
168,224,219948,1,4,0:3:0:0:
224,200,220015,1,4,0:3:0:0:
240,152,220083,1,4,0:3:0:0:
224,200,220150,1,4,0:3:0:0:
40,136,220218,6,0,L|104:136,1,49.5000015106202,8|8,0:2|0:2,0:0:0:0:
168,136,220353,2,0,L|224:136,1,49.5000015106202,8|8,0:2|0:2,0:0:0:0:
400,136,220489,2,0,L|472:136,1,49.5000015106202,8|8,0:3|0:3,0:0:0:0:
192,256,220624,6,0,P|152:216|232:136,1,198.000006042481,6|0,0:2|0:2,0:0:0:0:
360,64,221029,2,0,L|268:64,1,56.9999984779358,0|0,0:2|0:0,0:0:0:0:
128,300,221164,2,0,L|264:300,2,113.999996955872,10|0|0,1:2|0:2|0:2,0:0:0:0:
356,224,221569,5,2,0:2:0:0:
220,228,221704,2,0,L|220:68,1,113.999996955872,0|0,0:2|0:2,0:0:0:0:
472,112,221975,2,0,L|320:112,2,113.999996955872,10|0|0,1:2|0:2|0:2,0:0:0:0:
232,116,222380,5,0,0:2:0:0:
476,168,222515,2,0,L|344:168,1,113.999996955872,0|0,0:2|0:2,0:0:0:0:
304,168,222718,1,0,0:0:0:0:
140,320,222786,2,0,L|284:320,2,113.999996955872,8|0|0,0:2|0:2|0:2,0:0:0:0:
380,240,223191,6,0,L|456:240,2,56.9999984779358,0|0|0,0:2|0:0|0:2,0:0:0:0:
224,244,223394,1,0,0:2:0:0:
68,188,223461,2,0,L|152:188,1,56.9999984779358,0|0,0:2|0:0,0:0:0:0:
296,304,223596,2,0,L|148:304,1,113.999996955872,10|0,0:2|0:2,0:0:0:0:
432,240,223867,6,0,L|292:240,1,113.999996955872,0|0,0:2|0:2,0:0:0:0:
84,244,224137,1,2,0:2:0:0:
316,240,224272,2,0,L|212:240,1,56.9999984779358,2|0,0:2|0:0,0:0:0:0:
84,244,224407,2,0,L|68:104,1,107.999996704102,10|0,0:2|0:0,0:0:0:0:
300,136,224677,1,0,0:2:0:0:
72,96,224813,6,0,L|8:96,1,53.9999983520508,0|0,0:2|0:0,0:0:0:0:
176,96,224948,2,0,L|236:96,1,53.9999983520508,0|0,0:2|0:2,0:0:0:0:
372,96,225083,1,0,0:2:0:0:
230,96,225150,1,0,0:2:0:0:
80,280,225218,2,0,L|208:284,1,107.999996704102,8|0,0:2|0:2,0:0:0:0:
404,292,225488,1,0,0:2:0:0:
136,264,225623,6,0,L|120:148,1,107.999996704102,6|0,0:2|0:2,0:0:0:0:
340,132,225894,2,0,L|268:132,1,53.9999983520508,0|0,0:2|0:0,0:0:0:0:
80,88,226029,1,8,0:2:0:0:
201,355,226164,2,0,L|201:211,1,107.999996704102,0|0,0:2|0:2,0:0:0:0:
428,236,226434,6,0,L|496:100,2,107.999996704102,0|0|0,0:2|0:2|0:2,0:0:0:0:
292,240,226772,1,0,0:0:0:0:
144,248,226840,2,0,L|76:248,1,53.9999983520508,8|8,0:2|0:2,0:0:0:0:
256,184,226975,2,0,L|272:112,1,53.9999983520508,8|8,0:3|0:3,0:0:0:0:
104,116,227110,2,0,L|128:48,1,53.9999983520508,4|4,0:3|0:3,0:0:0:0:
344,340,227245,6,0,L|216:340,2,107.999996704102,4|0|0,0:2|0:2|0:2,0:0:0:0:
288,340,227583,1,0,0:0:0:0:
64,296,227650,2,0,L|56:156,1,107.999996704102,10|0,0:2|0:2,0:0:0:0:
168,188,227921,1,0,0:2:0:0:
400,116,228056,6,0,L|240:108,1,107.999996704102,2|0,0:2|0:2,0:0:0:0:
400,116,228326,2,0,L|416:48,1,53.9999983520508,0|0,0:2|0:0,0:0:0:0:
240,324,228461,2,0,L|396:324,1,107.999996704102,10|0,0:2|0:2,0:0:0:0:
112,240,228731,1,4,0:2:0:0:
352,220,228867,6,0,L|204:220,1,107.999996704102,4|0,0:2|0:2,0:0:0:0:
380,156,229137,2,0,L|308:156,1,53.9999983520508,0|0,0:2|0:0,0:0:0:0:
184,264,229272,2,0,L|200:136,1,107.999996704102,10|0,0:2|0:2,0:0:0:0:
332,160,229542,1,0,0:2:0:0:
96,156,229677,6,0,L|244:156,1,107.999996704102,2|0,0:2|0:2,0:0:0:0:
72,136,229948,2,0,L|56:56,1,53.9999983520508,0|0,0:2|0:0,0:0:0:0:
208,316,230083,2,0,L|352:316,1,107.999996704102,10|0,0:2|0:2,0:0:0:0:
328,196,230353,1,0,0:0:0:0:
64,236,230488,6,0,L|56:104,1,107.999996704102,4|0,0:2|0:2,0:0:0:0:
196,120,230759,2,0,L|276:120,1,53.9999983520508,0|0,0:2|0:0,0:0:0:0:
76,332,230894,2,0,L|224:328,1,107.999996704102,10|0,0:2|0:0,0:0:0:0:
436,324,231164,1,0,0:2:0:0:
192,276,231299,6,0,L|184:148,1,107.999996704102,0|0,0:2|0:2,0:0:0:0:
316,160,231569,2,0,L|240:148,1,53.9999983520508,0|0,0:2|0:2,0:0:0:0:
76,120,231704,2,0,L|228:112,2,107.999996704102,14|0|0,0:2|0:2|0:2,0:0:0:0:
316,348,232110,5,8,0:2:0:0:
216,296,232245,1,8,0:2:0:0:
344,256,232380,1,8,0:2:0:0:
140,196,232515,1,8,0:2:0:0:
396,148,232650,1,8,0:2:0:0:
104,120,232786,1,8,0:2:0:0:
440,104,232921,1,12,0:2:0:0:
148,268,233529,6,0,L|121:163,1,80.9999975280763,2|0,0:0|0:0,0:0:0:0:
308,121,233731,6,0,L|101:102,1,161.999995056153,6|0,0:2|0:2,0:0:0:0:
230,88,234036,1,2,0:2:0:0:
45,44,234137,2,0,L|29:150,1,80.9999975280763,10|2,0:2|0:2,0:0:0:0:
244,179,234340,2,0,L|131:187,1,80.9999975280763,2|8,0:2|0:2,0:0:0:0:
372,245,234542,6,0,L|456:263,1,80.9999975280763,0|2,0:0|0:2,0:0:0:0:
336,319,234745,1,2,0:2:0:0:
390,300,234812,1,0,0:0:0:0:
419,250,234880,1,0,0:0:0:0:
246,225,234948,2,0,L|238:145,1,80.9999975280763,10|0,0:2|2:2,0:0:0:0:
55,82,235150,1,2,0:2:0:0:
135,63,235252,1,0,2:2:0:0:
377,101,235353,6,0,L|274:90,1,80.9999975280763,2|2,0:2|0:2,0:0:0:0:
470,173,235556,2,0,L|479:267,1,80.9999975280763,2|0,0:2|0:0,0:0:0:0:
271,293,235759,2,0,L|370:306,1,80.9999975280763,10|2,0:2|0:2,0:0:0:0:
261,340,235961,1,2,0:2:0:0:
344,353,236063,1,8,0:2:0:0:
156,276,236164,6,0,L|66:256,1,80.9999975280763,2|2,0:2|0:2,0:0:0:0:
169,229,236367,2,0,L|83:203,1,80.9999975280763,2|2,0:2|0:2,0:0:0:0:
282,154,236569,2,0,L|368:158,1,80.9999975280763,14|2,0:2|2:2,0:0:0:0:
176,80,236772,1,2,0:2:0:0:
88,56,236873,1,14,0:2:0:0:
248,40,236975,6,0,L|416:59,1,161.999995056153,6|0,0:2|0:0,0:0:0:0:
328,81,237279,1,2,0:2:0:0:
489,135,237380,1,10,0:2:0:0:
295,181,237481,1,2,0:2:0:0:
478,237,237583,2,0,L|486:321,1,80.9999975280763,2|8,0:2|0:2,0:0:0:0:
277,345,237786,6,0,L|358:335,1,80.9999975280763,0|2,0:0|0:2,0:0:0:0:
258,299,237988,2,0,L|242:197,1,80.9999975280763,2|2,0:2|0:2,0:0:0:0:
439,158,238191,2,0,L|347:144,1,80.9999975280763,10|2,0:2|0:2,0:0:0:0:
161,92,238394,2,0,L|256:76,1,80.9999975280763,2|8,0:2|0:2,0:0:0:0:
48,40,238596,5,2,0:2:0:0:
127,94,238698,1,2,0:2:0:0:
43,149,238799,2,0,L|37:239,1,80.9999975280763,2|0,0:2|0:0,0:0:0:0:
245,289,239002,2,0,L|155:275,1,80.9999975280763,10|2,0:2|0:2,0:0:0:0:
252,325,239204,2,0,L|334:321,1,80.9999975280763,2|0,0:2|0:0,0:0:0:0:
145,227,239407,6,0,L|38:217,1,80.9999975280763,2|2,0:2|0:2,0:0:0:0:
154,182,239610,2,0,L|66:166,1,80.9999975280763,2|0,0:2|0:2,0:0:0:0:
271,104,239813,2,0,L|179:93,1,80.9999975280763,8|2,0:2|0:2,0:0:0:0:
283,61,240015,2,0,L|191:50,1,80.9999975280763,2|10,0:2|0:2,0:0:0:0:
430,34,240218,6,0,P|475:110|409:153,1,161.999995056153,6|0,0:2|0:0,0:0:0:0:
231,183,240522,1,2,0:2:0:0:
421,241,240623,2,0,L|506:256,1,80.9999975280763,2|10,0:2|0:2,0:0:0:0:
293,329,240826,2,0,L|381:338,1,80.9999975280763,2|0,0:2|0:2,0:0:0:0:
172,341,241029,6,0,L|165:255,1,80.9999975280763,0|2,0:0|0:2,0:0:0:0:
263,209,241231,1,2,0:2:0:0:
216,182,241298,1,0,0:0:0:0:
169,155,241366,1,0,0:0:0:0:
357,132,241434,2,0,L|371:48,1,80.9999975280763,10|0,0:2|2:2,0:0:0:0:
180,36,241637,1,2,0:0:0:0:
364,88,241738,1,0,0:0:0:0:
179,97,241840,6,0,L|94:81,1,80.9999975280763,2|2,0:0|0:0,0:0:0:0:
284,131,242042,2,0,L|304:245,1,80.9999975280763,2|0,0:0|0:0,0:0:0:0:
485,267,242245,2,0,L|389:284,1,80.9999975280763,10|0,0:2|0:0,0:0:0:0:
208,314,242448,1,2,0:2:0:0:
406,336,242549,1,8,0:2:0:0:
206,259,242650,6,0,L|291:248,1,80.9999975280763,2|2,0:2|0:2,0:0:0:0:
196,203,242853,2,0,L|95:175,1,80.9999975280763,2|2,0:2|0:2,0:0:0:0:
327,139,243056,2,0,L|346:57,1,80.9999975280763,14|2,0:2|0:2,0:0:0:0:
137,48,243258,2,0,L|46:32,1,80.9999975280763,2|14,0:2|0:2,0:0:0:0:
270,33,243461,6,0,L|281:220,1,161.999995056153,6|0,0:2|0:0,0:0:0:0:
459,270,243765,1,2,0:2:0:0:
266,309,243867,2,0,L|348:323,1,80.9999975280763,10|2,0:2|0:2,0:0:0:0:
154,328,244069,2,0,L|73:343,1,80.9999975280763,2|8,0:2|0:2,0:0:0:0:
261,286,244272,6,0,L|277:199,1,80.9999975280763,0|2,0:0|0:2,0:0:0:0:
371,186,244475,2,0,L|260:164,1,80.9999975280763,2|2,0:2|0:2,0:0:0:0:
464,129,244677,1,2,0:2:0:0:
291,93,244779,1,2,0:2:0:0:
461,35,244880,2,0,L|473:129,1,80.9999975280763,2|0,0:2|2:2,0:0:0:0:
279,152,245083,5,10,0:2:0:0:
92,174,245184,1,8,0:2:0:0:
284,227,245286,2,0,L|195:206,1,80.9999975280763,0|0,0:2|0:2,0:0:0:0:
401,335,245488,2,0,L|411:244,1,80.9999975280763
220,196,245691,2,0,L|170:178,2,53.9999983520508,8|0|2,0:2|0:2|0:2,0:0:0:0:
390,170,245894,5,0,0:2:0:0:
245,214,245961,1,8,0:2:0:0:
96,237,246029,1,8,0:2:0:0:
37,248,246096,2,0,L|14:315,2,53.9999983520508,0|0|0,0:2|0:2|0:2,0:0:0:0:
181,186,246299,2,0,L|246:179,1,53.9999983520508,2|0,0:2|0:2,0:0:0:0:
88,99,246434,2,0,L|18:90,1,53.9999983520508,0|2,0:2|0:2,0:0:0:0:
246,44,246569,2,0,L|254:111,1,53.9999983520508,2|2,0:2|0:2,0:0:0:0:
29,37,246704,6,0,L|196:69,1,161.999995056153,6|0,0:2|0:0,0:0:0:0:
375,123,247008,1,10,0:2:0:0:
187,167,247110,2,0,L|95:179,1,85.4999977169037,2|10,0:2|0:2,0:0:0:0:
345,263,247313,1,2,0:2:0:0:
261,322,247414,6,0,L|253:218,1,85.4999977169037,0|0,0:2|0:0,0:0:0:0:
442,195,247617,1,2,0:2:0:0:
260,145,247718,1,2,0:2:0:0:
307,113,247785,1,0,0:0:0:0:
354,81,247853,1,0,0:0:0:0:
164,62,247921,2,0,L|70:49,1,85.4999977169037,10|0,0:2|2:2,0:0:0:0:
269,41,248123,2,0,L|173:52,1,85.4999977169037,2|0,0:2|0:2,0:0:0:0:
375,149,248326,5,2,0:2:0:0:
186,143,248427,1,2,0:2:0:0:
371,218,248529,2,0,L|468:229,1,85.4999977169037,2|0,0:2|0:0,0:0:0:0:
253,274,248731,1,10,0:2:0:0:
454,313,248833,1,2,0:2:0:0:
252,358,248934,2,0,L|239:261,1,85.4999977169037,2|8,0:2|0:2,0:0:0:0:
44,231,249137,5,2,0:2:0:0:
236,203,249238,1,2,0:2:0:0:
43,146,249340,2,0,L|161:134,1,85.4999977169037,2|2,0:2|0:2,0:0:0:0:
321,96,249542,2,0,L|188:76,1,85.4999977169037,14|2,0:2|0:2,0:0:0:0:
432,41,249745,2,0,L|442:136,1,85.4999977169037,2|14,0:2|0:2,0:0:0:0:
226,200,249948,6,0,L|417:219,1,170.999995433807,6|0,0:2|0:0,0:0:0:0:
185,275,250252,1,2,0:2:0:0:
397,310,250353,2,0,L|488:314,1,85.4999977169037,10|2,0:2|0:2,0:0:0:0:
288,242,250556,2,0,L|277:140,1,85.4999977169037,2|8,0:2|0:2,0:0:0:0:
364,138,250758,5,0,0:0:0:0:
172,77,250860,2,0,L|96:62,1,42.7499988584519,2|0,0:2|0:0,0:0:0:0:
325,38,250961,2,0,L|427:38,1,85.4999977169037,2|2,0:2|0:2,0:0:0:0:
227,103,251164,1,2,0:2:0:0:
424,142,251265,1,2,0:2:0:0:
230,195,251367,1,2,0:2:0:0:
47,205,251468,1,8,0:2:0:0:
239,263,251569,6,0,L|153:248,1,85.4999977169037,2|2,0:2|0:2,0:0:0:0:
370,318,251772,2,0,L|512:338,1,85.4999977169037,2|0,0:2|0:0,0:0:0:0:
256,212,251975,2,0,L|374:223,1,85.4999977169037,10|2,0:2|0:2,0:0:0:0:
145,157,252177,2,0,L|39:146,1,85.4999977169037,2|0,0:2|0:0,0:0:0:0:
260,84,252380,5,2,0:2:0:0:
62,63,252481,1,2,0:2:0:0:
259,28,252583,2,0,L|266:118,1,85.4999977169037,2|0,0:2|0:2,0:0:0:0:
457,166,252786,1,8,0:2:0:0:
275,197,252887,1,2,0:2:0:0:
89,222,252988,1,2,0:2:0:0:
277,265,253090,1,10,0:2:0:0:
84,329,253191,6,0,P|47:237|100:196,1,170.999995433807,6|0,0:2|0:0,0:0:0:0:
286,150,253495,1,10,0:2:0:0:
96,133,253596,2,0,L|10:113,1,85.4999977169037,2|10,0:2|0:2,0:0:0:0:
204,37,253799,2,0,L|300:60,2,85.4999977169037,2|0|0,0:2|0:2|0:0,0:0:0:0:
417,134,254103,5,2,0:2:0:0:
235,217,254204,1,2,0:2:0:0:
281,250,254271,1,0,0:0:0:0:
327,283,254339,1,0,0:0:0:0:
126,324,254407,2,0,L|23:304,1,85.4999977169037,10|0,0:2|2:2,0:0:0:0:
228,244,254610,1,2,0:2:0:0:
47,193,254711,1,0,0:2:0:0:
251,174,254813,6,0,L|159:152,1,85.4999977169037,2|2,0:2|0:2,0:0:0:0:
369,107,255015,2,0,L|479:97,1,85.4999977169037,2|0,0:2|0:0,0:0:0:0:
249,32,255218,1,2,0:2:0:0:
449,61,255319,1,2,0:2:0:0:
252,88,255421,2,0,L|232:197,1,85.4999977169037
26,212,255623,6,0,L|131:237,1,85.4999977169037,2|2,0:2|0:2,0:0:0:0:
318,294,255826,2,0,L|186:298,1,85.4999977169037,2|2,0:2|0:2,0:0:0:0:
445,343,256029,1,14,0:2:0:0:
238,325,256130,1,2,0:2:0:0:
449,267,256231,1,14,0:2:0:0:
250,228,256333,1,2,0:2:0:0:
46,154,256434,6,0,L|239:136,1,170.999995433807,6|0,0:2|0:0,0:0:0:0:
414,108,256738,1,2,0:2:0:0:
213,57,256840,2,0,L|328:57,1,85.4999977169037,10|2,0:2|0:2,0:0:0:0:
84,73,257042,2,0,L|25:55,2,56.9999984779358,2|0|0,0:2|0:2|0:2,0:0:0:0:
279,194,257245,6,0,L|347:197,1,56.9999984779358,8|0,0:2|2:2,0:0:0:0:
140,268,257380,2,0,L|63:274,1,56.9999984779358,8|0,0:3|2:2,0:0:0:0:
273,353,257515,2,0,L|286:264,1,56.9999984779358,4|0,0:3|2:2,0:0:0:0:
478,246,257650,2,0,L|368:227,1,85.4999977169037,8|0,0:2|0:0,0:0:0:0:
189,167,257853,1,0,2:2:0:0:
241,145,257920,1,0,0:2:0:0:
294,124,257988,1,0,0:2:0:0:
114,80,258056,6,0,L|55:70,1,56.9999984779358,8|8,0:2|0:2,0:0:0:0:
257,31,258191,2,0,L|263:106,1,56.9999984779358,8|0,0:2|0:2,0:0:0:0:
55,162,258326,1,8,0:2:0:0:
319,240,258461,2,0,L|384:248,1,56.9999984779358,8|8,0:3|0:3,0:0:0:0:
200,270,258596,2,0,L|187:344,1,56.9999984779358,8|0,0:3|0:2,0:0:0:0:
388,334,258731,1,8,0:3:0:0:
142,207,258867,6,0,L|117:140,2,56.9999984779358,4|4|4,0:3|0:3|0:3,0:0:0:0:
204,222,259069,1,0,0:0:0:0:
31,249,259137,1,4,0:3:0:0:
295,311,259272,2,0,L|320:241,2,56.9999984779358,6|0|0,0:1|0:0|0:0,0:0:0:0:
232,330,259475,1,0,0:0:0:0:
407,322,259542,2,0,L|456:284,1,56.9999984779358,0|2,0:0|2:1,0:0:0:0:
273,177,259677,6,0,L|199:160,2,56.9999984779358,6|2|2,1:2|0:2|0:2,0:0:0:0:
448,77,259880,1,2,0:2:0:0:
274,40,259948,1,2,0:2:0:0:
220,52,260015,1,2,0:2:0:0:
420,337,260083,2,0,L|488:325,2,51.0000009727478,10|2|2,0:2|0:2|0:2,0:0:0:0:
226,245,260286,1,2,0:2:0:0:
414,195,260354,1,2,0:2:0:0:
471,208,260421,1,2,0:2:0:0:
269,244,260488,5,2,0:2:0:0:
205,229,260555,1,0,0:0:0:0:
159,212,260623,1,2,0:2:0:0:
325,129,260691,1,2,0:2:0:0:
261,112,260758,1,2,1:2:0:0:
215,97,260826,1,2,0:2:0:0:
384,47,260894,1,10,0:2:0:0:
445,34,260961,1,0,0:0:0:0:
492,15,261029,1,0,0:0:0:0:
255,191,261096,2,0,L|153:192,1,76.5000014591217,0|8,1:2|0:2,0:0:0:0:
386,161,261299,6,0,L|446:167,1,51.0000009727478,2|2,0:2|0:2,0:0:0:0:
263,265,261434,2,0,L|201:272,1,51.0000009727478,2|2,0:2|0:2,0:0:0:0:
388,358,261569,2,0,L|473:348,1,51.0000009727478,2|2,0:2|0:2,0:0:0:0:
241,159,261704,2,0,L|181:165,2,51.0000009727478,10|2|2,0:2|0:2|0:2,0:0:0:0:
430,80,261907,1,2,0:2:0:0:
245,257,261975,1,2,0:2:0:0:
192,242,262042,1,2,0:2:0:0:
387,269,262110,6,0,L|394:166,1,76.5000014591217,2|0,1:2|0:0,0:0:0:0:
202,67,262313,2,0,L|277:51,1,76.5000014591217,2|0,0:2|0:0,0:0:0:0:
94,202,262515,2,0,L|36:193,2,51.0000009727478,10|2|2,0:2|0:2|0:2,0:0:0:0:
275,284,262718,1,2,0:2:0:0:
222,299,262786,1,2,0:2:0:0:
170,315,262853,1,2,0:2:0:0:
341,338,262921,6,0,L|416:335,1,51.0000009727478,2|2,1:2|0:2,0:0:0:0:
212,216,263056,2,0,L|207:138,1,51.0000009727478,2|2,0:2|0:2,0:0:0:0:
277,121,263191,2,0,L|272:43,1,51.0000009727478,2|2,0:2|0:2,0:0:0:0:
110,115,263326,2,0,L|194:111,1,76.5000014591217,10|0,0:2|0:0,0:0:0:0:
428,188,263529,2,0,L|487:197,2,51.0000009727478,4|0|0,1:2|0:0|0:0,0:0:0:0:
267,96,263731,5,2,0:2:0:0:
324,82,263799,1,2,0:2:0:0:
374,62,263867,1,2,0:2:0:0:
218,225,263934,1,2,0:2:0:0:
160,215,264002,1,2,0:2:0:0:
115,193,264070,1,2,0:2:0:0:
268,305,264137,1,10,0:2:0:0:
443,262,264238,1,10,0:2:0:0:
268,305,264340,2,0,L|161:296,1,76.5000014591217,2|2,1:2|1:2,0:0:0:0:
352,208,264542,5,2,0:2:0:0:
296,183,264610,1,2,0:2:0:0:
241,158,264677,1,2,0:2:0:0:
400,126,264745,2,0,L|394:55,1,51.0000009727478,2|2,0:2|0:2,0:0:0:0:
336,62,264880,1,2,0:2:0:0:
149,165,264948,2,0,L|13:159,1,76.5000014591217,10|0,0:2|0:0,0:0:0:0:
345,294,265150,2,0,L|414:284,2,51.0000009727478,6|0|0,1:2|0:0|0:0,0:0:0:0:
184,204,265353,6,0,L|115:194,2,51.0000009727478,2|2|2,0:2|0:2|0:2,0:0:0:0:
327,170,265556,1,2,0:2:0:0:
490,209,265657,1,0,0:0:0:0:
326,82,265758,2,0,L|423:72,1,76.5000014591217,10|0,0:2|0:0,0:0:0:0:
226,205,265961,1,0,1:2:0:0:
64,96,266062,1,8,0:2:0:0:
223,288,266164,6,0,L|343:291,1,102.000001945496,6|0,1:2|0:0,0:0:0:0:
155,206,266367,2,0,L|46:199,1,102.000001945496,0|0,1:2|0:0,0:0:0:0:
243,194,266569,1,10,0:2:0:0:
288,177,266636,1,2,0:2:0:0:
314,137,266704,1,2,0:2:0:0:
313,90,266771,1,2,0:2:0:0:
284,52,266839,1,2,1:2:0:0:
239,38,266906,1,2,0:2:0:0:
73,96,266975,5,2,0:2:0:0:
120,76,267042,1,2,0:2:0:0:
186,65,267110,1,2,0:2:0:0:
346,333,267177,1,2,1:2:0:0:
186,156,267245,2,0,L|108:151,1,51.0000009727478,2|2,1:2|1:2,0:0:0:0:
339,235,267380,6,0,L|425:240,2,51.0000009727478,14|2|2,0:2|0:2|0:2,0:0:0:0:
184,311,267583,2,0,L|174:239,1,51.0000009727478,2|10,0:2|0:2,0:0:0:0:
334,215,267718,1,10,0:2:0:0:
484,188,267786,6,0,L|490:122,1,51.0000009727478,14|2,0:2|0:2,0:0:0:0:
432,130,267921,1,2,0:2:0:0:
265,123,267988,1,2,1:2:0:0:
209,121,268056,1,2,1:2:0:0:
265,123,268123,1,0,1:2:0:0:
116,228,268191,5,14,0:2:0:0:
57,227,268258,1,2,0:2:0:0:
201,232,268326,1,2,0:2:0:0:
261,230,268394,1,2,0:2:0:0:
403,244,268461,1,2,1:2:0:0:
259,249,268529,1,2,0:2:0:0:
112,160,268596,5,2,0:2:0:0:
53,159,268663,1,2,0:2:0:0:
112,160,268731,1,2,1:2:0:0:
260,299,268799,1,2,1:2:0:0:
405,226,268866,1,2,1:2:0:0:
255,181,268934,1,2,1:2:0:0:
77,260,269002,6,0,L|67:157,1,102.000001945496,2|2,0:2|0:2,0:0:0:0:
132,142,269204,1,2,0:2:0:0:
287,94,269272,1,2,0:2:0:0:
347,94,269340,1,10,0:2:0:0:
187,260,269407,6,0,L|66:261,1,102.000001945496,4|0,1:2|0:2,0:0:0:0:
157,242,269610,1,8,0:2:0:0:
297,207,269677,1,8,0:2:0:0:
440,163,269745,1,8,0:2:0:0:
275,315,269813,2,0,L|179:315,1,76.5000014591217,8|8,0:2|0:2,0:0:0:0:
411,76,270015,2,0,L|491:77,1,76.5000014591217,8|4,0:3|0:3,0:0:0:0:
277,187,270218,6,0,L|213:187,2,51.0000009727478,8|8|0,0:2|0:3|0:0,0:0:0:0:
443,113,270421,1,0,0:2:0:0:
271,97,270488,2,0,L|202:97,1,51.0000009727478,0|0,0:2|0:2,0:0:0:0:
72,231,270623,2,0,L|68:161,1,51.0000009727478,0|0,0:2|0:2,0:0:0:0:
236,249,270758,2,0,L|302:249,1,51.0000009727478,0|0,0:2|0:2,0:0:0:0:
445,201,270894,1,0,0:2:0:0:
284,203,270961,1,0,0:2:0:0:
132,208,271029,6,0,L|70:209,1,51.0000009727478,0|0,0:2|0:2,0:0:0:0:
249,48,271164,2,0,L|254:112,1,51.0000009727478,0|0,0:2|0:2,0:0:0:0:
187,135,271299,2,0,L|192:199,1,51.0000009727478,0|0,0:2|0:2,0:0:0:0:
380,208,271434,6,0,L|442:209,1,51.0000009727478,0|0,0:2|0:2,0:0:0:0:
263,48,271569,2,0,L|258:112,1,51.0000009727478,0|0,0:2|0:2,0:0:0:0:
325,135,271704,2,0,L|320:199,1,51.0000009727478,0|0,0:2|0:2,0:0:0:0:
157,317,271840,6,0,L|72:317,1,51.0000009727478,0|0,0:2|0:2,0:0:0:0:
163,237,271975,2,0,L|229:237,1,51.0000009727478,0|0,0:2|0:2,0:0:0:0:
133,160,272110,2,0,L|68:160,1,51.0000009727478,0|0,0:2|0:2,0:0:0:0:
258,149,272245,5,14,0:2:0:0:
485,63,272380,1,14,0:2:0:0:
258,149,272515,1,14,0:2:0:0:
304,320,288258,6,0,L|200:320,1,90,2|0,2:2|2:2,0:0:0:0:
416,256,288867,6,0,P|456:216|456:120,1,157.500001502037,6|8,0:0|0:0,0:0:0:0:
376,144,289137,2,0,L|296:144,1,52.500000500679,0|8,0:0|0:0,0:0:0:0:
152,208,289272,2,0,L|144:152,1,52.500000500679,0|8,0:0|0:0,0:0:0:0:
224,144,289407,2,0,L|216:88,1,52.500000500679,0|8,0:0|0:0,0:0:0:0:
48,152,289542,2,0,L|40:96,1,52.500000500679,0|8,0:0|0:0,0:0:0:0:
216,168,289677,6,0,L|160:112,1,52.500000500679,0|8,0:0|0:0,0:0:0:0:
96,112,289813,2,0,L|32:112,1,52.500000500679,0|8,0:0|0:0,0:0:0:0:
216,120,289948,2,0,L|296:120,1,52.500000500679,0|8,0:0|0:0,0:0:0:0:
96,200,290083,2,0,L|152:144,1,52.500000500679,0|8,0:0|0:0,0:0:0:0:
216,144,290219,2,0,L|280:144,1,52.500000500679,0|8,0:0|0:0,0:0:0:0:
96,104,290353,2,0,L|40:104,1,52.500000500679,0|8,0:0|0:0,0:0:0:0:
216,208,290488,5,0,0:0:0:0:
272,192,290556,1,8,0:0:0:0:
296,136,290623,1,0,0:0:0:0:
272,192,290691,1,8,0:0:0:0:
104,168,290758,2,0,L|96:112,1,52.500000500679,0|8,0:0|0:0,0:0:0:0:
280,168,290894,6,0,L|288:112,1,52.500000500679,2|8,0:0|0:0,0:0:0:0:
208,160,291029,1,0,0:0:0:0:
152,144,291097,1,8,0:0:0:0:
128,88,291164,1,0,0:0:0:0:
152,144,291232,1,8,0:0:0:0:
328,144,291299,6,0,L|272:144,1,52.500000500679,2|8,0:0|0:0,0:0:0:0:
200,136,291434,2,0,L|272:136,1,52.500000500679,0|8,0:0|0:0,0:0:0:0:
328,136,291569,2,0,L|240:136,1,52.500000500679,0|8,0:0|0:0,0:0:0:0:
96,200,291704,6,0,L|88:144,1,52.500000500679,12|8,0:3|0:3,0:0:0:0:
264,192,291840,2,0,L|272:136,1,52.500000500679,8|4,0:3|0:3,0:0:0:0:
440,176,291975,2,0,L|432:120,1,52.500000500679,4|4,0:3|0:3,0:0:0:0:
224,192,292110,6,0,P|168:192|168:104,1,157.500001502037,6|8,0:0|0:0,0:0:0:0:
344,192,292380,2,0,L|352:136,1,52.500000500679,0|8,0:0|0:0,0:0:0:0:
168,160,292515,6,0,L|96:160,1,52.500000500679,0|8,0:2|0:2,0:0:0:0:
296,112,292650,2,0,L|224:112,1,52.500000500679,0|10,0:2|0:2,0:0:0:0:
56,112,292786,2,0,L|112:112,1,52.500000500679,0|8,0:2|0:2,0:0:0:0:
288,80,292921,2,0,L|352:80,1,52.500000500679,2|8,0:2|0:2,0:0:0:0:
152,56,293056,2,0,L|216:56,1,52.500000500679,0|8,0:2|0:2,0:0:0:0:
392,184,293191,2,0,L|448:184,1,52.500000500679,0|8,0:2|0:2,0:0:0:0:
256,208,293326,6,0,L|192:208,1,52.500000500679,0|8,0:2|0:2,0:0:0:0:
392,152,293461,2,0,L|384:96,1,52.500000500679,0|8,0:2|0:2,0:0:0:0:
200,144,293596,2,0,L|192:88,1,52.500000500679,0|8,0:2|0:2,0:0:0:0:
376,128,293731,2,0,L|448:128,1,52.500000500679,0|8,0:2|0:2,0:0:0:0:
240,112,293867,2,0,L|176:112,1,52.500000500679,0|8,0:2|0:2,0:0:0:0:
376,88,294002,2,0,L|296:88,1,52.500000500679,0|8,0:2|0:2,0:0:0:0:
136,160,294137,6,0,L|128:104,1,52.500000500679,2|8,0:2|0:2,0:0:0:0:
320,152,294272,2,0,L|400:152,1,52.500000500679,0|10,0:2|0:2,0:0:0:0:
184,144,294407,2,0,L|240:144,1,52.500000500679,0|8,0:2|0:2,0:0:0:0:
432,240,294542,6,0,L|368:240,1,52.500000500679,10|8,0:2|0:2,0:0:0:0:
304,240,294677,2,0,L|232:240,1,52.500000500679,8|8,0:2|0:2,0:0:0:0:
328,224,294813,1,8,0:3:0:0:
384,200,294880,1,8,0:3:0:0:
408,152,294948,1,10,0:3:0:0:
384,200,295015,1,8,0:3:0:0:
312,192,295083,2,0,L|248:192,1,52.500000500679,4|4,0:3|0:3,0:0:0:0:
336,168,295218,2,0,L|408:168,1,52.500000500679,4|4,0:3|0:3,0:0:0:0:
184,248,295353,6,0,P|144:208|208:144,1,157.500001502037,6|8,0:0|0:0,0:0:0:0:
280,152,295623,2,0,L|344:152,1,52.500000500679,0|8,0:0|0:0,0:0:0:0:
160,296,295758,6,0,L|104:296,1,52.500000500679,0|8,0:2|0:2,0:0:0:0:
192,288,295894,2,0,L|256:288,1,52.500000500679,0|10,0:2|0:2,0:0:0:0:
72,240,296029,2,0,L|64:184,1,52.500000500679,0|8,0:2|0:2,0:0:0:0:
232,216,296164,2,0,L|240:160,1,52.500000500679,2|8,0:2|0:2,0:0:0:0:
160,152,296299,2,0,L|168:96,1,52.500000500679,0|8,0:2|0:2,0:0:0:0:
344,136,296434,2,0,L|408:136,1,52.500000500679,0|8,0:2|0:2,0:0:0:0:
216,184,296569,6,0,L|264:136,1,52.500000500679,0|8,0:2|0:2,0:0:0:0:
336,136,296704,2,0,L|408:136,1,52.500000500679,0|8,0:2|0:2,0:0:0:0:
208,104,296840,2,0,L|152:104,1,52.500000500679,0|8,0:2|0:2,0:0:0:0:
336,240,296975,5,0,0:2:0:0:
392,224,297043,1,8,0:2:0:0:
416,168,297110,1,0,0:2:0:0:
392,224,297178,1,8,0:2:0:0:
224,200,297245,2,0,L|216:144,1,52.500000500679,0|8,0:2|0:2,0:0:0:0:
392,152,297380,6,0,L|448:152,1,52.500000500679,2|8,0:2|0:2,0:0:0:0:
376,144,297515,1,0,0:2:0:0:
208,120,297583,2,0,L|264:120,1,52.500000500679,10|0,0:2|0:2,0:0:0:0:
336,120,297718,1,8,0:2:0:0:
168,272,297786,6,0,L|112:272,1,52.500000500679,2|8,0:2|0:2,0:0:0:0:
32,264,297921,2,0,L|104:264,1,52.500000500679,0|8,0:2|0:2,0:0:0:0:
168,248,298056,2,0,L|240:248,1,52.500000500679,0|8,0:2|0:2,0:0:0:0:
56,192,298191,1,10,0:2:0:0:
32,168,298258,1,8,0:2:0:0:
56,192,298326,2,0,L|128:192,1,52.500000500679,8|8,0:2|0:2,0:0:0:0:
288,168,298461,2,0,L|352:168,1,52.500000500679,8|4,0:3|0:3,0:0:0:0:
136,216,298596,6,0,L|16:216,1,105.000001001358,6|8,0:2|0:2,0:0:0:0:
232,192,298867,2,0,L|240:136,1,52.500000500679,8|8,0:2|0:2,0:0:0:0:
160,136,299002,2,0,L|168:80,1,52.500000500679,8|8,0:2|0:2,0:0:0:0:
248,136,299137,1,8,0:2:0:0:
304,120,299205,1,8,0:2:0:0:
328,64,299272,1,8,0:2:0:0:
304,120,299340,1,8,0:2:0:0:
96,240,299407,6,0,L|136:200,1,52.500000500679,10|8,0:3|0:3,0:0:0:0:
216,200,299542,2,0,L|280:200,1,52.500000500679,8|8,0:3|0:3,0:0:0:0:
192,184,299677,2,0,L|120:184,1,52.500000500679,8|8,0:3|0:3,0:0:0:0:
320,240,299813,2,0,L|312:184,1,52.500000500679,6|4,0:3|0:3,0:0:0:0:
232,176,299948,2,0,L|224:120,1,52.500000500679,4|4,0:3|0:3,0:0:0:0:
400,144,300083,2,0,L|392:88,1,52.500000500679,4|4,0:3|0:3,0:0:0:0:
216,272,300218,6,0,L|224:216,1,52.500000500679,10|0,0:2|0:2,0:0:0:0:
304,208,300353,2,0,L|312:152,1,52.500000500679,0|0,0:2|0:2,0:0:0:0:
136,176,300488,2,0,L|144:120,1,52.500000500679,8|8,0:2|0:2,0:0:0:0:
328,192,300623,2,0,L|400:192,1,52.500000500679,10|8,0:2|0:2,0:0:0:0:
304,184,300758,2,0,L|232:184,1,52.500000500679,0|2,0:2|0:2,0:0:0:0:
328,168,300894,2,0,L|400:168,1,52.500000500679,8|0,0:2|0:2,0:0:0:0:
224,184,301029,6,0,L|160:184,1,52.500000500679,2|0,0:2|0:2,0:0:0:0:
88,184,301164,2,0,L|32:184,1,52.500000500679,0|0,0:2|0:2,0:0:0:0:
120,160,301299,2,0,L|192:160,1,52.500000500679,8|8,0:2|0:2,0:0:0:0:
328,144,301434,2,0,L|192:144,1,105.000001001358,8|0,0:2|0:2,0:0:0:0:
280,128,301637,1,2,0:2:0:0:
304,80,301704,1,0,0:2:0:0:
280,128,301772,1,0,0:2:0:0:
88,280,301840,6,0,L|80:120,1,157.500001502037,6|8,0:1|0:2,0:0:0:0:
264,176,302110,2,0,L|320:176,1,52.500000500679,0|8,0:0|0:0,0:0:0:0:
128,200,302245,2,0,L|192:200,1,52.500000500679,0|8,0:0|0:0,0:0:0:0:
368,208,302380,2,0,L|448:208,1,52.500000500679,0|8,0:0|0:0,0:0:0:0:
232,232,302515,2,0,L|288:232,1,52.500000500679,0|8,0:0|0:0,0:0:0:0:
472,240,302650,6,0,L|464:184,1,52.500000500679,0|8,0:0|0:0,0:0:0:0:
272,168,302786,2,0,L|208:168,1,52.500000500679,0|8,0:0|0:0,0:0:0:0:
408,136,302921,2,0,L|352:136,1,52.500000500679,0|8,0:0|0:0,0:0:0:0:
168,112,303056,2,0,L|112:112,1,52.500000500679,0|8,0:0|0:0,0:0:0:0:
304,120,303191,2,0,L|312:64,1,52.500000500679,0|8,0:0|0:0,0:0:0:0:
120,160,303326,2,0,L|112:104,1,52.500000500679,0|8,0:0|0:0,0:0:0:0:
296,200,303461,6,0,L|368:200,1,52.500000500679,0|8,0:0|0:0,0:0:0:0:
160,144,303596,2,0,L|224:144,1,52.500000500679,0|8,0:0|0:0,0:0:0:0:
400,136,303731,2,0,L|328:136,1,52.500000500679,0|8,0:0|0:0,0:0:0:0:
160,232,303867,2,0,L|152:176,1,52.500000500679,2|8,0:0|0:0,0:0:0:0:
232,184,304002,2,0,L|240:128,1,52.500000500679,0|8,0:0|0:0,0:0:0:0:
56,112,304137,2,0,L|48:168,1,52.500000500679,0|8,0:0|0:0,0:0:0:0:
232,216,304272,5,2,0:0:0:0:
288,192,304339,1,8,0:0:0:0:
312,144,304407,1,0,0:0:0:0:
288,192,304474,1,8,0:0:0:0:
208,168,304542,2,0,L|200:112,1,52.500000500679,0|8,0:0|0:0,0:0:0:0:
384,176,304677,2,0,L|328:176,1,52.500000500679,10|8,0:3|0:3,0:0:0:0:
248,120,304813,2,0,L|256:64,1,52.500000500679,8|4,0:3|0:3,0:0:0:0:
336,72,304948,2,0,L|400:72,1,52.500000500679,4|4,0:3|0:3,0:0:0:0:
200,272,305083,6,0,P|144:272|144:184,1,157.500001502037,6|8,0:1|0:2,0:0:0:0:
224,184,305353,2,0,L|304:184,1,52.500000500679,0|0,0:2|0:2,0:0:0:0:
112,248,305488,2,0,L|56:248,1,52.500000500679,0|8,0:2|0:2,0:0:0:0:
144,232,305623,2,0,L|208:232,1,52.500000500679,0|10,0:2|0:2,0:0:0:0:
360,232,305758,2,0,L|416:232,1,52.500000500679,0|8,0:2|0:2,0:0:0:0:
248,232,305894,5,2,0:2:0:0:
192,208,305961,1,8,0:2:0:0:
168,160,306029,1,0,0:2:0:0:
192,208,306096,1,8,0:2:0:0:
360,176,306164,2,0,L|368:120,1,52.500000500679,0|8,0:2|0:2,0:0:0:0:
200,152,306299,2,0,L|192:96,1,52.500000500679,0|8,0:2|0:2,0:0:0:0:
272,104,306434,2,0,L|264:48,1,52.500000500679,0|8,0:2|0:2,0:0:0:0:
96,144,306569,2,0,L|104:88,1,52.500000500679,0|8,0:2|0:2,0:0:0:0:
272,176,306704,6,0,L|232:136,1,52.500000500679,0|8,0:2|0:2,0:0:0:0:
152,120,306840,2,0,L|88:120,1,52.500000500679,0|8,0:2|0:2,0:0:0:0:
264,128,306975,2,0,L|328:128,1,52.500000500679,0|8,0:2|0:2,0:0:0:0:
152,283,307110,5,2,0:2:0:0:
96,259,307177,1,8,0:2:0:0:
72,211,307245,1,0,0:2:0:0:
96,259,307312,1,10,0:2:0:0:
264,232,307380,2,0,L|320:232,1,52.500000500679,0|8,0:2|0:2,0:0:0:0:
128,176,307515,6,0,L|120:120,1,52.500000500679,10|8,0:2|0:2,0:0:0:0:
304,152,307650,2,0,L|360:152,1,52.500000500679,8|8,0:2|0:2,0:0:0:0:
272,136,307786,2,0,L|208:136,1,52.500000500679,8|8,0:2|0:2,0:0:0:0:
400,160,307921,2,0,L|408:104,1,52.500000500679,10|8,0:3|0:3,0:0:0:0:
224,104,308056,2,0,L|264:64,1,52.500000500679,8|4,0:3|0:3,0:0:0:0:
336,88,308191,2,0,L|400:88,1,52.500000500679,4|4,0:3|0:3,0:0:0:0:
200,304,308326,6,0,L|40:304,1,157.500001502037,6|8,0:1|0:2,0:0:0:0:
224,208,308596,2,0,L|232:152,1,52.500000500679,0|8,0:2|0:2,0:0:0:0:
48,176,308731,2,0,L|56:120,1,52.500000500679,0|8,0:2|0:2,0:0:0:0:
240,144,308867,2,0,L|304:144,1,52.500000500679,0|10,0:2|0:2,0:0:0:0:
112,104,309002,2,0,L|176:104,1,52.500000500679,0|8,0:2|0:2,0:0:0:0:
344,112,309137,6,0,L|408:112,1,52.500000500679,2|8,0:2|0:2,0:0:0:0:
216,104,309272,2,0,L|272:104,1,52.500000500679,0|8,0:2|0:2,0:0:0:0:
456,176,309407,2,0,L|392:176,1,52.500000500679,0|8,0:2|0:2,0:0:0:0:
224,176,309542,2,0,L|168:176,1,52.500000500679,0|8,0:2|0:2,0:0:0:0:
360,208,309677,2,0,L|368:152,1,52.500000500679,0|8,0:2|0:2,0:0:0:0:
176,136,309813,2,0,L|168:192,1,52.500000500679,0|8,0:2|0:2,0:0:0:0:
352,160,309948,6,0,L|408:160,1,52.500000500679,0|8,0:2|0:2,0:0:0:0:
216,120,310083,2,0,L|144:120,1,52.500000500679,0|8,0:2|0:2,0:0:0:0:
352,104,310218,2,0,L|416:104,1,52.500000500679,0|8,0:2|0:2,0:0:0:0:
216,216,310353,1,2,0:2:0:0:
136,216,310421,2,0,L|80:216,1,52.500000500679,8|0,0:2|0:2,0:0:0:0:
272,208,310556,1,10,0:2:0:0:
352,208,310624,2,0,L|408:208,1,52.500000500679,0|8,0:2|0:2,0:0:0:0:
224,176,310758,5,2,0:2:0:0:
200,160,310826,1,8,0:2:0:0:
224,176,310894,2,0,L|296:176,1,52.500000500679,0|8,0:2|0:2,0:0:0:0:
192,152,311029,2,0,L|256:152,1,52.500000500679,0|8,0:2|0:2,0:0:0:0:
424,168,311164,2,0,L|368:168,1,52.500000500679,10|8,0:2|0:2,0:0:0:0:
192,152,311299,2,0,L|128:152,1,52.500000500679,8|8,0:2|0:2,0:0:0:0:
272,128,311434,1,8,0:3:0:0:
408,128,311502,1,4,0:3:0:0:
224,240,311569,6,0,P|144:240|88:184,1,157.500001502037,6|0,0:2|0:2,0:0:0:0:
304,176,311873,1,8,0:2:0:0:
96,120,311975,1,8,0:2:0:0:
264,104,312076,1,8,0:2:0:0:
170,97,312177,1,8,0:2:0:0:
264,96,312279,1,8,0:2:0:0:
72,208,312380,6,0,L|192:208,2,105.000001001358,10|8|8,0:2|0:2|0:3,0:0:0:0:
288,216,312786,2,0,L|280:104,1,105.000001001358,10|4,0:3|0:3,0:0:0:0:
136,120,313056,1,4,0:3:0:0:
352,240,313191,6,0,P|392:200|328:136,1,157.500001502037,14|0,0:2|2:2,0:0:0:0:
176,144,313461,2,0,L|336:144,1,157.500001502037,12|0,0:2|2:2,0:0:0:0:
168,120,313731,2,0,L|48:120,1,105.000001001358,12|8,0:2|0:2,0:0:0:0:
328,136,314002,5,10,0:2:0:0:
200,136,314069,1,8,0:2:0:0:
72,136,314137,1,8,0:2:0:0:
48,120,314204,1,8,0:2:0:0:
72,136,314272,2,0,L|144:136,1,52.500000500679,8|8,0:2|0:2,0:0:0:0:
312,200,314407,2,0,L|320:144,1,52.500000500679,8|8,0:3|0:3,0:0:0:0:
240,152,314542,1,8,0:3:0:0:
184,120,314610,1,4,0:3:0:0:
160,72,314677,1,4,0:3:0:0:
184,120,314745,1,4,0:3:0:0:
416,240,314813,6,0,L|256:240,2,107.999996704102,14|2|2,0:2|0:2|0:2,0:0:0:0:
152,172,315218,1,10,0:2:0:0:
472,220,315353,1,10,0:2:0:0:
256,152,315488,1,2,0:2:0:0:
388,152,315623,1,2,0:2:0:0:
332,152,315691,1,0,0:0:0:0:
152,316,315758,6,0,P|140:236|180:192,1,107.999996704102,10|2,0:2|0:2,0:0:0:0:
204,216,315961,1,0,0:2:0:0:
368,336,316029,6,0,P|388:264|328:220,1,107.999996704102,10|2,0:2|0:2,0:0:0:0:
320,244,316231,1,0,0:2:0:0:
128,212,316299,2,0,L|56:212,1,53.9999983520508,10|0,0:2|0:0,0:0:0:0:
200,152,316434,1,2,0:2:0:0:
328,152,316502,1,0,0:2:0:0:
460,136,316569,2,0,L|380:136,1,53.9999983520508,0|0,0:2|0:2,0:0:0:0:
232,92,316704,6,0,L|232:244,1,107.999996704102,14|2,0:2|0:2,0:0:0:0:
368,208,316975,1,0,0:2:0:0:
148,252,317110,1,2,0:2:0:0:
392,176,317245,1,2,0:2:0:0:
112,256,317380,1,10,0:2:0:0:
432,176,317515,2,0,L|360:176,1,53.9999983520508,2|0,0:2|0:0,0:0:0:0:
200,176,317650,2,0,L|116:176,1,53.9999983520508,8|0,0:2|0:0,0:0:0:0:
312,108,317785,2,0,L|220:112,1,53.9999983520508,0|0,0:2|0:2,0:0:0:0:
88,356,317921,2,0,L|88:284,1,53.9999983520508,8|0,0:2|0:0,0:0:0:0:
364,136,318056,1,10,0:2:0:0:
76,128,318191,1,10,0:2:0:0:
340,360,318326,6,0,L|340:232,1,107.999996704102,0|0,0:2|0:2,0:0:0:0:
104,204,318596,2,0,L|208:204,1,53.9999983520508,10|8,0:2|0:2,0:0:0:0:
332,200,318731,1,10,0:2:0:0:
200,200,318867,1,8,0:2:0:0:
424,140,319002,1,10,0:2:0:0:
208,136,319137,5,12,0:2:0:0:
340,88,319272,1,0,0:2:0:0:
72,296,319407,1,2,0:2:0:0:
320,304,319542,1,2,0:2:0:0:
100,240,319677,6,0,L|168:240,1,53.9999983520508,8|8,0:2|0:2,0:0:0:0:
328,232,319813,2,0,L|412:232,1,53.9999983520508,10|0,0:2|0:0,0:0:0:0:
208,176,319948,2,0,L|136:176,1,53.9999983520508,10|0,0:2|0:0,0:0:0:0:
336,116,320083,2,0,L|264:116,1,53.9999983520508,2|0,0:2|0:2,0:0:0:0:
104,368,320218,6,0,L|104:216,1,107.999996704102,14|0,0:2|0:2,0:0:0:0:
160,264,320421,1,0,0:2:0:0:
344,264,320488,1,14,0:2:0:0:
112,176,320623,1,0,0:2:0:0:
344,192,320758,2,0,L|416:192,1,53.9999983520508,0|0,0:2|0:2,0:0:0:0:
228,352,320894,2,0,P|216:288|252:240,1,107.999996704102,14|0,0:2|0:2,0:0:0:0:
288,256,321096,1,0,0:2:0:0:
476,260,321164,2,0,L|388:260,1,53.9999983520508,14|0,0:2|0:2,0:0:0:0:
244,264,321299,6,0,L|160:264,1,53.9999983520508,6|0,0:2|0:2,0:0:0:0:
376,184,321434,2,0,L|308:184,1,53.9999983520508,14|0,0:2|0:2,0:0:0:0:
132,184,321569,2,0,L|200:184,1,53.9999983520508,6|0,0:2|0:2,0:0:0:0:
252,188,321704,2,0,L|252:104,1,53.9999983520508,10|0,0:2|0:2,0:0:0:0:
88,300,321840,6,0,L|20:300,1,53.9999983520508,6|0,0:2|0:2,0:0:0:0:
224,220,321975,2,0,L|296:220,1,53.9999983520508,14|0,0:2|0:2,0:0:0:0:
196,172,322110,2,0,L|196:88,1,53.9999983520508,0|0,0:2|0:2,0:0:0:0:
376,120,322245,2,0,L|456:120,1,53.9999983520508,14|0,0:2|0:2,0:0:0:0:
252,360,322380,6,0,L|180:360,1,53.9999983520508,6|0,0:2|0:2,0:0:0:0:
368,304,322515,2,0,L|368:232,1,53.9999983520508,12|0,0:2|0:2,0:0:0:0:
292,240,322650,2,0,L|280:160,1,53.9999983520508,0|0,0:2|0:2,0:0:0:0:
472,180,322785,2,0,L|388:176,1,53.9999983520508,14|0,0:2|0:2,0:0:0:0:
224,304,322920,6,0,L|208:232,1,53.9999983520508,14|8,0:2|0:2,0:0:0:0:
280,236,323055,2,0,L|360:236,1,53.9999983520508,14|8,0:2|0:2,0:0:0:0:
128,340,323190,2,0,P|60:312|148:192,1,269.999991760254,10|0,0:3|0:0,0:0:0:0:
316,188,323597,6,0,L|392:188,1,53.9999983520508,6|0,0:2|0:2,0:0:0:0:
316,188,323732,2,0,L|224:188,1,53.9999983520508,8|0,0:2|0:2,0:0:0:0:
432,112,323867,2,0,L|312:108,1,71.9999978027344,2|0,0:2|0:0,0:0:0:0:
172,312,324047,2,0,L|272:312,1,71.9999978027344,0|2,0:0|0:2,0:0:0:0:
300,312,324205,1,0,0:2:0:0:
108,268,324272,2,0,L|20:268,1,53.9999983520508,8|0,0:2|0:2,0:0:0:0:
192,204,324407,2,0,L|272:204,1,53.9999983520508,2|0,0:2|0:2,0:0:0:0:
192,204,324542,2,0,L|124:204,1,53.9999983520508,8|0,0:2|0:2,0:0:0:0:
296,264,324678,6,0,L|304:200,1,53.9999983520508,2|0,0:2|0:2,0:0:0:0:
132,356,324813,2,0,L|140:288,1,53.9999983520508,8|0,0:2|0:2,0:0:0:0:
216,312,324948,2,0,L|224:224,1,53.9999983520508,2|0,0:2|0:2,0:0:0:0:
48,240,325083,2,0,L|56:176,1,53.9999983520508,8|0,0:2|0:2,0:0:0:0:
268,148,325218,5,2,0:2:0:0:
214,148,325285,1,0,0:2:0:0:
160,148,325353,1,8,0:2:0:0:
104,148,325421,1,0,0:2:0:0:
300,288,325488,2,0,L|392:288,1,53.9999983520508,10|8,0:2|0:2,0:0:0:0:
152,220,325624,2,0,L|240:220,1,53.9999983520508,8|8,0:2|0:2,0:0:0:0:
408,220,325759,6,0,L|404:152,1,53.9999983520508,6|0,0:2|0:2,0:0:0:0:
232,148,325894,2,0,L|240:80,1,53.9999983520508,8|0,0:2|0:2,0:0:0:0:
296,88,326029,2,0,L|356:88,1,53.9999983520508,2|0,0:2|0:2,0:0:0:0:
172,364,326164,2,0,L|92:360,1,53.9999983520508,8|0,0:2|0:2,0:0:0:0:
280,328,326299,6,0,L|340:328,1,53.9999983520508,2|0,0:2|0:2,0:0:0:0:
496,268,326434,2,0,L|420:264,1,53.9999983520508,8|0,0:2|0:2,0:0:0:0:
268,268,326569,1,2,0:2:0:0:
92,260,326637,1,2,0:2:0:0:
144,200,326705,2,0,L|216:184,1,53.9999983520508,10|0,0:2|0:2,0:0:0:0:
400,120,326840,5,14,0:2:0:0:
252,124,326907,2,0,L|176:124,2,53.9999983520508,2|2|0,0:2|0:2|0:2,0:0:0:0:
400,68,327110,1,14,0:2:0:0:
232,360,327178,1,2,0:2:0:0:
188,360,327245,1,2,0:2:0:0:
188,360,327313,1,0,0:2:0:0:
352,296,327380,5,14,0:2:0:0:
176,248,327448,1,2,0:2:0:0:
122,248,327515,1,2,0:2:0:0:
68,248,327583,1,0,0:2:0:0:
232,212,327651,1,10,0:2:0:0:
68,192,327718,1,2,0:2:0:0:
16,192,327785,1,2,0:2:0:0:
72,188,327853,1,0,0:2:0:0:
280,280,327921,5,10,0:2:0:0:
284,344,327988,1,0,0:2:0:0:
116,316,328056,2,0,L|132:248,1,53.9999983520508,0|0,0:2|0:2,0:0:0:0:
336,260,328191,2,0,L|412:248,1,53.9999983520508,0|0,0:2|0:2,0:0:0:0:
208,220,328326,2,0,L|200:148,1,53.9999983520508,8|0,0:2|0:2,0:0:0:0:
384,140,328461,6,0,L|320:108,1,53.9999983520508,0|0,0:2|0:2,0:0:0:0:
168,116,328597,2,0,L|92:116,1,53.9999983520508,0|0,0:2|0:2,0:0:0:0:
280,360,328732,2,0,L|356:352,1,53.9999983520508,10|2,0:2|0:2,0:0:0:0:
492,272,328867,1,2,0:2:0:0:
320,280,328934,1,2,0:2:0:0:
144,240,329002,5,2,0:2:0:0:
304,224,329069,1,2,0:2:0:0:
464,200,329137,2,0,L|436:124,1,53.9999983520508,2|2,0:2|0:2,0:0:0:0:
244,152,329272,2,0,L|216:76,1,53.9999983520508,0|0,0:2|0:2,0:0:0:0:
384,88,329407,2,0,L|304:84,1,53.9999983520508,8|8,0:2|0:2,0:0:0:0:
107,169,329542,6,0,L|32:168,1,53.9999983520508,8|0,0:2|0:2,0:0:0:0:
107,169,329678,2,0,L|195:169,1,53.9999983520508,0|0,0:2|0:2,0:0:0:0:
356,376,329813,2,0,L|432:376,1,53.9999983520508,2|2,0:2|0:2,0:0:0:0:
248,328,329948,1,2,0:2:0:0:
96,296,330015,1,2,0:2:0:0:
320,264,330083,6,0,L|180:264,1,107.999996704102,12|8,0:2|0:2,0:0:0:0:
484,204,330353,2,0,L|348:204,1,107.999996704102,8|8,0:2|0:2,0:0:0:0:
152,208,330624,6,0,L|304:208,1,107.999996704102,8|8,0:2|0:2,0:0:0:0:
16,136,330894,2,0,L|144:136,1,107.999996704102,8|8,0:2|0:2,0:0:0:0:
352,372,331164,5,8,0:2:0:0:
214,296,331344,1,8,0:2:0:0:
380,268,331524,1,8,0:2:0:0:
112,196,331705,1,8,0:2:0:0:
424,180,331885,1,8,0:2:0:0:
64,112,332065,1,8,0:2:0:0:
480,104,332245,5,12,0:1:0:0:
127,334,340916,6,0,P|62:293|154:72,1,360,2|0,0:2|0:0,0:0:0:0:
335,126,341726,2,0,L|339:220,1,90,0|0,3:2|0:0,0:0:0:0:
246,257,341997,2,0,L|162:309,2,90,0|0|0,3:0|0:0|0:0,0:0:0:0:
443,288,342537,2,0,P|443:237|354:137,1,180,0|4,3:2|0:3,0:0:0:0:
246,110,342943,1,4,0:3:0:0:
38,374,343078,6,0,L|21:-2,1,360,2|0,0:2|0:2,0:0:0:0:
221,64,343889,2,0,L|143:123,1,90,0|0,3:0|0:0,0:0:0:0:
223,153,344159,1,0,3:0:0:0:
420,310,344429,2,0,L|405:210,1,90,0|0,0:0|0:2,0:0:0:0:
320,197,344700,2,0,L|342:99,1,90,0|0,3:2|0:2,0:0:0:0:
432,84,344970,2,0,L|348:23,1,90,4|4,0:3|0:3,0:0:0:0:
167,346,345240,6,0,P|91:312|184:112,1,360,2|0,0:2|0:2,0:0:0:0:
378,162,346051,2,0,L|281:116,1,90,0|0,3:2|0:0,0:0:0:0:
371,217,346321,2,0,L|387:106,1,90,0|0,3:2|0:0,0:0:0:0:
301,46,346591,1,0,0:0:0:0:
111,101,346862,2,0,L|200:278,1,180,0|4,3:0|0:3,0:0:0:0:
103,267,347267,1,4,0:3:0:0:
308,336,347402,6,0,P|374:307|298:97,1,360,2|0,0:2|0:0,0:0:0:0:
94,137,348213,2,0,L|74:41,1,90,0|0,3:2|0:0,0:0:0:0:
106,124,348483,1,0,3:0:0:0:
303,250,348754,2,0,L|317:147,1,90,0|0,0:2|0:0,0:0:0:0:
245,94,349024,2,0,L|230:200,1,90,0|0,3:2|0:2,0:0:0:0:
329,258,349294,2,0,L|218:272,1,90,4|4,2:3|0:3,0:0:0:0:
46,337,349564,6,0,P|104:312|36:85,1,360,2|0,0:2|0:2,0:0:0:0:
231,210,350375,2,0,L|244:121,1,90,0|0,3:2|0:0,0:0:0:0:
155,258,350646,1,0,3:2:0:0:
349,325,350916,2,0,P|391:296|332:189,1,180,0|0,0:0|3:2,0:0:0:0:
142,161,351456,2,0,L|227:118,1,90,4|4,0:3|0:3,0:0:0:0:
436,316,351727,6,0,L|156:72,1,360,2|0,0:2|0:0,0:0:0:0:
361,108,352537,2,0,L|430:43,1,90,0|0,3:2|0:0,0:0:0:0:
229,311,352808,2,0,P|179:270|246:190,1,180,0|0,3:2|0:0,0:0:0:0:
433,237,353348,2,0,L|451:117,1,90,0|0,3:2|0:2,0:0:0:0:
347,99,353618,2,0,L|437:62,1,90,4|4,0:3|0:3,0:0:0:0:
235,294,353889,6,0,P|171:276|12:29,1,360,2|0,0:2|0:0,0:0:0:0:
212,61,354700,2,0,L|219:176,1,90,0|0,3:2|0:0,0:0:0:0:
131,257,354970,2,0,L|140:168,1,90,0|0,3:2|0:0,0:0:0:0:
53,298,355240,1,0,0:0:0:0:
256,353,355510,2,0,L|222:157,1,180,0|4,3:2|0:3,0:0:0:0:
301,129,355916,1,4,0:3:0:0:
493,91,356051,5,2,0:0:0:0:
256,192,356997,12,0,357785,0:0:0:0:
240,264,358055,6,0,P|192:216|296:112,1,251.999992309571,14|0,0:2|0:2,0:0:0:0:
160,208,358461,1,8,0:2:0:0:
368,152,358596,2,0,L|232:152,1,125.999996154785,2|0,0:2|0:2,0:0:0:0:
376,144,358867,1,2,0:2:0:0:
168,168,359002,2,0,L|296:168,1,125.999996154785,10|2,0:2|0:2,0:0:0:0:
80,200,359272,5,0,0:2:0:0:
56,160,359340,1,0,0:0:0:0:
80,200,359407,1,0,0:0:0:0:
136,224,359475,1,0,1:2:0:0:
224,200,359542,2,0,L|88:200,1,125.999996154785,8|0,0:2|0:2,0:0:0:0:
304,160,359813,2,0,L|368:160,1,62.9999980773926,2|0,0:2|0:0,0:0:0:0:
176,112,359948,2,0,L|248:112,1,62.9999980773926,2|0,0:2|0:2,0:0:0:0:
432,112,360083,1,10,0:2:0:0:
240,96,360218,1,2,0:2:0:0:
448,224,360353,6,0,L|456:96,1,125.999996154785,6|0,0:2|0:0,0:0:0:0:
240,168,360624,2,0,L|232:296,1,125.999996154785,10|0,1:2|0:2,0:0:0:0:
448,224,360894,2,0,L|320:224,1,125.999996154785,2|2,0:2|0:2,0:0:0:0:
388,220,361096,1,0,0:2:0:0:
456,216,361164,1,8,1:2:0:0:
248,168,361299,1,0,0:2:0:0:
440,144,361434,6,0,L|432:80,1,62.9999980773926,2|0,0:2|0:0,0:0:0:0:
344,80,361569,2,0,L|336:144,1,62.9999980773926
424,112,361705,1,10,0:2:0:0:
192,112,361840,1,2,0:2:0:0:
424,200,361975,2,0,L|336:200,1,62.9999980773926,0|0,0:2|0:0,0:0:0:0:
168,200,362110,2,0,L|80:200,1,62.9999980773926,2|0,0:2|0:0,0:0:0:0:
328,168,362245,2,0,L|416:168,1,83.9999974365235,10|0,0:2|0:0,0:0:0:0:
240,128,362425,1,0,0:0:0:0:
416,120,362515,6,0,L|424:248,1,125.999996154785,6|0,0:2|0:0,0:0:0:0:
288,224,362786,1,10,0:2:0:0:
488,168,362921,2,0,L|352:168,1,125.999996154785,2|0,0:2|0:2,0:0:0:0:
160,160,363191,1,2,0:2:0:0:
360,152,363326,2,0,L|488:152,1,125.999996154785,10|2,0:2|0:2,0:0:0:0:
272,272,363596,6,0,P|208:272|208:120,1,251.999992309571,2|8,0:2|1:2,0:0:0:0:
328,128,364002,1,0,0:2:0:0:
120,112,364137,2,0,L|264:112,1,125.999996154785,0|0,0:2|0:2,0:0:0:0:
384,96,364407,1,10,1:2:0:0:
176,88,364542,1,2,0:2:0:0:
424,232,364678,6,0,L|416:104,1,125.999996154785,6|0,0:2|0:0,0:0:0:0:
360,112,364880,1,0,0:0:0:0:
272,112,364948,1,8,1:2:0:0:
472,112,365083,2,0,L|320:112,1,125.999996154785,2|0,0:2|0:2,0:0:0:0:
480,104,365353,2,0,L|472:176,1,62.9999980773926,0|0,0:2|0:2,0:0:0:0:
280,200,365488,2,0,L|192:200,1,62.9999980773926,10|8,0:2|0:2,0:0:0:0:
304,192,365624,2,0,L|312:128,1,62.9999980773926,8|8,0:2|0:2,0:0:0:0:
120,176,365759,5,4,0:2:0:0:
96,136,365827,1,0,0:0:0:0:
120,176,365894,1,8,0:2:0:0:
176,200,365962,1,8,0:2:0:0:
368,192,366029,1,2,0:2:0:0:
152,152,366164,2,0,L|368:152,1,188.999994232178,14|0,0:2|0:2,0:0:0:0:
120,248,366434,2,0,P|72:200|144:128,1,188.999994232178,14|0,0:2|0:2,0:0:0:0:
400,240,366705,6,0,L|144:240,1,251.999992309571,14|0,0:2|0:2,0:0:0:0:
280,136,367110,1,8,0:2:0:0:
72,224,367245,2,0,L|80:96,1,125.999996154785,2|0,0:2|0:2,0:0:0:0:
208,120,367515,1,2,0:2:0:0:
80,120,367651,1,10,0:2:0:0:
312,168,367786,5,2,0:2:0:0:
176,184,367921,1,0,0:2:0:0:
152,144,367989,1,0,0:2:0:0:
176,184,368056,1,0,0:2:0:0:
232,208,368124,1,0,0:2:0:0:
320,184,368191,2,0,L|184:184,1,125.999996154785,8|0,0:2|0:2,0:0:0:0:
408,152,368461,2,0,L|400:88,1,62.9999980773926,2|0,0:2|0:2,0:0:0:0:
200,96,368596,2,0,L|192:160,1,62.9999980773926,2|0,0:2|0:2,0:0:0:0:
392,232,368732,1,10,0:2:0:0:
160,224,368867,1,2,0:2:0:0:
400,224,369002,6,0,L|272:224,1,125.999996154785,6|0,0:2|0:0,0:0:0:0:
72,168,369272,1,10,0:2:0:0:
280,144,369407,2,0,L|120:144,1,125.999996154785,2|0,0:2|0:0,0:0:0:0:
360,112,369678,2,0,L|192:112,1,125.999996154785,2|8,0:2|0:2,0:0:0:0:
440,80,369948,1,2,0:2:0:0:
232,224,370083,6,0,L|160:224,1,62.9999980773926,2|0,0:2|0:0,0:0:0:0:
88,216,370218,2,0,L|96:152,1,62.9999980773926
176,152,370353,2,0,L|312:152,1,125.999996154785,8|2,0:2|0:2,0:0:0:0:
96,128,370624,2,0,L|88:64,1,62.9999980773926,0|0,0:2|0:0,0:0:0:0:
280,88,370759,2,0,L|368:88,1,62.9999980773926,2|0,0:0|0:0,0:0:0:0:
152,240,370894,2,0,L|160:152,1,83.9999974365235,10|0,0:2|0:0,0:0:0:0:
336,160,371074,1,0,0:0:0:0:
160,184,371164,5,6,0:2:0:0:
32,184,371299,2,0,L|40:56,1,125.999996154785,0|10,0:0|1:2,0:0:0:0:
248,120,371569,2,0,L|112:120,1,125.999996154785,2|0,0:2|0:0,0:0:0:0:
328,96,371840,1,2,0:2:0:0:
120,96,371975,2,0,L|272:96,1,125.999996154785,10|2,1:2|0:2,0:0:0:0:
40,288,372245,6,0,P|40:224|168:96,1,251.999992309571,2|8,0:2|1:2,0:0:0:0:
296,80,372651,1,0,0:0:0:0:
96,176,372786,1,0,0:2:0:0:
232,184,372921,2,0,L|240:56,1,125.999996154785,0|10,0:2|1:2,0:0:0:0:
40,112,373191,1,6,0:2:0:0:
264,176,373326,6,0,L|392:176,1,125.999996154785
336,160,373529,1,0,0:0:0:0:
248,152,373596,1,8,0:0:0:0:
376,120,373732,2,0,L|248:120,1,125.999996154785
48,128,374002,2,0,L|120:128,1,62.9999980773926
304,176,374137,2,0,L|256:128,1,62.9999980773926,8|0,0:0|0:0,0:0:0:0:
176,112,374272,2,0,L|96:112,1,62.9999980773926
304,128,374407,5,0,0:0:0:0:
360,88,374475,1,0,0:0:0:0:
384,56,374542,1,0,0:0:0:0:
360,88,374610,1,0,0:0:0:0:
168,168,374678,1,8,0:2:0:0:
400,216,374813,2,0,P|448:168|376:96,1,188.999994232178,14|0,0:2|0:0,0:0:0:0:
184,208,375083,2,0,L|384:208,1,188.999994232178,14|0,0:2|0:0,0:0:0:0:
112,216,375353,6,0,P|48:176|128:72,1,233.999989288331,14|0,0:2|0:2,0:0:0:0:
180,72,375691,1,0,0:2:0:0:
356,248,375759,1,8,0:2:0:0:
297,248,375826,1,0,0:2:0:0:
239,248,375894,1,0,0:2:0:0:
180,248,375961,1,0,0:2:0:0:
328,192,376029,6,0,L|329:124,1,58.4999973220826,0|0,0:2|0:2,0:0:0:0:
268,136,376164,2,0,L|196:136,1,58.4999973220826,0|0,0:2|0:2,0:0:0:0:
388,80,376299,2,0,L|468:80,2,58.4999973220826,8|0|0,0:2|0:2|0:2,0:0:0:0:
328,80,376502,1,0,0:2:0:0:
152,352,376569,6,0,L|232:352,1,58.4999973220826,0|0,0:2|0:2,0:0:0:0:
272,352,376705,2,0,L|272:264,1,58.4999973220826,0|0,0:2|0:2,0:0:0:0:
120,300,376840,1,8,0:2:0:0:
60,300,376907,1,0,0:2:0:0:
60,300,376975,1,0,0:2:0:0:
120,300,377042,1,0,0:2:0:0:
280,232,377110,6,0,L|352:232,1,58.4999973220826,0|0,0:2|0:2,0:0:0:0:
280,232,377245,2,0,L|280:140,1,58.4999973220826,0|0,0:2|0:2,0:0:0:0:
460,104,377380,2,0,L|372:104,1,58.4999973220826,14|0,0:2|0:2,0:0:0:0:
192,104,377515,2,0,L|280:104,1,58.4999973220826,6|0,0:2|0:2,0:0:0:0:
428,292,377651,6,0,L|496:292,1,58.4999973220826,6|0,0:2|0:2,0:0:0:0:
428,292,377786,1,0,0:2:0:0:
368,292,377853,1,0,0:2:0:0:
200,296,377921,1,8,0:2:0:0:
200,240,377988,1,0,0:2:0:0:
260,240,378056,1,0,0:2:0:0:
260,180,378124,1,0,0:2:0:0:
100,180,378191,6,0,L|16:180,1,58.4999973220826,0|0,0:2|0:2,0:0:0:0:
100,180,378326,2,0,L|164:180,1,58.4999973220826,0|0,0:2|0:2,0:0:0:0:
336,304,378461,2,0,L|404:304,2,58.4999973220826,8|0|0,0:2|0:2|0:2,0:0:0:0:
276,304,378664,1,0,0:2:0:0:
428,240,378732,6,0,L|428:152,1,58.4999973220826,0|0,0:2|0:2,0:0:0:0:
368,184,378867,2,0,L|288:184,1,58.4999973220826,0|0,0:2|0:2,0:0:0:0:
488,104,379002,1,8,0:2:0:0:
429,104,379069,1,0,0:2:0:0:
371,104,379137,1,0,0:2:0:0:
224,112,379205,1,0,0:2:0:0:
368,40,379272,6,0,L|296:40,1,58.4999973220826,8|8,0:2|0:2,0:0:0:0:
152,48,379407,2,0,L|72:48,1,58.4999973220826,8|8,0:2|0:2,0:0:0:0:
248,128,379542,1,10,0:3:0:0:
400,168,379610,1,8,0:3:0:0:
248,128,379678,2,0,L|156:128,1,58.4999973220826,6|4,0:3|0:3,0:0:0:0:
448,192,379813,6,0,L|448:24,1,116.999994644165,14|0,0:2|0:2,0:0:0:0:
200,80,380083,1,10,0:2:0:0:
448,192,380218,2,0,L|280:192,1,116.999994644165,2|8,0:2|0:2,0:0:0:0:
464,112,380488,2,0,L|396:112,1,58.4999973220826,0|0,0:2|0:2,0:0:0:0:
236,112,380624,1,10,0:2:0:0:
468,32,380759,1,2,0:2:0:0:
168,120,380894,6,0,L|36:120,1,116.999994644165,10|0,0:2|0:2,0:0:0:0:
300,40,381164,2,0,L|160:40,1,116.999994644165,8|0,0:2|0:2,0:0:0:0:
124,44,381367,1,0,0:2:0:0:
304,304,381434,2,0,L|392:304,1,58.4999973220826,8|8,0:2|0:3,0:0:0:0:
304,304,381569,2,0,L|228:304,1,58.4999973220826,8|8,0:3|0:3,0:0:0:0:
408,200,381705,1,10,0:2:0:0:
232,144,381795,2,0,L|364:144,1,77.9999964294435
136,144,381975,6,0,L|48:144,1,77.9999964294435,10|8,0:2|0:2,0:0:0:0:
260,76,382155,2,0,L|140:76,1,77.9999964294435,8|8,0:2|0:2,0:0:0:0:
372,76,382335,2,0,L|460:76,1,77.9999964294435,8|8,0:2|0:2,0:0:0:0:
248,280,382515,2,0,L|228:184,1,77.9999964294435,8|8,0:2|0:2,0:0:0:0:
424,188,382696,2,0,L|316:188,1,77.9999964294435,8|8,0:2|0:2,0:0:0:0:
164,120,382876,1,8,0:2:0:0:
360,120,382966,5,8,0:2:0:0:
256,192,384407,12,0,385488,0:0:0:0:
88,256,385759,6,0,L|164:256,1,58.4999973220826,2|2,0:2|0:2,0:0:0:0:
324,248,385894,2,0,L|324:156,1,58.4999973220826,2|2,0:2|0:2,0:0:0:0:
188,188,386029,1,2,0:2:0:0:
52,188,386096,1,2,0:2:0:0:
284,360,386164,6,0,P|352:328|264:240,1,233.999989288331,14|0,0:2|0:2,0:0:0:0:
48,216,386569,2,0,L|180:216,3,116.999994644165,8|0|0|0,0:2|0:2|0:2|0:2,0:0:0:0:
400,140,387110,2,0,L|260:140,1,116.999994644165,8|0,0:2|0:2,0:0:0:0:
400,140,387380,6,0,L|400:12,1,116.999994644165,0|0,0:2|0:2,0:0:0:0:
144,248,387651,2,0,L|308:248,1,116.999994644165,8|0,0:2|0:2,0:0:0:0:
376,248,387921,2,0,L|256:248,1,116.999994644165,0|6,0:2|0:2,0:0:0:0:
492,152,388191,1,8,0:2:0:0:
256,152,388326,1,6,0:2:0:0:
492,152,388461,6,0,L|352:152,1,116.999994644165,6|0,0:2|0:0,0:0:0:0:
136,244,388732,2,0,L|292:244,1,116.999994644165,8|0,0:2|0:2,0:0:0:0:
136,244,389002,2,0,L|-4:244,1,116.999994644165,0|0,0:2|0:2,0:0:0:0:
268,160,389272,6,0,L|120:160,3,116.999994644165,8|0|0|0,0:2|0:2|0:2|0:2,0:0:0:0:
372,40,389813,2,0,L|504:40,1,116.999994644165,8|0,0:2|0:2,0:0:0:0:
216,252,390083,6,0,L|144:252,1,58.4999973220826,8|8,0:2|0:2,0:0:0:0:
348,192,390218,2,0,L|276:192,1,58.4999973220826,8|8,0:2|0:2,0:0:0:0:
84,192,390353,2,0,L|12:192,1,58.4999973220826,8|8,0:2|0:2,0:0:0:0:
212,344,390488,6,0,L|472:344,1,233.999989288331,6|0,0:2|0:2,0:0:0:0:
200,240,390894,1,10,0:2:0:0:
316,236,391029,2,0,L|32:236,1,233.999989288331,6|0,0:2|0:2,0:0:0:0:
140,236,391367,1,0,0:2:0:0:
316,128,391434,6,0,L|148:128,3,116.999994644165,8|0|0|0,0:2|0:2|0:2|0:2,0:0:0:0:
452,72,391975,1,14,0:2:0:0:
192,340,392110,2,0,P|116:304|204:224,1,233.999989288331,6|0,0:2|0:2,0:0:0:0:
252,220,392448,1,0,0:2:0:0:
432,112,392515,2,0,L|276:112,1,116.999994644165,8|0,0:2|0:2,0:0:0:0:
196,112,392786,6,0,L|328:112,1,116.999994644165,0|0,0:2|0:2,0:0:0:0:
48,248,393056,2,0,L|216:248,3,116.999994644165,8|0|0|0,0:2|0:2|0:2|0:2,0:0:0:0:
396,180,393596,2,0,L|260:180,1,116.999994644165,8|0,0:2|0:2,0:0:0:0:
396,180,393867,6,0,L|396:44,1,116.999994644165,0|0,0:2|0:2,0:0:0:0:
164,260,394137,2,0,L|328:260,1,116.999994644165,8|0,0:2|0:2,0:0:0:0:
52,184,394407,1,10,0:2:0:0:
200,184,394475,1,10,0:2:0:0:
364,180,394542,2,0,L|288:180,1,58.4999973220826,2|2,0:2|0:2,0:0:0:0:
112,120,394678,1,10,0:2:0:0:
272,120,394745,1,10,0:2:0:0:
456,280,394813,6,0,L|180:280,1,233.999989288331,14|0,0:2|0:2,0:0:0:0:
280,280,395151,1,0,0:2:0:0:
453,215,395218,2,0,L|453:139,1,58.4999973220826,12|0,0:2|0:2,0:0:0:0:
384,144,395353,2,0,L|480:144,1,58.4999973220826,0|0,0:2|0:2,0:0:0:0:
233,293,395488,6,0,L|246:351,1,58.4999973220826,4|0,0:2|0:2,0:0:0:0:
316,294,395624,2,0,L|332:222,1,58.4999973220826,0|0,0:2|0:2,0:0:0:0:
128,192,395759,2,0,L|70:202,1,58.4999973220826,12|0,0:2|0:2,0:0:0:0:
71,181,395894,2,0,L|128:191,1,58.4999973220826,0|0,0:2|0:2,0:0:0:0:
302,232,396029,6,0,L|290:148,1,58.4999973220826,4|0,0:2|0:2,0:0:0:0:
225,165,396164,2,0,L|214:88,1,58.4999973220826,0|0,0:2|0:2,0:0:0:0:
394,91,396299,1,12,0:2:0:0:
335,89,396366,1,0,0:2:0:0:
277,88,396434,1,0,0:2:0:0:
218,87,396501,1,0,0:2:0:0:
390,359,396569,6,0,L|406:291,1,58.4999973220826,4|0,0:2|0:2,0:0:0:0:
338,296,396705,2,0,L|258:288,1,58.4999973220826,0|0,0:2|0:2,0:0:0:0:
446,152,396840,2,0,L|502:138,1,58.4999973220826,12|0,0:2|0:2,0:0:0:0:
433,155,396975,2,0,L|379:175,1,58.4999973220826,0|0,0:2|0:2,0:0:0:0:
212,192,397110,6,0,L|216:112,1,58.4999973220826,4|0,0:2|0:2,0:0:0:0:
288,116,397245,2,0,L|364:116,1,58.4999973220826,0|0,0:2|0:2,0:0:0:0:
176,355,397380,2,0,L|172:279,1,58.4999973220826,12|0,0:2|0:2,0:0:0:0:
244,284,397515,2,0,L|248:208,1,58.4999973220826,0|0,0:2|0:2,0:0:0:0:
68,212,397651,6,0,L|141:186,1,58.4999973220826,4|0,0:2|0:2,0:0:0:0:
56,176,397786,2,0,L|40:108,1,58.4999973220826,0|0,0:2|0:2,0:0:0:0:
243,127,397921,2,0,L|235:59,1,58.4999973220826,12|0,0:2|0:2,0:0:0:0:
167,6,398056,2,0,L|159:64,1,58.4999973220826,0|0,0:2|0:2,0:0:0:0:
364,328,398191,6,0,L|272:320,1,58.4999973220826,4|0,0:2|0:2,0:0:0:0:
240,305,398326,2,0,L|232:224,1,58.4999973220826,0|0,0:2|0:2,0:0:0:0:
412,240,398461,2,0,L|420:160,1,58.4999973220826,12|0,0:2|0:2,0:0:0:0:
356,168,398596,2,0,L|288:152,1,58.4999973220826,0|0,0:2|0:2,0:0:0:0:
484,104,398732,6,0,L|408:100,1,58.4999973220826,6|2,0:2|0:2,0:0:0:0:
252,106,398867,2,0,L|242:38,1,58.4999973220826,2|2,0:2|0:2,0:0:0:0:
436,48,399002,2,0,L|356:44,1,58.4999973220826,14|2,0:2|0:2,0:0:0:0:
184,332,399137,6,0,L|432:332,1,233.999989288331,4|0,0:2|0:2,0:0:0:0:
360,332,399475,1,0,0:2:0:0:
185,182,399542,2,0,L|196:240,1,58.4999973220826,12|0,0:2|0:2,0:0:0:0:
368,168,399678,2,0,L|384:91,1,58.4999973220826,4|0,0:2|0:2,0:0:0:0:
208,128,399813,2,0,L|136:128,1,58.4999973220826,4|0,0:2|0:2,0:0:0:0:
80,127,399948,2,0,L|68:56,1,58.4999973220826,0|0,0:2|0:2,0:0:0:0:
264,336,400083,2,0,L|272:240,1,58.4999973220826,12|0,0:2|0:0,0:0:0:0:
204,264,400218,2,0,L|116:252,1,58.4999973220826,0|0,0:2|0:2,0:0:0:0:
360,204,400353,5,4,0:2:0:0:
301,200,400420,1,0,0:2:0:0:
243,196,400488,1,0,0:2:0:0:
184,193,400555,1,0,0:2:0:0:
368,152,400624,2,0,L|472:148,1,58.4999973220826,12|0,0:2|0:2,0:0:0:0:
252,108,400759,2,0,L|168:104,1,58.4999973220826,6|0,0:2|0:0,0:0:0:0:
376,304,400894,6,0,L|464:300,1,58.4999973220826
496,256,401029,2,0,L|424:252,1,58.4999973220826,0|0,0:2|0:2,0:0:0:0:
256,256,401164,2,0,L|244:192,1,58.4999973220826,12|0,0:2|0:2,0:0:0:0:
328,192,401299,2,0,L|312:96,1,58.4999973220826,0|0,0:2|0:2,0:0:0:0:
108,128,401434,5,8,0:2:0:0:
272,92,401502,1,0,0:2:0:0:
436,320,401569,2,0,L|508:320,1,58.4999973220826,0|0,0:2|0:2,0:0:0:0:
312,280,401705,2,0,L|216:280,1,58.4999973220826,0|0,0:2|0:2,0:0:0:0:
72,220,401840,2,0,L|148:220,1,58.4999973220826,0|0,0:2|0:2,0:0:0:0:
424,224,401975,6,0,L|512:224,1,58.4999973220826,0|0,0:2|0:2,0:0:0:0:
304,168,402110,2,0,L|212:168,1,58.4999973220826,0|0,0:2|0:2,0:0:0:0:
60,108,402245,2,0,L|152:108,1,58.4999973220826,0|0,0:2|0:2,0:0:0:0:
308,112,402380,2,0,L|388:112,1,58.4999973220826,0|0,0:2|0:2,0:0:0:0:
140,352,402515,6,0,L|52:352,1,58.4999973220826,10|0,0:2|0:2,0:0:0:0:
284,304,402651,2,0,L|364:304,1,58.4999973220826,10|0,0:2|0:2,0:0:0:0:
132,232,402786,2,0,L|228:232,1,58.4999973220826,10|0,0:2|0:2,0:0:0:0:
408,176,402921,2,0,L|492:176,1,58.4999973220826,10|0,0:2|0:2,0:0:0:0:
232,92,403056,5,10,0:2:0:0:
64,92,403124,1,0,0:2:0:0:
296,48,403191,1,10,0:2:0:0:
464,48,403259,1,0,0:2:0:0:
232,140,403326,1,10,0:2:0:0:
64,140,403394,1,0,0:2:0:0:
328,200,403461,5,4,0:2:0:0:
