osu file format v14

[General]
AudioFilename: audio.mp3
AudioLeadIn: 0
PreviewTime: 236970
Countdown: 0
SampleSet: Normal
StackLeniency: 0.7
Mode: 0
LetterboxInBreaks: 0
WidescreenStoryboard: 0

[Editor]
Bookmarks: 20595,43095,44595,56595,68595,86595,98595,122595,134595,174720,186720,198720,222720,234720,264720,276720,288720,300720,303720,312720,379470
DistanceSpacing: 0.6
BeatDivisor: 4
GridSize: 16
TimelineZoom: 1.7

[Metadata]
Title:The Night Before Halation
TitleUnicode:The Night Before Halation
Artist:Release Hallucination
ArtistUnicode:Release Hallucination
Creator:Diriusse
Version:Daydream
Source:
Tags:symphonic metal marathon single vocal Nightmare Outbreak
BeatmapID:1954676
BeatmapSetID:935595

[Difficulty]
HPDrainRate:8
CircleSize:4.5
OverallDifficulty:8.5
ApproachRate:9.2
SliderMultiplier:1.8
SliderTickRate:1

[Events]
//Background and Video events
0,0,"Background.jpg",0,0
//Break Periods
2,74795,86025
2,165920,173400
//Storyboard Layer 0 (Background)
//Storyboard Layer 1 (Fail)
//Storyboard Layer 2 (Pass)
//Storyboard Layer 3 (Foreground)
//Storyboard Sound Samples

[TimingPoints]
8595,375,4,1,1,60,1,0
20407,-100,4,2,1,60,0,0
20595,-200,4,1,1,60,0,0
21345,-200,4,1,2,60,0,0
21532,-200,4,1,1,60,0,0
22001,-200,4,1,2,60,0,0
22188,-200,4,1,1,60,0,0
23220,-200,4,1,1,60,0,0
24345,-200,4,1,2,60,0,0
24720,-200,4,1,1,60,0,0
26032,-200,4,1,2,60,0,0
26595,-200,4,1,1,60,0,0
27345,-200,4,1,2,60,0,0
27532,-200,4,1,1,60,0,0
28001,-200,4,1,2,60,0,0
28188,-200,4,1,1,60,0,0
29220,-200,4,1,1,60,0,0
30345,-200,4,1,2,60,0,0
30720,-200,4,1,1,60,0,0
32032,-200,4,1,2,60,0,0
32595,-200,4,1,1,60,0,0
33345,-200,4,1,3,60,0,0
33720,-200,4,1,1,60,0,0
34095,-200,4,1,2,60,0,0
34282,-200,4,1,1,60,0,0
34845,-200,4,1,2,60,0,0
35126,-200,4,1,1,60,0,0
36345,-200,4,1,3,60,0,0
36720,-200,4,1,1,60,0,0
37845,-142.857142857143,4,1,1,60,0,0
38032,-142.857142857143,4,1,2,60,0,0
38595,-200,4,1,1,60,0,0
39345,-200,4,1,3,60,0,0
39720,-200,4,1,1,60,0,0
40095,-200,4,1,2,60,0,0
40282,-200,4,1,1,60,0,0
40845,-200,4,1,2,60,0,0
41220,-200,4,1,1,60,0,0
42345,-200,4,1,3,60,0,0
42720,-133.333333333333,4,1,3,60,0,0
43845,-86.9565217391304,4,1,3,60,0,0
44595,-100,4,1,1,60,0,0
46845,-100,4,1,2,60,0,0
47220,-100,4,1,1,60,0,0
48345,-133.333333333333,4,1,1,60,0,0
49845,-100,4,1,1,60,0,0
54345,-133.333333333333,4,1,1,60,0,0
54532,-100,4,1,1,60,0,0
55095,-100,4,1,2,60,0,0
56595,-100,4,1,1,60,0,0
57720,-133.333333333333,4,1,1,60,0,0
58470,-100,4,1,2,60,0,0
58845,-100,4,1,1,60,0,0
59220,-133.333333333333,4,1,2,60,0,0
59407,-100,4,1,1,60,0,0
60720,-133.333333333333,4,1,1,60,0,0
61470,-100,4,1,2,60,0,0
61845,-100,4,1,1,60,0,0
62220,-133.333333333333,4,1,2,60,0,0
62595,-100,4,1,1,60,0,0
64470,-100,4,1,2,60,0,0
64845,-100,4,1,1,60,0,0
65220,-133.333333333333,4,1,2,60,0,0
65407,-100,4,1,1,60,0,0
66157,-100,4,1,2,60,0,0
66438,-100,4,1,1,60,0,0
67095,-76.9230769230769,4,1,1,60,0,0
67376,-142.857142857143,4,1,1,60,0,0
67845,-111.111111111111,4,1,1,60,0,0
68126,-166.666666666666,4,1,1,60,0,0
86595,-133.333333333333,4,1,1,60,0,0
88095,-133.333333333333,4,1,2,60,0,0
88845,-133.333333333333,4,1,3,60,0,0
89220,-133.333333333333,4,1,2,60,0,0
89595,-133.333333333333,4,1,1,60,0,0
91095,-133.333333333333,4,1,3,60,0,0
91470,-133.333333333333,4,1,2,60,0,0
91845,-133.333333333333,4,1,3,60,0,0
92220,-133.333333333333,4,1,2,60,0,0
92595,-133.333333333333,4,1,1,60,0,0
94095,-133.333333333333,4,1,2,60,0,0
94845,-133.333333333333,4,1,3,60,0,0
95220,-133.333333333333,4,1,2,60,0,0
95595,-133.333333333333,4,1,1,60,0,0
97095,-90.9090909090909,4,1,1,60,0,0
98220,-125,4,1,2,60,0,0
98595,-100,4,1,1,70,0,0
104220,-125,4,1,1,70,0,0
104595,-100,4,1,1,70,0,0
109845,-125,4,1,1,70,0,0
110595,-100,4,1,1,70,0,0
120095,-125,4,1,1,70,0,0
120470,-142.857142857143,4,1,1,70,0,0
121095,-142.857142857143,4,1,1,60,0,0
122595,-100,4,1,1,70,0,0
128595,-90.9090909090909,4,1,1,70,0,0
134595,-200,4,1,1,60,0,0
137595,-90.9090909090909,4,1,1,70,0,1
143032,-90.9090909090909,4,1,2,70,0,1
143595,-90.9090909090909,4,1,1,70,0,1
149032,-90.9090909090909,4,1,2,70,0,1
149595,-90.9090909090909,4,1,1,70,0,1
155032,-90.9090909090909,4,1,2,70,0,1
155595,-90.9090909090909,4,1,1,70,0,1
160095,-117.647058823529,4,1,1,70,0,1
161032,-117.647058823529,4,1,2,70,0,1
161595,-133.333333333333,4,1,1,70,0,1
162720,375,4,1,1,60,1,0
162720,-200,4,1,1,60,0,0
174720,-133.333333333333,4,1,1,60,0,0
176220,-133.333333333333,4,1,2,60,0,0
176970,-133.333333333333,4,1,3,60,0,0
177345,-133.333333333333,4,1,2,60,0,0
177720,-133.333333333333,4,1,1,60,0,0
179220,-133.333333333333,4,1,2,60,0,0
179970,-133.333333333333,4,1,3,60,0,0
180157,-133.333333333333,4,1,1,60,0,0
180345,-133.333333333333,4,1,2,60,0,0
180720,-133.333333333333,4,1,1,60,0,0
182220,-133.333333333333,4,1,2,60,0,0
182970,-133.333333333333,4,1,3,60,0,0
183345,-133.333333333333,4,1,2,60,0,0
183720,-133.333333333333,4,1,1,60,0,0
185220,-133.333333333333,4,1,2,60,0,0
185970,-117.647058823529,4,1,2,60,0,0
186720,-117.647058823529,4,1,1,60,0,0
188220,-117.647058823529,4,1,2,60,0,0
188595,-117.647058823529,4,1,3,60,0,0
189720,-117.647058823529,4,1,1,60,0,0
191220,-117.647058823529,4,1,2,60,0,0
191595,-117.647058823529,4,1,3,60,0,0
191970,-117.647058823529,4,1,2,60,0,0
192720,-117.647058823529,4,1,1,60,0,0
194220,-117.647058823529,4,1,2,60,0,0
194595,-117.647058823529,4,1,3,60,0,0
194970,-117.647058823529,4,1,2,60,0,0
195345,-117.647058823529,4,1,3,60,0,0
195720,-117.647058823529,4,1,1,60,0,0
197220,-90.9090909090909,4,1,1,60,0,0
197595,-100,4,1,1,60,0,0
198345,-125,4,1,2,60,0,0
198720,-100,4,1,1,70,0,0
203970,-125,4,1,1,70,0,0
204720,-100,4,1,1,70,0,0
209970,-125,4,1,1,70,0,0
210720,-100,4,1,1,70,0,0
220220,-125,4,1,1,70,0,0
220595,-142.857142857143,4,1,1,70,0,0
221220,-142.857142857143,4,1,1,60,0,0
222720,-90.9090909090909,4,1,1,60,0,0
234720,-200,4,1,1,60,0,0
237720,-90.9090909090909,4,1,1,70,0,1
243157,-90.9090909090909,4,1,2,70,0,1
243720,-90.9090909090909,4,1,1,70,0,1
249157,-90.9090909090909,4,1,2,70,0,1
249720,-90.9090909090909,4,1,1,70,0,1
255157,-90.9090909090909,4,1,2,70,0,1
255720,-90.9090909090909,4,1,1,70,0,1
260220,-105.263157894737,4,1,1,70,0,1
260970,-117.647058823529,4,1,2,70,0,1
261720,-133.333333333333,4,1,1,70,0,1
262845,-133.333333333333,4,1,1,70,0,0
265001,-133.333333333333,4,1,5,70,0,0
265188,-133.333333333333,4,1,1,70,0,0
265470,-133.333333333333,4,1,2,70,0,0
265657,-133.333333333333,4,1,1,70,0,0
266126,-133.333333333333,4,1,5,70,0,0
266313,-133.333333333333,4,1,1,70,0,0
268001,-133.333333333333,4,1,5,70,0,0
268470,-133.333333333333,4,1,2,70,0,0
268845,-133.333333333333,4,1,1,70,0,0
270157,-133.333333333333,4,1,3,70,0,0
270720,-117.647058823529,4,1,1,70,0,0
276157,-153.846153846154,4,1,3,70,0,0
276720,-133.333333333333,4,1,1,70,0,0
285720,-100,4,1,1,70,0,0
286095,-100,4,1,2,70,0,0
287220,-100,4,1,2,65,0,0
287970,-100,4,1,1,55,0,0
288720,-83.3333333333333,4,1,1,70,0,0
291345,-83.3333333333333,4,1,2,70,0,0
291720,-83.3333333333333,4,1,1,70,0,0
293970,-100,4,1,1,70,0,0
294345,-83.3333333333333,4,1,1,70,0,0
297345,-100,4,1,1,70,0,0
297720,-83.3333333333333,4,1,1,70,0,0
299220,-83.3333333333333,4,1,1,60,0,0
299501,-133.333333333333,4,1,1,60,0,0
299970,-100,4,1,1,60,0,0
300720,-83.3333333333333,4,1,1,70,0,0
301470,-100,4,1,1,70,0,0
303720,-76.9230769230769,4,1,1,70,0,0
306720,-83.3333333333333,4,1,1,70,0,0
309720,-100,4,1,1,70,0,0
310470,-83.3333333333333,4,1,1,70,0,0
311220,-100,4,1,1,60,0,0
311501,-166.666666666667,4,1,1,60,0,0
311970,-90.9090909090909,4,1,1,60,0,0
312720,-100,4,1,1,70,0,0
324720,-100,4,1,1,60,0,0
326595,-133.333333333333,4,1,1,60,0,0
326970,-200,4,1,1,60,0,0
327720,-86.9565217391304,4,1,1,70,0,1
333157,-86.9565217391304,4,1,2,70,0,1
333720,-86.9565217391304,4,1,1,70,0,1
339157,-86.9565217391304,4,1,2,70,0,1
339720,-86.9565217391304,4,1,1,70,0,1
345157,-86.9565217391304,4,1,2,70,0,1
345720,-86.9565217391304,4,1,1,70,0,1
350220,-117.647058823529,4,1,1,70,0,1
351157,-117.647058823529,4,1,2,70,0,1
351720,-153.846153846153,4,1,1,70,0,0
352845,-153.846153846153,4,2,1,70,0,0
363720,-181.818181818181,4,2,1,70,0,0
365407,-200,4,2,1,70,0,0
366907,-222.222222222222,4,2,1,70,0,0
370845,-250,4,2,1,70,0,0
374970,-400,4,2,1,70,0,0
375720,-1000,4,2,1,70,0,0

[Colours]
Combo1 : 159,159,159
Combo2 : 18,98,194
Combo3 : 80,80,239
Combo4 : 106,106,106
Combo5 : 212,212,212

[HitObjects]
256,192,17595,12,0,20407,0:0:0:0:
119,19,20595,38,0,L|111:163,1,135,12|0,3:2|0:0,2:0:0:0:
55,227,21345,1,4,0:0:0:0:
15,139,21532,1,0,0:0:0:0:
192,248,21720,6,0,L|184:382,1,135,12|0,3:2|0:0,2:0:0:0:
106,346,22470,1,0,0:0:0:0:
106,346,22657,1,0,0:0:0:0:
380,250,22845,6,0,L|316:274,1,67.5,12|0,3:2|2:0,0:0:0:0:
268,290,23220,1,0,3:0:0:0:
500,210,23407,1,0,3:0:0:0:
256,83,23595,38,0,P|233:8|311:9,1,180,12|4,0:2|0:2,2:0:0:0:
419,276,24720,5,0,0:0:0:0:
419,276,24907,1,0,0:0:0:0:
475,178,25095,1,4,0:0:0:0:
455,301,25282,1,0,0:0:0:0:
438,119,25470,2,0,L|435:56,2,45
324,172,26032,5,4,3:1:0:0:
324,172,26220,1,4,3:1:0:0:
512,232,26407,1,4,3:1:0:0:
198,336,26595,38,0,B|247:343|247:343|295:333|295:333|341:340,1,135,12|0,3:2|0:0,2:0:0:0:
440,365,27345,1,4,0:0:0:0:
422,261,27532,1,0,0:0:0:0:
190,171,27720,6,0,B|232:266|232:266|186:260,1,135,12|0,3:2|0:0,2:0:0:0:
97,248,28470,1,0,0:0:0:0:
130,366,28657,1,0,0:0:0:0:
304,70,28845,6,0,B|245:131|245:131,1,67.5,12|0,3:2|2:0,0:0:0:0:
260,152,29220,1,0,3:0:0:0:
141,35,29407,1,0,3:0:0:0:
97,248,29595,38,0,P|55:299|21:222,1,180,12|4,0:2|0:0,2:0:0:0:
75,104,30720,5,0,0:0:0:0:
75,104,30907,1,0,0:0:0:0:
193,22,31095,1,4,0:0:0:0:
40,17,31282,1,0,0:0:0:0:
200,113,31470,2,0,L|243:139,2,45
314,77,32032,5,4,3:1:0:0:
314,77,32220,1,4,3:1:0:0:
240,214,32407,1,4,3:1:0:0:
432,112,32595,38,0,L|417:246,1,135,12|0,3:2|0:0,2:0:0:0:
325,334,33345,1,12,0:3:0:0:
325,334,33532,1,0,0:0:0:0:
485,230,33720,6,0,L|496:148,1,67.5,12|0,3:2|2:0,2:0:0:0:
500,127,34095,1,4,0:0:0:0:
473,306,34282,1,8,3:3:0:0:
473,306,34470,1,0,3:3:0:0:
348,187,34657,1,0,0:0:0:0:
251,333,34845,6,0,L|328:337,1,67.5,12|0,3:3|2:0,0:0:0:0:
344,330,35220,1,8,3:3:0:0:
237,171,35407,1,8,3:3:0:0:
95,337,35595,38,0,P|21:339|62:278,1,180,12|12,3:2|0:3,2:0:0:0:
226,205,36720,5,0,0:0:0:0:
226,205,36907,1,0,0:0:0:0:
151,108,37095,1,4,0:0:0:0:
300,94,37282,1,8,3:3:0:0:
228,235,37470,2,0,L|209:275,1,45,0|0,3:3|3:0,0:0:0:0:
229,33,37845,6,0,P|308:21|308:21,1,62.9999980773926,8|4,0:3|3:1,0:0:0:0:
427,80,38220,1,4,3:1:0:0:
427,80,38407,1,4,3:1:0:0:
374,283,38595,2,0,B|346:180|346:180|386:197,1,135,12|0,3:2|0:0,2:0:0:0:
467,232,39345,1,12,0:3:0:0:
467,232,39532,1,0,0:0:0:0:
308,351,39720,38,0,L|229:353,1,67.5,12|0,3:2|2:0,0:0:0:0:
198,353,40095,1,4,0:0:0:0:
276,221,40282,1,8,3:3:0:0:
276,221,40470,1,0,3:3:0:0:
359,353,40657,1,0,0:0:0:0:
106,246,40845,6,0,L|110:170,1,67.5,12|0,3:3|2:0,0:0:0:0:
120,146,41220,1,8,3:3:0:0:
189,303,41407,1,8,3:3:0:0:
281,119,41595,6,0,P|351:102|319:167,1,180,12|12,3:2|0:3,2:0:0:0:
23,56,42720,38,0,L|50:131,1,67.5000025749208
94,222,43095,1,8,3:3:0:0:
147,109,43282,1,0,3:3:0:0:
193,253,43470,5,8,3:3:0:0:
212,30,43657,1,0,3:3:0:0:
297,197,43845,2,0,B|324:238|324:238|325:270|325:270|343:303,1,103.500001974106,8|0,3:3|3:3,3:3:0:0:
384,365,44220,1,8,3:3:0:0:
384,365,44407,1,0,3:3:0:0:
472,221,44595,6,0,B|466:171|466:171|472:123,1,90,12|0,1:2|0:0,0:0:0:0:
430,32,44970,1,0,3:0:0:0:
408,38,45063,1,0,3:0:0:0:
390,52,45157,1,0,3:0:0:0:
376,70,45251,1,0,3:0:0:0:
367,90,45345,2,0,B|367:120|367:120|350:145|350:145|348:179,1,90,8|0,3:3|0:0,0:0:0:0:
392,346,45720,2,0,B|392:316|392:316|409:291|409:291|411:257,1,90,8|0,0:3|0:0,0:0:0:0:
273,163,46095,38,0,P|221:155|170:161,1,90,0|0,0:0|3:0,0:0:0:0:
165,171,46376,1,0,3:0:0:0:
152,189,46470,2,0,L|106:193,3,45,0|0|0|0,3:0|0:0|0:0|0:0,0:0:0:0:
79,174,46845,2,0,B|77:117|77:117|100:65,1,90,12|0,0:3|0:0,0:0:0:0:
179,21,47220,1,0,3:0:0:0:
192,44,47313,1,0,3:0:0:0:
217,54,47407,1,0,3:0:0:0:
243,58,47501,1,0,3:0:0:0:
268,47,47595,6,0,P|315:35|396:126,1,180,12|0,3:2|0:0,0:0:0:0:
394,147,48063,1,0,0:0:0:0:
391,160,48157,1,0,0:0:0:0:
389,173,48251,1,0,0:0:0:0:
386,186,48345,2,0,B|371:258|371:258,1,67.5000025749208,8|0,0:3|0:0,0:0:0:0:
416,362,48720,5,0,3:0:0:0:
437,368,48813,1,0,3:0:0:0:
459,369,48907,2,0,P|477:367|491:358,2,33.7500012874604,0|0|0,3:0|3:0|3:0,0:0:0:0:
322,306,49282,1,8,3:3:0:0:
415,173,49470,1,0,3:0:0:0:
458,282,49657,1,0,3:0:0:0:
284,163,49845,38,0,P|254:129|242:71,1,90,8|0,0:3|0:0,0:0:0:0:
73,73,50220,1,0,3:0:0:0:
77,104,50313,1,0,3:0:0:0:
94,130,50407,1,0,3:0:0:0:
122,145,50501,1,0,3:0:0:0:
150,157,50595,2,0,P|180:191|184:247,1,90,12|0,0:2|0:0,0:0:0:0:
183,275,50876,1,0,0:0:0:0:
50,277,51063,1,0,0:0:0:0:
50,277,51157,2,0,L|102:236,1,45
314,112,51345,6,0,P|284:146|280:202,1,90,12|0,0:2|0:0,0:0:0:0:
283,280,51720,1,0,3:0:0:0:
292,299,51813,1,0,3:0:0:0:
305,316,51907,1,0,3:0:0:0:
326,325,52001,1,0,3:0:0:0:
347,328,52095,5,0,3:0:0:0:
226,352,52282,1,8,3:3:0:0:
349,197,52470,1,0,3:0:0:0:
438,356,52657,1,0,3:0:0:0:
225,250,52845,2,0,B|216:196|216:196|226:143,1,90,8|0,0:3|0:0,0:0:0:0:
267,50,53220,1,0,3:0:0:0:
297,43,53313,1,0,3:0:0:0:
327,34,53407,1,0,3:0:0:0:
358,28,53501,1,0,3:0:0:0:
389,22,53595,38,0,P|445:36|449:146,1,180,12|0,3:2|0:0,0:0:0:0:
435,164,54063,1,0,0:0:0:0:
431,176,54157,1,0,0:0:0:0:
433,189,54251,1,0,0:0:0:0:
439,200,54345,2,0,P|445:235|444:266,1,67.5000025749208,8|0,0:3|3:0,0:0:0:0:
430,300,54626,1,0,3:0:0:0:
403,324,54720,2,0,L|346:323,3,45,4|0|0|0,3:1|0:0|0:0|0:0,0:0:0:0:
308,322,55095,6,0,B|322:233,1,90,12|0,0:3|0:0,0:0:0:0:
326,199,55376,1,0,0:0:0:0:
223,335,55563,1,0,0:0:0:0:
223,335,55657,2,0,L|203:277,1,45,8|0,0:3|0:0,0:0:0:0:
157,164,55845,1,0,0:0:0:0:
111,342,56032,1,0,0:0:0:0:
226,161,56220,2,0,B|272:67,1,90,12|0,0:3|0:0,0:0:0:0:
443,25,56595,6,0,B|436:53|436:53|417:71|417:71|410:105,1,90,12|0,3:2|3:0,3:0:0:0:
405,127,56876,1,0,3:0:0:0:
399,148,56970,1,8,3:3:0:0:
492,232,57157,2,0,B|498:198|498:198|487:174|487:174|494:131,1,90,4|0,0:2|0:0,0:0:0:0:
411,245,57532,1,0,3:0:0:0:
392,257,57626,1,0,3:0:0:0:
369,263,57720,2,0,P|353:263|337:258,1,33.7500012874604,8|0,3:3|0:0,0:0:0:0:
240,203,57907,2,0,P|270:197|296:204,1,33.7500012874604
206,290,58095,37,0,3:0:0:0:
191,307,58189,1,0,3:0:0:0:
170,316,58282,1,0,3:0:0:0:
148,322,58376,1,0,3:0:0:0:
125,322,58470,2,0,B|77:315|77:315|44:284,1,90,12|0,3:3|0:0,0:0:0:0:
48,162,58845,5,0,3:0:0:0:
49,148,58938,1,0,3:0:0:0:
50,134,59032,1,0,3:0:0:0:
51,120,59126,1,0,3:0:0:0:
53,106,59220,2,0,L|58:61,1,33.7500012874604,12|0,3:3|0:0,0:0:0:0:
139,37,59407,1,0,3:0:0:0:
168,48,59501,1,0,3:0:0:0:
182,76,59595,6,0,P|204:115|246:131,1,90,12|0,3:2|0:0,0:0:0:0:
411,117,59970,1,8,0:3:0:0:
325,0,60157,2,0,B|325:25|325:25|312:56|312:56|310:87,1,90
305,220,60532,1,0,3:0:0:0:
305,242,60626,1,0,3:0:0:0:
305,264,60720,2,0,L|305:297,1,33.7500012874604,8|0,3:3|0:0,0:0:0:0:
215,369,60907,2,0,L|215:336,1,33.7500012874604
377,240,61095,37,0,3:0:0:0:
398,244,61188,1,0,3:0:0:0:
418,253,61282,1,0,3:0:0:0:
435,267,61376,1,0,3:0:0:0:
448,285,61470,2,0,L|447:187,1,90,12|0,3:3|0:0,0:0:0:0:
470,64,61845,5,0,3:0:0:0:
457,82,61938,1,0,3:0:0:0:
435,89,62032,1,0,3:0:0:0:
412,87,62126,1,0,3:0:0:0:
390,79,62220,2,0,P|366:73|330:81,1,33.7500012874604,12|0,3:3|0:0,0:0:0:0:
221,175,62407,1,0,3:0:0:0:
256,169,62501,1,0,3:0:0:0:
278,141,62595,6,0,P|273:83|241:41,1,90,12|0,3:2|0:0,0:0:0:0:
104,42,62970,1,8,0:3:0:0:
166,195,63157,2,0,B|214:218|214:218|262:217,1,90
362,224,63532,1,0,3:0:0:0:
382,241,63626,1,0,3:0:0:0:
397,263,63720,2,0,P|413:284|423:308,3,45,8|0|0|0,3:3|0:0|0:0|0:0,0:0:0:0:
339,337,64095,37,0,3:0:0:0:
315,348,64188,1,0,3:0:0:0:
288,345,64282,1,0,3:0:0:0:
266,328,64376,1,0,3:0:0:0:
242,314,64470,2,0,P|192:314|156:346,1,90,12|0,3:3|0:0,0:0:0:0:
21,324,64845,5,0,3:0:0:0:
61,305,64938,1,0,3:0:0:0:
82,265,65032,1,0,3:0:0:0:
73,220,65126,1,0,3:0:0:0:
50,194,65220,2,0,L|11:164,1,33.7500012874604,12|0,3:3|0:0,0:0:0:0:
77,59,65407,1,0,3:0:0:0:
98,94,65501,1,0,3:0:0:0:
133,115,65595,6,0,P|182:118|219:95,1,90,12|0,3:2|0:0,0:0:0:0:
236,74,65876,1,4,3:2:0:0:
257,51,65970,1,0,3:0:0:0:
284,36,66063,1,0,3:0:0:0:
314,45,66157,2,0,B|336:88|336:88|318:138,1,90,12|0,0:3|0:0,0:0:0:0:
285,138,66438,38,0,B|269:186|269:186|295:233,1,90,8|0,0:3|0:0,0:0:0:0:
312,245,66720,5,8,0:3:0:0:
382,182,66907,1,8,0:3:0:0:
209,245,67095,2,0,P|162:290|185:348,1,116.999994644165,8|0,0:2|0:0,0:0:0:0:
213,267,67376,6,0,B|195:303|195:303|201:345,1,62.9999980773926,8|0,0:3|0:0,0:0:0:0:
223,287,67657,37,8,0:3:0:0:
459,317,67845,2,0,B|465:272|465:272|437:238,1,80.9999975280763,4|0,0:2|0:0,0:0:0:0:
438,304,68126,6,0,L|420:240,1,53.9999983520508
407,287,68407,5,8,0:2:0:0:
305,330,68595,1,12,0:2:0:0:
256,192,68688,12,0,74595,0:0:0:0:
178,133,86595,37,8,3:2:0:0:
170,148,86688,1,0,3:0:0:0:
167,164,86782,1,0,3:0:0:0:
169,180,86876,1,0,3:0:0:0:
175,195,86970,1,0,3:0:0:0:
256,277,87157,2,0,L|304:272,2,33.7500012874604,0|0|8,3:0|3:0|3:3,3:0:0:0:
192,351,87532,6,0,P|151:358|113:337,1,67.5000025749208,0|0,0:0|3:0,0:0:0:0:
113,334,87813,1,0,3:0:0:0:
98,320,87907,2,0,P|64:299|15:303,1,67.5000025749208,0|4,3:0|0:0,0:0:0:0:
36,114,88470,5,4,0:0:0:0:
121,140,88657,1,0,0:0:0:0:
134,143,88751,1,0,0:0:0:0:
147,143,88845,2,0,P|183:123|192:93,1,67.5000025749208,12|0,0:3|0:0,0:0:0:0:
199,77,89126,1,0,0:0:0:0:
215,59,89220,2,0,P|253:43|295:50,1,67.5000025749208,4|0,0:1|0:0,0:0:0:0:
366,54,89595,37,8,3:2:0:0:
366,67,89688,1,0,3:0:0:0:
366,80,89782,1,0,3:0:0:0:
366,93,89876,1,0,3:0:0:0:
366,106,89970,1,0,3:0:0:0:
455,200,90157,1,0,3:0:0:0:
455,179,90251,1,0,3:0:0:0:
455,158,90345,2,0,L|455:87,1,67.5000025749208,8|0,3:3|0:0,0:0:0:0:
316,234,90720,5,0,3:0:0:0:
316,254,90813,1,0,3:0:0:0:
316,274,90907,2,0,L|317:325,2,33.7500012874604,0|0|4,3:0|3:0|3:0,0:0:0:0:
189,104,91470,5,4,0:0:0:0:
101,53,91657,2,0,L|102:8,2,33.7500012874604,0|0|12,0:0|0:0|0:3,0:0:0:0:
21,113,92032,1,0,0:0:0:0:
21,125,92126,1,0,0:0:0:0:
22,138,92220,2,0,L|21:212,1,67.5000025749208,4|0,0:1|0:0,0:0:0:0:
57,305,92595,37,8,3:2:0:0:
74,314,92688,1,0,3:0:0:0:
94,315,92782,1,0,3:0:0:0:
114,311,92876,1,0,3:0:0:0:
132,301,92970,1,0,3:0:0:0:
218,216,93157,1,0,3:0:0:0:
218,237,93251,1,0,3:0:0:0:
217,257,93345,1,8,3:3:0:0:
378,347,93720,5,0,3:0:0:0:
399,347,93814,1,0,3:0:0:0:
419,347,93907,2,0,L|497:346,1,67.5000025749208,0|4,3:0|0:0,0:0:0:0:
394,153,94470,5,4,0:0:0:0:
461,207,94657,1,0,0:0:0:0:
472,199,94751,1,0,0:0:0:0:
479,187,94845,2,0,P|490:140|479:93,1,67.5000025749208,12|0,0:3|0:0,0:0:0:0:
482,98,95126,1,0,0:0:0:0:
470,77,95220,2,0,P|446:49|399:35,1,67.5000025749208,4|0,0:0|0:0,0:0:0:0:
240,22,95595,37,8,3:2:0:0:
241,45,95688,1,0,3:0:0:0:
230,66,95782,1,0,3:0:0:0:
213,83,95876,1,0,3:0:0:0:
192,94,95970,1,0,3:0:0:0:
96,54,96157,1,0,3:0:0:0:
79,70,96251,1,0,3:0:0:0:
75,93,96345,2,0,L|78:167,1,67.5000025749208,0|0,3:0|0:0,0:0:0:0:
118,260,96720,5,0,0:0:0:0:
127,273,96813,1,0,0:0:0:0:
141,280,96907,1,0,0:0:0:0:
157,281,97001,1,0,0:0:0:0:
171,279,97095,6,0,B|241:249|231:162|231:162|267:166|281:207,1,198.000006042481,12|0,3:2|0:0,0:0:0:0:
324,282,97657,1,0,3:0:0:0:
337,314,97751,1,0,3:0:0:0:
365,333,97845,1,0,3:0:0:0:
398,339,97938,1,0,3:0:0:0:
432,332,98032,1,0,3:0:0:0:
460,311,98126,1,0,3:0:0:0:
479,282,98220,38,0,L|481:230,1,36,12|0,0:3|0:0,0:0:0:0:
402,191,98407,2,0,L|400:241,1,36
437,87,98595,6,0,B|385:92|385:92|358:125|358:125|288:132,1,135,12|0,0:2|0:0,0:0:0:0:
286,130,98970,1,8,0:3:0:0:
188,183,99157,1,0,3:0:0:0:
200,202,99251,1,0,3:0:0:0:
217,215,99344,1,4,3:1:0:0:
239,218,99438,1,0,3:0:0:0:
261,213,99532,1,0,3:0:0:0:
200,50,99720,5,8,3:3:0:0:
180,39,99813,1,0,3:0:0:0:
157,38,99907,1,0,3:0:0:0:
135,46,100001,1,0,3:0:0:0:
115,58,100095,2,0,P|79:84|35:88,1,90,4|0,3:1|3:0,3:0:0:0:
12,246,100470,37,8,0:3:0:0:
12,246,100657,2,0,P|52:227|96:231,1,90,0|4,0:0|0:0,0:0:0:0:
263,322,101032,1,0,0:0:0:0:
263,322,101220,1,8,0:3:0:0:
282,180,101407,1,0,0:0:0:0:
99,352,101595,6,0,B|97:305|97:305|119:263|119:263|116:197,1,135,4|0,0:0|0:0,0:0:0:0:
114,188,101970,1,8,0:3:0:0:
317,277,102157,2,0,P|369:277|407:251,1,90,0|4,0:0|0:0,0:0:0:0:
474,154,102532,2,0,L|477:99,2,45,0|0|8,0:0|0:0|0:3,0:0:0:0:
470,272,102907,1,0,0:0:0:0:
373,183,103095,5,8,3:3:0:0:
353,171,103188,1,0,3:0:0:0:
330,170,103282,1,0,3:0:0:0:
307,174,103376,1,0,3:0:0:0:
289,187,103470,2,0,L|261:236,3,45,0|0|0|0,3:0|3:0|3:0|3:0,3:0:0:0:
156,118,103845,37,8,0:3:0:0:
156,118,103938,1,8,0:3:0:0:
156,118,104032,2,0,L|202:118,1,45,0|0,0:3|0:0,0:0:0:0:
335,21,104220,2,0,L|280:20,1,36,8|0,0:3|0:0,0:0:0:0:
313,102,104407,2,0,L|365:103,1,36
205,3,104595,6,0,P|139:9|78:44,1,135,12|0,0:2|0:0,0:0:0:0:
52,74,104970,1,8,0:3:0:0:
98,235,105157,2,0,P|133:204|139:150,1,90,0|4,3:0|3:1,0:0:0:0:
141,145,105438,1,0,3:0:0:0:
140,126,105532,1,0,3:0:0:0:
21,197,105720,1,8,3:3:0:0:
19,223,105813,1,0,3:0:0:0:
23,249,105907,1,0,3:0:0:0:
31,274,106001,1,0,3:0:0:0:
44,297,106095,6,0,B|84:324|84:324|133:324,1,90,4|0,3:1|0:0,0:0:0:0:
269,291,106470,2,0,P|312:283|352:302,1,90,8|0,0:3|0:0,0:0:0:0:
416,371,106845,1,4,0:0:0:0:
362,226,107032,2,0,P|357:177|378:128,1,90,0|8,0:0|0:3,0:0:0:0:
212,363,107407,1,0,0:0:0:0:
212,363,107595,38,0,B|186:268|186:268|204:186,1,180,4|8,0:0|0:3,0:0:0:0:
368,33,108157,2,0,B|332:70|332:70|281:72,1,90,0|4,0:0|0:0,0:0:0:0:
131,68,108532,1,0,0:0:0:0:
112,67,108626,1,0,0:0:0:0:
93,67,108720,2,0,P|57:95|45:148,1,90,8|0,0:3|0:0,0:0:0:0:
51,263,109095,5,8,3:3:0:0:
72,291,109188,1,0,3:0:0:0:
106,302,109282,1,0,3:0:0:0:
141,297,109376,1,0,3:0:0:0:
169,274,109470,2,0,L|181:227,3,45,0|0|0|0,3:0|3:0|3:0|3:0,3:0:0:0:
269,199,109845,5,8,0:3:0:0:
269,199,109938,1,8,0:3:0:0:
269,199,110032,2,0,L|257:247,1,36
394,338,110220,2,0,L|409:296,1,36,8|0,0:3|0:0,0:0:0:0:
359,194,110407,2,0,L|346:243,1,36
478,315,110595,38,0,B|492:275|492:275|474:217|474:217|484:187,1,135,12|0,0:2|0:0,0:0:0:0:
494,166,110970,1,8,3:3:0:0:
495,148,111063,1,0,3:0:0:0:
495,129,111157,1,0,3:0:0:0:
495,110,111251,1,0,3:0:0:0:
495,91,111345,2,0,L|496:47,2,45,4|0|0,3:1|0:0|0:0,0:0:0:0:
370,30,111720,5,8,3:3:0:0:
344,23,111813,1,0,3:0:0:0:
317,30,111907,1,0,3:0:0:0:
295,45,112001,1,0,3:0:0:0:
278,70,112095,6,0,P|250:112|170:125,1,135,4|0,3:1|0:0,0:0:0:0:
136,116,112470,1,8,0:3:0:0:
314,205,112657,2,0,B|316:259|316:259|303:292,1,90,0|4,0:0|0:1,0:0:0:0:
89,217,113032,2,0,B|123:196|123:196|178:197,1,90,0|8,0:0|0:3,0:0:0:0:
395,270,113407,1,0,0:0:0:0:
395,270,113595,38,0,L|436:311,2,45,12|0|0,0:2|0:0|0:0,0:0:0:0:
265,114,113970,1,0,0:0:0:0:
455,187,114157,2,0,L|350:186,1,90,0|4,0:0|0:1,0:0:0:0:
207,196,114532,1,0,3:0:0:0:
184,217,114626,1,0,3:0:0:0:
171,246,114720,2,0,P|162:296|169:341,1,90,8|0,3:3|0:0,0:0:0:0:
318,322,115095,6,0,L|338:282,2,45,4|0|0,0:1|0:0|0:0,0:0:0:0:
235,103,115470,2,0,B|191:89|191:89|148:99,1,90,8|0,0:3|0:0,0:0:0:0:
49,159,115845,1,4,3:1:0:0:
44,180,115938,1,0,3:0:0:0:
44,202,116032,1,0,3:0:0:0:
81,62,116220,1,8,0:3:0:0:
187,164,116407,1,0,0:0:0:0:
270,27,116595,6,0,P|356:37|393:115,1,180,12|8,0:2|0:3,0:0:0:0:
384,328,117157,2,0,L|380:375,2,45,0|0|4,3:0|3:0|3:1,3:0:0:0:
306,203,117532,1,0,3:0:0:0:
307,180,117626,1,0,3:0:0:0:
311,157,117720,2,0,B|319:98|319:98|361:78|361:78|366:38,1,135,8|0,3:3|3:0,0:0:0:0:
383,22,118095,38,0,L|432:23,2,45,4|0|0,3:1|3:0|3:0,3:0:0:0:
134,9,118470,2,0,P|102:39|98:83,1,90,8|0,0:3|0:0,0:0:0:0:
186,232,118845,2,0,P|217:201|221:157,1,90
217,60,119220,1,8,0:3:0:0:
217,60,119407,1,0,0:0:0:0:
430,240,119595,6,0,B|460:224|460:224|479:184,2,60,8|8|0,3:2|3:3|3:0,3:0:0:0:
369,268,119970,1,0,3:0:0:0:
300,266,120095,6,0,L|265:199,2,48,8|8|0,3:3|3:3|3:0,3:0:0:0:
185,227,120470,2,0,L|156:276,2,41.9999987182618,8|8|0,3:3|3:3|3:0,3:0:0:0:
163,169,120845,1,0,3:0:0:0:
101,161,120970,1,0,3:0:0:0:
43,171,121095,38,0,L|24:201,4,20.9999993591309,8|0|0|0|0,3:2|3:0|3:0|3:0|3:0,3:0:0:0:
160,80,121470,2,0,L|165:43,4,20.9999993591309,0|0|0|0|0,3:0|3:0|3:0|3:0|3:0,3:0:0:0:
144,250,121845,2,0,L|135:285,4,20.9999993591309,0|0|0|0|0,3:0|3:0|3:0|3:0|3:0,3:0:0:0:
262,145,122220,2,0,L|294:123,4,20.9999993591309,0|0|0|0|0,3:0|3:0|3:0|3:0|3:0,3:0:0:0:
195,181,122595,5,12,0:2:0:0:
330,231,122782,1,0,0:0:0:0:
167,174,122970,1,8,0:3:0:0:
319,103,123157,1,0,0:0:0:0:
201,263,123345,2,0,B|138:353,1,90,8|0,0:3|0:0,0:0:0:0:
185,124,123720,5,8,0:3:0:0:
255,336,123907,1,0,0:0:0:0:
88,254,124095,1,8,0:3:0:0:
250,197,124282,1,0,0:0:0:0:
30,299,124470,2,0,P|19:249|37:199,1,90,8|0,0:3|0:0,0:0:0:0:
222,52,124845,37,8,0:3:0:0:
260,205,125032,1,0,0:0:0:0:
115,124,125220,2,0,L|118:28,1,90,8|0,0:3|0:0,0:0:0:0:
177,358,125595,5,8,0:2:0:0:
156,258,125782,1,0,0:0:0:0:
180,155,125970,2,0,P|219:120|277:119,1,90,8|0,0:3|0:0,0:0:0:0:
367,308,126345,2,0,P|328:343|270:344,1,90,8|0,0:3|0:0,0:0:0:0:
383,129,126720,5,8,0:3:0:0:
332,234,126907,1,0,0:0:0:0:
491,125,127095,2,0,L|491:35,1,90,8|0,0:3|0:0,0:0:0:0:
307,139,127470,37,8,0:3:0:0:
388,50,127657,1,0,0:0:0:0:
186,95,127845,1,8,0:3:0:0:
432,209,128032,1,0,0:0:0:0:
219,268,128220,2,0,L|129:295,1,90,8|0,0:3|0:0,0:0:0:0:
475,321,128595,5,8,0:2:0:0:
353,314,128782,1,0,0:0:0:0:
504,221,128970,2,0,B|527:172|496:125,1,99.0000030212403,8|0,0:3|0:0,0:0:0:0:
417,36,129345,1,0,0:0:0:0:
303,33,129532,1,0,0:0:0:0:
261,258,129720,1,8,0:3:0:0:
399,200,129907,1,0,0:0:0:0:
303,33,130095,6,0,P|245:31|208:58,1,99.0000030212403,8|0,0:3|0:0,0:0:0:0:
111,251,130470,2,0,P|169:253|206:226,1,99.0000030212403,8|0,0:3|0:0,0:0:0:0:
321,266,130845,38,0,L|324:317,2,49.5000015106202,8|0|0,3:3|3:0|3:0,3:0:0:0:
211,172,131220,1,8,3:3:0:0:
177,177,131313,1,0,3:0:0:0:
147,194,131407,1,0,3:0:0:0:
123,219,131501,1,0,3:0:0:0:
111,251,131595,5,8,3:2:0:0:
207,266,131782,1,0,0:0:0:0:
46,81,131970,2,0,L|44:186,1,99.0000030212403,8|0,0:3|0:0,0:0:0:0:
159,18,132345,1,8,0:3:0:0:
159,18,132532,1,0,0:0:0:0:
248,156,132720,1,8,0:3:0:0:
348,39,132907,1,0,0:0:0:0:
133,216,133095,6,0,B|120:232|120:232|206:232,1,99.0000030212403,8|0,0:3|0:0,0:0:0:0:
415,145,133470,2,0,B|428:129|428:129|342:129,1,99.0000030212403,8|0,0:3|0:0,0:0:0:0:
65,295,133845,2,0,B|52:311|52:311|138:311,1,99.0000030212403,8|0,0:3|0:0,0:0:0:0:
335,312,134220,1,8,0:3:0:0:
335,312,134407,1,0,0:0:0:0:
256,88,134595,37,8,3:2:0:0:
196,204,134782,1,0,3:0:0:0:
314,204,134970,1,0,3:0:0:0:
171,105,135157,1,0,3:0:0:0:
255,277,135345,1,8,3:2:0:0:
345,111,135532,1,0,3:0:0:0:
128,169,135720,1,0,3:2:0:0:
337,281,135907,1,0,3:0:0:0:
265,39,136095,5,8,3:2:0:0:
153,276,136282,1,0,3:0:0:0:
395,205,136470,5,0,3:2:0:0:
134,72,136657,1,4,3:1:0:0:
236,190,136845,6,0,L|242:146,1,45
315,267,137220,2,0,L|322:312,1,45
266,48,137595,6,0,P|204:22|120:31,1,148.50000453186,12|0,0:2|2:0,0:0:0:0:
72,71,137970,2,0,L|67:175,1,99.0000030212403,4|0,0:0|0:0,0:0:0:0:
175,308,138345,1,8,0:3:0:0:
238,180,138532,1,0,0:0:0:0:
55,283,138720,2,0,L|55:384,1,99.0000030212403,4|0,0:0|0:0,0:0:0:0:
354,181,139095,54,0,P|387:226|368:317,1,148.50000453186,4|0,0:2|2:0,0:0:0:0:
321,354,139470,2,0,B|269:357|269:357|220:337,1,99.0000030212403,4|0,0:0|0:0,0:0:0:0:
115,179,139845,2,0,L|121:80,1,99.0000030212403,8|0,0:3|0:0,0:0:0:0:
349,44,140220,1,0,3:0:0:0:
231,161,140407,1,0,3:0:0:0:
432,225,140595,6,0,P|469:163|452:91,1,148.50000453186,12|0,3:2|2:0,0:0:0:0:
406,42,140970,2,0,B|352:31|352:31|293:38,1,99.0000030212403,4|0,0:0|0:0,0:0:0:0:
157,189,141345,2,0,L|154:309,1,99.0000030212403,8|0,0:3|0:0,0:0:0:0:
52,164,141720,1,4,0:0:0:0:
242,323,141907,2,0,P|298:316|343:281,1,99.0000030212403
179,30,142282,54,0,L|208:128,1,99.0000030212403,8|0,0:3|0:0,0:0:0:0:
234,213,142657,1,0,0:0:0:0:
398,16,142845,1,8,0:3:0:0:
403,240,143032,1,4,0:0:0:0:
305,145,143220,1,4,0:0:0:0:
501,78,143407,1,4,0:0:0:0:
483,265,143595,6,0,P|435:319|364:318,1,148.50000453186,12|0,0:2|2:0,0:0:0:0:
307,282,143970,2,0,P|257:281|210:296,1,99.0000030212403,4|0,0:0|0:0,0:0:0:0:
395,232,144345,2,0,B|397:182|397:182|362:127,1,99.0000030212403,8|0,0:3|0:0,0:0:0:0:
248,67,144720,1,4,0:0:0:0:
320,207,144907,1,0,0:0:0:0:
469,51,145095,54,0,B|396:13|396:13|316:12,1,148.50000453186,4|0,0:0|2:0,0:0:0:0:
269,43,145470,2,0,P|219:50|154:40,1,99.0000030212403,4|0,0:0|0:0,0:0:0:0:
75,142,145845,2,0,P|73:187|96:240,1,99.0000030212403,8|0,0:3|0:0,0:0:0:0:
283,330,146220,1,0,3:0:0:0:
184,188,146407,1,0,3:0:0:0:
413,362,146595,6,0,P|455:310|463:228,1,148.50000453186,12|0,3:2|2:0,0:0:0:0:
412,172,146970,2,0,P|387:209|388:262,1,99.0000030212403,4|0,0:0|0:0,0:0:0:0:
281,23,147345,2,0,B|206:12|206:12|126:33,1,148.50000453186,8|0,0:3|2:0,0:0:0:0:
83,91,147720,2,0,B|135:109|135:109|194:97,1,99.0000030212403,4|0,0:0|0:0,0:0:0:0:
306,271,148095,53,0,0:0:0:0:
202,324,148282,1,8,0:3:0:0:
86,328,148470,2,0,P|39:317|-4:282,1,99.0000030212403,4|0,0:0|0:0,0:0:0:0:
306,271,148845,5,8,0:3:0:0:
252,91,149032,1,4,0:0:0:0:
477,200,149220,1,0,0:0:0:0:
419,98,149407,1,0,0:0:0:0:
512,319,149595,54,0,P|450:357|379:343,1,148.50000453186,12|0,0:2|2:0,0:0:0:0:
328,300,149970,2,0,L|327:201,1,99.0000030212403,4|0,0:0|0:0,0:0:0:0:
200,357,150345,2,0,B|147:364|147:364|105:342,1,99.0000030212403,8|0,0:3|0:0,0:0:0:0:
11,241,150720,1,0,0:0:0:0:
11,241,150907,1,0,0:0:0:0:
252,276,151095,6,0,P|251:199|220:124,1,148.50000453186,4|0,0:0|2:0,0:0:0:0:
194,97,151470,2,0,P|247:116|307:105,1,99.0000030212403,4|0,0:0|0:0,0:0:0:0:
489,38,151845,2,0,P|444:20|395:23,1,99.0000030212403,8|0,0:3|0:0,0:0:0:0:
310,206,152220,1,0,3:0:0:0:
499,160,152407,1,0,3:0:0:0:
253,14,152595,54,0,B|178:8|178:8|91:21,1,148.50000453186,12|0,3:2|2:0,0:0:0:0:
51,61,152970,2,0,P|46:109|66:154,1,99.0000030212403,4|0,0:0|0:0,0:0:0:0:
210,207,153345,2,0,L|308:208,1,99.0000030212403,8|0,0:3|0:0,0:0:0:0:
102,319,153720,1,0,0:0:0:0:
164,129,153907,1,0,0:0:0:0:
259,294,154095,2,0,L|312:385,1,99.0000030212403,4|8,0:0|0:3,0:0:0:0:
32,244,154470,6,0,P|24:187|40:132,1,99.0000030212403,4|0,0:0|0:0,0:0:0:0:
171,30,154845,1,8,0:3:0:0:
156,164,155032,1,4,0:0:0:0:
54,39,155220,1,4,0:0:0:0:
160,207,155407,1,4,0:0:0:0:
349,32,155595,54,0,B|435:42|452:128,1,148.50000453186,12|0,0:2|2:0,0:0:0:0:
449,191,155970,2,0,P|405:208|330:191,1,99.0000030212403,4|0,0:0|0:0,0:0:0:0:
226,203,156345,2,0,L|223:310,1,99.0000030212403,8|0,0:3|0:0,0:0:0:0:
349,148,156720,2,0,L|348:40,1,99.0000030212403,4|0,0:1|0:0,0:0:0:0:
147,294,157095,6,0,P|81:310|59:247,1,148.50000453186,4|0,0:0|2:0,0:0:0:0:
80,183,157470,2,0,B|137:170|137:170|176:180,1,99.0000030212403,4|0,0:0|0:0,0:0:0:0:
330,232,157845,1,8,0:3:0:0:
213,276,158032,1,0,0:0:0:0:
358,114,158220,1,4,3:1:0:0:
419,314,158407,1,0,3:0:0:0:
160,208,158595,54,0,B|152:123|152:123|182:58,1,148.50000453186,12|0,3:2|2:0,0:0:0:0:
232,10,158970,2,0,B|251:68|251:68|235:107,1,99.0000030212403,4|0,0:0|0:0,0:0:0:0:
186,286,159345,6,0,P|233:347|337:347,1,148.50000453186,8|0,0:3|2:0,0:0:0:0:
374,339,159720,2,0,P|341:293|294:285,1,99.0000030212403,4|0,0:0|0:0,0:0:0:0:
473,202,160095,53,0,0:0:0:0:
286,191,160282,1,8,0:3:0:0:
403,45,160470,2,0,L|490:32,1,76.5000014591217,4|0,0:0|0:0,0:0:0:0:
226,73,160845,5,8,0:3:0:0:
400,162,161032,1,4,0:0:0:0:
233,220,161220,1,4,0:1:0:0:
330,66,161407,1,4,0:1:0:0:
498,253,161595,54,0,P|462:309|400:333,1,135.000005149842,12|0,0:2|0:0,0:0:0:0:
88,343,162345,5,8,0:3:0:0:
256,192,162720,53,12,0:2:0:0:
256,192,162813,12,0,165720,0:0:0:0:
134,238,173970,21,0,3:0:0:0:
228,100,174157,1,0,3:0:0:0:
375,183,174720,5,12,3:2:0:0:
375,183,174907,1,0,3:0:0:0:
377,317,175095,2,0,L|376:384,1,67.5000025749208,0|0,3:0|3:0,0:0:0:0:
491,293,175470,2,0,L|490:219,1,67.5000025749208,8|0,0:3|0:0,0:0:0:0:
485,90,175845,1,0,3:0:0:0:
474,106,175938,1,0,3:0:0:0:
458,118,176032,2,0,P|425:126|387:120,1,67.5000025749208,0|4,3:0|3:1,3:0:0:0:
290,66,176407,6,0,L|290:22,2,33.7500012874604,0|0|4,0:0|0:0|0:0,0:0:0:0:
289,159,176782,1,0,0:0:0:0:
169,35,176970,2,0,L|169:119,1,67.5000025749208,12|0,0:3|3:0,0:0:0:0:
149,121,177251,1,0,3:0:0:0:
130,140,177345,2,0,L|128:216,1,67.5000025749208,4|0,3:1|0:0,0:0:0:0:
24,325,177720,37,12,3:2:0:0:
24,325,177907,1,0,3:0:0:0:
217,328,178095,2,0,L|284:328,1,67.5000025749208,0|0,3:0|3:0,3:0:0:0:
303,236,178470,2,0,L|216:235,1,67.5000025749208,8|0,0:3|0:0,0:0:0:0:
373,131,178845,1,0,3:0:0:0:
469,253,179032,2,0,L|469:332,1,67.5000025749208,0|4,3:0|0:0,0:0:0:0:
207,281,179595,5,0,0:0:0:0:
254,190,179782,1,0,3:0:0:0:
256,173,179876,1,0,3:0:0:0:
252,156,179970,1,12,3:3:0:0:
162,120,180157,2,0,L|121:120,2,33.7500012874604,4|0|4,0:0|0:0|0:0,0:0:0:0:
343,58,180532,6,0,L|344:109,1,33.7500012874604,0|8,3:0|3:3,3:0:0:0:
345,184,180720,1,12,3:2:0:0:
462,30,180907,1,0,3:0:0:0:
473,162,181095,2,0,L|474:229,1,67.5000025749208,0|0,3:0|3:0,0:0:0:0:
445,350,181470,1,8,0:3:0:0:
232,280,181845,37,0,3:0:0:0:
233,266,181938,1,0,3:0:0:0:
233,252,182032,2,0,L|236:175,1,67.5000025749208,0|4,3:0|0:0,0:0:0:0:
284,73,182407,1,0,0:0:0:0:
298,63,182501,1,0,0:0:0:0:
314,62,182595,2,0,L|361:64,2,33.7500012874604,4|0|0,0:0|0:0|0:0,0:0:0:0:
156,172,182970,6,0,P|124:182|91:179,1,67.5000025749208,12|0,0:3|0:0,0:0:0:0:
73,176,183251,1,0,0:0:0:0:
57,168,183345,2,0,L|53:246,1,67.5000025749208,4|0,0:0|0:0,0:0:0:0:
53,252,183626,1,0,0:0:0:0:
52,268,183720,5,12,3:2:0:0:
178,139,183907,1,0,3:0:0:0:
283,257,184095,2,0,L|271:337,1,67.5000025749208,0|0,3:0|3:0,0:0:0:0:
391,223,184470,1,8,0:3:0:0:
242,30,184845,37,0,3:0:0:0:
242,30,185032,2,0,L|251:107,1,67.5000025749208,0|4,3:0|3:1,0:0:0:0:
107,305,185595,5,4,0:0:0:0:
189,277,185782,2,0,L|188:321,4,33.7500012874604,0|0|4|0|0,0:0|0:0|3:1|3:0|3:0,0:0:0:0:
177,248,186251,1,0,3:0:0:0:
155,225,186345,2,0,P|122:205|84:205,1,76.5000014591217,4|0,3:1|3:0,0:0:0:0:
69,90,186720,5,12,3:2:0:0:
91,110,186813,1,0,3:0:0:0:
120,117,186907,1,0,3:0:0:0:
150,112,187001,1,0,3:0:0:0:
176,95,187095,1,8,3:3:0:0:
267,85,187282,1,0,0:0:0:0:
266,96,187376,1,0,0:0:0:0:
266,107,187470,38,0,L|265:188,1,76.5000014591217
385,292,187845,1,8,0:3:0:0:
385,292,188032,2,0,B|401:252|401:252|401:196,1,76.5000014591217,0|4,0:0|0:0,0:0:0:0:
396,95,188407,2,0,L|397:45,2,38.2500007295609,0|0|12,0:0|0:0|0:3,0:0:0:0:
262,165,188782,5,0,0:0:0:0:
268,183,188876,1,0,0:0:0:0:
273,201,188970,2,0,L|244:286,1,76.5000014591217,4|0,0:3|0:0,0:0:0:0:
240,295,189251,1,0,0:0:0:0:
229,315,189345,2,0,B|184:323|184:323|140:310,1,76.5000014591217,12|0,0:3|0:0,0:0:0:0:
37,166,189720,5,12,3:2:0:0:
63,168,189813,1,0,3:0:0:0:
88,176,189907,1,0,3:0:0:0:
111,188,190001,1,0,3:0:0:0:
131,205,190095,1,8,3:3:0:0:
190,126,190282,2,0,L|189:80,2,38.2500007295609,0|0|0,3:0|3:0|3:1,3:0:0:0:
422,151,190845,38,0,L|376:186,1,38.2500007295609,8|0,3:3|3:0,3:0:0:0:
320,243,191032,2,0,P|315:287|334:321,1,76.5000014591217,0|4,3:0|3:1,0:0:0:0:
233,313,191407,1,0,0:0:0:0:
214,306,191501,1,0,0:0:0:0:
194,306,191595,2,0,P|137:314|117:303,1,76.5000014591217,12|0,0:3|0:0,0:0:0:0:
108,287,191876,1,0,0:0:0:0:
95,267,191970,6,0,B|85:221|85:221|89:191,1,76.5000014591217,4|0,0:1|0:0,0:0:0:0:
94,169,192251,1,0,0:0:0:0:
100,146,192345,2,0,L|114:96,2,38.2500007295609
209,22,192720,5,12,3:2:0:0:
229,44,192813,1,0,3:0:0:0:
241,71,192907,1,0,3:0:0:0:
246,101,193001,1,0,3:0:0:0:
245,131,193095,1,8,3:3:0:0:
175,228,193282,1,0,3:0:0:0:
175,228,193376,1,0,3:0:0:0:
175,228,193470,1,0,3:0:0:0:
389,107,193845,38,0,L|391:56,2,38.2500007295609,0|0|0,3:0|3:0|3:0,3:0:0:0:
383,216,194220,2,0,P|376:258|382:302,1,76.5000014591217,4|0,0:1|0:0,0:0:0:0:
384,309,194501,1,0,0:0:0:0:
389,327,194595,2,0,P|353:340|315:343,1,76.5000014591217,12|0,0:3|0:0,0:0:0:0:
296,342,194876,1,0,0:0:0:0:
276,339,194970,5,4,0:0:0:0:
232,232,195157,2,0,P|259:218|286:218,2,38.2500007295609,0|0|12,0:0|0:0|0:3,0:0:0:0:
164,363,195532,1,0,0:0:0:0:
53,227,195720,5,8,3:2:0:0:
25,239,195813,1,0,3:0:0:0:
19,269,195907,1,0,3:0:0:0:
32,296,196001,1,0,3:0:0:0:
62,302,196095,1,0,3:0:0:0:
146,195,196282,1,0,3:0:0:0:
148,168,196376,1,0,3:0:0:0:
152,141,196470,2,0,P|176:103|217:79,1,76.5000014591217,0|0,3:0|0:0,3:0:0:0:
332,80,196845,37,0,3:0:0:0:
356,68,196938,1,0,3:0:0:0:
365,43,197032,1,0,3:0:0:0:
353,18,197126,1,0,3:0:0:0:
332,12,197220,6,0,P|266:76|292:136,1,148.50000453186,12|0,3:2|0:0,0:0:0:0:
297,150,197595,2,0,L|321:189,3,45,0|0|0|0,3:0|3:0|3:0|3:0,3:0:0:0:
342,222,197970,1,0,3:0:0:0:
356,259,198063,1,0,3:0:0:0:
349,299,198157,1,0,3:0:0:0:
329,334,198251,1,0,3:0:0:0:
289,341,198345,6,0,L|255:327,1,36,12|0,0:3|0:0,0:0:0:0:
186,207,198532,2,0,L|220:218,1,36
427,169,198720,38,0,B|396:102|396:102|337:83,1,135,12|0,0:2|0:0,0:0:0:0:
308,74,199095,1,8,0:3:0:0:
208,126,199282,1,0,3:0:0:0:
176,123,199376,1,0,3:0:0:0:
145,115,199470,1,4,3:1:0:0:
122,92,199563,1,0,3:0:0:0:
107,64,199657,1,0,3:0:0:0:
223,34,199845,5,0,3:0:0:0:
222,65,199938,1,0,3:0:0:0:
218,96,200032,1,0,3:0:0:0:
208,126,200126,1,0,3:0:0:0:
192,153,200220,2,0,P|173:206|175:250,1,90,4|0,3:1|0:0,0:0:0:0:
239,341,200595,5,8,0:3:0:0:
96,255,200782,2,0,P|52:248|10:265,1,90,0|4,0:0|0:1,0:0:0:0:
118,358,201157,1,0,0:0:0:0:
39,176,201345,1,8,0:3:0:0:
39,176,201532,1,0,0:0:0:0:
227,228,201720,38,0,B|295:239|295:239|379:224,1,135,12|0,0:2|0:0,0:0:0:0:
399,220,202095,1,8,0:3:0:0:
297,93,202282,2,0,L|243:19,1,90,0|4,0:0|0:1,0:0:0:0:
206,140,202657,2,0,L|173:173,2,45,0|0|8,0:0|0:0|0:3,0:0:0:0:
340,30,203032,1,0,0:0:0:0:
389,132,203220,5,8,3:3:0:0:
407,144,203313,1,0,3:0:0:0:
429,147,203407,1,0,3:0:0:0:
451,143,203501,1,0,3:0:0:0:
470,131,203595,1,0,3:0:0:0:
478,110,203688,1,0,3:0:0:0:
476,87,203782,1,0,3:0:0:0:
463,67,203876,1,0,3:0:0:0:
441,61,203970,6,0,L|402:61,3,36,8|0|0|0,0:3|0:0|0:0|0:0,0:0:0:0:
451,215,204345,2,0,L|464:268,1,36,8|0,0:3|0:0,0:0:0:0:
317,187,204532,2,0,L|306:125,1,36
383,313,204720,38,0,P|358:353|255:353,1,135,12|0,0:2|0:0,0:0:0:0:
237,348,205095,1,8,0:3:0:0:
160,283,205282,2,0,P|195:249|247:241,1,90,0|4,3:0|3:1,3:0:0:0:
261,241,205563,1,0,3:0:0:0:
286,250,205657,1,0,3:0:0:0:
115,349,205845,1,8,3:3:0:0:
91,335,205938,1,0,3:0:0:0:
75,312,206032,1,0,3:0:0:0:
69,285,206126,1,0,3:0:0:0:
69,257,206220,6,0,B|79:210|90:221|102:153,1,90,4|0,3:1|0:0,0:0:0:0:
149,6,206595,2,0,P|149:69|168:94,1,90
289,200,206970,1,0,0:0:0:0:
305,44,207157,2,0,P|225:33|196:48,1,90
393,146,207532,1,0,0:0:0:0:
219,148,207720,6,0,B|206:217|206:217|230:291|230:291|221:345,1,180,12|8,0:2|0:3,0:0:0:0:
405,344,208282,2,0,B|408:290|408:290|382:249,1,90,0|4,0:0|0:1,0:0:0:0:
311,155,208657,1,0,0:0:0:0:
305,133,208751,1,0,0:0:0:0:
307,110,208845,2,0,P|317:62|352:35,1,90,8|0,0:3|0:0,0:0:0:0:
469,62,209220,38,0,P|479:82|470:115,3,45,8|0|0|0,3:3|3:0|3:0|3:0,3:0:0:0:
456,128,209595,1,0,3:0:0:0:
443,156,209688,1,0,3:0:0:0:
442,187,209782,1,0,3:0:0:0:
457,214,209876,1,0,3:0:0:0:
479,224,209970,5,8,0:3:0:0:
476,259,210063,1,8,0:3:0:0:
472,294,210157,2,0,L|467:332,1,36
260,252,210345,2,0,L|260:298,1,36,8|0,0:3|0:0,0:0:0:0:
384,273,210532,2,0,L|375:323,1,36
348,147,210720,6,0,B|300:124|300:124|257:141|257:141|204:118,1,135,12|0,0:2|0:0,0:0:0:0:
203,119,211095,1,8,3:3:0:0:
182,109,211188,1,0,3:0:0:0:
161,100,211282,1,0,3:0:0:0:
139,92,211376,1,0,3:0:0:0:
118,83,211470,2,0,L|72:60,2,45,0|0|0,3:0|3:0|3:0,3:0:0:0:
62,181,211845,37,8,3:3:0:0:
57,211,211938,1,0,3:0:0:0:
67,240,212032,1,0,3:0:0:0:
89,262,212126,1,0,3:0:0:0:
114,280,212220,6,0,B|176:305|176:305|250:298,1,135,4|0,3:1|0:0,0:0:0:0:
278,290,212595,1,8,0:3:0:0:
263,141,212782,2,0,P|219:152|190:191,1,90,0|4,0:0|0:1,0:0:0:0:
357,139,213157,2,0,P|345:95|306:66,1,90,0|8,0:0|0:3,0:0:0:0:
395,269,213532,1,0,0:0:0:0:
395,269,213720,6,0,L|411:323,2,45,12|0|0,0:2|0:0|0:0,0:0:0:0:
452,148,214095,1,0,0:0:0:0:
299,209,214282,2,0,P|256:219|213:207,1,90
116,132,214657,1,0,3:0:0:0:
116,113,214751,1,0,3:0:0:0:
116,94,214845,2,0,L|115:4,1,90,8|0,3:3|0:0,0:0:0:0:
217,88,215220,38,0,L|266:106,2,45,4|0|0,0:1|0:0|0:0,0:0:0:0:
28,113,215595,2,0,P|11:154|13:198,1,90,8|0,0:3|0:0,0:0:0:0:
85,318,215970,1,0,0:0:0:0:
106,325,216063,1,0,0:0:0:0:
128,325,216157,1,0,0:0:0:0:
236,285,216345,1,8,0:3:0:0:
132,228,216532,1,0,0:0:0:0:
290,350,216720,6,0,B|346:248|267:248|309:177,1,180,12|8,0:2|0:3,0:0:0:0:
406,98,217282,2,0,P|428:90|450:89,2,45,0|0|4,3:0|3:0|3:1,3:0:0:0:
279,113,217657,1,0,3:0:0:0:
256,108,217751,1,0,3:0:0:0:
233,104,217845,2,0,B|175:93|175:93|112:42,1,135,8|0,3:3|3:0,3:0:0:0:
94,37,218220,6,0,L|39:41,2,45,4|0|0,3:1|3:0|3:0,3:0:0:0:
174,181,218595,2,0,P|172:223|134:269,1,90,8|0,0:3|0:0,0:0:0:0:
72,316,218970,1,0,0:0:0:0:
299,162,219157,2,0,P|273:198|270:242,1,90,8|0,0:3|0:0,0:0:0:0:
293,331,219532,1,0,0:0:0:0:
496,219,219720,38,0,B|510:251|510:251|509:293,2,60,8|8|0,3:2|3:3|3:0,3:0:0:0:
448,172,220095,1,0,3:3:0:0:
378,177,220220,6,0,L|357:238,2,48,8|8|0,3:3|3:3|3:0,3:0:0:0:
364,60,220595,2,8,L|375:13,2,41.9999987182618,0|8|0,3:0|3:3|3:0,3:3:0:0:
315,85,220970,1,0,3:0:0:0:
260,79,221095,1,0,3:0:0:0:
223,37,221220,6,0,L|221:-1,4,20.9999993591309,8|0|0|0|0,3:2|3:0|3:0|3:0|3:0,3:0:0:0:
215,163,221595,2,0,L|240:189,4,20.9999993591309,0|0|0|0|0,3:0|3:0|3:0|3:0|3:0,3:0:0:0:
75,79,221970,2,0,L|58:66,4,20.9999993591309,0|0|0|0|0,3:0|3:0|3:0|3:0|3:0,3:0:0:0:
136,225,222345,2,0,L|148:244,4,20.9999993591309,0|0|0|0|0,3:0|3:0|3:0|3:0|3:0,3:0:0:0:
71,182,222720,37,12,0:2:0:0:
227,255,222907,1,0,0:0:0:0:
88,316,223095,1,8,0:3:0:0:
171,164,223282,1,0,0:0:0:0:
264,336,223470,2,0,P|308:360|366:349,1,99.0000030212403,0|0,0:3|0:0,0:0:0:0:
474,295,223845,5,8,0:3:0:0:
318,224,224032,1,0,0:0:0:0:
470,322,224220,1,8,0:3:0:0:
450,127,224407,1,0,0:0:0:0:
262,182,224595,2,0,P|254:241|281:287,1,99.0000030212403,8|0,0:3|0:0,0:0:0:0:
303,95,224970,5,8,0:3:0:0:
184,143,225157,1,0,0:0:0:0:
68,93,225345,2,0,P|40:53|36:-1,1,99.0000030212403,8|0,0:3|0:0,0:0:0:0:
331,177,225720,37,12,0:2:0:0:
111,222,225907,1,0,0:0:0:0:
223,64,226095,2,0,P|286:49|327:69,1,99.0000030212403,8|0,0:3|0:0,0:0:0:0:
388,250,226470,2,0,P|341:266|294:253,1,99.0000030212403,8|0,0:3|0:0,0:0:0:0:
414,132,226845,5,8,0:3:0:0:
468,303,227032,1,0,0:3:0:0:
253,278,227220,6,0,B|225:254|225:254|212:213,2,66.0000020141602,8|8|0,3:3|3:3|3:0,3:0:0:0:
193,152,227595,37,8,3:3:0:0:
137,106,227720,2,0,B|95:107|95:107|55:128,1,66.0000020141602,0|0,3:0|3:0,3:0:0:0:
35,178,227970,5,8,3:3:0:0:
88,223,228095,2,0,B|122:226|122:226|165:203,1,66.0000020141602,0|0,3:0|3:0,3:0:0:0:
264,72,228345,6,0,B|305:72|305:72|340:92,2,66.0000020141602,8|0|0,3:3|3:0|3:0,3:0:0:0:
441,186,228720,37,12,0:2:0:0:
445,35,228907,1,0,0:0:0:0:
323,173,229095,2,0,P|302:229|311:268,1,99.0000030212403,8|0,0:3|0:0,0:0:0:0:
424,367,229470,2,0,P|445:311|436:272,1,99.0000030212403,8|0,0:3|0:0,0:0:0:0:
256,95,229845,5,8,0:3:0:0:
375,229,230032,1,0,0:0:0:0:
176,290,230220,2,0,L|78:316,1,99.0000030212403,8|0,0:3|0:0,0:0:0:0:
238,242,230595,5,0,0:3:0:0:
277,361,230782,1,0,0:0:0:0:
131,222,230970,1,0,0:3:0:0:
124,193,231063,1,0,0:0:0:0:
130,163,231157,1,0,0:0:0:0:
221,80,231345,2,0,L|277:80,3,49.5000015106202,0|0|0|0,0:3|0:0|0:0|0:0,0:0:0:0:
163,44,231720,37,12,0:2:0:0:
287,200,231907,1,0,0:0:0:0:
393,91,232095,2,0,L|420:210,1,99.0000030212403,8|0,0:3|0:0,0:0:0:0:
266,33,232470,1,8,0:3:0:0:
146,191,232657,2,0,L|119:310,1,99.0000030212403,0|8,0:0|0:3,0:0:0:0:
90,80,233032,1,0,0:0:0:0:
223,242,233220,6,0,B|275:230|275:230|311:192,1,99.0000030212403
401,102,233595,1,0,0:0:0:0:
401,102,233688,1,0,0:0:0:0:
401,102,233782,1,0,0:0:0:0:
389,252,233970,2,0,L|385:316,2,49.5000015106202
490,225,234345,1,0,0:0:0:0:
490,225,234438,1,0,0:0:0:0:
490,225,234532,1,0,0:0:0:0:
234,273,234720,5,8,3:2:0:0:
346,147,234907,1,0,3:0:0:0:
187,180,235095,1,0,3:0:0:0:
389,252,235282,1,0,3:0:0:0:
141,316,235470,37,8,3:2:0:0:
245,128,235657,1,0,3:0:0:0:
352,333,235845,1,0,3:0:0:0:
95,204,236032,1,0,3:0:0:0:
344,68,236220,5,8,3:2:0:0:
344,68,236313,1,0,3:0:0:0:
344,68,236407,1,0,3:0:0:0:
244,306,236595,1,0,3:0:0:0:
173,30,236782,1,4,3:1:0:0:
317,200,236970,22,0,L|328:255,1,45
218,175,237345,2,0,L|232:131,1,45
21,272,237720,6,0,P|65:321|146:318,1,148.50000453186,12|0,0:2|2:0,0:0:0:0:
206,294,238095,2,0,P|255:292|299:324,1,99.0000030212403,4|0,0:1|0:0,0:0:0:0:
149,177,238470,1,8,0:3:0:0:
234,372,238657,1,0,0:0:0:0:
337,212,238845,2,0,L|390:116,1,99.0000030212403,4|0,0:0|0:0,0:0:0:0:
186,20,239220,54,0,P|231:81|299:87,1,148.50000453186,4|0,0:1|2:0,0:0:0:0:
359,61,239595,2,0,P|404:58|447:96,1,99.0000030212403,4|0,0:1|0:0,0:0:0:0:
462,241,239970,2,0,L|463:340,1,99.0000030212403,8|0,0:3|0:0,0:0:0:0:
267,318,240345,1,0,3:0:0:0:
370,157,240532,1,0,3:0:0:0:
194,121,240720,6,0,P|133:166|127:234,1,148.50000453186,12|0,0:2|2:0,0:0:0:0:
104,298,241095,2,0,P|63:323|-1:320,1,99.0000030212403,4|0,0:0|0:0,0:0:0:0:
253,192,241470,2,0,P|300:181|356:200,1,99.0000030212403,8|0,0:3|0:0,0:0:0:0:
487,279,241845,1,4,0:0:0:0:
507,69,242032,2,0,P|459:58|412:71,1,99.0000030212403
186,132,242407,54,0,L|178:34,1,99.0000030212403
197,255,242782,1,0,0:0:0:0:
357,141,242970,1,0,0:0:0:0:
102,102,243157,1,4,0:0:0:0:
275,104,243345,1,4,0:0:0:0:
124,216,243532,1,4,0:0:0:0:
408,118,243720,6,0,P|467:161|471:236,1,148.50000453186,12|0,0:2|2:0,0:0:0:0:
430,285,244095,2,0,L|324:289,1,99.0000030212403,4|0,0:0|0:0,0:0:0:0:
94,192,244470,2,0,P|142:183|183:210,1,99.0000030212403,8|0,0:3|0:0,0:0:0:0:
235,350,244845,1,0,0:0:0:0:
43,255,245032,1,0,0:0:0:0:
273,175,245220,54,0,P|291:100|250:48,1,148.50000453186,4|0,0:1|2:0,0:0:0:0:
187,27,245595,2,0,P|140:38|83:21,1,99.0000030212403,4|0,0:1|0:0,0:0:0:0:
61,192,245970,2,0,L|43:303,1,99.0000030212403,8|0,0:3|0:0,0:0:0:0:
173,299,246345,1,0,3:0:0:0:
8,152,246532,1,0,3:0:0:0:
225,39,246720,6,0,P|303:44|346:95,1,148.50000453186,12|0,3:2|2:0,0:0:0:0:
367,160,247095,2,0,P|324:168|284:133,1,99.0000030212403,4|0,0:0|0:0,0:0:0:0:
495,317,247470,2,0,B|430:358|430:358|351:357,1,148.50000453186,8|4,0:3|2:0,0:0:0:0:
295,316,247845,2,0,B|329:284|329:284|396:286,1,99.0000030212403,4|0,0:0|0:0,0:0:0:0:
249,209,248220,53,4,0:0:0:0:
249,360,248407,1,8,0:3:0:0:
117,245,248595,2,0,L|22:275,1,99.0000030212403,4|0,0:0|0:0,0:0:0:0:
219,279,248970,5,8,0:3:0:0:
61,181,249157,1,4,0:0:0:0:
223,130,249345,1,4,0:0:0:0:
116,322,249532,1,4,0:0:0:0:
178,53,249720,54,0,P|253:48|309:98,1,148.50000453186,12|0,0:2|2:0,0:0:0:0:
328,157,250095,2,0,L|328:259,1,99.0000030212403,4|0,0:1|0:0,0:0:0:0:
459,137,250470,2,0,L|458:32,1,99.0000030212403,8|0,0:3|0:0,0:0:0:0:
489,222,250845,1,0,0:0:0:0:
366,83,251032,1,0,0:0:0:0:
266,267,251220,6,0,B|206:322|206:322|139:319,1,148.50000453186,4|0,0:0|2:0,0:0:0:0:
73,302,251595,2,0,P|39:262|36:203,1,99.0000030212403,4|0,0:0|0:0,0:0:0:0:
157,65,251970,2,0,P|191:105|194:164,1,99.0000030212403,8|0,0:3|0:0,0:0:0:0:
11,101,252345,1,0,3:0:0:0:
215,11,252532,1,0,3:0:0:0:
306,185,252720,54,0,B|343:250|343:250|422:277,1,148.50000453186,12|0,3:2|2:0,0:0:0:0:
478,283,253095,2,0,P|500:242|491:175,1,99.0000030212403
395,41,253470,2,0,L|294:32,1,99.0000030212403,8|0,0:3|0:0,0:0:0:0:
165,24,253845,1,0,0:0:0:0:
297,172,254032,1,0,0:0:0:0:
85,191,254220,2,0,P|57:225|48:285,1,99.0000030212403,4|8,0:0|0:3,0:0:0:0:
288,361,254595,6,0,L|329:260,1,99.0000030212403,4|0,0:0|0:0,0:0:0:0:
380,140,254970,1,8,0:3:0:0:
217,210,255157,1,4,0:0:0:0:
441,248,255345,1,4,0:0:0:0:
196,330,255532,1,4,0:0:0:0:
468,156,255720,54,0,P|462:92|390:49,1,148.50000453186,12|0,0:2|2:0,0:0:0:0:
327,56,256095,2,0,P|279:64|219:45,1,99.0000030212403,4|0,0:0|0:0,0:0:0:0:
26,217,256470,2,0,P|74:226|119:208,1,99.0000030212403,8|0,0:3|0:0,0:0:0:0:
102,60,256845,2,4,P|74:100|71:149,1,99.0000030212403
186,350,257220,6,0,P|253:342|244:271,1,148.50000453186,4|0,0:0|2:0,0:0:0:0:
194,236,257595,2,0,B|141:231|141:231|101:258,1,99.0000030212403,4|0,0:0|0:0,0:0:0:0:
312,208,257970,1,8,0:3:0:0:
157,141,258157,1,0,0:0:0:0:
382,92,258345,1,4,3:1:0:0:
185,5,258532,1,0,3:0:0:0:
455,20,258720,54,0,P|485:80|475:169,1,148.50000453186,12|0,3:2|2:0,0:0:0:0:
431,214,259095,2,0,P|424:263|441:313,1,99.0000030212403,4|0,0:0|0:0,0:0:0:0:
294,120,259470,2,0,B|209:149|209:149|135:137,1,148.50000453186,8|0,0:3|2:0,0:0:0:0:
85,97,259845,2,0,B|127:66|127:66|189:72,1,99.0000030212403,4|0,0:0|0:0,0:0:0:0:
184,329,260220,5,0,0:0:0:0:
40,210,260407,1,8,0:3:0:0:
194,186,260595,2,0,P|183:219|138:256,1,85.4999977169037,4|0,0:0|0:0,0:0:0:0:
186,88,260970,53,8,0:3:0:0:
282,208,261157,1,4,0:0:0:0:
312,87,261345,1,0,0:0:0:0:
125,182,261532,1,0,0:0:0:0:
350,258,261720,6,0,P|432:169|387:102,1,202.500007724762,12|0,0:2|0:0,2:0:0:0:
314,32,262470,1,0,3:0:0:0:
314,32,262657,1,0,3:0:0:0:
205,255,262845,54,0,B|193:320|136:325|136:325|75:214|225:148,1,337.500012874604,12|0,3:2|3:0,2:0:0:0:
443,300,263970,22,0,L|462:386,1,67.5000025749208,8|0,0:3|0:0,0:0:0:0:
499,168,264345,1,0,3:0:0:0:
499,168,264532,1,0,3:0:0:0:
218,33,264720,6,0,B|124:46|124:46|67:141,1,202.500007724762,12|0,3:2|0:0,2:0:0:0:
10,280,265470,1,12,0:3:0:0:
150,205,265657,1,0,0:0:0:0:
336,343,265845,6,0,B|337:266|337:266|300:215|300:215|300:152,1,202.500007724762,12|0,3:2|0:0,2:0:0:0:
305,24,266595,1,4,0:0:0:0:
439,132,266782,1,0,0:0:0:0:
115,237,266970,38,0,L|210:269,1,101.250003862381,12|0,3:2|2:0,0:0:0:0:
256,284,267345,1,4,3:1:0:0:
204,119,267532,1,0,3:0:0:0:
492,247,267721,6,0,P|470:351|413:261,1,270.000010299683,12|12,3:2|0:3,2:0:0:0:
410,38,268845,5,0,0:0:0:0:
274,160,269032,1,0,0:0:0:0:
443,116,269220,1,4,0:0:0:0:
241,30,269407,1,8,0:3:0:0:
376,197,269595,2,0,L|421:252,1,67.5000025749208
311,38,269970,37,8,0:3:0:0:
181,160,270157,1,4,3:0:0:0:
291,182,270345,1,4,3:0:0:0:
149,44,270532,1,12,3:3:0:0:
9,321,270720,6,0,B|70:356|70:356|136:357,1,114.750002188683,12|0,3:2|0:0,0:0:0:0:
155,349,271095,2,0,L|191:328,3,38.2500007295609,4|0|0|0,3:1|3:0|3:0|3:0,3:0:0:0:
106,251,271470,1,8,0:3:0:0:
298,353,271657,1,0,0:0:0:0:
313,208,271845,5,12,3:2:0:0:
316,181,271938,1,0,3:0:0:0:
308,154,272032,1,0,3:0:0:0:
295,129,272126,1,0,3:0:0:0:
275,110,272220,2,0,P|253:96|216:91,3,38.2500007295609,4|0|0|0,3:1|3:0|3:0|3:0,3:0:0:0:
205,206,272595,1,4,0:0:0:0:
361,37,272782,1,0,0:0:0:0:
468,294,272970,38,0,L|500:183,1,114.750002188683,12|0,3:2|2:0,0:0:0:0:
510,139,273345,1,4,3:1:0:0:
369,247,273532,1,0,3:0:0:0:
228,76,273720,6,0,L|221:27,3,38.2500007295609,12|0|0|0,3:2|3:0|3:0|3:0,3:0:0:0:
162,158,274095,2,0,L|162:206,3,38.2500007295609,4|0|0|0,3:1|3:0|3:0|3:0,3:0:0:0:
112,88,274470,1,8,0:3:0:0:
186,327,274845,5,0,0:0:0:0:
290,212,275032,1,0,0:0:0:0:
143,220,275220,1,4,0:0:0:0:
314,329,275407,1,8,0:3:0:0:
365,150,275595,2,0,L|385:76,1,76.5000014591217
224,263,275970,37,8,0:3:0:0:
248,85,276157,2,0,L|256:25,2,58.4999973220826,4|4|4,3:0|3:0|3:0,3:0:0:0:
123,58,276720,5,12,3:2:0:0:
117,73,276813,1,0,3:0:0:0:
113,89,276907,1,0,3:0:0:0:
109,105,277001,1,0,3:0:0:0:
106,125,277095,1,8,3:3:0:0:
109,144,277188,1,0,3:0:0:0:
116,163,277282,1,0,3:0:0:0:
125,180,277376,1,0,3:0:0:0:
137,196,277470,5,4,3:1:0:0:
164,215,277563,1,0,3:0:0:0:
197,218,277657,1,0,3:0:0:0:
229,207,277751,1,0,3:0:0:0:
255,186,277845,1,8,3:3:0:0:
284,171,277938,1,0,3:0:0:0:
317,168,278032,1,0,3:0:0:0:
346,184,278126,1,0,3:0:0:0:
369,207,278220,38,0,L|373:259,3,33.7500012874604,8|0|0|0,3:2|3:0|3:0|3:0,3:0:0:0:
453,130,278595,2,0,L|449:78,3,33.7500012874604,8|0|0|0,3:3|3:0|3:0|3:0,3:0:0:0:
444,278,278970,5,4,3:1:0:0:
425,309,279063,1,0,3:0:0:0:
389,318,279157,1,0,3:0:0:0:
351,318,279251,1,0,3:0:0:0:
316,303,279345,1,8,3:3:0:0:
287,279,279438,1,0,3:0:0:0:
249,278,279532,1,0,3:0:0:0:
213,287,279626,1,0,3:0:0:0:
182,308,279720,6,0,L|176:359,3,33.7500012874604,12|0|0|0,3:2|3:0|3:0|3:0,3:0:0:0:
149,210,280095,1,8,3:3:0:0:
153,190,280188,1,0,3:0:0:0:
159,170,280282,1,0,3:0:0:0:
162,150,280376,1,0,3:0:0:0:
167,130,280470,2,0,L|175:85,3,33.7500012874604,4|0|0|0,3:1|3:0|3:0|3:0,3:0:0:0:
74,216,280845,37,8,3:3:0:0:
258,183,281032,1,0,3:0:0:0:
83,101,281220,1,8,3:2:0:0:
291,185,281407,1,0,3:0:0:0:
52,225,281595,1,4,3:1:0:0:
242,93,281782,1,0,3:0:0:0:
200,324,281970,6,0,L|193:367,2,33.7500012874604,8|0|0,3:3|3:0|3:0,3:0:0:0:
347,114,282345,2,0,L|362:74,3,33.7500012874604,8|0|0|0,3:3|3:0|3:0|3:0,3:0:0:0:
346,239,282720,5,12,3:2:0:0:
356,260,282813,1,0,3:0:0:0:
373,275,282907,1,0,3:0:0:0:
394,283,283001,1,0,3:0:0:0:
417,284,283095,1,8,3:3:0:0:
442,276,283188,1,0,3:0:0:0:
460,256,283282,1,0,3:0:0:0:
470,231,283376,1,0,3:0:0:0:
473,204,283470,37,4,3:1:0:0:
454,172,283563,1,0,3:0:0:0:
423,150,283657,1,0,3:0:0:0:
385,150,283751,1,0,3:0:0:0:
347,147,283845,1,8,3:3:0:0:
316,126,283938,1,0,3:0:0:0:
301,91,284032,1,0,3:0:0:0:
300,53,284126,1,0,3:0:0:0:
328,28,284220,6,0,L|378:30,3,33.7500012874604,8|0|0|0,3:2|3:0|3:0|3:0,3:0:0:0:
153,125,284595,2,0,L|103:123,3,33.7500012874604,8|0|0|0,3:3|3:0|3:0|3:0,3:0:0:0:
190,34,284970,5,4,3:1:0:0:
156,19,285063,1,8,3:3:0:0:
119,14,285157,1,0,3:0:0:0:
82,19,285251,1,0,3:0:0:0:
50,38,285345,1,8,3:3:0:0:
27,67,285438,1,0,3:0:0:0:
22,103,285532,1,0,3:0:0:0:
23,140,285626,1,0,3:0:0:0:
36,178,285720,38,0,B|55:227|55:227|94:244|94:244|116:296,1,135,12|0,3:2|2:0,3:0:0:0:
77,342,286095,1,12,3:3:0:0:
194,190,286282,2,0,L|224:153,3,45,12|0|0|0,3:3|3:0|3:0|3:0,3:0:0:0:
266,295,286657,5,12,3:3:0:0:
127,105,286845,2,0,L|90:50,3,45,12|0|0|0,3:3|3:0|3:0|3:0,3:0:0:0:
265,96,287220,6,0,L|300:58,3,45,12|0|0|0,3:3|3:0|3:0|3:0,3:0:0:0:
164,302,287595,2,0,L|157:349,3,45,12|0|0|0,3:3|3:0|3:0|3:0,3:0:0:0:
329,241,287970,38,0,L|368:226,9,30,12|0|0|0|0|0|8|0|0|0,3:2|3:0|3:0|3:0|3:0|3:0|3:3|3:0|3:0|3:0,3:0:0:0:
465,81,288720,6,0,B|354:130|370:27|255:70,1,215.999993408203,12|8,0:2|0:3,0:0:0:0:
157,158,289282,2,0,P|76:170|133:112,1,215.999993408203
296,176,289845,1,8,0:3:0:0:
322,203,289938,1,0,0:0:0:0:
325,240,290032,1,0,0:0:0:0:
309,274,290126,1,0,0:0:0:0:
278,296,290220,6,0,B|220:303|220:303|164:282,1,107.999996704102,4|0,0:0|0:0,0:0:0:0:
139,269,290501,1,0,0:0:0:0:
118,237,290595,2,0,B|100:114|195:145|199:43,1,215.999993408203
328,87,291157,38,0,P|381:118|437:97,1,107.999996704102,0|12,0:0|0:3,0:0:0:0:
232,104,291532,1,0,0:0:0:0:
205,130,291626,1,0,0:0:0:0:
214,166,291720,1,12,0:2:0:0:
246,184,291813,1,0,0:0:0:0:
283,175,291907,2,0,P|310:135|306:73,1,107.999996704102
124,112,292282,2,0,P|97:152|101:214,1,107.999996704102,0|4,0:0|0:0,0:0:0:0:
195,313,292657,5,0,0:0:0:0:
229,328,292751,1,0,0:0:0:0:
266,326,292845,1,0,0:0:0:0:
298,306,292938,1,0,0:0:0:0:
334,296,293032,1,0,0:0:0:0:
370,306,293126,1,0,0:0:0:0:
401,327,293220,2,0,P|461:351|491:233,1,215.999993408203,4|0,0:0|0:0,0:0:0:0:
385,135,293782,5,0,0:0:0:0:
376,121,293876,1,0,0:0:0:0:
372,107,293970,2,0,P|380:83|408:63,3,45,4|0|0|0,0:0|0:0|0:0|0:0,0:0:0:0:
271,195,294345,2,0,L|271:84,1,107.999996704102,8|0,0:3|0:0,0:0:0:0:
22,71,294720,38,0,P|56:99|127:101,1,107.999996704102,12|0,0:2|0:0,0:0:0:0:
374,41,295095,2,0,B|408:69|393:133|393:133|418:126|418:126|398:182|439:219,1,215.999993408203,8|4,0:3|0:0,0:0:0:0:
273,217,295657,5,0,0:0:0:0:
245,233,295751,1,0,0:0:0:0:
234,263,295845,1,8,0:3:0:0:
238,294,295938,1,0,0:0:0:0:
258,319,296032,1,0,0:0:0:0:
286,334,296126,1,0,0:0:0:0:
318,339,296220,2,0,P|387:303|391:226,1,161.999995056153,4|0,0:0|0:0,0:0:0:0:
367,185,296595,5,8,0:3:0:0:
351,162,296688,1,0,0:0:0:0:
321,149,296782,1,0,0:0:0:0:
288,144,296876,1,0,0:0:0:0:
250,148,296970,1,4,0:0:0:0:
213,157,297063,1,0,0:0:0:0:
175,152,297157,1,0,0:0:0:0:
146,127,297251,1,0,0:0:0:0:
135,92,297345,38,0,P|133:69|140:47,3,45
33,141,297720,6,0,B|33:239|115:185|115:279,1,161.999995056153,12|0,0:2|0:0,0:0:0:0:
125,314,298095,1,8,0:3:0:0:
150,333,298188,1,0,0:0:0:0:
181,339,298282,1,0,0:0:0:0:
212,331,298376,1,0,0:0:0:0:
239,313,298470,1,4,0:0:0:0:
252,283,298563,1,0,0:0:0:0:
250,250,298657,1,0,0:0:0:0:
231,223,298751,1,0,0:0:0:0:
218,192,298845,6,0,P|210:161|216:126,3,53.9999983520508,8|0|0|0,0:3|0:0|0:0|0:0,0:0:0:0:
322,204,299220,2,0,B|379:197|379:197|413:150,1,107.999996704102,8|0,0:3|0:0,0:0:0:0:
331,181,299501,38,0,B|363:175|363:175|393:153,1,67.5000025749208,8|0,0:3|0:0,0:0:0:0:
347,140,299782,5,8,0:2:0:0:
421,285,299970,2,0,P|473:290|505:215,2,135,4|0|0,3:1|3:0|3:0,3:0:0:0:
261,134,300720,6,0,P|242:61|305:20,1,161.999995056153,12|0,3:2|0:0,0:0:0:0:
331,21,301095,1,8,0:3:0:0:
351,26,301188,1,0,0:0:0:0:
371,31,301282,1,0,0:0:0:0:
391,36,301376,1,0,0:0:0:0:
408,39,301470,2,0,L|456:53,3,45,4|0|0|0,3:1|0:0|0:0|0:0,0:0:0:0:
358,125,301845,37,8,0:3:0:0:
329,153,301938,1,0,0:0:0:0:
322,193,302032,1,0,0:0:0:0:
347,224,302126,1,0,0:0:0:0:
374,253,302220,1,4,3:1:0:0:
377,293,302313,1,0,0:0:0:0:
347,321,302407,1,0,0:0:0:0:
307,330,302501,1,0,0:0:0:0:
266,330,302595,6,0,L|208:326,3,45
232,226,302970,1,4,3:1:0:0:
191,229,303063,1,0,0:0:0:0:
155,247,303157,1,0,0:0:0:0:
129,278,303251,1,0,0:0:0:0:
118,317,303345,2,0,L|121:380,3,45,8|0|0|0,0:3|0:0|0:0|0:0,0:0:0:0:
0,197,303720,6,0,P|87:207|137:125,1,175.499991966248,12|0,3:2|0:0,0:0:0:0:
136,90,304095,1,8,0:3:0:0:
108,52,304188,1,0,0:0:0:0:
67,29,304282,2,0,P|51:93|63:150,1,116.999994644165,0|4,0:0|3:1,0:0:0:0:
285,149,304657,2,0,P|301:85|289:28,1,116.999994644165,0|8,0:0|0:3,0:0:0:0:
168,202,305032,37,0,0:0:0:0:
189,256,305126,1,0,0:0:0:0:
239,286,305220,1,4,3:1:0:0:
296,283,305313,1,0,0:0:0:0:
341,245,305407,1,0,0:0:0:0:
382,203,305501,1,0,0:0:0:0:
440,195,305595,1,8,0:3:0:0:
490,223,305688,1,0,0:0:0:0:
509,277,305782,6,0,P|434:356|334:312,1,233.999989288331
241,27,306345,2,0,P|264:77|252:148,1,116.999994644165,8|0,0:3|0:0,0:0:0:0:
120,339,306720,6,0,P|38:345|22:266,1,161.999995056153,12|0,3:2|0:0,0:0:0:0:
21,248,307095,1,8,0:3:0:0:
33,218,307188,1,0,0:0:0:0:
55,194,307282,1,0,0:0:0:0:
74,167,307376,1,0,0:0:0:0:
77,134,307470,38,0,P|71:101|53:73,3,53.9999983520508,4|0|0|0,3:1|0:0|0:0|0:0,0:0:0:0:
163,210,307845,2,0,P|184:234|215:249,3,53.9999983520508,8|0|0|0,0:3|0:0|0:0|0:0,0:0:0:0:
183,72,308220,6,0,P|269:55|322:109,1,161.999995056153,4|0,3:1|0:0,0:0:0:0:
326,133,308595,1,8,0:3:0:0:
326,165,308688,1,0,0:0:0:0:
315,195,308782,1,0,0:0:0:0:
311,227,308876,1,0,0:0:0:0:
312,259,308970,6,0,P|324:294|357:318,3,53.9999983520508,4|0|0|0,3:1|0:0|0:0|0:0,0:0:0:0:
406,243,309345,1,8,0:3:0:0:
409,227,309438,1,0,0:0:0:0:
412,211,309532,1,0,0:0:0:0:
414,194,309626,1,0,0:0:0:0:
416,180,309720,38,0,L|419:116,3,45,4|0|0|0,3:1|0:0|0:0|0:0,0:0:0:0:
283,317,310095,2,0,L|284:374,3,45,8|0|0|0,0:3|0:0|0:0|0:0,0:0:0:0:
245,152,310470,6,0,P|166:153|137:83,1,161.999995056153,4|0,3:1|0:1,3:1:0:0:
145,54,310845,1,0,0:0:0:0:
165,30,310938,1,0,0:0:0:0:
194,18,311032,1,0,0:0:0:0:
225,14,311126,1,0,0:0:0:0:
256,19,311220,6,0,B|308:43|308:43|316:103,1,90,8|0,0:2|0:0,0:0:0:0:
260,51,311501,38,0,B|288:63|288:63|305:84,1,53.9999983520508,8|0,0:2|0:0,0:0:0:0:
262,84,311782,5,8,0:2:0:0:
166,113,311970,2,0,B|170:208|215:158|216:247,2,148.50000453186,0|0|0,3:0|3:0|3:0,0:0:0:0:
54,34,312720,5,8,3:3:0:0:
54,52,312814,1,0,3:0:0:0:
55,69,312908,1,0,3:0:0:0:
55,86,313001,1,0,3:0:0:0:
90,114,313095,37,8,3:3:0:0:
93,131,313189,1,0,3:0:0:0:
94,149,313283,1,0,3:0:0:0:
95,166,313376,1,0,3:0:0:0:
60,201,313470,5,8,3:3:0:0:
61,223,313563,1,0,3:0:0:0:
63,245,313657,1,0,3:0:0:0:
65,267,313751,1,0,3:0:0:0:
103,298,313845,6,0,L|108:357,3,45,8|0|0|0,3:3|3:0|3:0|3:0,3:0:0:0:
199,192,314220,37,8,3:3:0:0:
199,192,314313,1,0,3:0:0:0:
199,192,314407,2,0,L|200:138,1,45,0|0,3:0|3:0,3:0:0:0:
285,320,314595,5,8,3:3:0:0:
285,320,314688,1,0,3:0:0:0:
285,320,314782,2,0,L|281:376,1,45,0|0,3:0|3:0,3:0:0:0:
343,121,314970,5,8,3:3:0:0:
343,121,315063,1,0,3:0:0:0:
343,121,315157,2,0,L|358:70,1,45,0|0,3:0|3:0,3:0:0:0:
443,271,315345,38,0,L|495:316,3,45,8|0|0|0,3:3|3:0|3:0|3:0,3:0:0:0:
277,211,315720,5,8,3:3:0:0:
253,184,315813,1,0,3:0:0:0:
240,150,315907,1,0,3:0:0:0:
251,115,316001,1,0,3:0:0:0:
274,88,316095,5,8,3:3:0:0:
239,98,316188,1,0,3:0:0:0:
204,88,316282,1,0,3:0:0:0:
178,62,316376,1,0,3:0:0:0:
172,26,316470,37,8,3:3:0:0:
155,57,316563,1,0,3:0:0:0:
139,89,316657,1,0,3:0:0:0:
125,122,316751,1,0,3:0:0:0:
114,156,316845,6,0,L|141:207,3,45,8|0|0|0,3:3|3:0|3:0|3:0,3:0:0:0:
46,249,317220,5,8,3:3:0:0:
44,275,317313,1,0,3:0:0:0:
44,302,317407,2,0,L|42:351,1,45,0|0,3:0|3:0,3:0:0:0:
237,225,317595,37,8,3:3:0:0:
260,211,317688,1,0,3:0:0:0:
295,201,317782,2,0,P|325:193|346:197,1,45,0|0,3:0|3:0,3:0:0:0:
300,349,317970,5,8,3:3:0:0:
273,350,318063,1,0,3:0:0:0:
246,347,318157,2,0,P|220:337|202:318,1,45,0|0,3:0|3:0,3:0:0:0:
124,125,318345,6,0,L|114:66,3,45,8|0|0|0,3:3|3:0|3:0|3:0,3:0:0:0:
250,177,318720,37,8,3:3:0:0:
285,196,318813,1,0,3:0:0:0:
325,196,318907,1,0,3:0:0:0:
362,180,319001,1,0,3:0:0:0:
394,151,319095,5,8,3:3:0:0:
375,191,319188,1,0,3:0:0:0:
366,236,319282,1,0,3:0:0:0:
389,274,319376,1,0,3:0:0:0:
423,303,319470,5,8,3:3:0:0:
408,345,319563,1,0,3:0:0:0:
368,367,319657,1,0,3:0:0:0:
322,368,319751,1,0,3:0:0:0:
281,348,319845,37,8,3:3:0:0:
256,310,319938,1,0,3:0:0:0:
215,289,320032,1,0,3:0:0:0:
169,296,320126,1,0,3:0:0:0:
132,321,320220,5,8,3:3:0:0:
101,288,320313,1,0,3:0:0:0:
99,242,320407,1,0,3:0:0:0:
120,202,320501,1,0,3:2:0:0:
157,176,320595,6,0,L|231:171,3,45,8|0|0|0,3:2|3:2|3:2|3:2,3:2:0:0:
132,66,320970,2,0,L|87:10,3,45,8|0|0|0,3:3|3:0|3:0|3:0,3:0:0:0:
276,183,321345,37,0,3:0:0:0:
282,209,321438,1,0,3:0:0:0:
289,235,321532,2,0,L|303:291,1,45,0|0,3:0|3:0,3:0:0:0:
329,77,321720,2,0,L|331:16,3,45,0|0|0|0,3:0|3:0|3:0|3:0,3:0:0:0:
435,173,322095,5,8,3:3:0:0:
459,204,322188,1,0,3:0:0:0:
463,244,322282,1,0,3:0:0:0:
450,282,322376,1,0,3:0:0:0:
413,315,322470,6,0,L|349:316,1,45,8|0,3:3|3:0,3:0:0:0:
165,304,322657,1,0,0:0:0:0:
326,197,322845,1,8,0:3:0:0:
295,379,323032,1,0,0:0:0:0:
196,195,323220,37,8,3:3:0:0:
191,155,323313,1,0,3:0:0:0:
209,118,323407,1,0,3:0:0:0:
236,87,323501,1,0,3:0:0:0:
266,60,323595,5,8,3:3:0:0:
225,59,323688,1,0,3:0:0:0:
184,57,323782,1,0,3:0:0:0:
143,57,323876,1,0,3:0:0:0:
102,53,323970,6,0,L|72:8,3,45,8|0|0|0,3:3|3:0|3:0|3:0,3:0:0:0:
269,170,324345,1,8,0:3:0:0:
47,167,324532,1,0,0:0:0:0:
191,308,324720,38,0,L|201:350,4,30,8|0|0|0|0,3:3|3:0|3:0|3:0|3:0,3:0:0:0:
155,147,325095,2,0,L|147:96,4,30,8|0|0|0|0,3:3|3:0|3:0|3:0|3:0,3:0:0:0:
91,294,325470,6,0,L|44:320,4,30,8|0|0|0|0,3:2|3:0|3:0|3:0|3:0,3:0:0:0:
288,189,325845,2,0,L|334:162,4,30,8|0|0|0|0,3:2|3:0|3:0|3:0|3:0,3:0:0:0:
202,240,326220,5,8,3:2:0:0:
427,301,326407,1,0,3:0:0:0:
338,63,326595,2,0,L|313:-8,1,67.5000025749208,0|0,3:0|3:0,3:0:0:0:
227,232,326970,6,0,L|221:276,1,45
303,178,327345,2,0,L|295:133,1,45
487,355,327720,5,12,3:2:0:0:
487,355,327907,1,0,3:0:0:0:
444,227,328095,2,0,L|404:116,1,103.500001974106,4|0,3:1|0:0,0:0:0:0:
211,264,328470,1,8,0:3:0:0:
386,331,328657,1,0,0:0:0:0:
307,139,328845,2,0,L|267:28,1,103.500001974106,8|0,0:3|0:0,0:0:0:0:
110,243,329220,54,0,B|94:137|94:137|108:91,1,155.250002961159,4|0,0:0|2:0,0:0:0:0:
139,33,329595,2,0,P|189:46|238:30,1,103.500001974106,4|0,0:0|0:0,0:0:0:0:
389,158,329970,2,0,L|388:271,1,103.500001974106,8|0,0:3|0:0,0:0:0:0:
270,301,330345,1,0,3:0:0:0:
491,183,330532,1,0,3:0:0:0:
346,71,330720,5,12,3:2:0:0:
346,71,330907,1,0,3:0:0:0:
226,182,331095,2,0,P|181:207|130:204,1,103.500001974106,4|0,3:1|0:0,0:0:0:0:
10,71,331470,2,0,P|71:44|122:58,1,103.500001974106,8|0,0:3|0:0,0:0:0:0:
278,134,331845,1,4,0:0:0:0:
100,263,332032,2,0,L|14:328,1,103.500001974106
341,193,332407,54,0,P|359:145|348:95,1,103.500001974106
409,247,332782,1,0,0:0:0:0:
382,0,332970,1,8,0:3:0:0:
248,140,333157,1,4,0:0:0:0:
472,124,333345,1,4,0:0:0:0:
241,111,333532,1,4,0:0:0:0:
461,242,333720,5,12,3:2:0:0:
461,242,333907,1,0,3:0:0:0:
338,309,334095,2,0,P|278:321|222:303,1,103.500001974106,4|0,3:1|0:0,0:0:0:0:
58,178,334470,2,0,P|108:167|158:179,1,103.500001974106,8|0,0:3|0:0,0:0:0:0:
23,81,334845,1,0,3:0:0:0:
23,81,335032,1,0,3:0:0:0:
216,18,335220,54,0,P|292:18|352:64,1,155.250002961159,4|0,3:1|2:0,0:0:0:0:
376,127,335595,2,0,B|352:165|352:165|297:183,1,103.500001974106,4|0,0:0|0:0,0:0:0:0:
113,182,335970,2,0,L|11:161,1,103.500001974106,8|0,0:3|0:0,0:0:0:0:
245,273,336345,1,0,0:0:0:0:
140,87,336532,1,0,0:0:0:0:
74,354,336720,5,12,3:2:0:0:
74,354,336907,1,0,3:0:0:0:
208,303,337095,2,0,P|267:298|317:330,1,103.500001974106,4|0,3:1|0:0,0:0:0:0:
472,206,337470,2,0,B|480:103|480:103|436:53,1,155.250002961159,8|0,0:3|2:0,0:0:0:0:
388,14,337845,1,0,3:0:0:0:
388,14,338032,1,0,3:0:0:0:
258,146,338220,54,0,P|252:201|293:245,1,103.500001974106,4|0,3:1|0:0,0:0:0:0:
342,84,338595,2,0,P|305:45|252:38,1,103.500001974106,4|0,0:0|0:0,0:0:0:0:
94,75,338970,1,8,0:3:0:0:
205,209,339157,1,4,0:1:0:0:
184,7,339345,1,4,0:1:0:0:
115,252,339532,1,4,0:1:0:0:
346,140,339720,5,12,3:2:0:0:
346,140,339907,1,0,3:0:0:0:
346,140,340095,2,0,L|348:247,1,103.500001974106,4|0,3:1|0:0,0:0:0:0:
192,356,340470,2,0,P|141:356|99:327,1,103.500001974106,8|0,0:3|0:0,0:0:0:0:
34,181,340845,1,0,3:0:0:0:
34,181,341032,1,0,3:0:0:0:
34,181,341220,54,0,P|108:181|146:117,1,155.250002961159,4|0,3:1|2:0,0:0:0:0:
139,57,341595,2,0,P|198:76|261:63,1,103.500001974106,4|0,0:0|0:0,0:0:0:0:
400,16,341970,2,0,L|399:137,1,103.500001974106
368,306,342345,1,0,0:0:0:0:
497,140,342532,1,0,0:0:0:0:
242,168,342720,5,12,3:2:0:0:
242,168,342907,1,0,3:0:0:0:
315,347,343095,2,0,P|360:372|410:363,1,103.500001974106,4|0,3:1|0:0,0:0:0:0:
198,275,343470,2,0,P|153:250|103:259,1,103.500001974106,8|0,0:3|0:0,0:0:0:0:
267,253,343845,1,0,3:0:0:0:
267,253,344032,1,0,3:0:0:0:
2,336,344220,54,0,L|3:213,1,103.500001974106,4|0,3:1|0:0,0:0:0:0:
101,85,344595,2,0,P|152:82|197:107,1,103.500001974106,4|0,0:1|0:0,0:0:0:0:
310,208,344970,1,8,0:3:0:0:
286,28,345157,1,4,0:1:0:0:
223,221,345345,1,4,0:1:0:0:
394,59,345532,1,4,0:1:0:0:
462,309,345720,5,12,3:2:0:0:
462,309,345907,1,0,3:0:0:0:
351,362,346095,2,0,P|290:363|246:344,1,103.500001974106,4|0,3:1|0:0,0:0:0:0:
126,254,346470,2,0,P|77:238|26:258,1,103.500001974106,8|0,0:3|0:0,0:0:0:0:
161,357,346845,1,0,3:0:0:0:
161,357,347032,1,0,3:0:0:0:
275,198,347220,54,0,B|338:154|338:154|424:156,1,155.250002961159,4|0,3:1|2:0,0:0:0:0:
484,156,347595,2,0,P|501:101|487:57,1,103.500001974106,4|0,0:1|0:0,0:0:0:0:
286,64,347970,1,8,0:3:0:0:
401,250,348157,1,0,0:0:0:0:
402,64,348345,1,4,0:0:0:0:
235,257,348532,1,0,0:0:0:0:
84,70,348720,6,0,P|51:142|79:220,1,155.250002961159,12|0,0:2|2:0,0:0:0:0:
125,259,349095,2,0,P|140:203|108:145,1,103.500001974106,4|0,0:1|0:0,0:0:0:0:
193,358,349470,2,0,B|268:368|268:368|334:317,1,155.250002961159,8|0,0:3|2:0,0:0:0:0:
386,273,349845,1,4,3:1:0:0:
386,273,350032,1,0,3:0:0:0:
254,155,350220,54,0,L|222:225,1,76.5000014591217,4|0,3:1|0:0,0:0:0:0:
50,353,350595,2,0,L|80:283,1,76.5000014591217,4|0,0:1|0:0,0:0:0:0:
157,117,350970,1,8,0:3:0:0:
279,312,351157,1,4,0:0:0:0:
395,161,351345,1,4,0:0:0:0:
488,323,351532,1,4,0:0:0:0:
476,146,351720,6,0,B|406:-2|254:190|180:28,1,350.999983932496,4|0,0:1|0:0,2:0:0:0:
85,263,353407,54,0,P|105:180|54:112,1,175.499991966248
306,233,354532,5,0,0:0:0:0:
228,177,354907,2,0,P|207:260|262:324,1,175.499991966248
475,342,356031,53,0,0:0:0:0:
480,144,356407,2,0,L|432:253,1,116.999994644165
274,73,357157,21,0,0:0:0:0:
415,31,357532,1,0,0:0:0:0:
415,31,357720,2,0,L|367:138,1,116.999994644165
264,341,358470,5,0,0:0:0:0:
264,341,358657,1,0,0:0:0:0:
166,97,359032,2,0,P|241:176|194:276,1,233.999989288331
16,354,360157,5,0,0:0:0:0:
154,198,360532,1,0,0:0:0:0:
154,198,360720,2,0,L|37:199,1,116.999994644165
105,6,361470,38,0,L|216:42,1,116.999994644165
378,99,362220,1,0,0:0:0:0:
200,172,362595,1,0,0:0:0:0:
372,265,362970,1,0,0:0:0:0:
302,4,363345,1,0,0:0:0:0:
286,300,363720,38,0,P|359:359|446:325,1,198.000006042481
512,208,364845,1,0,0:0:0:0:
194,17,365407,6,0,P|246:85|333:84,1,180
432,32,366532,1,0,0:0:0:0:
351,161,366907,2,0,P|274:181|198:157,1,161.999995056153
52,23,368032,5,0,0:0:0:0:
52,23,368220,1,0,0:0:0:0:
3,177,368595,1,0,0:0:0:0:
133,87,368970,1,0,0:0:0:0:
95,262,369345,1,0,0:0:0:0:
227,205,369720,6,0,L|226:285,1,80.9999975280763
55,132,370470,1,0,0:0:0:0:
239,25,370845,2,0,P|305:48|329:113,1,144
326,219,371970,5,0,0:0:0:0:
239,156,372157,1,0,0:0:0:0:
239,264,372345,1,0,0:0:0:0:
154,198,372532,1,0,0:0:0:0:
150,306,372720,1,0,0:0:0:0:
160,106,373095,37,0,0:0:0:0:
219,354,373470,1,0,0:0:0:0:
316,139,373845,1,0,0:0:0:0:
315,307,374220,1,0,0:0:0:0:
239,156,374595,1,0,0:0:0:0:
369,227,374970,6,0,L|374:271,1,45
449,354,375720,6,0,L|471:193,1,162
481,136,379470,21,0,0:0:0:0:
256,192,379563,12,0,384907,0:0:0:0:
