osu file format v14

[General]
AudioFilename: audio.ogg
AudioLeadIn: 0
PreviewTime: 357202
Countdown: 0
SampleSet: Normal
StackLeniency: 0.7
Mode: 1
LetterboxInBreaks: 0
WidescreenStoryboard: 0

[Editor]
Bookmarks: 81955,137262,173807,182695,247880,278745,299239,326893,330844,334794,338745,342695
DistanceSpacing: 0.6
BeatDivisor: 8
GridSize: 16
TimelineZoom: 3.799998

[Metadata]
Title:Sisters
TitleUnicode:Sisters
Artist:Release Hallucination
ArtistUnicode:Release Hallucination
Creator:Hana Hayashi
Version:The Horrisonant Ululations of Ravished Vestals
Source:
Tags:dark gothic symphonic prog heavy progressive metal jmetal j-metal rock jrock j-rock japanese emi kaorin kaoru hirato
BeatmapID:4482578
BeatmapSetID:2131173

[Difficulty]
HPDrainRate:4
CircleSize:5
OverallDifficulty:7
ApproachRate:5
SliderMultiplier:1.4
SliderTickRate:1

[Events]
//Background and Video events
0,0,"Steyr.Aug.(Girls.Frontline).full.2833911 (1).jpg",0,-23
//Break Periods
2,167063,172577
2,406075,420479
//Storyboard Layer 0 (Background)
//Storyboard Layer 1 (Fail)
//Storyboard Layer 2 (Pass)
//Storyboard Layer 3 (Foreground)
//Storyboard Layer 4 (Overlay)
//Storyboard Sound Samples

[TimingPoints]
937,246.913580246914,4,1,0,30,1,0
937,-333.333333333333,4,1,0,30,0,0
1919,-328.00336970345,4,1,0,30,0,0
2907,-322.836026756173,4,1,0,30,0,0
3894,-317.833959953847,4,1,0,30,0,0
4882,-312.979695313768,4,1,0,30,0,0
5870,-308.271478055651,4,1,0,30,0,0
6857,-303.707370489541,4,1,0,30,0,0
7845,-299.272015077048,4,1,0,30,0,0
8833,-294.964343208456,4,1,0,30,0,0
9820,-290.783095759578,4,1,0,30,0,0
10808,-286.714673124173,4,1,0,30,0,0
11796,-282.758524373808,4,1,0,30,0,0
12783,-278.913907467231,4,1,0,30,0,0
13771,-275.168697377631,4,1,0,30,0,0
14759,-271.522734740131,4,1,0,30,0,0
15746,-267.975672867571,4,1,0,30,0,0
16734,-264.51663476676,4,1,0,30,0,0
17722,-261.145757421369,4,1,0,30,0,0
18709,-257.862996949686,4,1,0,30,0,0
19697,-254.658541340427,4,1,0,30,0,0
20685,-251.532751498587,4,1,0,30,0,0
21672,-248.485815450512,4,1,0,30,0,0
22660,-245.508836814503,4,1,0,30,0,0
23648,-242.602344962285,4,1,0,30,0,0
24635,-239.766705154395,4,1,0,30,0,0
25623,-236.993813684808,4,1,0,30,0,0
26611,-234.284325694151,4,1,0,30,0,0
27598,-231.638741269142,4,1,0,30,0,0
28586,-229.049647315696,4,1,0,30,0,0
29573,-226.520326021895,4,1,0,30,0,0
30561,-224.043776315862,4,1,0,30,0,0
31549,-221.620793265942,4,1,0,30,0,0
32536,-219.252031815991,4,1,0,30,0,0
33524,-216.931046859849,4,1,0,30,0,0
34512,-214.658686697873,4,1,0,30,0,0
35499,-212.435668081401,4,1,0,30,0,0
36487,-210.256037468391,4,1,0,30,0,0
37475,-208.120679464446,4,1,0,30,0,0
38462,-206.03035529844,4,1,0,30,0,0
39450,-203.979548144976,4,1,0,30,0,0
40438,-201.969165698211,4,1,0,30,0,0
41430,246.913580246914,4,1,0,30,1,8
42417,246.913580246914,4,1,0,75,1,8
42418,-100,4,1,0,75,0,0
42419,246.913580246914,4,1,0,75,1,0
42419,-100,4,1,0,75,0,0
48344,-83.3333333333333,4,1,0,75,0,1
48463,-83.6859748573678,4,1,0,75,0,1
48586,-84.2024202122901,4,1,0,75,0,1
48648,-84.5002411555727,4,1,0,75,0,1
48710,-84.8189666806956,4,1,0,75,0,1
48833,-85.5064163527847,4,1,0,75,0,1
48957,-86.2666610515459,4,1,0,75,0,1
49080,-87.0824313601166,4,1,0,75,0,1
49142,-87.5159695825067,4,1,0,75,0,1
49204,-87.9641684806374,4,1,0,75,0,1
49327,-88.8962157619082,4,1,0,75,0,1
49389,-89.387516249629,4,1,0,75,0,1
49451,-89.8932102869627,4,1,0,75,0,1
49574,-90.9392391000408,4,1,0,75,0,1
49697,-92.0428119778168,4,1,0,75,0,1
49821,-93.2147670748266,4,1,0,75,0,1
49883,-93.8235899036223,4,1,0,75,0,1
49944,-94.4377502698738,4,1,0,75,0,1
50006,-95.0776359722031,4,1,0,75,0,1
50068,-95.7335815187272,4,1,0,75,0,1
50130,-96.4058856921233,4,1,0,75,0,1
50191,-97.0836224251385,4,1,0,75,0,1
50253,-97.7893504718377,4,1,0,75,0,1
50320,-98.512459209976,4,1,0,75,0,0
50438,-100,4,1,0,75,0,0
56246,-83.3333333333333,4,1,0,75,0,1
56364,-83.6824839620616,4,1,0,75,0,1
56488,-84.2029643899829,4,1,0,75,0,1
56549,-84.4959958757619,4,1,0,75,0,1
56611,-84.8146042705027,4,1,0,75,0,1
56734,-85.5019287077181,4,1,0,75,0,1
56796,-85.8739789107086,4,1,0,75,0,1
56858,-86.2621529660887,4,1,0,75,0,1
56981,-87.077983215342,4,1,0,75,0,1
57043,-87.5115774639534,4,1,0,75,0,1
57105,-87.9598481433563,4,1,0,75,0,1
57228,-88.8920814402404,4,1,0,75,0,1
57290,-89.3834966096578,4,1,0,75,0,1
57352,-89.8893188706158,4,1,0,75,0,1
57413,-90.401082829307,4,1,0,75,0,1
57475,-90.9356413643966,4,1,0,75,0,1
57599,-92.0487735433933,4,1,0,75,0,1
57660,-92.6181857327646,4,1,0,75,0,1
57722,-93.2119158297784,4,1,0,75,0,1
57784,-93.8209593956665,4,1,0,75,0,1
57846,-94.4455490632851,4,1,0,75,0,1
57907,-95.0754844046051,4,1,0,75,0,1
57969,-95.7316926346068,4,1,0,75,0,1
58031,-96.4042742096571,4,1,0,75,0,1
58093,-97.0935502103108,4,1,0,75,0,1
58154,-97.7883345001348,4,1,0,75,0,1
58221,-98.5117671077838,4,1,0,75,0,0
58340,-100,4,1,0,75,0,0
64147,-83.3333333333333,4,1,0,75,0,1
64266,-83.6859748573678,4,1,0,75,0,1
64389,-84.2024202122901,4,1,0,75,0,1
64451,-84.5002411555727,4,1,0,75,0,1
64513,-84.8189666806956,4,1,0,75,0,1
64636,-85.5064163527847,4,1,0,75,0,1
64760,-86.2666610515459,4,1,0,75,0,1
64883,-87.0824313601166,4,1,0,75,0,1
64944,-87.5088602304641,4,1,0,75,0,1
65007,-87.9641684806374,4,1,0,75,0,1
65130,-88.8962157619082,4,1,0,75,0,1
65192,-89.387516249629,4,1,0,75,0,1
65254,-89.8932102869627,4,1,0,75,0,1
65377,-90.9392391000408,4,1,0,75,0,1
65500,-92.0428119778168,4,1,0,75,0,1
65624,-93.2147670748266,4,1,0,75,0,1
65686,-93.8235899036223,4,1,0,75,0,1
65747,-94.4377502698738,4,1,0,75,0,1
65809,-95.0776359722031,4,1,0,75,0,1
65871,-95.7335815187272,4,1,0,75,0,1
65933,-96.4058856921233,4,1,0,75,0,1
65994,-97.0836224251385,4,1,0,75,0,1
66056,-97.7893504718377,4,1,0,75,0,1
66118,-98.512459209976,4,1,0,75,0,1
66122,-98.5006562598573,4,1,0,75,0,0
66241,-100,4,1,0,75,0,0
72043,-100,4,1,0,75,0,0
72044,-99.9984901952969,4,1,0,75,0,0
72105,-99.6781625703846,4,1,0,75,0,0
72167,-99.2112552777592,4,1,0,75,0,0
72228,-98.6802825410765,4,1,0,75,0,0
72291,-98.0800271242851,4,1,0,75,0,0
72352,-97.4607634356684,4,1,0,75,0,0
72414,-96.8011496113709,4,1,0,75,0,0
72475,-96.1282505923185,4,1,0,75,0,0
72537,-95.4245633575219,4,1,0,75,0,0
72599,-94.7046362242826,4,1,0,75,0,0
72661,-93.9715098805483,4,1,0,75,0,0
72722,-93.2398025242633,4,1,0,75,0,0
72784,-92.4876670782309,4,1,0,75,0,0
72846,-91.7288920735235,4,1,0,75,0,0
72908,-90.9651052638327,4,1,0,75,0,0
72969,-90.2101300517149,4,1,0,75,0,0
73031,-89.4404516623132,4,1,0,75,0,0
73093,-88.6695322915782,4,1,0,75,0,0
73155,-87.8983576220669,4,1,0,75,0,0
73216,-87.1402236172201,4,1,0,75,0,0
73278,-86.3710452071275,4,1,0,75,0,0
73339,-85.616309303636,4,1,0,75,0,0
73402,-84.8395829168168,4,1,0,75,0,0
73463,-84.0907284948916,4,1,0,75,0,0
73525,-83.3333333333333,4,1,0,75,0,0
74085,-86.9565217391304,4,1,0,75,0,0
80809,-86.9565217391304,4,1,0,75,0,0
80932,-88.4843221406676,4,1,0,75,0,0
80994,-89.2645790156209,4,1,0,75,0,0
81055,-90.0389655439745,4,1,0,75,0,0
81117,-90.8329313017467,4,1,0,75,0,0
81179,-91.6338982686144,4,1,0,75,0,0
81241,-92.4419281814073,4,1,0,75,0,0
81302,-93.2438787941602,4,1,0,75,0,0
81364,-94.0661055538431,4,1,0,75,0,0
81426,-94.8955827288142,4,1,0,75,0,0
81488,-95.7323742534094,4,1,0,75,0,0
81549,-96.5628700868818,4,1,0,75,0,0
81611,-97.4143637913908,4,1,0,75,0,0
81673,-98.2733659878093,4,1,0,75,0,0
81796,-100,4,1,0,75,0,0
81863,-90.9090909090909,4,1,0,75,0,0
88833,-90.9090909090909,4,1,0,75,0,0
88888,-90.145364096968,4,1,0,75,0,0
88943,-89.3880533499242,4,1,0,75,0,0
88998,-88.6371047666293,4,1,0,75,0,0
89053,-87.8924648985778,4,1,0,75,0,0
89108,-87.154080746285,4,1,0,75,0,0
89162,-86.435157078036,4,1,0,75,0,0
89217,-85.7090157613599,4,1,0,75,0,0
89272,-84.9889747542061,4,1,0,75,0,0
89327,-84.2749828079052,4,1,0,75,0,0
89382,-83.5669891043277,4,1,0,75,0,0
89437,-82.8649432522668,4,1,0,75,0,0
89492,-82.168795283852,4,1,0,75,0,0
89547,-81.4784956509927,4,1,0,75,0,0
89601,-80.8063892105914,4,1,0,75,0,0
89656,-80.1275351442508,4,1,0,75,0,0
89711,-79.454384127482,4,1,0,75,0,0
89766,-78.7868882489944,4,1,0,75,0,0
89821,-78.125,4,1,0,75,0,0
89888,-90.9090909090909,4,1,0,75,0,0
96241,-90.9090909090909,4,1,0,75,0,0
96302,-91.281844457888,4,1,0,75,0,0
96364,-91.6638542018225,4,1,0,75,0,0
96488,-92.4375467973589,4,1,0,75,0,0
96549,-92.822966507177,4,1,0,75,0,0
96611,-93.218012081274,4,1,0,75,0,0
96734,-94.0117687781239,4,1,0,75,0,0
96796,-94.4170200931655,4,1,0,75,0,0
96858,-94.8257803226032,4,1,0,75,0,0
96920,-95.2380952380952,4,1,0,75,0,0
96981,-95.6472742639808,4,1,0,75,0,0
97105,-96.4899815262186,4,1,0,75,0,0
97228,-97.3406924234822,4,1,0,75,0,0
97352,-98.2136399797498,4,1,0,75,0,0
97475,-99.0951546993578,4,1,0,75,0,0
97599,-100,4,1,0,75,0,0
97722,-83.3333333333333,4,1,0,75,0,0
97846,-86.9718309859155,4,1,0,75,0,0
97969,-90.9090909090909,4,1,0,75,0,0
98093,-95.2564596991901,4,1,0,75,0,0
98216,-100,4,1,0,75,0,0
98463,-86.9565217391304,4,1,0,75,0,0
98710,-89.5534418829599,4,1,0,75,0,0
98833,-90.9053716810539,4,1,0,75,0,0
99080,-93.7473630917222,4,1,0,75,0,0
99204,-95.242177453922,4,1,0,75,0,0
99327,-96.7727886416097,4,1,0,75,0,0
99451,-98.3664615520829,4,1,0,75,0,0
99574,-100,4,1,0,75,0,0
99697,-83.3333333333333,4,1,0,75,0,0
99821,-86.9718309859155,4,1,0,75,0,0
99944,-90.9090909090909,4,1,0,75,0,0
100068,-95.2564596991901,4,1,0,75,0,0
100191,-100,4,1,0,75,0,0
100438,-86.9565217391304,4,1,0,75,0,0
100685,-89.4123027669792,4,1,0,75,0,0
100809,-90.6982138714915,4,1,0,75,0,0
101055,-93.3619866284623,4,1,0,75,0,0
101179,-94.76490547746,4,1,0,75,0,0
101241,-95.4822954822955,4,1,0,75,0,0
101302,-96.1987944396605,4,1,0,75,0,0
101364,-96.93814305194,4,1,0,75,0,0
101426,-97.6889444097439,4,1,0,75,0,0
101488,-98.4514667002392,4,1,0,75,0,0
101549,-99.2133976148186,4,1,0,75,0,0
101611,-100,4,1,0,75,0,0
101673,-83.3333333333333,4,1,0,75,0,0
101796,-86.9412178810278,4,1,0,75,0,0
101920,-90.9090909090909,4,1,0,75,0,0
102043,-95.2197378565921,4,1,0,75,0,0
102167,-100,4,1,0,75,0,0
102414,-86.9565217391304,4,1,0,75,0,0
102660,-89.5426153536168,4,1,0,75,0,0
102784,-90.9053716810539,4,1,0,75,0,0
103031,-93.7473630917222,4,1,0,75,0,0
103154,-95.2299318561694,4,1,0,75,0,0
103278,-96.7727886416097,4,1,0,75,0,0
103401,-98.3533994334278,4,1,0,75,0,0
103525,-100,4,1,0,75,0,0
103648,-83.3333333333333,4,1,0,75,0,0
103772,-86.9718309859155,4,1,0,75,0,0
103895,-90.9090909090909,4,1,0,75,0,0
103957,-93.0320150659134,4,1,0,75,0,0
104018,-95.2197378565921,4,1,0,75,0,0
104142,-100,4,1,0,75,0,0
104389,-86.9565217391304,4,1,0,75,0,0
104636,-89.4123027669792,4,1,0,75,0,0
104759,-90.6876956975531,4,1,0,75,0,0
105006,-93.3619866284623,4,1,0,75,0,0
105130,-94.76490547746,4,1,0,75,0,0
105191,-95.470638505677,4,1,0,75,0,0
105253,-96.1987944396605,4,1,0,75,0,0
105315,-96.93814305194,4,1,0,75,0,0
105376,-97.6767424431676,4,1,0,75,0,0
105438,-98.4390735146022,4,1,0,75,0,0
105500,-99.2133976148186,4,1,0,75,0,0
105562,-100,4,1,0,75,0,0
105587,-83.3333333333333,4,1,0,75,0,0
109574,-83.3333333333333,4,1,0,75,0,0
109636,-83.8116602293484,4,1,0,75,0,0
109697,-84.2849515845907,4,1,0,75,0,0
109759,-84.7687406958575,4,1,0,75,0,0
109821,-85.2553067192514,4,1,0,75,0,0
109883,-85.7446655940335,4,1,0,75,0,0
109944,-86.2288727899384,4,1,0,75,0,0
110006,-86.7238198587603,4,1,0,75,0,0
110068,-87.2216078855237,4,1,0,75,0,0
110130,-87.7222531771076,4,1,0,75,0,0
110191,-88.2176279731382,4,1,0,75,0,0
110253,-88.7239903430846,4,1,0,75,0,0
110315,-89.2332591939192,4,1,0,75,0,0
110376,-89.7371667655029,4,1,0,75,0,0
110438,-90.2522511707365,4,1,0,75,0,0
110500,-90.770292120667,4,1,0,75,0,0
110562,-91.2913065856326,4,1,0,75,0,0
110623,-91.8068361205148,4,1,0,75,0,0
110685,-92.3338002679687,4,1,0,75,0,0
110747,-92.8637891489222,4,1,0,75,0,0
110809,-93.3968201251119,4,1,0,75,0,0
110870,-93.9242396685425,4,1,0,75,0,0
110932,-94.4633575487973,4,1,0,75,0,0
110994,-95.0055699240391,4,1,0,75,0,0
111055,-95.5420742102191,4,1,0,75,0,0
111117,-96.0904783357689,4,1,0,75,0,0
111179,-96.6420302586364,4,1,0,75,0,0
111241,-97.1967480469349,4,1,0,75,0,0
111302,-97.7456260966285,4,1,0,75,0,0
111364,-98.3066784397868,4,1,0,75,0,0
111426,-98.8709511800547,4,1,0,75,0,0
111488,-99.4384628022629,4,1,0,75,0,0
111549,-100,4,1,0,75,0,0
112537,-100,4,1,0,75,0,0
112660,-99.3380756470029,4,1,0,75,0,0
112722,-98.8799243793417,4,1,0,75,0,0
112784,-98.3773783872122,4,1,0,75,0,0
112866,-97.6617279237002,4,1,0,75,0,0
112948,-96.9015736983085,4,1,0,75,0,0
113031,-96.0972393526304,4,1,0,75,0,0
113216,-94.2142046916077,4,1,0,75,0,0
113401,-92.2508475950597,4,1,0,75,0,0
113525,-90.9090909090909,4,1,0,100,0,0
113648,-100,4,1,0,100,0,0
113772,-99.5425291582923,4,1,0,100,0,0
113833,-99.232841273014,4,1,0,100,0,0
113895,-98.8868564684945,4,1,0,100,0,0
113957,-98.5162509426873,4,1,0,100,0,0
114018,-98.1319891268381,4,1,0,100,0,0
114080,-97.7246943353592,4,1,0,100,0,0
114142,-97.3030188887057,4,1,0,100,0,0
114204,-96.868961349661,4,1,0,100,0,0
114265,-96.4314168735981,4,1,0,100,0,0
114327,-95.9774053817417,4,1,0,100,0,0
114389,-95.5152035920411,4,1,0,100,0,0
114451,-95.0458416251519,4,1,0,100,0,0
114512,-94.5779405551035,4,1,0,100,0,0
114574,-94.0969509711602,4,1,0,100,0,0
114636,-93.6112123376496,4,1,0,100,0,0
114697,-93.1292993563569,4,1,0,100,0,0
114764,-92.635986690589,4,1,0,100,0,1
114821,-92.1396725795842,4,1,0,100,0,1
114883,-91.6408395639581,4,1,0,100,0,1
114944,-91.1480223519133,4,1,0,100,0,1
115006,-90.6454623768953,4,1,0,100,0,1
115068,-90.1415952699044,4,1,0,100,0,1
115130,-89.6367639485222,4,1,0,100,0,1
115191,-89.1394412813991,4,1,0,100,0,1
115253,-88.6336102517761,4,1,0,100,0,1
115315,-88.1276901256021,4,1,0,100,0,1
115376,-87.6300866564855,4,1,0,100,0,1
115438,-87.1247145844418,4,1,0,100,0,1
115500,-86.619949309474,4,1,0,100,0,1
115562,-86.1159913544799,4,1,0,100,0,1
115623,-85.6211304426143,4,1,0,100,0,1
115685,-85.1193123555749,4,1,0,100,0,1
115747,-84.6188188938198,4,1,0,100,0,1
115809,-84.1197994735369,4,1,0,100,0,1
115870,-83.6304020761436,4,1,0,100,0,1
115932,-83.1347081026065,4,1,0,100,0,1
115994,-82.6408735802943,4,1,0,100,0,1
116055,-82.1569267272982,4,1,0,100,0,1
116117,-81.6671021396954,4,1,0,100,0,1
116179,-81.1794451117766,4,1,0,100,0,1
116241,-80.6940441079018,4,1,0,100,0,1
116302,-80.2187533170907,4,1,0,100,0,1
116364,-79.7380640177112,4,1,0,100,0,1
116426,-79.2598566862231,4,1,0,100,0,1
116488,-78.7841955637553,4,1,0,100,0,1
116549,-78.318748668265,4,1,0,100,0,1
116611,-77.8483089170073,4,1,0,100,0,1
116673,-77.3805773768896,4,1,0,100,0,1
116739,-76.9230769230769,4,1,0,100,0,0
116986,-83.3333333333333,4,1,0,100,0,1
117043,-84.2141152403682,4,1,0,100,0,1
117105,-85.1137146795314,4,1,0,100,0,1
117167,-86.032741205155,4,1,0,100,0,1
117228,-86.9565217391304,4,1,0,100,0,1
117290,-87.9159992881296,4,1,0,100,0,1
117352,-88.8968868094295,4,1,0,100,0,1
117414,-89.8999090081893,4,1,0,100,0,1
117480,-90.9090909090909,4,1,0,100,0,0
117598,-100,4,1,0,100,0,0
117722,-99.8892217696489,4,1,0,100,0,0
117783,-99.7891956085,4,1,0,100,0,0
117845,-99.664937222571,4,1,0,100,0,0
117907,-99.5206178869444,4,1,0,100,0,0
117968,-99.3609343599487,4,1,0,100,0,0
118030,-99.1821292527964,4,1,0,100,0,0
118092,-98.9878968346159,4,1,0,100,0,0
118154,-98.7792628285811,4,1,0,100,0,0
118215,-98.5608005738487,4,1,0,100,0,0
118277,-98.3261211098718,4,1,0,100,0,0
118339,-98.0794032847693,4,1,0,100,0,0
118401,-97.8212872349662,4,1,0,100,0,0
118462,-97.5567812571017,4,1,0,100,0,0
118463,-97.5523608705961,4,1,0,100,0,0
118524,-97.2777506211759,4,1,0,100,0,0
118586,-96.9889543710644,4,1,0,100,0,0
118647,-96.6957488590389,4,1,0,100,0,0
118709,-96.388964996655,4,1,0,100,0,0
118715,-96.0737622711322,4,1,0,100,0,1
118833,-95.7505460233589,4,1,0,100,0,1
118894,-95.4250973568968,4,1,0,100,0,1
118956,-95.0871102241239,4,1,0,100,0,1
119018,-94.7422131774738,4,1,0,100,0,1
119080,-94.3907457434036,4,1,0,100,0,1
119141,-94.038851644256,4,1,0,100,0,1
119203,-93.6753032770852,4,1,0,100,0,1
119265,-93.3061226131899,4,1,0,100,0,1
119326,-92.9376831673628,4,1,0,100,0,1
119388,-92.5581830884843,4,1,0,100,0,1
119450,-92.1738924290556,4,1,0,100,0,1
119451,-92.1676563975764,4,1,0,100,0,1
119512,-91.7850744509146,4,1,0,100,0,1
119573,-91.3983564996046,4,1,0,100,0,1
119635,-91.0013023358248,4,1,0,100,0,1
119697,-90.60045623987,4,1,0,100,0,1
119759,-90.1960490207319,4,1,0,100,0,1
119820,-89.7949060064399,4,1,0,100,0,1
119882,-89.3840884990923,4,1,0,100,0,1
119944,-88.9703559147365,4,1,0,100,0,1
120005,-88.5606486106143,4,1,0,100,0,1
120067,-88.1417276014829,4,1,0,100,0,1
120129,-87.7204785667932,4,1,0,100,0,1
120191,-87.2970860006349,4,1,0,100,0,1
120252,-86.8786038283483,4,1,0,100,0,1
120314,-86.4514820141343,4,1,0,100,0,1
120376,-86.0227330612489,4,1,0,100,0,1
120438,-85.5925191224476,4,1,0,100,0,1
120499,-85.1679667272051,4,1,0,100,0,1
120561,-84.735305959803,4,1,0,100,0,1
120623,-84.3016334975735,4,1,0,100,0,1
120684,-83.8741063723597,4,1,0,100,0,1
120747,-83.4318172478842,4,1,0,100,0,1
120809,-82.9959436907551,4,1,0,100,0,1
120870,-82.5666400331903,4,1,0,100,0,1
120931,-82.1369985847375,4,1,0,100,0,1
120993,-81.7000852793575,4,1,0,100,0,1
121055,-81.2630566645936,4,1,0,100,0,1
121117,-80.8260244461617,4,1,0,100,0,1
121178,-80.396142245891,4,1,0,100,0,1
121240,-79.9594181417958,4,1,0,100,0,1
121302,-79.5230007619987,4,1,0,100,0,1
121364,-79.0869867294136,4,1,0,100,0,1
121431,-78.6514691204684,4,1,0,100,0,0
121488,-78.2165375571569,4,1,0,100,0,0
121549,-77.7892767047496,4,1,0,100,0,0
121611,-77.3557599062836,4,1,0,100,0,0
121673,-76.9230769230769,4,1,0,100,0,0
121796,-84.7457627118644,4,1,0,100,0,0
121920,-84.9487024743513,4,1,0,100,0,0
122043,-85.1509681415844,4,1,0,100,0,0
122105,-85.2532887564503,4,1,0,100,0,0
122167,-85.3558555717799,4,1,0,100,0,0
122290,-85.560067105935,4,1,0,100,0,0
122414,-85.766930377433,4,1,0,100,0,0
122475,-85.8690612722969,4,1,0,100,0,0
122537,-85.9731159940779,4,1,0,100,0,0
122599,-86.0774232054362,4,1,0,100,0,0
122665,-86.1802953493498,4,1,0,100,0,1
122722,-86.2851061951676,4,1,0,100,0,1
122784,-86.3901722893518,4,1,0,100,0,1
122907,-86.5993690230686,4,1,0,100,0,1
122969,-86.7052023121387,4,1,0,100,0,1
123031,-86.8112945959414,4,1,0,100,0,1
123154,-87.0225383181083,4,1,0,100,0,1
123278,-87.2365426663295,4,1,0,100,0,1
123401,-87.4498635692666,4,1,0,100,0,1
123463,-87.5577871442576,4,1,0,100,0,1
123525,-87.6659774295608,4,1,0,100,0,1
123586,-87.7726839634642,4,1,0,100,0,1
123648,-87.8814063022881,4,1,0,100,0,1
123772,-88.0996610203438,4,1,0,100,0,1
123895,-88.3172292633957,4,1,0,100,0,1
123957,-88.4273056684943,4,1,0,100,0,1
124018,-88.5358747666467,4,1,0,100,0,1
124080,-88.6464972164143,4,1,0,100,0,1
124142,-88.7573964497041,4,1,0,100,0,1
124265,-88.9782295380414,4,1,0,100,0,1
124389,-89.2019731405482,4,1,0,100,0,1
124451,-89.3142674402668,4,1,0,100,0,1
124512,-89.4250268097196,4,1,0,100,0,1
124574,-89.5378837610491,4,1,0,100,0,1
124636,-89.6510259297568,4,1,0,100,0,1
124759,-89.8763338424368,4,1,0,100,0,1
124883,-90.1063254640476,4,1,0,100,0,1
124944,-89.2091975587442,4,1,0,100,0,1
125006,-88.3154851260959,4,1,0,100,0,1
125068,-87.4395017970325,4,1,0,100,0,1
125130,-86.5807251987493,4,1,0,100,0,1
125191,-85.7521051011197,4,1,0,100,0,1
125253,-84.925997243092,4,1,0,100,0,1
125315,-84.1156544180852,4,1,0,100,0,1
125381,-81.9672131147541,4,1,0,100,0,0
125500,-84.273753185293,4,1,0,100,0,0
125623,-85.2277956741832,4,1,0,100,0,0
125685,-85.7169304822734,4,1,0,100,0,0
125747,-86.2117121310865,4,1,0,100,0,0
125870,-87.2103974383123,4,1,0,100,0,0
126117,-89.2874361199499,4,1,0,100,0,0
126179,-89.824425259482,4,1,0,100,0,0
126241,-90.3679125597736,4,1,0,100,0,0
126302,-90.9090909090909,4,1,0,100,0,0
126364,-91.4658237850652,4,1,0,100,0,0
126488,-92.6,4,1,0,100,0,0
126611,-93.7531639161689,4,1,0,100,0,0
126673,-94.3453897096281,4,1,0,100,0,0
126734,-94.9354111133894,4,1,0,100,0,0
126858,-96.1578400830737,4,1,0,100,0,0
127105,-98.6891186187787,4,1,0,100,0,0
127167,-99.3455637807102,4,1,0,100,0,0
127228,-100,4,1,0,100,0,0
127352,-83.3333333333333,4,1,0,100,0,0
127599,-87.5025319019648,4,1,0,100,0,0
127722,-89.7382633984213,4,1,0,100,0,0
127969,-94.5916356470331,4,1,0,100,0,0
128031,-95.8934517203108,4,1,0,100,0,0
128093,-97.2316002700878,4,1,0,100,0,0
128154,-98.5851209493382,4,1,0,100,0,0
128216,-100,4,1,0,100,0,0
128344,-83.3333333333333,4,1,0,100,0,1
128401,-83.9722977986644,4,1,0,100,0,1
128463,-84.6211365902293,4,1,0,100,0,1
128525,-85.2800803818136,4,1,0,100,0,1
128586,-85.9384887988862,4,1,0,100,0,1
128833,-88.711784687745,4,1,0,100,0,1
128895,-89.436248682824,4,1,0,100,0,1
128957,-90.1726427622842,4,1,0,100,0,1
129018,-90.9090909090909,4,1,0,100,0,1
129080,-91.6700418523019,4,1,0,100,0,1
129142,-92.4438393464942,4,1,0,100,0,1
129204,-93.2308114787862,4,1,0,100,0,1
129265,-94.0182774854611,4,1,0,100,0,1
129332,-94.8324022346369,4,1,0,100,0,0
129389,-95.6607495069033,4,1,0,100,0,0
129451,-96.5036952814099,4,1,0,100,0,0
129512,-97.3476702508961,4,1,0,100,0,0
129574,-98.2207435266888,4,1,0,100,0,0
129697,-100,4,1,0,100,0,0
130567,-100,4,1,0,100,0,1
132784,-95.2380952380952,4,1,0,100,0,1
132846,-94.1799538399516,4,1,0,100,0,1
132907,-93.1503534882694,4,1,0,100,0,1
132969,-92.1154079128541,4,1,0,100,0,1
133031,-91.0919610843995,4,1,0,100,0,1
133093,-90.0798852462538,4,1,0,100,0,1
133154,-89.0951079369907,4,1,0,100,0,1
133216,-88.1052181051485,4,1,0,100,0,1
133283,-87.1263264291184,4,1,0,100,0,0
133339,-86.1738382118844,4,1,0,100,0,0
133401,-85.2164051025706,4,1,0,100,0,0
133525,-83.3333333333333,4,1,0,100,0,0
134517,-83.3333333333333,4,1,0,100,0,1
136246,-83.3333333333333,4,1,0,100,0,1
136302,-84.0877825163466,4,1,0,100,0,1
136364,-84.8615992636531,4,1,0,100,0,1
136426,-85.642537049718,4,1,0,100,0,1
136488,-86.4306614058098,4,1,0,100,0,1
136611,-88.0157298277478,4,1,0,100,0,1
136734,-89.629828807027,4,1,0,100,0,1
136796,-90.3010323234894,4,1,0,100,0,1
136858,-90.9823644623095,4,1,0,100,0,1
136920,-91.6740562314883,4,1,0,100,0,1
136981,-92.364933103229,4,1,0,100,0,1
137043,-93.0778888686592,4,1,0,100,0,1
137105,-93.8019367226232,4,1,0,100,0,1
137167,-94.5373375487878,4,1,0,100,0,1
137233,-95.2722180594933,4,1,0,100,0,0
137290,-96.0309466109014,4,1,0,100,0,0
137352,-96.8018568946255,4,1,0,100,0,0
137414,-97.5852446597462,4,1,0,100,0,0
137475,-98.368470778537,4,1,0,100,0,0
137599,-100,4,1,0,100,0,0
138468,-100,4,1,0,100,0,1
140191,-100,4,1,0,100,0,1
140253,-100.6314931758,4,1,0,100,0,1
140315,-101.271012710127,4,1,0,100,0,1
140376,-101.908200103146,4,1,0,100,0,1
140438,-102.564102564103,4,1,0,100,0,1
140562,-103.901566936586,4,1,0,100,0,1
140685,-105.263157894737,4,1,0,100,0,1
140747,-105.963105963106,4,1,0,100,0,1
140809,-106.672424962211,4,1,0,100,0,1
140870,-107.379632648625,4,1,0,100,0,1
140932,-108.108108108108,4,1,0,100,0,1
140994,-108.846535198854,4,1,0,100,0,1
141055,-109.582963620231,4,1,0,100,0,1
141117,-110.341746705383,4,1,0,100,0,1
141184,-90.9090909090909,4,1,0,100,0,0
141302,-92.020272284607,4,1,0,100,0,0
141426,-93.16832679344,4,1,0,100,0,0
141488,-93.7531639161689,4,1,0,100,0,0
141549,-94.3357783211084,4,1,0,100,0,0
141673,-95.5427156417664,4,1,0,100,0,0
141920,-98.0412916887242,4,1,0,100,0,0
141981,-98.6786018755328,4,1,0,100,0,0
142043,-99.3349066723879,4,1,0,100,0,0
142167,-100.674059578169,4,1,0,100,0,0
142228,-101.346174893291,4,1,0,100,0,0
142414,-103.452128253826,4,1,0,100,0,0
142537,-104.893520616221,4,1,0,100,0,0
142660,-106.375646180356,4,1,0,100,0,0
142722,-107.138724979752,4,1,0,100,0,0
142784,-107.912830672416,4,1,0,100,0,0
142907,-109.482147079688,4,1,0,100,0,0
143031,-111.111111111111,4,1,0,100,0,0
143154,-90.9090909090909,4,1,0,100,0,0
143401,-93.0232558139535,4,1,0,100,0,0
143525,-94.1221301324188,4,1,0,100,0,0
143648,-95.2380952380952,4,1,0,100,0,0
143710,-95.810705973623,4,1,0,100,0,0
143772,-96.390243902439,4,1,0,100,0,0
143833,-96.967317695554,4,1,0,100,0,0
143895,-97.5609756097561,4,1,0,100,0,0
143957,-98.1619473422752,4,1,0,100,0,0
144018,-98.7604958016793,4,1,0,100,0,0
144080,-99.3763830215248,4,1,0,100,0,0
144147,-100,4,1,0,100,0,1
144270,-76.9230769230769,4,1,0,100,0,1
145119,-57.1428571428571,4,1,0,100,0,1
145932,-125,4,1,0,75,0,1
146117,-120.677366766365,4,1,0,75,0,1
146426,-113.788166730947,4,1,0,75,0,1
146673,-108.565201853289,4,1,0,75,0,1
146920,-103.581975103918,4,1,0,75,0,1
147110,-100,4,1,0,75,0,0
155006,-100,4,1,0,75,0,0
155068,-99.0059323392657,4,1,0,75,0,0
155130,-98.0314335608827,4,1,0,75,0,0
155191,-97.0911949685535,4,1,0,75,0,0
155253,-96.1538461538461,4,1,0,75,0,0
155315,-95.2344231955583,4,1,0,75,0,0
155376,-94.3468296409473,4,1,0,75,0,0
155438,-93.4614802482216,4,1,0,75,0,0
155500,-92.5925925925926,4,1,0,75,0,0
155623,-90.9157832744405,4,1,0,75,0,0
155747,-89.2857142857143,4,1,0,75,0,0
155870,-87.7255291944879,4,1,0,75,0,0
155994,-86.2068965517241,4,1,0,75,0,0
156117,-84.7515783694757,4,1,0,75,0,0
156179,-84.0364725095264,4,1,0,75,0,0
156241,-83.3333333333333,4,1,0,75,0,0
156488,-86.9565217391304,4,1,0,75,0,0
156549,-88.0925185608224,4,1,0,75,0,0
156611,-89.2779626682101,4,1,0,75,0,0
156673,-90.4957465532414,4,1,0,75,0,0
156734,-91.7267523972348,4,1,0,75,0,0
156796,-93.0127383734077,4,1,0,75,0,0
156858,-94.3352954667074,4,1,0,75,0,0
156920,-95.696006203955,4,1,0,75,0,0
156981,-97.0736312146004,4,1,0,75,0,0
157105,-100,4,1,0,75,0,0
164883,-100,4,1,0,75,0,0
164944,-99.7828412080246,4,1,0,75,0,0
165006,-99.4613289097688,4,1,0,75,0,0
165068,-99.0877039848652,4,1,0,75,0,0
165130,-98.677135569743,4,1,0,75,0,0
165191,-98.2452301195582,4,1,0,75,0,0
165253,-97.7832362365851,4,1,0,75,0,0
165315,-97.3019911847288,4,1,0,75,0,0
165376,-96.8126776165097,4,1,0,75,0,0
165500,-95.7788284772192,4,1,0,75,0,0
165623,-94.7130659069525,4,1,0,75,0,0
165685,-94.1641384304503,4,1,0,75,0,0
165747,-93.6088702461248,4,1,0,75,0,0
165870,-92.4922403118545,4,1,0,75,0,0
165932,-91.923427264966,4,1,0,75,0,0
165994,-91.3515739399451,4,1,0,75,0,0
166055,-90.786590633918,4,1,0,75,0,0
166117,-90.210519266072,4,1,0,75,0,0
166241,-89.0548875865356,4,1,0,75,0,0
166364,-87.906908255069,4,1,0,75,0,0
166488,-86.7509549274474,4,1,0,75,0,0
166611,-85.6082035210546,4,1,0,75,0,0
166734,-84.4714453342232,4,1,0,75,0,0
166858,-83.3333333333333,4,1,0,75,0,0
166986,-200,4,1,0,50,0,0
173715,-125,4,1,0,75,0,0
173895,-122.949168631804,4,1,0,75,0,0
173957,-121.553190203254,4,1,0,75,0,0
174018,-120.068572019169,4,1,0,75,0,0
174142,-116.841908120097,4,1,0,75,0,0
174265,-113.492141910711,4,1,0,75,0,0
174389,-110.060686504838,4,1,0,75,0,0
174512,-106.662479187901,4,1,0,75,0,0
174759,-100,4,1,0,75,0,0
182604,-90.9090909090909,4,1,0,75,0,0
189573,-90.9090909090909,4,1,0,75,0,0
189574,-90.9090909090909,4,1,0,75,0,0
189629,-90.145364096968,4,1,0,75,0,0
189684,-89.3880533499242,4,1,0,75,0,0
189739,-88.6371047666293,4,1,0,75,0,0
189793,-87.9059478092481,4,1,0,75,0,0
189848,-87.1674503870911,4,1,0,75,0,0
189903,-86.435157078036,4,1,0,75,0,0
189958,-85.7090157613599,4,1,0,75,0,0
190013,-84.9889747542061,4,1,0,75,0,0
190068,-84.2749828079052,4,1,0,75,0,0
190123,-83.5669891043277,4,1,0,75,0,0
190178,-82.8649432522668,4,1,0,75,0,0
190232,-82.1814001701523,4,1,0,75,0,0
190287,-81.4909946437071,4,1,0,75,0,0
190342,-80.8063892105914,4,1,0,75,0,0
190397,-80.1275351442508,4,1,0,75,0,0
190452,-79.454384127482,4,1,0,75,0,0
190507,-78.7868882489944,4,1,0,75,0,0
190562,-78.125,4,1,0,75,0,0
190628,-90.9090909090909,4,1,0,75,0,0
196977,-90.9090909090909,4,1,0,75,0,0
197038,-91.281844457888,4,1,0,75,0,0
197100,-91.6638542018225,4,1,0,75,0,0
197224,-92.4375467973589,4,1,0,75,0,0
197285,-92.822966507177,4,1,0,75,0,0
197347,-93.218012081274,4,1,0,75,0,0
197470,-94.0117687781239,4,1,0,75,0,0
197532,-94.4170200931655,4,1,0,75,0,0
197594,-94.8257803226032,4,1,0,75,0,0
197656,-95.2380952380952,4,1,0,75,0,0
197717,-95.6472742639808,4,1,0,75,0,0
197841,-96.4899815262186,4,1,0,75,0,0
197964,-97.3406924234822,4,1,0,75,0,0
198088,-98.2136399797498,4,1,0,75,0,0
198211,-99.0951546993578,4,1,0,75,0,0
198335,-100,4,1,0,75,0,0
198458,-83.3333333333333,4,1,0,75,0,0
198582,-86.9718309859155,4,1,0,75,0,0
198705,-90.9090909090909,4,1,0,75,0,0
198829,-95.2564596991901,4,1,0,75,0,0
198952,-100,4,1,0,75,0,0
199199,-86.9565217391304,4,1,0,75,0,0
199446,-89.5534418829599,4,1,0,75,0,0
199569,-90.9053716810539,4,1,0,75,0,0
199816,-93.7473630917222,4,1,0,75,0,0
199940,-95.242177453922,4,1,0,75,0,0
200063,-96.7727886416097,4,1,0,75,0,0
200187,-98.3664615520829,4,1,0,75,0,0
200310,-100,4,1,0,75,0,0
200433,-83.3333333333333,4,1,0,75,0,0
200557,-86.9718309859155,4,1,0,75,0,0
200680,-90.9090909090909,4,1,0,75,0,0
200804,-95.2564596991901,4,1,0,75,0,0
200927,-100,4,1,0,75,0,0
201174,-86.9565217391304,4,1,0,75,0,0
201421,-89.4123027669792,4,1,0,75,0,0
201545,-90.6982138714915,4,1,0,75,0,0
201791,-93.3619866284623,4,1,0,75,0,0
201915,-94.76490547746,4,1,0,75,0,0
201977,-95.4822954822955,4,1,0,75,0,0
202038,-96.1987944396605,4,1,0,75,0,0
202100,-96.93814305194,4,1,0,75,0,0
202162,-97.6889444097439,4,1,0,75,0,0
202224,-98.4514667002392,4,1,0,75,0,0
202285,-99.2133976148186,4,1,0,75,0,0
202347,-100,4,1,0,75,0,0
202409,-83.3333333333333,4,1,0,75,0,0
202532,-86.9412178810278,4,1,0,75,0,0
202656,-90.9090909090909,4,1,0,75,0,0
202779,-95.2197378565921,4,1,0,75,0,0
202903,-100,4,1,0,75,0,0
203150,-86.9565217391304,4,1,0,75,0,0
203396,-89.5426153536168,4,1,0,75,0,0
203520,-90.9053716810539,4,1,0,75,0,0
203767,-93.7473630917222,4,1,0,75,0,0
203890,-95.2299318561694,4,1,0,75,0,0
204014,-96.7727886416097,4,1,0,75,0,0
204137,-98.3533994334278,4,1,0,75,0,0
204261,-100,4,1,0,75,0,0
204384,-83.3333333333333,4,1,0,75,0,0
204508,-86.9718309859155,4,1,0,75,0,0
204631,-90.9090909090909,4,1,0,75,0,0
204693,-93.0320150659134,4,1,0,75,0,0
204754,-95.2197378565921,4,1,0,75,0,0
204878,-100,4,1,0,75,0,0
205125,-86.9565217391304,4,1,0,75,0,0
205372,-89.4123027669792,4,1,0,75,0,0
205495,-90.6876956975531,4,1,0,75,0,0
205742,-93.3619866284623,4,1,0,75,0,0
205866,-94.76490547746,4,1,0,75,0,0
205927,-95.470638505677,4,1,0,75,0,0
205989,-96.1987944396605,4,1,0,75,0,0
206051,-96.93814305194,4,1,0,75,0,0
206112,-97.6767424431676,4,1,0,75,0,0
206174,-98.4390735146022,4,1,0,75,0,0
206236,-99.2133976148186,4,1,0,75,0,0
206298,-100,4,1,0,75,0,0
206323,-83.3333333333333,4,1,0,75,0,0
210310,-83.3333333333333,4,1,0,75,0,0
210372,-83.8116602293484,4,1,0,75,0,0
210433,-84.2849515845907,4,1,0,75,0,0
210495,-84.7687406958575,4,1,0,75,0,0
210557,-85.2553067192514,4,1,0,75,0,0
210619,-85.7446655940335,4,1,0,75,0,0
210680,-86.2288727899384,4,1,0,75,0,0
210742,-86.7238198587603,4,1,0,75,0,0
210804,-87.2216078855237,4,1,0,75,0,0
210866,-87.7222531771076,4,1,0,75,0,0
210927,-88.2176279731382,4,1,0,75,0,0
210989,-88.7239903430846,4,1,0,75,0,0
211051,-89.2332591939192,4,1,0,75,0,0
211112,-89.7371667655029,4,1,0,75,0,0
211174,-90.2522511707365,4,1,0,75,0,0
211236,-90.770292120667,4,1,0,75,0,0
211298,-91.2913065856326,4,1,0,75,0,0
211359,-91.8068361205148,4,1,0,75,0,0
211421,-92.3338002679687,4,1,0,75,0,0
211483,-92.8637891489222,4,1,0,75,0,0
211545,-93.3968201251119,4,1,0,75,0,0
211606,-93.9242396685425,4,1,0,75,0,0
211668,-94.4633575487973,4,1,0,75,0,0
211730,-95.0055699240391,4,1,0,75,0,0
211791,-95.5420742102191,4,1,0,75,0,0
211853,-96.0904783357689,4,1,0,75,0,0
211915,-96.6420302586364,4,1,0,75,0,0
211977,-97.1967480469349,4,1,0,75,0,0
212038,-97.7456260966285,4,1,0,75,0,0
212100,-98.3066784397868,4,1,0,75,0,0
212162,-98.8709511800547,4,1,0,75,0,0
212224,-99.4384628022629,4,1,0,75,0,0
212285,-100,4,1,0,75,0,0
213268,-100,4,1,0,75,0,0
213269,-100,4,1,0,75,0,0
213396,-99.3441601164245,4,1,0,75,0,0
213458,-98.8862523783843,4,1,0,75,0,0
213520,-98.3836834526258,4,1,0,75,0,0
213602,-97.6677511566484,4,1,0,75,0,0
213684,-96.9071246106405,4,1,0,75,0,0
213767,-96.1021786517487,4,1,0,75,0,0
213886,-94.8501291102787,4,1,0,75,0,0
213952,-93.5656403620126,4,1,0,75,0,0
214137,-92.2521989069509,4,1,0,75,0,0
214261,-90.9090909090909,4,1,0,100,0,0
214384,-100,4,1,0,100,0,0
214508,-99.5425291582923,4,1,0,100,0,0
214569,-99.232841273014,4,1,0,100,0,0
214631,-98.8868564684945,4,1,0,100,0,0
214693,-98.5162509426873,4,1,0,100,0,0
214754,-98.1319891268381,4,1,0,100,0,0
214816,-97.7246943353592,4,1,0,100,0,0
214878,-97.3030188887057,4,1,0,100,0,0
214940,-96.868961349661,4,1,0,100,0,0
215001,-96.4314168735981,4,1,0,100,0,0
215063,-95.9774053817417,4,1,0,100,0,0
215125,-95.5152035920411,4,1,0,100,0,0
215187,-95.0458416251519,4,1,0,100,0,0
215248,-94.5779405551035,4,1,0,100,0,0
215310,-94.0969509711602,4,1,0,100,0,0
215372,-93.6112123376496,4,1,0,100,0,0
215433,-93.1292993563569,4,1,0,100,0,0
215505,-92.5925925925926,4,1,0,100,0,1
215561,-92.1396725795842,4,1,0,100,0,1
215623,-91.6408395639581,4,1,0,100,0,1
215684,-91.1480223519133,4,1,0,100,0,1
215746,-90.6454623768953,4,1,0,100,0,1
215808,-90.1415952699044,4,1,0,100,0,1
215870,-89.6367639485222,4,1,0,100,0,1
215931,-89.1394412813991,4,1,0,100,0,1
215993,-88.6336102517761,4,1,0,100,0,1
216055,-88.1276901256021,4,1,0,100,0,1
216116,-87.6300866564855,4,1,0,100,0,1
216178,-87.1247145844418,4,1,0,100,0,1
216240,-86.619949309474,4,1,0,100,0,1
216302,-86.1159913544799,4,1,0,100,0,1
216363,-85.6211304426143,4,1,0,100,0,1
216425,-85.1193123555749,4,1,0,100,0,1
216487,-84.6188188938198,4,1,0,100,0,1
216549,-84.1197994735369,4,1,0,100,0,1
216610,-83.6304020761436,4,1,0,100,0,1
216672,-83.1347081026065,4,1,0,100,0,1
216734,-82.6408735802943,4,1,0,100,0,1
216795,-82.1569267272982,4,1,0,100,0,1
216857,-81.6671021396954,4,1,0,100,0,1
216919,-81.1794451117766,4,1,0,100,0,1
216981,-80.6940441079018,4,1,0,100,0,1
217042,-80.2187533170907,4,1,0,100,0,1
217104,-79.7380640177112,4,1,0,100,0,1
217166,-79.2598566862231,4,1,0,100,0,1
217228,-78.7841955637553,4,1,0,100,0,1
217289,-78.318748668265,4,1,0,100,0,1
217351,-77.8483089170073,4,1,0,100,0,1
217413,-77.3805773768896,4,1,0,100,0,1
217480,-76.9230769230769,4,1,0,100,0,0
217727,-83.3333333333333,4,1,0,100,0,1
217783,-84.2141152403682,4,1,0,100,0,1
217845,-85.1137146795314,4,1,0,100,0,1
217907,-86.032741205155,4,1,0,100,0,1
217968,-86.9565217391304,4,1,0,100,0,1
218030,-87.9159992881296,4,1,0,100,0,1
218092,-88.8968868094295,4,1,0,100,0,1
218154,-89.8999090081893,4,1,0,100,0,1
218221,-90.9090909090909,4,1,0,100,0,0
218340,-100,4,1,0,100,0,0
218464,-99.8892217696489,4,1,0,100,0,0
218525,-99.7891956085,4,1,0,100,0,0
218587,-99.664937222571,4,1,0,100,0,0
218649,-99.5206178869444,4,1,0,100,0,0
218710,-99.3609343599487,4,1,0,100,0,0
218772,-99.1821292527964,4,1,0,100,0,0
218834,-98.9878968346159,4,1,0,100,0,0
218896,-98.7792628285811,4,1,0,100,0,0
218957,-98.5608005738487,4,1,0,100,0,0
219019,-98.3261211098718,4,1,0,100,0,0
219081,-98.0794032847693,4,1,0,100,0,0
219143,-97.8212872349662,4,1,0,100,0,0
219204,-97.5567812571017,4,1,0,100,0,0
219205,-97.5523608705961,4,1,0,100,0,0
219266,-97.2777506211759,4,1,0,100,0,0
219328,-96.9889543710644,4,1,0,100,0,0
219389,-96.6957488590389,4,1,0,100,0,0
219456,-96.4320154291225,4,1,0,100,0,1
219513,-96.0737622711322,4,1,0,100,0,1
219574,-95.7505460233589,4,1,0,100,0,1
219635,-95.4250973568968,4,1,0,100,0,1
219697,-95.0871102241239,4,1,0,100,0,1
219759,-94.7422131774738,4,1,0,100,0,1
219821,-94.3907457434036,4,1,0,100,0,1
219882,-94.038851644256,4,1,0,100,0,1
219944,-93.6753032770852,4,1,0,100,0,1
220006,-93.3061226131899,4,1,0,100,0,1
220067,-92.9376831673628,4,1,0,100,0,1
220129,-92.5581830884843,4,1,0,100,0,1
220191,-92.1738924290556,4,1,0,100,0,1
220192,-92.1676563975764,4,1,0,100,0,1
220253,-91.7850744509146,4,1,0,100,0,1
220314,-91.3983564996046,4,1,0,100,0,1
220376,-91.0013023358248,4,1,0,100,0,1
220438,-90.60045623987,4,1,0,100,0,1
220500,-90.1960490207319,4,1,0,100,0,1
220561,-89.7949060064399,4,1,0,100,0,1
220623,-89.3840884990923,4,1,0,100,0,1
220685,-88.9703559147365,4,1,0,100,0,1
220746,-88.5606486106143,4,1,0,100,0,1
220808,-88.1417276014829,4,1,0,100,0,1
220870,-87.7204785667932,4,1,0,100,0,1
220932,-87.2970860006349,4,1,0,100,0,1
220993,-86.8786038283483,4,1,0,100,0,1
221055,-86.4514820141343,4,1,0,100,0,1
221117,-86.0227330612489,4,1,0,100,0,1
221179,-85.5925191224476,4,1,0,100,0,1
221240,-85.1679667272051,4,1,0,100,0,1
221302,-84.735305959803,4,1,0,100,0,1
221364,-84.3016334975735,4,1,0,100,0,1
221425,-83.8741063723597,4,1,0,100,0,1
221488,-83.4318172478842,4,1,0,100,0,1
221550,-82.9959436907551,4,1,0,100,0,1
221611,-82.5666400331903,4,1,0,100,0,1
221672,-82.1369985847375,4,1,0,100,0,1
221734,-81.7000852793575,4,1,0,100,0,1
221796,-81.2630566645936,4,1,0,100,0,1
221858,-80.8260244461617,4,1,0,100,0,1
221919,-80.396142245891,4,1,0,100,0,1
221981,-79.9594181417958,4,1,0,100,0,1
222043,-79.5230007619987,4,1,0,100,0,1
222105,-79.0869867294136,4,1,0,100,0,1
222172,-78.6782061369001,4,1,0,100,0,0
222233,-78.2165375571569,4,1,0,100,0,0
222294,-77.7892767047496,4,1,0,100,0,0
222356,-77.3557599062836,4,1,0,100,0,0
222418,-76.9230769230769,4,1,0,100,0,0
222536,-84.7457627118644,4,1,0,100,0,0
222660,-84.9487024743513,4,1,0,100,0,0
222783,-85.1509681415844,4,1,0,100,0,0
222845,-85.2532887564503,4,1,0,100,0,0
222907,-85.3558555717799,4,1,0,100,0,0
223030,-85.560067105935,4,1,0,100,0,0
223154,-85.766930377433,4,1,0,100,0,0
223215,-85.8690612722969,4,1,0,100,0,0
223277,-85.9731159940779,4,1,0,100,0,0
223339,-86.0774232054362,4,1,0,100,0,0
223406,-86.2068965517241,4,1,0,100,0,1
223462,-86.2851061951676,4,1,0,100,0,1
223524,-86.3901722893518,4,1,0,100,0,1
223647,-86.5993690230686,4,1,0,100,0,1
223709,-86.7052023121387,4,1,0,100,0,1
223771,-86.8112945959414,4,1,0,100,0,1
223894,-87.0225383181083,4,1,0,100,0,1
224018,-87.2365426663295,4,1,0,100,0,1
224141,-87.4498635692666,4,1,0,100,0,1
224203,-87.5577871442576,4,1,0,100,0,1
224265,-87.6659774295608,4,1,0,100,0,1
224326,-87.7726839634642,4,1,0,100,0,1
224388,-87.8814063022881,4,1,0,100,0,1
224512,-88.0996610203438,4,1,0,100,0,1
224635,-88.3172292633957,4,1,0,100,0,1
224697,-88.4273056684943,4,1,0,100,0,1
224758,-88.5358747666467,4,1,0,100,0,1
224820,-88.6464972164143,4,1,0,100,0,1
224882,-88.7573964497041,4,1,0,100,0,1
225005,-88.9782295380414,4,1,0,100,0,1
225129,-89.2019731405482,4,1,0,100,0,1
225191,-89.3142674402668,4,1,0,100,0,1
225252,-89.4250268097196,4,1,0,100,0,1
225314,-89.5378837610491,4,1,0,100,0,1
225376,-89.6510259297568,4,1,0,100,0,1
225499,-89.8763338424368,4,1,0,100,0,1
225623,-90.1063254640476,4,1,0,100,0,1
225684,-89.2109955622044,4,1,0,100,0,1
225746,-88.3190384023336,4,1,0,100,0,1
225808,-87.4447407652866,4,1,0,100,0,1
225870,-86.587583340549,4,1,0,100,0,1
225931,-85.76049420266,4,1,0,100,0,1
225993,-84.9358820058348,4,1,0,100,0,1
226055,-84.1269765582053,4,1,0,100,0,1
226122,-81.9672131147541,4,1,0,100,0,0
226241,-84.273753185293,4,1,0,100,0,0
226364,-85.2277956741832,4,1,0,100,0,0
226426,-85.7169304822734,4,1,0,100,0,0
226488,-86.2117121310865,4,1,0,100,0,0
226611,-87.2103974383123,4,1,0,100,0,0
226858,-89.2874361199499,4,1,0,100,0,0
226920,-89.824425259482,4,1,0,100,0,0
226982,-90.3679125597736,4,1,0,100,0,0
227043,-90.9090909090909,4,1,0,100,0,0
227105,-91.4658237850652,4,1,0,100,0,0
227229,-92.6,4,1,0,100,0,0
227352,-93.7531639161689,4,1,0,100,0,0
227414,-94.3453897096281,4,1,0,100,0,0
227475,-94.9354111133894,4,1,0,100,0,0
227599,-96.1578400830737,4,1,0,100,0,0
227846,-98.6891186187787,4,1,0,100,0,0
227908,-99.3455637807102,4,1,0,100,0,0
227969,-100,4,1,0,100,0,0
228093,-83.3333333333333,4,1,0,100,0,0
228340,-87.5025319019648,4,1,0,100,0,0
228463,-89.7382633984213,4,1,0,100,0,0
228710,-94.5916356470331,4,1,0,100,0,0
228772,-95.8934517203108,4,1,0,100,0,0
228834,-97.2316002700878,4,1,0,100,0,0
228895,-98.5851209493382,4,1,0,100,0,0
228957,-100,4,1,0,100,0,0
229085,-83.3333333333333,4,1,0,100,0,1
229142,-83.9612808658176,4,1,0,100,0,1
229204,-84.6092950849476,4,1,0,100,0,1
229266,-85.2673898697569,4,1,0,100,0,1
229327,-85.924938302351,4,1,0,100,0,1
229574,-88.6944838170448,4,1,0,100,0,1
229636,-89.417934024314,4,1,0,100,0,1
229698,-90.1532831528741,4,1,0,100,0,1
229759,-90.8886716841497,4,1,0,100,0,1
229821,-91.6485124326134,4,1,0,100,0,1
229883,-92.4211650184665,4,1,0,100,0,1
229945,-93.206956231441,4,1,0,100,0,1
230006,-93.9932239052869,4,1,0,100,0,1
230073,-94.8193182281551,4,1,0,100,0,0
230130,-95.6466006014889,4,1,0,100,0,0
230191,-96.4747501140576,4,1,0,100,0,0
230252,-97.3173658324605,4,1,0,100,0,0
230314,-98.1890128374542,4,1,0,100,0,0
230437,-99.9652992326522,4,1,0,100,0,0
231307,-100,4,1,0,100,0,1
233529,-95.2380952380952,4,1,0,100,0,1
233587,-94.1987637970799,4,1,0,100,0,1
233648,-93.1707745594295,4,1,0,100,0,1
233710,-92.1374281483195,4,1,0,100,0,1
233772,-91.1155424641425,4,1,0,100,0,1
233834,-90.104990397286,4,1,0,100,0,1
233895,-89.121676427407,4,1,0,100,0,1
233957,-88.1332381008627,4,1,0,100,0,1
234023,-87.1557624308184,4,1,0,100,0,0
234084,-86.2046333271382,4,1,0,100,0,0
234146,-85.2485475921975,4,1,0,100,0,0
234265,-83.3680700291788,4,1,0,100,0,0
235258,-83.3333333333333,4,1,0,100,0,1
236986,-83.3333333333333,4,1,0,100,0,1
237042,-83.9619141832571,4,1,0,100,0,1
237104,-84.6105919003115,4,1,0,100,0,1
237166,-85.2693708401356,4,1,0,100,0,1
237228,-85.9384887988862,4,1,0,100,0,1
237351,-87.297505785549,4,1,0,100,0,1
237474,-88.7001959503592,4,1,0,100,0,1
237536,-89.4244699064928,4,1,0,100,0,1
237598,-90.1606692338335,4,1,0,100,0,1
237660,-90.9090909090909,4,1,0,100,0,1
237721,-91.6576673866091,4,1,0,100,0,1
237783,-92.431255104819,4,1,0,100,0,1
237845,-93.218012081274,4,1,0,100,0,1
237907,-94.0182774854611,4,1,0,100,0,1
237959,-95.5513377395543,4,1,0,100,0,1
237974,-94.8324022346369,4,1,0,100,0,0
238030,-95.6472742639808,4,1,0,100,0,0
238092,-96.4899815262186,4,1,0,100,0,0
238154,-97.3476702508961,4,1,0,100,0,0
238220,-98.2065374602256,4,1,0,100,0,0
238339,-100,4,1,0,100,0,0
239209,-100,4,1,0,100,0,1
240936,-100,4,1,0,100,0,1
240994,-100.6314931758,4,1,0,100,0,1
241056,-101.271012710127,4,1,0,100,0,1
241117,-101.908200103146,4,1,0,100,0,1
241179,-102.564102564103,4,1,0,100,0,1
241303,-103.901566936586,4,1,0,100,0,1
241426,-105.263157894737,4,1,0,100,0,1
241488,-105.963105963106,4,1,0,100,0,1
241550,-106.672424962211,4,1,0,100,0,1
241611,-107.379632648625,4,1,0,100,0,1
241673,-108.108108108108,4,1,0,100,0,1
241735,-108.846535198854,4,1,0,100,0,1
241796,-109.582963620231,4,1,0,100,0,1
241858,-110.341746705383,4,1,0,100,0,1
241925,-90.9090909090909,4,1,0,100,0,0
242043,-92.020272284607,4,1,0,100,0,0
242167,-93.16832679344,4,1,0,100,0,0
242229,-93.7531639161689,4,1,0,100,0,0
242290,-94.3357783211084,4,1,0,100,0,0
242414,-95.5427156417664,4,1,0,100,0,0
242661,-98.0412916887242,4,1,0,100,0,0
242722,-98.6786018755328,4,1,0,100,0,0
242784,-99.3349066723879,4,1,0,100,0,0
242908,-100.674059578169,4,1,0,100,0,0
242969,-101.346174893291,4,1,0,100,0,0
243155,-103.452128253826,4,1,0,100,0,0
243278,-104.893520616221,4,1,0,100,0,0
243401,-106.375646180356,4,1,0,100,0,0
243463,-107.138724979752,4,1,0,100,0,0
243525,-107.912830672416,4,1,0,100,0,0
243648,-109.482147079688,4,1,0,100,0,0
243772,-111.111111111111,4,1,0,100,0,0
243895,-90.9090909090909,4,1,0,100,0,0
244142,-93.0232558139535,4,1,0,100,0,0
244266,-94.1221301324188,4,1,0,100,0,0
244389,-95.2380952380952,4,1,0,100,0,0
244451,-95.810705973623,4,1,0,100,0,0
244513,-96.390243902439,4,1,0,100,0,0
244574,-96.967317695554,4,1,0,100,0,0
244636,-97.5609756097561,4,1,0,100,0,0
244698,-98.1619473422752,4,1,0,100,0,0
244759,-98.7604958016793,4,1,0,100,0,0
244821,-99.3763830215248,4,1,0,100,0,0
244888,-100,4,1,0,100,0,1
245015,-76.9230769230769,4,1,0,100,0,1
245860,-57.1428571428571,4,1,0,100,0,1
246670,-125,4,1,0,75,0,1
246855,-120.677366766365,4,1,0,75,0,1
247164,-113.788166730947,4,1,0,75,0,1
247411,-108.565201853289,4,1,0,75,0,1
247658,-103.581975103918,4,1,0,75,0,1
247851,-100,4,1,0,75,0,0
255747,-100,4,1,0,75,0,0
255809,-99.00513478819,4,1,0,75,0,0
255871,-98.029869717191,4,1,0,75,0,0
255932,-97.0889063729347,4,1,0,75,0,0
255994,-96.1508493065295,4,1,0,75,0,0
256056,-95.2307454854144,4,1,0,75,0,0
256117,-94.3425076452599,4,1,0,75,0,0
256179,-93.4565283247501,4,1,0,75,0,0
256241,-92.5870348139256,4,1,0,75,0,0
256364,-90.9090909090909,4,1,0,75,0,0
256488,-89.2779626682101,4,1,0,75,0,0
256549,-88.4968445209409,4,1,0,75,0,0
256611,-87.7168040943986,4,1,0,75,0,0
256734,-86.2093055749616,4,1,0,75,0,0
256735,-86.1972618049735,4,1,0,75,0,0
256858,-84.741106990798,4,1,0,75,0,0
256920,-84.0256026147351,4,1,0,75,0,0
256982,-83.3333333333333,4,1,0,75,0,0
257229,-86.9748786151573,4,1,0,75,0,0
257290,-88.109495295124,4,1,0,75,0,0
257352,-89.2934547030776,4,1,0,75,0,0
257414,-90.5096660808436,4,1,0,75,0,0
257475,-91.7390336228012,4,1,0,75,0,0
257537,-93.0232558139535,4,1,0,75,0,0
257599,-94.3439432104419,4,1,0,75,0,0
257661,-95.7026713124274,4,1,0,75,0,0
257722,-97.0782280867107,4,1,0,75,0,0
257846,-100,4,1,0,75,0,0
262660,-100,4,1,0,75,0,0
262661,-99.9980817778556,4,1,0,75,0,0
262784,-99.0000213902452,4,1,0,75,0,0
262908,-97.5732491891736,4,1,0,75,0,0
263031,-95.9706788772126,4,1,0,75,0,0
263093,-95.1179312335953,4,1,0,75,0,0
263155,-94.2436638003975,4,1,0,75,0,0
263278,-92.4636143418927,4,1,0,75,0,0
263401,-90.6455669493718,4,1,0,75,0,0
263525,-88.7948895413254,4,1,0,75,0,0
263648,-86.9565217391304,4,1,0,75,0,0
263715,-200,4,1,0,75,0,0
267326,-142.857142857143,4,1,0,75,0,0
267604,-200,4,1,0,75,0,0
271261,-153.846153846154,4,1,0,75,0,0
271554,-200,4,1,0,75,0,0
275212,-166.666666666667,4,1,0,75,0,0
275505,-200,4,1,0,75,0,0
277393,-123.85434728759,4,1,0,75,0,0
277434,-122.843195185057,4,1,0,75,0,0
277475,-121.840298170834,4,1,0,75,0,0
277599,-118.856699841233,4,1,0,75,0,0
277722,-115.969347831885,4,1,0,75,0,0
277846,-113.129516038375,4,1,0,75,0,0
277969,-110.381292876481,4,1,0,75,0,0
278024,-109.17411105964,4,1,0,75,0,0
278093,-107.135969141755,4,1,0,75,0,0
278216,-105.062501815101,4,1,0,75,0,0
278339,-102.510248335674,4,1,0,75,0,0
278401,-101.247344822308,4,1,0,75,0,0
278463,-100,4,1,0,75,0,0
278648,-111.111111111111,4,1,0,75,0,0
278710,-109.581138326801,4,1,0,75,0,0
278751,-108.454335208711,4,1,0,75,0,0
278772,-107.339118804232,4,1,0,75,0,0
278833,-106.235369969274,4,1,0,75,0,0
278957,-102.965794910119,4,1,0,75,0,0
279039,-100.859124675896,4,1,0,75,0,0
279121,-98.795556711506,4,1,0,75,0,0
279204,-96.7498155554357,4,1,0,75,0,0
279265,-95.2733753904569,4,1,0,75,0,0
279327,-93.7958174821848,4,1,0,75,0,0
279389,-92.3411744476993,4,1,0,75,0,0
279451,-90.9090909090909,4,1,0,75,0,0
279574,-92.6775264905899,4,1,0,75,0,0
279636,-93.5952723207155,4,1,0,75,0,0
279697,-94.5161290322581,4,1,0,75,0,0
279821,-96.4450296247531,4,1,0,75,0,0
279883,-97.4393082806784,4,1,0,75,0,0
279944,-98.4377624727028,4,1,0,75,0,0
280006,-99.4737735528773,4,1,0,75,0,0
280068,-100.531823640419,4,1,0,75,0,0
280191,-102.698913424466,4,1,0,75,0,0
280253,-103.827072997874,4,1,0,75,0,0
280315,-104.980293801505,4,1,0,75,0,0
280438,-90.9090909090909,4,1,0,75,0,0
280500,-91.5357248739994,4,1,0,75,0,0
280562,-92.1710575416076,4,1,0,75,0,0
280685,-93.4579439252336,4,1,0,75,0,0
280747,-94.1203368517319,4,1,0,75,0,0
280809,-94.7921863606708,4,1,0,75,0,0
280870,-95.4626265749401,4,1,0,75,0,0
280932,-96.1538461538461,4,1,0,75,0,0
280994,-96.8551486157948,4,1,0,75,0,0
281055,-97.5551957028319,4,1,0,75,0,0
281117,-98.2771654796483,4,1,0,75,0,0
281179,-99.009900990099,4,1,0,75,0,0
281302,-100.496378875417,4,1,0,75,0,0
281426,-102.040816326531,4,1,0,75,0,0
281488,-102.830974188176,4,1,0,75,0,0
281549,-103.620422032974,4,1,0,75,0,0
281673,-105.263157894737,4,1,0,75,0,0
281786,-106.382978723404,4,1,0,75,0,0
281909,-107.52688172043,4,1,0,75,0,0
282017,-108.695652173913,4,1,0,75,0,0
282172,-105.263157894737,4,1,0,75,0,0
282228,-103.912494741271,4,1,0,75,0,0
282290,-102.574750830565,4,1,0,75,0,0
282352,-101.271012710127,4,1,0,75,0,0
282414,-100,4,1,0,75,0,0
282660,-105.263157894737,4,1,0,75,0,0
282784,-103.441055350038,4,1,0,75,0,0
282907,-101.694915254237,4,1,0,75,0,0
283031,-99.9932528169489,4,1,0,75,0,0
283154,-98.3606557377049,4,1,0,75,0,0
283216,-97.5577644658021,4,1,0,75,0,0
283278,-96.767874632713,4,1,0,75,0,0
283401,-95.2380952380952,4,1,0,75,0,0
283530,-104.712041884817,4,1,0,75,0,0
283833,-101.679273578221,4,1,0,75,0,0
283895,-100.701811653338,4,1,0,75,0,0
284018,-98.8172361603818,4,1,0,75,0,0
284142,-96.9874167865255,4,1,0,75,0,0
284265,-95.2380952380952,4,1,0,75,0,0
284389,-90.9090909090909,4,1,0,75,0,0
284512,-92.7088363109609,4,1,0,75,0,0
284636,-94.5968139267531,4,1,0,75,0,0
284759,-96.5471002346631,4,1,0,75,0,0
285006,-100.716908550446,4,1,0,75,0,0
285130,-102.949061662198,4,1,0,75,0,0
285253,-105.263157894737,4,1,0,75,0,0
285376,-95.2380952380952,4,1,0,75,0,0
285438,-96.031454190592,4,1,0,75,0,0
285500,-96.8381419627194,4,1,0,75,0,0
285562,-97.6584972960534,4,1,0,75,0,0
285623,-98.4792997672176,4,1,0,75,0,0
285747,-100.191086092031,4,1,0,75,0,0
285778,-100.628371569151,4,1,0,75,0,0
285870,-101.948890423711,4,1,0,75,0,0
285953,-103.170322198333,4,1,0,75,0,0
286035,-104.406122903997,4,1,0,75,0,0
286117,-89.2857142857143,4,1,0,75,0,0
286179,-90.4342307598428,4,1,0,75,0,0
286241,-91.6126798872459,4,1,0,75,0,0
286302,-92.8024847520884,4,1,0,75,0,0
286364,-94.0438871473354,4,1,0,75,0,0
286426,-95.318951877436,4,1,0,75,0,0
286488,-96.6290669622482,4,1,0,75,0,0
286529,-97.5153971679739,4,1,0,75,0,0
286549,-98.4181376260111,4,1,0,75,0,0
286611,-99.3377483443709,4,1,0,75,0,0
286673,-100.76149034539,4,1,0,75,0,0
286734,-102.202667475829,4,1,0,75,0,0
286796,-103.710338843091,4,1,0,75,0,0
286858,-105.263157894737,4,1,0,75,0,0
286981,-95.7355661350562,4,1,0,75,0,0
287043,-94.9342280256264,4,1,0,75,0,0
287105,-94.1291777926425,4,1,0,75,0,0
287167,-93.3217347100969,4,1,0,75,0,0
287228,-92.5261120197071,4,1,0,75,0,0
287290,-91.7172449831133,4,1,0,75,0,0
287352,-90.9090909090909,4,1,0,75,0,0
287475,-91.6877509807107,4,1,0,75,0,0
287599,-92.4863611885083,4,1,0,75,0,0
287660,-92.8843531016319,4,1,0,75,0,0
287722,-93.2923948984412,4,1,0,75,0,0
287784,-93.7040375765052,4,1,0,75,0,0
287846,-94.119329012581,4,1,0,75,0,0
287969,-94.954205629943,4,1,0,75,0,0
288093,-95.810997647173,4,1,0,75,0,0
288154,-96.2381834129227,4,1,0,75,0,0
288216,-96.6762935043321,4,1,0,75,0,0
288339,-97.5573612586135,4,1,0,75,0,0
288401,-98.0075924869116,4,1,0,75,0,0
288463,-98.4619986539372,4,1,0,75,0,0
288586,-99.376069236188,4,1,0,75,0,0
288710,-100.314912637139,4,1,0,75,0,0
288833,-101.263875714615,4,1,0,75,0,0
288957,-102.238902549502,4,1,0,75,0,0
289080,-103.224794857053,4,1,0,75,0,0
289142,-103.728991596639,4,1,0,75,0,0
289204,-104.238137963794,4,1,0,75,0,0
289265,-104.743973906818,4,1,0,75,0,0
289327,-105.263157894737,4,1,0,75,0,0
289574,-105.263157894737,4,1,0,75,0,0
289697,-101.704233095107,4,1,0,75,0,0
289821,-98.3519404572036,4,1,0,75,0,0
289944,-95.2380952380952,4,1,0,75,0,0
290130,-105.263157894737,4,1,0,75,0,0
290191,-104.689593568557,4,1,0,75,0,0
290253,-104.112996357822,4,1,0,75,0,0
290315,-103.542715787614,4,1,0,75,0,0
290500,-101.877607788595,4,1,0,75,0,0
290562,-101.331488846619,4,1,0,75,0,0
290685,-100.2652066045,4,1,0,75,0,0
290726,-99.9147485080989,4,1,0,75,0,0
290767,-99.5667317984878,4,1,0,75,0,0
290809,-99.2127317362228,4,1,0,75,0,0
290932,-98.1903485254692,4,1,0,75,0,0
291055,-97.1888216270006,4,1,0,75,0,0
291179,-96.1996224246901,4,1,0,75,0,0
291302,-95.2380952380952,4,1,0,75,0,0
291431,-95.2380952380952,4,1,0,75,0,0
291704,-96.1221739781404,4,1,0,75,0,0
291796,-96.6547228327964,4,1,0,75,0,0
291920,-97.3819130540303,4,1,0,75,0,0
292043,-98.1141302686677,4,1,0,75,0,0
292074,-98.3004134129536,4,1,0,75,0,0
292167,-98.8635313683821,4,1,0,75,0,0
292290,-99.6182850758775,4,1,0,75,0,0
292352,-100.003115361849,4,1,0,75,0,0
292414,-100.390930414386,4,1,0,75,0,0
292475,-100.775437164474,4,1,0,75,0,0
292537,-101.169277317281,4,1,0,75,0,0
292784,-102.769329278054,4,1,0,75,0,0
292907,-103.585143115299,4,1,0,75,0,0
293031,-104.420806089587,4,1,0,75,0,0
293154,-105.263157894737,4,1,0,75,0,0
293278,-90.9090909090909,4,1,0,75,0,0
293339,-91.7331219971271,4,1,0,75,0,0
293401,-92.5861120831875,4,1,0,75,0,0
293463,-93.4551142958066,4,1,0,75,0,0
293525,-94.340583770567,4,1,0,75,0,0
293586,-95.228301110654,4,1,0,75,0,0
293648,-96.1478558820476,4,1,0,75,0,0
293710,-97.0853428391696,4,1,0,75,0,0
293772,-98.0412916887242,4,1,0,75,0,0
293833,-99.0003741914791,4,1,0,75,0,0
293895,-99.9946007235031,4,1,0,75,0,0
293957,-101.008999181893,4,1,0,75,0,0
294018,-102.027324812693,4,1,0,75,0,0
294080,-103.083602360013,4,1,0,75,0,0
294142,-104.161979752531,4,1,0,75,0,0
294204,-105.263157894737,4,1,0,75,0,0
294265,-90.9090909090909,4,1,0,75,0,0
294327,-91.7467551768552,4,1,0,75,0,0
294389,-92.6,4,1,0,75,0,0
294451,-93.4692641566569,4,1,0,75,0,0
294512,-94.340583770567,4,1,0,75,0,0
294574,-95.2429930573412,4,1,0,75,0,0
294636,-96.1628329612129,4,1,0,75,0,0
294697,-97.0853428391696,4,1,0,75,0,0
294759,-98.0412916887242,4,1,0,75,0,0
294821,-99.01625320787,4,1,0,75,0,0
294883,-100.010800302408,4,1,0,75,0,0
294944,-101.008999181893,4,1,0,75,0,0
295006,-102.044189762521,4,1,0,75,0,0
295068,-103.100818348828,4,1,0,75,0,0
295130,-104.179557855656,4,1,0,75,0,0
295191,-105.263157894737,4,1,0,75,0,0
295253,-90.9090909090909,4,1,0,75,0,0
295376,-91.5637257771793,4,1,0,75,0,0
295438,-91.8972912627064,4,1,0,75,0,0
295500,-92.2332959839594,4,1,0,75,0,0
295562,-92.5717667949097,4,1,0,75,0,0
295623,-92.9072115955804,4,1,0,75,0,0
295685,-93.2506558549964,4,1,0,75,0,0
295747,-93.5966487133453,4,1,0,75,0,0
295870,-94.290709591849,4,1,0,75,0,0
295994,-95.0009111340582,4,1,0,75,0,0
296055,-95.3542250945007,4,1,0,75,0,0
296117,-95.7160342717258,4,1,0,75,0,0
296241,-87.719298245614,4,1,0,75,0,0
296364,-89.3434936890635,4,1,0,75,0,0
296426,-90.1852086206826,4,1,0,75,0,0
296488,-91.0429341689482,4,1,0,75,0,0
296611,-92.7937693731673,4,1,0,75,0,0
296693,-93.9988899178715,4,1,0,75,0,0
296776,-95.2510086039551,4,1,0,75,0,0
296858,-96.5212357964894,4,1,0,75,0,0
296981,-98.4913952249136,4,1,0,75,0,0
297105,-100.560694645158,4,1,0,75,0,0
297228,-102.701037280476,4,1,0,75,0,0
297475,-104.391936991056,4,1,0,75,0,0
297599,-105.263157894737,4,1,0,75,0,0
297722,-100,4,1,0,75,0,0
297815,-102.578319933463,4,1,0,75,0,0
297907,-105.263157894737,4,1,0,75,0,0
298031,-98.0392156862745,4,1,0,75,0,0
298093,-100.347146886526,4,1,0,75,0,0
298154,-102.726414570492,4,1,0,75,0,0
298216,-105.263157894737,4,1,0,75,0,0
298339,-97.0873786407767,4,1,0,75,0,0
298401,-99.0178392463419,4,1,0,75,0,0
298463,-101.026626855904,4,1,0,75,0,0
298525,-103.118607272576,4,1,0,75,0,0
298586,-105.263157894737,4,1,0,75,0,0
298710,-95.2380952380952,4,1,0,75,0,0
298833,-97.8925900747791,4,1,0,75,0,0
298895,-99.2875201103195,4,1,0,75,0,0
298957,-100.722779202611,4,1,0,75,0,0
299018,-102.175969725639,4,1,0,75,0,0
299080,-103.696591454633,4,1,0,75,0,0
299142,-105.263157894737,4,1,0,75,0,0
299204,-90.9090909090909,4,1,0,75,0,0
299327,-92.3025796535538,4,1,0,75,0,0
299389,-93.0213086616151,4,1,0,75,0,0
299451,-93.7513185097675,4,1,0,75,0,0
299574,-95.2340133721927,4,1,0,75,0,0
299697,-96.7643600574838,4,1,0,75,0,0
299821,-98.3577530875127,4,1,0,75,0,0
299883,-99.1742914528007,4,1,0,75,0,0
299944,-99.9909999099991,4,1,0,75,0,0
300068,-101.693363844394,4,1,0,75,0,0
300191,-103.440249522834,4,1,0,75,0,0
300253,-104.343742662597,4,1,0,75,0,0
300315,-105.263157894737,4,1,0,75,0,0
300562,-117.647058823529,4,1,0,75,0,0
300623,-117.278022561661,4,1,0,75,0,0
300685,-116.732958715126,4,1,0,75,0,0
300809,-115.410021735641,4,1,0,75,0,0
300932,-113.913183165226,4,1,0,75,0,0
300994,-113.112218361077,4,1,0,75,0,0
301055,-112.301299535139,4,1,0,75,0,0
301117,-111.458119676817,4,1,0,75,0,0
301179,-110.599365908066,4,1,0,75,0,0
301241,-109.728030215821,4,1,0,75,0,0
301302,-108.860942515375,4,1,0,75,0,0
301364,-107.97183985067,4,1,0,75,0,0
301426,-107.076772316455,4,1,0,75,0,0
301488,-106.177412112477,4,1,0,75,0,0
301549,-105.289798003814,4,1,0,75,0,0
301611,-104.386113479219,4,1,0,75,0,0
301673,-103.482047902606,4,1,0,75,0,0
301734,-102.593192298875,4,1,0,75,0,0
301796,-101.691310606841,4,1,0,75,0,0
301858,-100.791803336677,4,1,0,75,0,0
301920,-99.8954044769247,4,1,0,75,0,0
301981,-99.017134515992,4,1,0,75,0,0
302043,-98.1287769977258,4,1,0,75,0,0
302105,-97.2452869024682,4,1,0,75,0,0
302167,-96.3671330473047,4,1,0,75,0,0
302228,-95.5087566972212,4,1,0,75,0,0
302290,-94.642381676846,4,1,0,75,0,0
302352,-93.7824580287439,4,1,0,75,0,0
302414,-92.9292786588588,4,1,0,75,0,0
302475,-92.0966931588628,4,1,0,75,0,0
302537,-91.2576277561571,4,1,0,75,0,0
302599,-90.4259871776331,4,1,0,75,0,0
302660,-89.615173823767,4,1,0,75,0,0
302722,-88.7987503725916,4,1,0,75,0,0
302784,-87.9901975326914,4,1,0,75,0,0
302846,-87.189622285078,4,1,0,75,0,0
302907,-86.4098313097745,4,1,0,75,0,0
302969,-85.625328790622,4,1,0,75,0,0
303031,-84.849020316571,4,1,0,75,0,0
303077,-84.849020316571,4,1,0,75,0,0
303093,-84.0809487452405,4,1,0,75,0,0
303154,-83.3333333333333,4,1,0,75,0,0
303221,-105.263157894737,4,1,0,75,0,0
303648,-104.387574034816,4,1,0,75,0,0
303694,-104.387574034816,4,1,0,75,0,0
303710,-104.094954121054,4,1,0,75,0,0
303772,-103.785863033918,4,1,0,75,0,0
303777,-103.785863033918,4,1,0,75,0,0
303916,-103.017197810567,4,1,0,75,0,0
304018,-102.438430558748,4,1,0,75,0,0
304142,-101.704812688016,4,1,0,75,0,0
304265,-100.950745371218,4,1,0,75,0,0
304389,-100.16913542006,4,1,0,75,0,0
304512,-99.376678128597,4,1,0,75,0,0
304543,-99.1746679436183,4,1,0,75,0,0
304636,-98.5638836634078,4,1,0,75,0,0
304759,-97.7466762206672,4,1,0,75,0,0
304821,-97.3313785215393,4,1,0,75,0,0
304883,-96.9141873894211,4,1,0,75,0,0
305006,-96.081902948356,4,1,0,75,0,0
305130,-95.2380952380952,4,1,0,75,0,0
305376,-105.263157894737,4,1,0,75,0,0
305500,-104.189698316229,4,1,0,75,0,0
305623,-102.672134382839,4,1,0,75,0,0
305747,-100.94037217115,4,1,0,75,0,0
305932,-98.1509497251517,4,1,0,75,0,0
305994,-97.1835462837922,4,1,0,75,0,0
306055,-96.2221188096929,4,1,0,75,0,0
306117,-95.2380952380952,4,1,0,75,0,0
306328,-102.813568235603,4,1,0,75,0,0
306488,-101.869341496776,4,1,0,75,0,0
306611,-99.4784378577789,4,1,0,75,0,0
306734,-97.1971909763222,4,1,0,75,0,0
306796,-96.0865024267371,4,1,0,75,0,0
306858,-95.0009111340582,4,1,0,75,0,0
307105,-90.9090909090909,4,1,0,75,0,0
307228,-92.7096091070113,4,1,0,75,0,0
307352,-94.5984296660675,4,1,0,75,0,0
307599,-98.5963711057857,4,1,0,75,0,0
307722,-100.716908550446,4,1,0,75,0,0
307846,-102.949061662198,4,1,0,75,0,0
307969,-105.263157894737,4,1,0,75,0,0
308093,-95.2380952380952,4,1,0,75,0,0
308154,-96.3737660052781,4,1,0,75,0,0
308216,-97.5561492035223,4,1,0,75,0,0
308278,-98.7679054392467,4,1,0,75,0,0
308339,-99.9898590406653,4,1,0,75,0,0
308401,-101.26322275855,4,1,0,75,0,0
308463,-102.569437220431,4,1,0,75,0,0
308525,-103.909790283486,4,1,0,75,0,0
308586,-105.263157894737,4,1,0,75,0,0
308751,-96.2539021852237,4,1,0,75,0,0
308833,-98.3519404572036,4,1,0,75,0,0
308916,-100.570807284588,4,1,0,75,0,0
309080,-105.263157894737,4,1,0,75,0,0
309204,-95.2380952380952,4,1,0,75,0,0
309265,-96.4705619633546,4,1,0,75,0,0
309327,-97.7563558602899,4,1,0,75,0,0
309389,-99.0768877931311,4,1,0,75,0,0
309451,-100.433584804771,4,1,0,75,0,0
309512,-101.805156242636,4,1,0,75,0,0
309574,-103.238140757558,4,1,0,75,0,0
309636,-104.712041884817,4,1,0,75,0,0
309697,-106.203827762959,4,1,0,75,0,0
309759,-107.764265668849,4,1,0,75,0,0
309821,-109.371241945897,4,1,0,75,0,0
309944,-112.705452648056,4,1,0,75,0,0
310006,-114.464375612729,4,1,0,75,0,0
310068,-116.279069767442,4,1,0,75,0,0
310222,-104.801640619475,4,1,0,75,0,0
310315,-103.441055350038,4,1,0,75,0,0
310407,-102.129419061402,4,1,0,75,0,0
310562,-99.9932528169489,4,1,0,75,0,0
310716,-97.9575649415031,4,1,0,75,0,0
310809,-96.767874632713,4,1,0,75,0,0
310901,-95.6190721982063,4,1,0,75,0,0
311030,-86.9565217391304,4,1,0,75,0,0
311277,-93.0232558139535,4,1,0,75,0,0
311401,-96.3996487462191,4,1,0,75,0,0
311524,-100,4,1,0,75,0,0
311591,-200,4,1,0,75,0,0
314980,-86.9565217391304,4,1,0,75,0,0
315104,-89.8999090081893,4,1,0,75,0,0
315227,-93.0232558139535,4,1,0,75,0,0
315351,-96.3996487462191,4,1,0,75,0,0
315474,-100,4,1,0,75,0,0
315541,-200,4,1,0,75,0,0
318931,-86.9565217391304,4,1,0,75,0,0
319055,-89.8999090081893,4,1,0,75,0,0
319178,-93.0232558139535,4,1,0,75,0,0
319302,-96.3996487462191,4,1,0,75,0,0
319425,-100,4,1,0,75,0,0
319492,-200,4,1,0,75,0,0
322881,-86.9565217391304,4,1,0,75,0,0
323005,-89.8999090081893,4,1,0,75,0,0
323128,-93.0232558139535,4,1,0,75,0,0
323252,-96.3996487462191,4,1,0,75,0,0
323375,-100,4,1,0,75,0,0
323442,-200,4,1,0,75,0,0
326585,-109.751283063561,4,1,0,75,0,0
326734,-104.668674698795,4,1,0,75,0,0
326858,-100,4,1,0,75,0,0
334702,-95.2380952380952,4,1,0,75,0,0
342167,-95.2380952380952,4,1,0,75,0,0
342228,-94.2721359906489,4,1,0,75,0,0
342290,-92.8700021397121,4,1,0,75,0,0
342352,-91.2812287542478,4,1,0,75,0,0
342414,-89.5837545638797,4,1,0,75,0,0
342476,-87.8216737307881,4,1,0,75,0,0
342537,-86.0531669299952,4,1,0,75,0,0
342599,-84.2405280700722,4,1,0,75,0,0
342660,-80,4,1,0,75,0,0
342727,-86.9565217391304,4,1,0,75,0,0
357106,-86.9693417418181,4,1,0,75,0,0
357168,-87.7678842727351,4,1,0,75,0,0
357229,-88.5607024225786,4,1,0,75,0,0
357290,-89.3606821967899,4,1,0,75,0,0
357352,-90.1811817417644,4,1,0,75,0,0
357414,-91.009215019548,4,1,0,75,0,0
357475,-91.8313125107702,4,1,0,75,0,0
357476,-91.844851204012,4,1,0,75,0,0
357538,-92.6881601041745,4,1,0,75,0,0
357599,-93.5254237139231,4,1,0,75,0,0
357660,-94.3702504293738,4,1,0,75,0,0
357723,-95.2507880124546,4,1,0,75,0,0
357785,-96.1253698341396,4,1,0,75,0,0
357846,-96.9936821843394,4,1,0,75,0,0
357907,-97.8698381073526,4,1,0,75,0,0
357970,-98.7830291851705,4,1,0,75,0,0
358031,-99.6753485008687,4,1,0,75,0,0
358093,-100.590556129992,4,1,0,75,0,0
358155,-101.514167090701,4,1,0,75,0,0
358217,-102.446258541424,4,1,0,75,0,0
358279,-103.386908349048,4,1,0,75,0,0
358340,-104.320815074435,4,1,0,75,0,0
358402,-105.263157894737,4,1,0,75,0,0
358452,-105.263157894737,4,1,0,95,0,0
358468,-83.3333333333333,4,1,0,95,0,1
358710,-88.7154009936125,4,1,0,95,0,1
358792,-90.1127290487641,4,1,0,95,0,1
358874,-91.5320659735352,4,1,0,95,0,1
358957,-92.9914794664185,4,1,0,95,0,1
359039,-94.4561586731082,4,1,0,95,0,1
359121,-95.9439075759767,4,1,0,95,0,1
359204,-91.743119266055,4,1,0,95,0,1
359265,-93.1641320084729,4,1,0,95,0,1
359327,-94.6309962551982,4,1,0,95,0,1
359389,-96.1209562005785,4,1,0,95,0,1
359451,-97.6343754851466,4,1,0,95,0,1
359533,-99.6726548468675,4,1,0,95,0,1
359615,-101.753486667554,4,1,0,95,0,1
359697,-103.877759300292,4,1,0,95,0,1
359759,-105.513309032389,4,1,0,95,0,1
359821,-107.174610407034,4,1,0,95,0,1
359883,-108.862068882454,4,1,0,95,0,1
359944,-110.548237701276,4,1,0,95,0,1
360068,-114.056795089006,4,1,0,95,0,1
360191,-117.647058823529,4,1,0,95,0,1
360315,-106.382978723404,4,1,0,95,0,1
360376,-106.020102844547,4,1,0,95,0,1
360438,-105.484502891739,4,1,0,95,0,1
360500,-104.864554728747,4,1,0,95,0,1
360562,-104.186343567816,4,1,0,95,0,1
360623,-103.476294238341,4,1,0,95,0,1
360685,-102.720619294341,4,1,0,95,0,1
360747,-101.937643128922,4,1,0,95,0,1
360809,-101.132753210047,4,1,0,95,0,1
360870,-100.323639704768,4,1,0,95,0,1
360932,-99.4872638760973,4,1,0,95,0,1
361055,-97.7973988393126,4,1,0,95,0,1
361117,-96.9348120631566,4,1,0,95,0,1
361179,-96.0675844960074,4,1,0,95,0,1
361302,-94.3396226415094,4,1,0,95,0,1
361426,-86.2068965517241,4,1,0,95,0,1
361549,-87.8157954631667,4,1,0,95,0,1
361611,-88.6497664088229,4,1,0,95,0,1
361673,-89.4997293744684,4,1,0,95,0,1
361755,-90.6492286005169,4,1,0,95,0,1
361837,-91.8286394287981,4,1,0,95,0,1
361920,-93.054104027655,4,1,0,95,0,1
362002,-94.2973523421589,4,1,0,95,0,1
362084,-95.5742713235901,4,1,0,95,0,1
362167,-96.9024696525743,4,1,0,95,0,1
362249,-98.2514217808336,4,1,0,95,0,1
362331,-99.638460876302,4,1,0,95,0,1
362414,-92.5925925925926,4,1,0,95,0,1
362475,-93.0184007098162,4,1,0,95,0,1
362537,-93.4552213152482,4,1,0,95,0,1
362660,-94.3340743615983,4,1,0,95,0,1
362784,-95.2369642920759,4,1,0,95,0,1
362846,-95.6949217258496,4,1,0,95,0,1
362907,-96.1498114768347,4,1,0,95,0,1
363031,-97.0879662976436,4,1,0,95,0,1
363154,-98.0368188152458,4,1,0,95,0,1
363216,-98.5221674876847,4,1,0,95,0,1
363278,-99.0123456790123,4,1,0,95,0,1
363401,-99.9993765624903,4,1,0,95,0,1
363525,-101.014553904867,4,1,0,95,0,1
363648,-102.042114638336,4,1,0,95,0,1
363772,-103.09940994228,4,1,0,95,0,1
363895,-104.170049162548,4,1,0,95,0,1
364018,-105.263157894737,4,1,0,95,0,1
364142,-90.9090909090909,4,1,0,95,0,1
364224,-91.6006927263731,4,1,0,95,0,1
364307,-92.3115280331598,4,1,0,95,0,1
364389,-93.0247165604095,4,1,0,95,0,1
364512,-94.1154041687849,4,1,0,95,0,1
364636,-95.2411575562701,4,1,0,95,0,1
364759,-96.3847580618919,4,1,0,95,0,1
364821,-96.9716811262072,4,1,0,95,0,1
364883,-97.5657959748345,4,1,0,95,0,1
365006,-98.7662554184728,4,1,0,95,0,1
365130,-100.006752650415,4,1,0,95,0,1
365253,-101.268419433143,4,1,0,95,0,1
365376,-102.562326869806,4,1,0,95,0,1
365500,-103.90065946401,4,1,0,95,0,1
365562,-104.583009674458,4,1,0,95,0,1
365623,-105.263157894737,4,1,0,95,0,1
365809,-111.111111111111,4,1,0,95,0,1
365870,-110.82879565958,4,1,0,95,0,1
365994,-109.926491649119,4,1,0,95,0,1
366117,-108.835799144818,4,1,0,95,0,1
366241,-107.61835338019,4,1,0,95,0,1
366364,-106.331463081246,4,1,0,95,0,1
366518,-104.644036965415,4,1,0,95,0,1
366611,-103.596201530805,4,1,0,95,0,1
366704,-102.533087633529,4,1,0,95,0,1
366858,-100.749997677831,4,1,0,95,0,1
366899,-100.272141775028,4,1,0,95,0,1
366940,-99.7934503083078,4,1,0,95,0,1
366981,-99.3141469333562,4,1,0,95,0,1
367105,-97.8628840915019,4,1,0,95,0,1
367228,-96.4246125964309,4,1,0,95,0,1
367352,-94.9801004776061,4,1,0,95,0,1
367414,-94.2609976794313,4,1,0,95,0,1
367475,-93.5560405789955,4,1,0,95,0,1
367599,-92.1321152391679,4,1,0,95,0,1
367660,-91.43668527418,4,1,0,95,0,1
367722,-90.7336109626312,4,1,0,95,0,1
367846,-89.3397202457762,4,1,0,95,0,1
367969,-87.9744921637484,4,1,0,95,0,1
368031,-87.2933178865615,4,1,0,95,0,1
368093,-86.617016155194,4,1,0,95,0,1
368216,-85.2902120274482,4,1,0,95,0,1
368339,-83.9838614006055,4,1,0,95,0,1
368401,-83.3333333333333,4,1,0,95,0,1
368586,-95.2380952380952,4,1,0,95,0,1
368710,-94.7975265122122,4,1,0,95,0,1
368833,-94.1661579968999,4,1,0,95,0,1
368895,-93.8093311313013,4,1,0,95,0,1
368957,-93.4331846070779,4,1,0,95,0,1
369080,-92.6414137822555,4,1,0,95,0,1
369204,-91.7955846967477,4,1,0,95,0,1
369327,-90.9209552720845,4,1,0,95,0,1
369389,-90.4693914512268,4,1,0,95,0,1
369451,-90.0118578321841,4,1,0,95,0,1
369512,-89.5566282727893,4,1,0,95,0,1
369574,-89.0894587612667,4,1,0,95,0,1
369636,-88.6183933827654,4,1,0,95,0,1
369697,-88.1516687926668,4,1,0,95,0,1
369759,-87.6744855297133,4,1,0,95,0,1
369821,-87.1949341362033,4,1,0,95,0,1
369883,-86.7134394786617,4,1,0,95,0,1
369944,-86.2381925187403,4,1,0,95,0,1
370006,-85.7539646681134,4,1,0,95,0,1
370068,-85.2688652142591,4,1,0,95,0,1
370130,-84.7831984483257,4,1,0,95,0,1
370191,-84.3050842802376,4,1,0,95,0,1
370253,-83.8191034714837,4,1,0,95,0,1
370315,-83.3333333333333,4,1,0,95,0,1
370469,-85.0016965631795,4,1,0,95,0,1
370562,-85.8587392259321,4,1,0,95,0,1
370644,-86.7139414547842,4,1,0,95,0,1
370716,-87.577661987758,4,1,0,95,0,1
370809,-88.4606772175993,4,1,0,95,0,1
370891,-89.3417962394286,4,1,0,95,0,1
370963,-90.2316917114849,4,1,0,95,0,1
371055,-91.1304510522399,4,1,0,95,0,1
371179,-92.5065837324766,4,1,0,95,0,1
371210,-91.7715892744582,4,1,0,95,0,1
371256,-92.2517018960503,4,1,0,95,0,1
371302,-93.89214758923,4,1,0,95,0,1
371364,-94.5984094209055,4,1,0,95,0,1
371426,-95.3099837924227,4,1,0,95,0,1
371457,-96.0269106649946,4,1,0,95,0,1
371549,-96.7375369827171,4,1,0,95,0,1
371673,-98.1983405287372,4,1,0,95,0,1
371796,-99.6691555338968,4,1,0,95,0,1
371858,-100.674085104797,4,1,0,95,0,1
371920,-101.676856665916,4,1,0,95,0,1
372043,-102.689616406244,4,1,0,95,0,1
372167,-104.240300457798,4,1,0,95,0,1
372290,-105.801611954817,4,1,0,95,0,1
372372,-106.855456620784,4,1,0,95,0,1
372455,-107.932843176285,4,1,0,95,0,1
372537,-109.007916126143,4,1,0,95,0,1
372660,-110.6406369833,4,1,0,95,0,1
372784,-112.311386930841,4,1,0,95,0,1
372866,-113.430072684844,4,1,0,95,0,1
372948,-114.559901189822,4,1,0,95,0,1
373031,-115.714968991174,4,1,0,95,0,1
373154,-117.448148103951,4,1,0,95,0,1
373278,-100,4,1,0,95,0,1
373339,-101.070363221618,4,1,0,95,0,1
373401,-102.182011708356,4,1,0,95,0,1
373463,-103.318385650224,4,1,0,95,0,1
373525,-104.48031924542,4,1,0,95,0,1
373648,-99.5238826601137,4,1,0,95,0,1
373710,-98.5851209493382,4,1,0,95,0,1
373772,-97.6639035418237,4,1,0,95,0,1
373833,-96.7741935483871,4,1,0,95,0,1
373895,-95.8863569103285,4,1,0,95,0,1
373957,-95.0146627565982,4,1,0,95,0,1
374018,-94.1723586687981,4,1,0,95,0,1
374142,-92.5053533190578,4,1,0,95,0,1
374265,-90.9090909090909,4,1,0,95,0,1
381549,-90.9090909090909,4,1,0,95,0,1
381611,-90.0874635568513,4,1,0,95,0,1
381673,-89.2805547529616,4,1,0,95,0,1
381734,-88.5006444221681,4,1,0,95,0,1
381796,-87.721788502484,4,1,0,95,0,1
381858,-86.9565217391304,4,1,0,95,0,1
381920,-86.2044915608871,4,1,0,95,0,1
381981,-85.4771784232365,4,1,0,95,0,1
382043,-84.7504114097641,4,1,0,95,0,1
382105,-84.0358988305684,4,1,0,95,0,1
382167,-80.6451612903226,4,1,0,95,0,1
382295,-92.7237604636188,4,1,0,95,0,1
382496,-93.9641109298532,4,1,0,95,0,1
382578,-95.2380952380952,4,1,0,95,0,1
382660,-96.5471002346631,4,1,0,95,0,1
382784,-98.5963711057857,4,1,0,95,0,1
382846,-99.6539792387543,4,1,0,95,0,1
382907,-100.716908550446,4,1,0,95,0,1
383031,-102.949061662198,4,1,0,95,0,1
383154,-105.263157894737,4,1,0,95,0,1
383339,-95.2380952380952,4,1,0,95,0,1
383401,-96.5547998662058,4,1,0,95,0,1
383463,-97.9084228377614,4,1,0,95,0,1
383525,-99.3005389290219,4,1,0,95,0,1
383586,-100.709384812187,4,1,0,95,0,1
383648,-102.182890855457,4,1,0,95,0,1
383772,-105.263157894737,4,1,0,95,0,1
383895,-100,4,1,0,95,0,1
383957,-99.8096536866659,4,1,0,95,0,1
384018,-99.5374847765794,4,1,0,95,0,1
384080,-99.2162657096101,4,1,0,95,0,1
384142,-98.8628910694066,4,1,0,95,0,1
384204,-98.4844288879144,4,1,0,95,0,1
384265,-98.0920853907563,4,1,0,95,0,1
384327,-97.6762961450325,4,1,0,95,0,1
384389,-97.2459039894915,4,1,0,95,0,1
384451,-96.8029562879654,4,1,0,95,0,1
384512,-96.3565349169879,4,1,0,95,0,1
384574,-95.8934023059681,4,1,0,95,0,1
384636,-95.4220088351382,4,1,0,95,0,1
384697,-94.9511813006363,4,1,0,95,0,1
384759,-94.4663976833928,4,1,0,95,0,1
384821,-93.9761433866682,4,1,0,95,0,1
384883,-93.4811526504984,4,1,0,95,0,1
384944,-92.990163767176,4,1,0,95,0,1
385006,-92.4876670782309,4,1,0,95,0,1
385068,-91.9822218328313,4,1,0,95,0,1
385130,-91.4743212333397,4,1,0,95,0,1
385191,-90.9726539415578,4,1,0,95,0,1
385253,-90.4611795928672,4,1,0,95,0,1
385315,-89.9484870773749,4,1,0,95,0,1
385376,-89.4432144491832,4,1,0,95,0,1
385438,-88.929113653479,4,1,0,95,0,1
385500,-88.4147597699603,4,1,0,95,0,1
385562,-87.9004283440077,4,1,0,95,0,1
385623,-87.3946621021808,4,1,0,95,0,1
385685,-86.8811116998679,4,1,0,95,0,1
385747,-86.3682904209846,4,1,0,95,0,1
385809,-85.8564014794403,4,1,0,95,0,1
385870,-85.3538617365852,4,1,0,95,0,1
385932,-84.8443671143919,4,1,0,95,0,1
385994,-84.3363279266948,4,1,0,95,0,1
386055,-83.8380496643341,4,1,0,95,0,1
386117,-83.3333333333333,4,1,0,95,0,1
386241,-85.3754940711462,4,1,0,95,0,1
386302,-86.4172834566913,4,1,0,95,0,1
386364,-87.5025319019648,4,1,0,95,0,1
386488,-89.756908373156,4,1,0,95,0,1
386642,-92.7237604636188,4,1,0,95,0,1
386647,-86.2068965517241,4,1,0,95,0,0
386739,-90.0876959872442,4,1,0,95,0,0
386981,-95.2380952380952,4,1,0,95,0,0
387105,-90.9090909090909,4,1,0,95,0,0
387167,-92.5981420437519,4,1,0,95,0,0
387228,-94.3223443223443,4,1,0,95,0,0
387290,-96.1418792781581,4,1,0,95,0,0
387352,-98.0329949238579,4,1,0,95,0,0
387414,-100,4,1,0,95,0,0
387475,-94.3396226415094,4,1,0,95,0,0
387537,-96.1638423952594,4,1,0,95,0,0
387599,-98.0600021202163,4,1,0,95,0,0
387660,-100,4,1,0,95,0,0
387722,-90.9090909090909,4,1,0,95,0,0
387784,-92.5981420437519,4,1,0,95,0,0
387846,-94.3511450381679,4,1,0,95,0,0
387907,-96.1418792781581,4,1,0,95,0,0
387969,-98.0329949238579,4,1,0,95,0,0
388031,-100,4,1,0,95,0,0
388093,-83.3333333333333,4,1,0,95,0,0
388098,-83.3333333333333,4,1,0,95,0,1
388216,-81.9715690182012,4,1,0,95,0,1
388339,-80.6535947712418,4,1,0,95,0,1
388463,-79.3671211731412,4,1,0,95,0,1
388586,-78.1309357984045,4,1,0,95,0,1
388710,-76.9230769230769,4,1,0,95,0,1
388833,-75.7612966601179,4,1,0,95,0,1
388957,-74.6250604741171,4,1,0,95,0,1
389080,-73.5311643427482,4,1,0,95,0,1
389085,-73.5311643427482,4,1,0,95,0,0
389451,-70.4177128509473,4,1,0,95,0,0
389949,-66.6666666666667,4,1,0,95,0,1
390068,-50,4,1,0,95,0,1
390073,-50,4,1,0,95,0,1
391055,-56.9347488910907,4,1,0,90,0,1
392043,-64.8398445708583,4,1,0,85,0,1
393031,-73.8425219370899,4,1,0,80,0,1
394018,-84.0841088794613,4,1,0,75,0,1
395006,-200,4,1,0,70,0,1
395011,-95.7587529024221,4,1,0,65,0,1
395258,-109.054360920592,4,1,0,60,0,1
396981,-124.179653089846,4,1,0,55,0,1
397969,-141.42135623731,4,1,0,50,0,1
398957,-161.056980772283,4,1,0,45,0,1
399944,-183.394775148543,4,1,0,40,0,1
400932,-208.858192006531,4,1,0,35,0,1
401920,-237.857072715975,4,1,0,35,0,1
402907,-270.846654141079,4,1,0,35,0,1
403895,-308.452312499663,4,1,0,35,0,1
404883,-351.279322198427,4,1,0,35,0,1
405875,-400,4,1,0,35,0,0
415736,-384.591993141588,4,1,0,35,0,0
416724,-310.77700684739,4,1,0,35,0,0
417696,-200.328822239242,4,1,0,35,0,0
418710,-128.204375534802,4,1,0,35,0,0
419697,-87.3747949143174,4,1,0,35,0,0
420685,-63.7646261657916,4,1,0,35,0,0
421631,-50,4,1,0,90,0,0
421678,-50,4,1,0,86,0,1
421679,-74.0740740740741,4,1,0,86,0,1
421739,-83.3333333333333,4,1,0,86,0,1
428586,-81.9672131147541,4,1,0,86,0,1
428710,-80.6361207611166,4,1,0,86,0,1
428833,-79.3371192214535,4,1,0,86,0,1
428895,-78.6902917624226,4,1,0,86,0,1
428957,-78.0487378218388,4,1,0,86,0,1
429018,-77.4226364090762,4,1,0,86,0,1
429080,-76.7914175335815,4,1,0,86,0,1
429204,-75.5443766153934,4,1,0,86,0,1
429327,-74.3274001461633,4,1,0,86,0,1
429389,-73.721416416924,4,1,0,86,0,1
429451,-73.1203732113594,4,1,0,86,0,1
429512,-72.5338067882884,4,1,0,86,0,1
429574,-71.9424460431655,4,1,0,86,0,1
429702,-97.7052370672385,4,1,0,86,0,1
430376,-98.111231890587,4,1,0,86,0,1
430438,-98.5256111483943,4,1,0,86,0,1
430500,-98.9417405643232,4,1,0,86,0,1
430562,-99.3596275302817,4,1,0,86,0,1
430809,-101.042030901193,4,1,0,86,0,1
430870,-101.461891112558,4,1,0,86,0,1
430932,-101.890422100548,4,1,0,86,0,1
431055,-102.745936747647,4,1,0,86,0,1
431117,-103.179890987052,4,1,0,86,0,1
431179,-103.615678060805,4,1,0,86,0,1
431302,-104.485678679339,4,1,0,86,0,1
431364,-104.926980833519,4,1,0,86,0,1
431426,-105.37014685645,4,1,0,86,0,1
431488,-105.815184620303,4,1,0,86,0,1
431549,-106.254878729616,4,1,0,86,0,1
431673,-107.154323132782,4,1,0,86,0,1
431796,-108.054035697027,4,1,0,86,0,1
431858,-108.510409042386,4,1,0,86,0,1
431920,-108.968709910665,4,1,0,86,0,1
432043,-109.88365682601,4,1,0,86,0,1
432105,-110.347757696861,4,1,0,86,0,1
432167,-110.813818728346,4,1,0,86,0,1
432290,-111.7442579499,4,1,0,86,0,1
432352,-112.216217192295,4,1,0,86,0,1
432414,-112.690169785674,4,1,0,86,0,1
432475,-113.15843153856,4,1,0,86,0,1
432537,-113.636363636364,4,1,0,86,0,1
432907,-100,4,1,0,86,0,1
432969,-99.4258685193251,4,1,0,86,0,1
433031,-98.5980921322014,4,1,0,86,0,1
433093,-97.6480230905518,4,1,0,86,0,1
433154,-96.6345642572339,4,1,0,86,0,1
433216,-95.5478507316591,4,1,0,86,0,1
433278,-94.4197737362457,4,1,0,86,0,1
433339,-93.2807085642237,4,1,0,86,0,1
433401,-92.1020044189969,4,1,0,86,0,1
433463,-90.9090909090909,4,1,0,86,0,1
433525,-86.9565217391304,4,1,0,86,0,1
433772,-97.7517106549365,4,1,0,86,0,1
433833,-97.6218916679429,4,1,0,86,0,1
433895,-97.4292859019643,4,1,0,86,0,1
434018,-96.9616185770288,4,1,0,86,0,1
434080,-96.6963804684204,4,1,0,86,0,1
434142,-96.4161177808223,4,1,0,86,0,1
434265,-95.824018908287,4,1,0,86,0,1
434327,-95.5104418637863,4,1,0,86,0,1
434389,-95.1883097122655,4,1,0,86,0,1
434512,-94.5275128479269,4,1,0,86,0,1
434574,-94.1849782140068,4,1,0,86,0,1
434636,-93.8369608575032,4,1,0,86,0,1
434697,-93.4897403672259,4,1,0,86,0,1
434759,-93.1324189037518,4,1,0,86,0,1
434821,-92.7710950053295,4,1,0,86,0,1
434883,-92.4061720778316,4,1,0,86,0,1
435006,-91.6729751732064,4,1,0,86,0,1
435130,-90.9234832330007,4,1,0,86,0,1
435191,-90.551657083069,4,1,0,86,0,1
435253,-90.1719539140189,4,1,0,86,0,1
435315,-89.7906820261478,4,1,0,86,0,1
435376,-89.4142355093001,4,1,0,86,0,1
435438,-89.0304681146541,4,1,0,86,0,1
435500,-88.6457267962792,4,1,0,86,0,1
435562,-88.2601858048585,4,1,0,86,0,1
435623,-87.8802414035636,4,1,0,86,0,1
435685,-87.4935877528846,4,1,0,86,0,1
435747,-87.1065929325545,4,1,0,86,0,1
435809,-86.7193925395012,4,1,0,86,0,1
435870,-86.3383605795258,4,1,0,86,0,1
435932,-85.951122805703,4,1,0,86,0,1
435994,-85.5640386572593,4,1,0,86,0,1
436055,-85.183451443724,4,1,0,86,0,1
436117,-84.7969823264225,4,1,0,86,0,1
436179,-84.4109679248565,4,1,0,86,0,1
436241,-84.0254979859634,4,1,0,86,0,1
436302,-83.6468588996593,4,1,0,86,0,1
436364,-83.2627151782709,4,1,0,86,0,1
436426,-82.8793548381576,4,1,0,86,0,1
436488,-82.4968491735133,4,1,0,86,0,1
436549,-82.1214123983814,4,1,0,86,0,1
436611,-81.7407977946447,4,1,0,86,0,1
436673,-81.3612276480209,4,1,0,86,0,1
436734,-80.988853860165,4,1,0,86,0,1
436796,-80.6115201245193,4,1,0,86,0,1
436858,-80.2353903040916,4,1,0,86,0,1
436920,-79.8605118476287,4,1,0,86,0,1
436981,-79.4929444608204,4,1,0,86,0,1
437043,-79.1206782798224,4,1,0,86,0,1
437105,-78.7497891804315,4,1,0,86,0,1
437167,-78.3803144054484,4,1,0,86,0,1
437228,-78.0182131590687,4,1,0,86,0,1
437290,-77.6516456794267,4,1,0,86,0,1
437352,-77.2865906460683,4,1,0,86,0,1
437414,-76.9230769230769,4,1,0,86,0,1
437475,-76.3358778625954,4,1,0,86,0,1
438159,-125,4,1,0,86,0,1
438463,-119.047619047619,4,1,0,86,0,1
438653,-113.636363636364,4,1,0,86,0,1
438915,-108.40941011236,4,1,0,86,0,1
439178,-103.903752313646,4,1,0,86,0,1
439456,-100,4,1,0,86,0,0
439486,-100,4,1,0,75,0,0
447352,-100,4,1,0,75,0,0
447414,-99.00513478819,4,1,0,75,0,0
447476,-98.029869717191,4,1,0,75,0,0
447537,-97.0889063729347,4,1,0,75,0,0
447599,-96.1508493065295,4,1,0,75,0,0
447661,-95.2307454854144,4,1,0,75,0,0
447722,-94.3425076452599,4,1,0,75,0,0
447784,-93.4565283247501,4,1,0,75,0,0
447846,-92.5870348139256,4,1,0,75,0,0
447969,-90.9090909090909,4,1,0,75,0,0
448093,-89.2779626682101,4,1,0,75,0,0
448216,-87.7168040943986,4,1,0,75,0,0
448339,-86.2093055749616,4,1,0,75,0,0
448340,-86.1972618049735,4,1,0,75,0,0
448463,-84.741106990798,4,1,0,75,0,0
448525,-84.0256026147351,4,1,0,75,0,0
448587,-83.3333333333333,4,1,0,75,0,0
448834,-86.9748786151573,4,1,0,75,0,0
448895,-88.109495295124,4,1,0,75,0,0
448957,-89.2934547030776,4,1,0,75,0,0
449019,-90.5096660808436,4,1,0,75,0,0
449080,-91.7390336228012,4,1,0,75,0,0
449142,-93.0232558139535,4,1,0,75,0,0
449204,-94.3439432104419,4,1,0,75,0,0
449266,-95.7026713124274,4,1,0,75,0,0
449327,-97.0782280867107,4,1,0,75,0,0
449451,-100,4,1,0,75,0,0
453278,-100,4,1,0,75,0,0
453401,-101.444170482564,4,1,0,75,0,0
453525,-102.942928631002,4,1,0,75,0,0
453648,-104.47400241838,4,1,0,75,0,0
453710,-105.263157894737,4,1,0,75,0,0
453772,-106.064326049595,4,1,0,75,0,0
453895,-107.690390128381,4,1,0,75,0,0
454018,-109.367088607595,4,1,0,75,0,0
454142,-111.111111111111,4,1,0,75,0,0
454265,-112.896903175225,4,1,0,75,0,0
454636,-118.64872287833,4,1,0,75,0,0
455006,-125,4,1,0,75,0,0
455227,-100,4,1,0,75,0,0
461184,-83.3333333333333,4,1,0,75,0,1
461303,-83.6859748573678,4,1,0,75,0,1
461364,-83.9282608413947,4,1,0,75,0,1
461426,-84.2024202122901,4,1,0,75,0,1
461488,-84.5002411555727,4,1,0,75,0,1
461550,-84.8189666806956,4,1,0,75,0,1
461673,-85.5064163527847,4,1,0,75,0,1
461797,-86.2666610515459,4,1,0,75,0,1
461920,-87.0824313601166,4,1,0,75,0,1
461982,-87.5159695825067,4,1,0,75,0,1
462044,-87.9641684806374,4,1,0,75,0,1
462105,-88.4193052809538,4,1,0,75,0,1
462167,-88.8962157619082,4,1,0,75,0,1
462229,-89.387516249629,4,1,0,75,0,1
462291,-89.8932102869627,4,1,0,75,0,1
462414,-90.9392391000408,4,1,0,75,0,1
462537,-92.0428119778168,4,1,0,75,0,1
462661,-93.2147670748266,4,1,0,75,0,1
462723,-93.8235899036223,4,1,0,75,0,1
462784,-94.4377502698738,4,1,0,75,0,1
462846,-95.0776359722031,4,1,0,75,0,1
462908,-95.7335815187272,4,1,0,75,0,1
462970,-96.4058856921233,4,1,0,75,0,1
463031,-97.0836224251385,4,1,0,75,0,1
463093,-97.7893504718377,4,1,0,75,0,1
463155,-98.512459209976,4,1,0,75,0,1
463159,-98.5006562598573,4,1,0,75,0,0
463278,-100,4,1,0,75,0,0
469081,-83.3340002242604,4,1,0,75,0,0
469085,-83.3333333333333,4,1,0,75,0,1
469204,-83.6859748573678,4,1,0,75,0,1
469328,-84.2070451158296,4,1,0,75,0,1
469389,-84.5002411555727,4,1,0,75,0,1
469451,-84.8189666806956,4,1,0,75,0,1
469574,-85.5064163527847,4,1,0,75,0,1
469636,-85.8784881141264,4,1,0,75,0,1
469698,-86.2666610515459,4,1,0,75,0,1
469759,-86.6637674820668,4,1,0,75,0,1
469821,-87.0824313601166,4,1,0,75,0,1
469883,-87.5159695825067,4,1,0,75,0,1
469945,-87.9641684806374,4,1,0,75,0,1
470068,-88.8962157619082,4,1,0,75,0,1
470130,-89.387516249629,4,1,0,75,0,1
470192,-89.8932102869627,4,1,0,75,0,1
470253,-90.4048350887567,4,1,0,75,0,1
470315,-90.9392391000408,4,1,0,75,0,1
470439,-92.0520227975592,4,1,0,75,0,1
470500,-92.6212441730329,4,1,0,75,0,1
470562,-93.2147670748266,4,1,0,75,0,1
470624,-93.8235899036223,4,1,0,75,0,1
470686,-94.4479450629467,4,1,0,75,0,1
470747,-95.0776359722031,4,1,0,75,0,1
470809,-95.7335815187272,4,1,0,75,0,1
470871,-96.4058856921233,4,1,0,75,0,1
470933,-97.0948691713489,4,1,0,75,0,1
470994,-97.7893504718377,4,1,0,75,0,1
471056,-98.512459209976,4,1,0,75,0,1
471060,-98.5006562598573,4,1,0,75,0,0
471180,-100,4,1,0,75,0,0
476982,-83.3340002242604,4,1,0,75,0,0
476986,-83.3333333333333,4,1,0,75,0,1
477106,-83.6896921982523,4,1,0,75,0,1
477229,-84.2070451158296,4,1,0,75,0,1
477291,-84.5052219294911,4,1,0,75,0,1
477353,-84.824267681766,4,1,0,75,0,1
477414,-85.1567500124616,4,1,0,75,0,1
477476,-85.5122863010596,4,1,0,75,0,1
477600,-86.2730507038061,4,1,0,75,0,1
477723,-87.08930656898,4,1,0,75,0,1
477784,-87.5159695825067,4,1,0,75,0,1
477847,-87.9715167518322,4,1,0,75,0,1
477969,-89.3834966096578,4,1,0,75,0,1
477970,-88.9040258310265,4,1,0,75,0,1
478032,-89.3955583372875,4,1,0,75,0,1
478094,-89.9014847712455,4,1,0,75,0,1
478154,-90.4048350887567,4,1,0,75,0,1
478217,-90.9479779516364,4,1,0,75,0,1
478340,-92.0520227975592,4,1,0,75,0,1
478464,-93.2244648074098,4,1,0,75,0,1
478526,-93.833536252299,4,1,0,75,0,1
478587,-94.4479450629467,4,1,0,75,0,1
478649,-95.0880875393911,4,1,0,75,0,1
478711,-95.7442945052011,4,1,0,75,0,1
478773,-96.416865096382,4,1,0,75,0,1
478834,-97.0948691713489,4,1,0,75,0,1
478896,-97.8008746002262,4,1,0,75,0,1
478958,-98.5242667817632,4,1,0,75,0,1
478962,-98.512459209976,4,1,0,75,0,0
479081,-100,4,1,0,75,0,0
484883,-100,4,1,0,75,0,0
484884,-100,4,1,0,75,0,0
484945,-98.7117507466949,4,1,0,75,0,0
485007,-97.4400973547762,4,1,0,75,0,0
485068,-96.2049434683076,4,1,0,75,0,0
485131,-94.9457257250827,4,1,0,75,0,0
485192,-93.7421905756263,4,1,0,75,0,0
485254,-92.5345575055039,4,1,0,75,0,0
485315,-91.3615864038902,4,1,0,75,0,0
485377,-90.1846214492344,4,1,0,75,0,0
485439,-89.0228187368186,4,1,0,75,0,0
485501,-87.8759829391704,4,1,0,75,0,0
485562,-86.7620640823431,4,1,0,75,0,0
485624,-85.6443524396502,4,1,0,75,0,0
485686,-84.5410397088485,4,1,0,75,0,0
485748,-83.4519403960629,4,1,0,75,0,0
485809,-82.3941008483636,4,1,0,75,0,0
485870,-84.1988806536437,4,1,0,75,0,0
485871,-81.3496705096458,4,1,0,75,0,0
485933,-80.284892081238,4,1,0,75,0,0
485995,-79.2506225584846,4,1,0,75,0,0
486056,-78.2460390542033,4,1,0,75,0,0
486118,-77.2380350403467,4,1,0,75,0,0
486179,-76.2589631617962,4,1,0,75,0,0
486242,-75.26081653823,4,1,0,75,0,0
486303,-74.3068079465972,4,1,0,75,0,0
486365,-66.6340029397354,4,1,0,75,0,0
486529,-61.6780045351474,4,1,0,75,0,0
486694,-57.3839662447257,4,1,0,75,0,0
486801,-50,4,1,0,75,0,0

[HitObjects]
251,197,42418,5,4,0:0:0:0:
264,201,42542,1,8,0:0:0:0:
264,201,42665,1,8,0:0:0:0:
245,210,42727,1,0,0:0:0:0:
264,201,42789,1,8,0:0:0:0:
182,186,42912,1,8,0:0:0:0:
182,186,42974,1,8,0:0:0:0:
182,186,43036,1,0,0:0:0:0:
267,210,43159,1,0,0:0:0:0:
267,210,43283,1,8,0:0:0:0:
256,204,43530,1,0,0:0:0:0:
256,204,43653,1,8,0:0:0:0:
196,201,43777,1,0,0:0:0:0:
204,200,43900,1,8,0:0:0:0:
204,200,44023,1,0,0:0:0:0:
258,212,44147,1,0,0:0:0:0:
258,212,44209,1,0,0:0:0:0:
258,212,44270,1,8,0:0:0:0:
226,236,44394,1,4,0:0:0:0:
244,230,44641,1,0,0:0:0:0:
244,230,44764,1,0,0:0:0:0:
254,226,45011,1,8,0:0:0:0:
149,212,45258,1,0,0:0:0:0:
180,219,45381,1,8,0:0:0:0:
204,217,45505,1,0,0:0:0:0:
215,218,45752,1,0,0:0:0:0:
215,218,45875,1,0,0:0:0:0:
215,218,45937,1,0,0:0:0:0:
215,218,45999,1,0,0:0:0:0:
234,220,46122,1,8,0:0:0:0:
234,220,46184,1,8,0:0:0:0:
234,220,46246,1,8,0:0:0:0:
234,220,46307,1,8,0:0:0:0:
234,220,46369,1,0,0:0:0:0:
228,231,46431,1,0,0:0:0:0:
228,231,46493,1,8,0:0:0:0:
259,230,46616,1,0,0:0:0:0:
259,230,46739,1,0,0:0:0:0:
259,230,46801,1,0,0:0:0:0:
259,230,46863,1,8,0:0:0:0:
251,233,46986,1,0,0:0:0:0:
251,233,47110,1,0,0:0:0:0:
251,233,47233,1,8,0:0:0:0:
251,234,47357,1,0,0:0:0:0:
251,234,47418,1,8,0:0:0:0:
251,234,47480,1,8,0:0:0:0:
251,234,47604,1,0,0:0:0:0:
256,224,47727,1,0,0:0:0:0:
240,224,47851,1,8,0:0:0:0:
240,224,47912,1,8,0:0:0:0:
240,224,47974,1,0,0:0:0:0:
240,224,48098,1,8,0:0:0:0:
240,224,48221,1,8,0:0:0:0:
240,224,48344,1,4,0:0:0:0:
224,256,48468,1,0,0:0:0:0:
256,192,48591,1,8,0:0:0:0:
256,192,48653,1,8,0:0:0:0:
256,192,48715,1,0,0:0:0:0:
256,224,48838,1,8,0:0:0:0:
256,224,48962,1,0,0:0:0:0:
240,208,49085,1,8,0:0:0:0:
240,208,49147,1,0,0:0:0:0:
240,208,49209,1,0,0:0:0:0:
240,208,49332,1,8,0:0:0:0:
240,208,49394,1,8,0:0:0:0:
240,208,49456,1,0,0:0:0:0:
256,224,49579,1,8,0:0:0:0:
256,224,49702,1,0,0:0:0:0:
256,224,49826,1,8,0:0:0:0:
256,224,49888,1,8,0:0:0:0:
256,224,49949,1,0,0:0:0:0:
256,224,50011,1,0,0:0:0:0:
256,224,50073,1,8,0:0:0:0:
256,224,50135,1,8,0:0:0:0:
256,224,50196,1,8,0:0:0:0:
256,224,50258,1,8,0:0:0:0:
256,224,50320,1,4,0:0:0:0:
256,224,50443,1,8,0:0:0:0:
272,224,50567,1,0,0:0:0:0:
272,224,50690,1,8,0:0:0:0:
256,208,50814,1,8,0:0:0:0:
256,208,50875,1,8,0:0:0:0:
256,208,50937,1,0,0:0:0:0:
272,224,51060,1,0,0:0:0:0:
272,224,51184,1,8,0:0:0:0:
272,224,51431,1,0,0:0:0:0:
256,224,51554,1,8,0:0:0:0:
256,224,51678,1,0,0:0:0:0:
256,224,51801,1,8,0:0:0:0:
272,224,51925,1,0,0:0:0:0:
272,224,52048,1,0,0:0:0:0:
272,224,52110,1,0,0:0:0:0:
272,224,52172,1,8,0:0:0:0:
256,224,52295,1,4,0:0:0:0:
208,192,52542,1,0,0:0:0:0:
240,224,52665,1,0,0:0:0:0:
256,224,52912,1,8,0:0:0:0:
256,240,53159,1,0,0:0:0:0:
256,240,53283,1,8,0:0:0:0:
288,256,53406,1,0,0:0:0:0:
288,256,53653,1,0,0:0:0:0:
288,256,53777,1,0,0:0:0:0:
288,256,53838,1,0,0:0:0:0:
288,256,53900,1,0,0:0:0:0:
288,256,54023,1,8,0:0:0:0:
304,256,54085,1,8,0:0:0:0:
304,256,54147,1,8,0:0:0:0:
304,256,54209,1,8,0:0:0:0:
304,256,54270,1,0,0:0:0:0:
304,256,54332,1,0,0:0:0:0:
304,256,54394,1,8,0:0:0:0:
224,208,54517,1,0,0:0:0:0:
240,208,54641,1,0,0:0:0:0:
240,208,54702,1,0,0:0:0:0:
240,208,54764,1,8,0:0:0:0:
272,224,54888,1,8,0:0:0:0:
176,224,54949,1,8,0:0:0:0:
272,224,55011,1,0,0:0:0:0:
208,224,55073,1,0,0:0:0:0:
272,224,55135,1,8,0:0:0:0:
272,224,55381,1,0,0:0:0:0:
240,224,55443,1,0,0:0:0:0:
272,224,55505,1,0,0:0:0:0:
272,224,55628,1,0,0:0:0:0:
256,224,55752,1,8,0:0:0:0:
240,224,55875,1,0,0:0:0:0:
240,224,55999,1,8,0:0:0:0:
224,272,56060,1,0,0:0:0:0:
240,224,56122,1,8,0:0:0:0:
240,224,56246,1,4,0:0:0:0:
224,224,56369,1,0,0:0:0:0:
224,224,56493,1,8,0:0:0:0:
224,224,56554,1,0,0:0:0:0:
224,224,56616,1,0,0:0:0:0:
256,224,56739,1,8,0:0:0:0:
224,224,56801,1,8,0:0:0:0:
256,224,56863,1,0,0:0:0:0:
256,224,56986,1,8,0:0:0:0:
256,224,57048,1,0,0:0:0:0:
256,224,57110,1,0,0:0:0:0:
256,224,57233,1,8,0:0:0:0:
256,224,57295,1,0,0:0:0:0:
256,224,57357,1,0,0:0:0:0:
256,224,57418,1,8,0:0:0:0:
256,224,57480,1,8,0:0:0:0:
256,224,57604,1,8,0:0:0:0:
368,320,57665,1,0,0:0:0:0:
272,240,57727,1,8,0:0:0:0:
272,240,57789,1,8,0:0:0:0:
272,240,57851,1,0,0:0:0:0:
272,240,57912,1,0,0:0:0:0:
272,240,57974,1,8,0:0:0:0:
272,240,58036,1,8,0:0:0:0:
272,240,58098,1,8,0:0:0:0:
272,240,58159,1,8,0:0:0:0:
251,197,58221,5,4,0:0:0:0:
264,201,58345,1,0,0:0:0:0:
264,201,58468,1,0,0:0:0:0:
245,210,58530,1,0,0:0:0:0:
264,201,58592,1,8,0:0:0:0:
182,186,58715,1,8,0:0:0:0:
182,186,58777,1,8,0:0:0:0:
182,186,58839,1,0,0:0:0:0:
267,210,58962,1,0,0:0:0:0:
267,210,59086,1,8,0:0:0:0:
256,204,59333,1,0,0:0:0:0:
256,204,59456,1,8,0:0:0:0:
196,201,59580,1,0,0:0:0:0:
204,200,59703,1,8,0:0:0:0:
204,200,59826,1,0,0:0:0:0:
258,212,59950,1,0,0:0:0:0:
258,212,60012,1,0,0:0:0:0:
258,212,60073,1,8,0:0:0:0:
226,236,60197,1,4,0:0:0:0:
244,230,60444,1,0,0:0:0:0:
244,230,60567,1,0,0:0:0:0:
254,226,60814,1,8,0:0:0:0:
149,212,61061,1,0,0:0:0:0:
180,219,61184,1,8,0:0:0:0:
204,217,61308,1,0,0:0:0:0:
215,218,61555,1,0,0:0:0:0:
215,218,61678,1,0,0:0:0:0:
215,218,61740,1,0,0:0:0:0:
215,218,61802,1,0,0:0:0:0:
234,220,61925,1,8,0:0:0:0:
234,220,61987,1,8,0:0:0:0:
234,220,62049,1,8,0:0:0:0:
234,220,62110,1,8,0:0:0:0:
234,220,62172,1,0,0:0:0:0:
228,231,62234,1,0,0:0:0:0:
228,231,62296,1,8,0:0:0:0:
259,230,62419,1,0,0:0:0:0:
259,230,62542,1,0,0:0:0:0:
259,230,62604,1,0,0:0:0:0:
259,230,62666,1,8,0:0:0:0:
251,233,62789,1,0,0:0:0:0:
251,233,62913,1,0,0:0:0:0:
251,233,63036,1,8,0:0:0:0:
251,234,63160,1,0,0:0:0:0:
251,234,63221,1,8,0:0:0:0:
251,234,63283,1,8,0:0:0:0:
251,234,63407,1,0,0:0:0:0:
256,224,63530,1,0,0:0:0:0:
240,224,63654,1,8,0:0:0:0:
240,224,63715,1,8,0:0:0:0:
240,224,63777,1,0,0:0:0:0:
240,224,63901,1,8,0:0:0:0:
240,224,64024,1,8,0:0:0:0:
240,224,64147,1,4,0:0:0:0:
224,256,64271,1,0,0:0:0:0:
256,192,64394,1,8,0:0:0:0:
256,192,64456,1,8,0:0:0:0:
256,192,64518,1,0,0:0:0:0:
256,224,64641,1,8,0:0:0:0:
256,224,64765,1,0,0:0:0:0:
240,208,64888,1,8,0:0:0:0:
240,208,64949,1,0,0:0:0:0:
240,208,65012,1,0,0:0:0:0:
240,208,65135,1,8,0:0:0:0:
240,208,65197,1,8,0:0:0:0:
240,208,65259,1,0,0:0:0:0:
256,224,65382,1,8,0:0:0:0:
256,224,65505,1,0,0:0:0:0:
256,224,65629,1,8,0:0:0:0:
256,224,65691,1,8,0:0:0:0:
256,224,65752,1,0,0:0:0:0:
256,224,65814,1,0,0:0:0:0:
256,224,65876,1,8,0:0:0:0:
256,224,65938,1,8,0:0:0:0:
256,224,65999,1,8,0:0:0:0:
256,224,66061,1,8,0:0:0:0:
256,224,66123,1,4,0:0:0:0:
256,224,66246,1,8,0:0:0:0:
272,224,66370,1,0,0:0:0:0:
272,224,66493,1,8,0:0:0:0:
256,208,66617,1,8,0:0:0:0:
256,208,66678,1,8,0:0:0:0:
256,208,66740,1,0,0:0:0:0:
272,224,66863,1,0,0:0:0:0:
272,224,66987,1,8,0:0:0:0:
272,224,67234,1,0,0:0:0:0:
256,224,67357,1,8,0:0:0:0:
256,224,67481,1,0,0:0:0:0:
256,224,67604,1,8,0:0:0:0:
272,224,67728,1,0,0:0:0:0:
272,224,67851,1,0,0:0:0:0:
272,224,67913,1,0,0:0:0:0:
272,224,67975,1,8,0:0:0:0:
256,224,68098,1,4,0:0:0:0:
144,208,68221,1,8,0:0:0:0:
160,224,68283,1,0,0:0:0:0:
208,192,68345,1,8,0:0:0:0:
240,224,68468,1,8,0:0:0:0:
272,240,68591,1,8,0:0:0:0:
256,224,68715,1,0,0:0:0:0:
256,224,68777,1,8,0:0:0:0:
256,224,68838,1,0,0:0:0:0:
256,240,68962,1,8,0:0:0:0:
288,256,69209,1,0,0:0:0:0:
176,240,69332,1,8,0:0:0:0:
288,256,69456,1,0,0:0:0:0:
288,256,69580,1,8,0:0:0:0:
288,256,69641,1,0,0:0:0:0:
288,256,69703,1,0,0:0:0:0:
288,256,69826,1,8,0:0:0:0:
304,256,69888,1,8,0:0:0:0:
304,256,69950,1,8,0:0:0:0:
304,256,70012,1,8,0:0:0:0:
304,256,70073,1,0,0:0:0:0:
304,256,70135,1,0,0:0:0:0:
304,256,70197,1,8,0:0:0:0:
224,208,70320,1,0,0:0:0:0:
240,208,70444,1,8,0:0:0:0:
240,208,70505,1,0,0:0:0:0:
240,208,70567,1,8,0:0:0:0:
272,224,70691,1,0,0:0:0:0:
272,224,70814,1,0,0:0:0:0:
272,224,70938,1,8,0:0:0:0:
144,192,71060,1,4,0:0:0:0:
272,224,71184,1,0,0:0:0:0:
240,224,71246,1,0,0:0:0:0:
272,224,71308,1,8,0:0:0:0:
272,224,71431,1,0,0:0:0:0:
256,224,71555,1,8,0:0:0:0:
240,224,71678,1,0,0:0:0:0:
240,224,71802,1,8,0:0:0:0:
240,224,71925,1,0,0:0:0:0:
240,224,72049,1,8,0:0:0:0:
240,224,72110,1,8,0:0:0:0:
240,224,72172,1,0,0:0:0:0:
240,224,72233,1,0,0:0:0:0:
224,224,72296,1,8,0:0:0:0:
224,224,72357,1,8,0:0:0:0:
224,224,72419,1,8,0:0:0:0:
272,240,72480,1,0,0:0:0:0:
256,224,72542,1,8,0:0:0:0:
304,256,72604,1,0,0:0:0:0:
256,224,72666,1,0,0:0:0:0:
304,256,72727,1,0,0:0:0:0:
256,224,72789,1,8,0:0:0:0:
256,224,72851,1,8,0:0:0:0:
256,224,72913,1,0,0:0:0:0:
192,224,72974,1,8,0:0:0:0:
256,224,73036,1,8,0:0:0:0:
256,224,73098,1,0,0:0:0:0:
256,224,73160,1,0,0:0:0:0:
256,224,73221,1,0,0:0:0:0:
256,224,73283,1,8,0:0:0:0:
240,240,73344,1,8,0:0:0:0:
256,224,73407,1,0,0:0:0:0:
368,320,73468,1,0,0:0:0:0:
272,240,73530,1,12,0:0:0:0:
272,240,73694,1,12,0:0:0:0:
272,240,73859,1,12,0:0:0:0:
272,240,74023,1,12,0:0:0:0:
188,231,74147,1,0,0:0:0:0:
202,234,74270,1,8,0:0:0:0:
264,242,74394,1,0,0:0:0:0:
264,242,74456,1,0,0:0:0:0:
264,242,74517,1,8,0:0:0:0:
264,242,74579,1,0,0:0:0:0:
264,242,74641,1,0,0:0:0:0:
264,242,74702,1,0,0:0:0:0:
264,242,74764,1,8,0:0:0:0:
260,229,74888,1,0,0:0:0:0:
260,229,75011,1,8,0:0:0:0:
262,229,75073,1,0,0:0:0:0:
260,231,75135,1,0,0:0:0:0:
260,231,75258,1,8,0:0:0:0:
264,242,75381,5,8,0:0:0:0:
260,231,75505,1,0,0:0:0:0:
282,244,75628,1,0,0:0:0:0:
282,244,75752,1,8,0:0:0:0:
268,252,75875,1,0,0:0:0:0:
271,239,75999,1,0,0:0:0:0:
271,239,76060,1,0,0:0:0:0:
271,239,76122,1,8,0:0:0:0:
265,244,76246,1,8,0:0:0:0:
265,244,76369,1,0,0:0:0:0:
269,249,76493,1,8,0:0:0:0:
268,252,76616,1,0,0:0:0:0:
269,249,76739,1,8,0:0:0:0:
269,249,76863,1,8,0:0:0:0:
245,221,76986,1,8,0:0:0:0:
245,221,77048,1,8,0:0:0:0:
245,221,77110,1,8,0:0:0:0:
245,221,77233,1,8,0:0:0:0:
245,221,77357,1,0,0:0:0:0:
245,221,77418,1,0,0:0:0:0:
245,221,77480,1,0,0:0:0:0:
249,216,77542,1,8,0:0:0:0:
249,216,77604,1,0,0:0:0:0:
242,211,77727,1,8,0:0:0:0:
242,211,77851,1,8,0:0:0:0:
257,204,77974,1,4,0:0:0:0:
251,208,78098,1,8,0:0:0:0:
236,208,78159,1,0,0:0:0:0:
251,208,78221,1,8,0:0:0:0:
249,216,78344,1,0,0:0:0:0:
246,219,78468,1,0,0:0:0:0:
246,219,78591,1,0,0:0:0:0:
247,222,78715,1,8,0:0:0:0:
247,222,78838,1,0,0:0:0:0:
260,230,78962,1,8,0:0:0:0:
260,230,79023,1,8,0:0:0:0:
260,230,79085,1,0,0:0:0:0:
260,230,79209,1,8,0:0:0:0:
265,231,79332,1,8,0:0:0:0:
265,231,79456,1,0,0:0:0:0:
265,231,79579,1,8,0:0:0:0:
277,194,79702,1,0,0:0:0:0:
283,198,79826,1,0,0:0:0:0:
278,226,79949,1,8,0:0:0:0:
278,226,80011,1,0,0:0:0:0:
278,226,80073,1,8,0:0:0:0:
275,220,80196,1,0,0:0:0:0:
275,220,80320,1,0,0:0:0:0:
275,220,80443,1,8,0:0:0:0:
273,238,80567,1,0,0:0:0:0:
273,238,80814,1,8,0:0:0:0:
261,238,80937,1,8,0:0:0:0:
261,238,80999,1,8,0:0:0:0:
261,238,81060,1,0,0:0:0:0:
261,238,81122,1,0,0:0:0:0:
261,238,81184,1,8,0:0:0:0:
185,234,81246,1,0,0:0:0:0:
261,238,81307,1,0,0:0:0:0:
261,238,81369,1,8,0:0:0:0:
261,238,81431,1,0,0:0:0:0:
256,241,81493,1,0,0:0:0:0:
256,241,81554,1,0,0:0:0:0:
256,241,81616,1,0,0:0:0:0:
256,241,81678,1,8,0:0:0:0:
253,230,81801,1,8,0:0:0:0:
260,232,81925,1,4,0:0:0:0:
264,234,82048,1,0,0:0:0:0:
263,232,82110,1,0,0:0:0:0:
263,230,82172,1,8,0:0:0:0:
263,230,82295,1,0,0:0:0:0:
252,219,82418,1,8,0:0:0:0:
252,219,82480,1,0,0:0:0:0:
252,219,82542,1,0,0:0:0:0:
252,219,82604,1,8,0:0:0:0:
252,219,82665,1,8,0:0:0:0:
252,219,82789,1,8,0:0:0:0:
252,219,82851,1,0,0:0:0:0:
252,219,82912,1,0,0:0:0:0:
263,230,83036,1,0,0:0:0:0:
259,232,83159,1,8,0:0:0:0:
243,220,83221,1,8,0:0:0:0:
243,220,83283,1,0,0:0:0:0:
247,224,83406,1,0,0:0:0:0:
241,196,83468,1,0,0:0:0:0:
247,224,83530,1,8,0:0:0:0:
247,224,83591,1,0,0:0:0:0:
247,224,83653,1,8,0:0:0:0:
253,233,83777,1,0,0:0:0:0:
247,230,83900,1,8,0:0:0:0:
247,230,83962,1,8,0:0:0:0:
247,230,84023,1,0,0:0:0:0:
243,237,84147,1,8,0:0:0:0:
243,237,84270,1,0,0:0:0:0:
238,243,84394,1,8,0:0:0:0:
243,237,84456,1,8,0:0:0:0:
238,243,84517,1,0,0:0:0:0:
251,234,84579,1,0,0:0:0:0:
240,239,84641,1,8,0:0:0:0:
240,239,84764,1,0,0:0:0:0:
240,239,84826,1,0,0:0:0:0:
243,237,84888,1,8,0:0:0:0:
243,237,84949,1,8,0:0:0:0:
243,237,85011,1,0,0:0:0:0:
243,237,85073,1,0,0:0:0:0:
233,246,85135,1,8,0:0:0:0:
233,246,85196,1,0,0:0:0:0:
233,237,85258,1,8,0:0:0:0:
233,237,85320,1,0,0:0:0:0:
233,237,85381,1,0,0:0:0:0:
233,237,85443,1,0,0:0:0:0:
233,237,85505,1,8,0:0:0:0:
233,237,85567,1,8,0:0:0:0:
243,237,85628,1,0,0:0:0:0:
171,211,85690,1,0,0:0:0:0:
171,211,85752,1,0,0:0:0:0:
171,211,85814,1,0,0:0:0:0:
171,211,85875,1,12,0:0:0:0:
149,211,85999,1,0,0:0:0:0:
260,225,86122,1,8,0:0:0:0:
247,231,86246,1,0,0:0:0:0:
247,231,86307,1,8,0:0:0:0:
247,231,86369,1,8,0:0:0:0:
246,232,86431,1,0,0:0:0:0:
246,232,86493,1,0,0:0:0:0:
251,239,86616,1,8,0:0:0:0:
251,239,86739,1,0,0:0:0:0:
251,237,86863,1,8,0:0:0:0:
251,241,86925,1,8,0:0:0:0:
251,241,86986,1,0,0:0:0:0:
251,241,87048,1,0,0:0:0:0:
251,241,87110,1,8,0:0:0:0:
251,241,87233,1,0,0:0:0:0:
251,239,87295,1,0,0:0:0:0:
251,239,87357,1,8,0:0:0:0:
245,245,87480,1,0,0:0:0:0:
245,245,87604,1,8,0:0:0:0:
245,245,87665,1,0,0:0:0:0:
245,245,87727,1,0,0:0:0:0:
251,241,87851,1,8,0:0:0:0:
251,241,87974,1,0,0:0:0:0:
251,239,88098,1,8,0:0:0:0:
261,234,88221,1,0,0:0:0:0:
261,234,88283,1,0,0:0:0:0:
261,234,88344,1,0,0:0:0:0:
261,234,88406,1,0,0:0:0:0:
261,234,88468,1,8,0:0:0:0:
249,221,88591,1,8,0:0:0:0:
250,221,88715,1,0,0:0:0:0:
258,174,88838,1,8,0:0:0:0:
255,179,88893,1,8,0:0:0:0:
256,192,88948,1,0,0:0:0:0:
255,179,89003,1,8,0:0:0:0:
255,179,89058,1,0,0:0:0:0:
240,192,89113,1,0,0:0:0:0:
255,179,89167,1,8,0:0:0:0:
240,192,89222,1,8,0:0:0:0:
255,179,89277,1,0,0:0:0:0:
255,179,89332,1,8,0:0:0:0:
255,179,89387,1,0,0:0:0:0:
255,179,89442,1,0,0:0:0:0:
256,192,89497,1,8,0:0:0:0:
256,176,89552,1,8,0:0:0:0:
255,179,89606,1,0,0:0:0:0:
255,179,89661,1,8,0:0:0:0:
263,185,89716,1,0,0:0:0:0:
240,192,89771,1,0,0:0:0:0:
263,185,89826,1,12,0:0:0:0:
255,179,89949,1,0,0:0:0:0:
260,176,90073,1,8,0:0:0:0:
261,194,90135,1,0,0:0:0:0:
261,194,90196,1,0,0:0:0:0:
261,194,90258,1,0,0:0:0:0:
261,194,90320,1,8,0:0:0:0:
259,203,90443,1,0,0:0:0:0:
259,203,90567,1,8,0:0:0:0:
259,203,90628,1,8,0:0:0:0:
259,203,90690,1,0,0:0:0:0:
259,203,90814,1,0,0:0:0:0:
261,194,90937,1,8,0:0:0:0:
261,194,90999,1,0,0:0:0:0:
261,194,91060,1,8,0:0:0:0:
261,194,91122,1,8,0:0:0:0:
253,203,91184,1,0,0:0:0:0:
274,213,91307,1,0,0:0:0:0:
274,213,91431,1,0,0:0:0:0:
274,213,91493,1,0,0:0:0:0:
274,213,91554,1,8,0:0:0:0:
268,213,91678,1,0,0:0:0:0:
268,213,91739,1,0,0:0:0:0:
268,213,91801,1,8,0:0:0:0:
268,213,91863,1,0,0:0:0:0:
268,213,91925,1,8,0:0:0:0:
266,222,92048,1,8,0:0:0:0:
266,222,92172,1,0,0:0:0:0:
266,222,92295,1,8,0:0:0:0:
276,229,92357,1,8,0:0:0:0:
276,229,92419,1,0,0:0:0:0:
276,229,92480,1,0,0:0:0:0:
276,228,92542,1,8,0:0:0:0:
287,241,92665,1,8,0:0:0:0:
287,241,92789,1,8,0:0:0:0:
287,241,92851,1,8,0:0:0:0:
287,241,92912,1,8,0:0:0:0:
269,232,93036,1,8,0:0:0:0:
269,232,93159,1,0,0:0:0:0:
269,232,93221,1,0,0:0:0:0:
269,232,93283,1,0,0:0:0:0:
269,232,93344,1,8,0:0:0:0:
269,232,93406,1,0,0:0:0:0:
273,244,93530,1,8,0:0:0:0:
273,244,93653,1,8,0:0:0:0:
273,243,93777,1,4,0:0:0:0:
266,251,93900,1,0,0:0:0:0:
272,258,94023,1,8,0:0:0:0:
261,252,94147,1,0,0:0:0:0:
261,252,94209,1,8,0:0:0:0:
261,252,94270,1,8,0:0:0:0:
261,252,94394,1,0,0:0:0:0:
244,256,94456,1,0,0:0:0:0:
256,256,94517,1,8,0:0:0:0:
284,268,94641,1,0,0:0:0:0:
284,268,94764,1,8,0:0:0:0:
284,268,94826,1,8,0:0:0:0:
284,268,94888,1,0,0:0:0:0:
284,268,94949,1,0,0:0:0:0:
284,268,95011,1,8,0:0:0:0:
272,274,95135,1,0,0:0:0:0:
272,274,95196,1,8,0:0:0:0:
272,274,95258,1,0,0:0:0:0:
272,274,95381,1,8,0:0:0:0:
222,208,95505,1,0,0:0:0:0:
222,208,95567,1,0,0:0:0:0:
222,208,95628,1,0,0:0:0:0:
222,208,95690,1,0,0:0:0:0:
222,208,95752,1,8,0:0:0:0:
248,217,95875,1,0,0:0:0:0:
248,217,95999,1,0,0:0:0:0:
262,245,96122,1,8,0:0:0:0:
233,215,96246,1,8,0:0:0:0:
233,215,96307,1,0,0:0:0:0:
233,215,96369,1,0,0:0:0:0:
233,214,96493,1,8,0:0:0:0:
233,214,96554,1,8,0:0:0:0:
233,214,96616,1,0,0:0:0:0:
230,225,96739,1,8,0:0:0:0:
230,224,96801,1,0,0:0:0:0:
230,224,96863,1,8,0:0:0:0:
260,239,96925,1,8,0:0:0:0:
260,239,96986,1,0,0:0:0:0:
242,237,97110,1,0,0:0:0:0:
242,237,97233,1,8,0:0:0:0:
242,237,97357,1,8,0:0:0:0:
242,237,97480,1,8,0:0:0:0:
242,237,97604,1,8,0:0:0:0:
242,237,97727,1,4,0:0:0:0:
258,242,97851,1,0,0:0:0:0:
258,242,97974,1,0,0:0:0:0:
258,242,98098,1,0,0:0:0:0:
298,200,98221,1,8,0:0:0:0:
281,229,98468,1,4,0:0:0:0:
258,242,98838,1,0,0:0:0:0:
259,239,99085,1,0,0:0:0:0:
259,238,99209,1,8,0:0:0:0:
248,247,99332,1,0,0:0:0:0:
248,228,99456,1,0,0:0:0:0:
248,228,99579,1,0,0:0:0:0:
248,228,99702,1,12,0:0:0:0:
256,228,99826,1,0,0:0:0:0:
256,228,99949,1,0,0:0:0:0:
256,228,100073,1,0,0:0:0:0:
256,228,100196,1,8,0:0:0:0:
255,239,100443,1,12,0:0:0:0:
263,244,100814,1,0,0:0:0:0:
263,244,101060,1,0,0:0:0:0:
263,244,101184,1,0,0:0:0:0:
255,251,101246,1,0,0:0:0:0:
255,251,101307,1,8,0:0:0:0:
255,251,101369,1,8,0:0:0:0:
255,251,101431,1,8,0:0:0:0:
255,251,101493,1,8,0:0:0:0:
255,251,101554,1,8,0:0:0:0:
255,251,101616,1,8,0:0:0:0:
255,251,101678,1,4,0:0:0:0:
255,249,101801,1,0,0:0:0:0:
255,249,101925,1,0,0:0:0:0:
255,251,102048,1,0,0:0:0:0:
255,251,102172,1,8,0:0:0:0:
247,242,102419,1,4,0:0:0:0:
269,243,102789,1,0,0:0:0:0:
271,239,103036,1,0,0:0:0:0:
271,239,103159,1,8,0:0:0:0:
281,250,103283,1,0,0:0:0:0:
280,249,103406,1,0,0:0:0:0:
280,249,103530,1,0,0:0:0:0:
280,249,103653,1,12,0:0:0:0:
221,177,103777,1,0,0:0:0:0:
237,182,103900,1,0,0:0:0:0:
237,182,103962,1,0,0:0:0:0:
237,182,104023,1,0,0:0:0:0:
233,206,104147,1,8,0:0:0:0:
234,203,104394,1,12,0:0:0:0:
238,208,104764,1,0,0:0:0:0:
238,208,105011,1,0,0:0:0:0:
247,214,105135,1,0,0:0:0:0:
247,214,105196,1,0,0:0:0:0:
247,214,105258,1,8,0:0:0:0:
247,214,105320,1,8,0:0:0:0:
247,214,105381,1,8,0:0:0:0:
247,214,105443,1,8,0:0:0:0:
247,214,105505,1,8,0:0:0:0:
247,214,105567,1,8,0:0:0:0:
247,214,105628,1,4,0:0:0:0:
242,207,105752,1,8,0:0:0:0:
240,205,105814,1,8,0:0:0:0:
240,205,105875,1,0,0:0:0:0:
240,205,105999,1,0,0:0:0:0:
238,213,106122,1,8,0:0:0:0:
238,213,106246,1,8,0:0:0:0:
238,213,106307,1,0,0:0:0:0:
238,208,106369,1,8,0:0:0:0:
238,208,106431,1,8,0:0:0:0:
238,208,106493,1,0,0:0:0:0:
245,216,106616,1,8,0:0:0:0:
245,216,106739,1,0,0:0:0:0:
245,216,106863,1,8,0:0:0:0:
246,215,106925,1,8,0:0:0:0:
246,215,106986,1,0,0:0:0:0:
246,215,107048,1,0,0:0:0:0:
246,215,107110,1,8,0:0:0:0:
246,213,107233,1,0,0:0:0:0:
256,230,107357,1,0,0:0:0:0:
255,230,107480,1,8,0:0:0:0:
255,230,107542,1,0,0:0:0:0:
255,230,107604,1,8,0:0:0:0:
251,220,107665,1,8,0:0:0:0:
251,220,107727,1,0,0:0:0:0:
251,220,107851,1,8,0:0:0:0:
251,220,107974,1,0,0:0:0:0:
251,220,108098,1,8,0:0:0:0:
251,220,108159,1,0,0:0:0:0:
251,220,108221,1,0,0:0:0:0:
251,220,108283,1,8,0:0:0:0:
251,220,108344,1,8,0:0:0:0:
251,220,108468,1,0,0:0:0:0:
267,224,108591,1,0,0:0:0:0:
251,220,108715,1,8,0:0:0:0:
251,220,108777,1,0,0:0:0:0:
251,220,108838,1,0,0:0:0:0:
251,220,108900,1,0,0:0:0:0:
251,220,108962,1,8,0:0:0:0:
251,220,109085,1,8,0:0:0:0:
251,220,109209,1,0,0:0:0:0:
251,232,109332,1,8,0:0:0:0:
251,232,109394,1,8,0:0:0:0:
251,232,109456,1,0,0:0:0:0:
252,232,109579,1,8,0:0:0:0:
252,232,109641,1,8,0:0:0:0:
252,232,109702,1,0,0:0:0:0:
252,232,109764,1,0,0:0:0:0:
252,232,109826,1,8,0:0:0:0:
252,232,109888,1,0,0:0:0:0:
252,232,109949,1,0,0:0:0:0:
251,232,110011,1,0,0:0:0:0:
251,232,110073,1,8,0:0:0:0:
251,232,110135,1,8,0:0:0:0:
251,232,110196,1,0,0:0:0:0:
252,232,110258,1,0,0:0:0:0:
244,223,110320,1,8,0:0:0:0:
244,223,110381,1,8,0:0:0:0:
244,223,110443,1,8,0:0:0:0:
244,223,110505,1,8,0:0:0:0:
244,223,110567,1,0,0:0:0:0:
244,223,110628,1,0,0:0:0:0:
244,223,110690,1,0,0:0:0:0:
244,223,110752,1,0,0:0:0:0:
244,223,110814,1,8,0:0:0:0:
244,223,110875,1,0,0:0:0:0:
244,223,110937,1,0,0:0:0:0:
244,223,110999,1,0,0:0:0:0:
248,229,111060,1,8,0:0:0:0:
259,216,111122,1,8,0:0:0:0:
259,216,111184,1,0,0:0:0:0:
259,216,111246,1,0,0:0:0:0:
259,216,111307,1,8,0:0:0:0:
252,221,111369,1,0,0:0:0:0:
252,221,111431,1,0,0:0:0:0:
252,221,111493,1,0,0:0:0:0:
252,221,111554,1,12,0:0:0:0:
262,204,112542,5,8,0:0:0:0:
262,204,112665,1,0,0:0:0:0:
262,204,112727,1,0,0:0:0:0:
262,204,112789,1,0,0:0:0:0:
283,195,112871,1,0,0:0:0:0:
283,195,112953,1,0,0:0:0:0:
283,195,113036,1,8,0:0:0:0:
296,208,113221,1,8,0:0:0:0:
296,208,113406,1,8,0:0:0:0:
84,365,113530,5,12,0:0:0:0:
352,208,113653,1,0,0:0:0:0:
262,193,113777,1,8,0:0:0:0:
262,193,113838,1,8,0:0:0:0:
262,193,113900,1,0,0:0:0:0:
262,193,113962,1,0,0:0:0:0:
273,210,114023,1,8,0:0:0:0:
273,210,114085,1,0,0:0:0:0:
273,210,114147,1,0,0:0:0:0:
273,210,114209,1,0,0:0:0:0:
273,210,114270,1,8,0:0:0:0:
273,210,114332,1,8,0:0:0:0:
273,210,114394,1,0,0:0:0:0:
273,210,114456,1,0,0:0:0:0:
246,194,114517,1,8,0:0:0:0:
246,194,114579,1,0,0:0:0:0:
246,194,114641,1,0,0:0:0:0:
246,194,114702,1,0,0:0:0:0:
246,194,114764,1,8,0:0:0:0:
269,216,114826,1,8,0:0:0:0:
273,210,114888,1,8,0:0:0:0:
264,202,114949,1,0,0:0:0:0:
250,204,115011,1,8,0:0:0:0:
250,204,115073,1,0,0:0:0:0:
250,204,115135,1,0,0:0:0:0:
250,204,115196,1,0,0:0:0:0:
250,204,115258,1,8,0:0:0:0:
237,191,115320,1,8,0:0:0:0:
242,199,115381,1,0,0:0:0:0:
242,199,115443,1,0,0:0:0:0:
242,199,115505,1,8,0:0:0:0:
241,201,115567,1,8,0:0:0:0:
241,201,115628,1,8,0:0:0:0:
241,201,115690,1,8,0:0:0:0:
241,201,115752,1,0,0:0:0:0:
246,211,115814,1,0,0:0:0:0:
246,211,115875,1,8,0:0:0:0:
246,211,115937,1,0,0:0:0:0:
250,204,115999,1,8,0:0:0:0:
246,203,116060,1,8,0:0:0:0:
246,203,116122,1,0,0:0:0:0:
246,203,116184,1,0,0:0:0:0:
246,203,116246,1,8,0:0:0:0:
248,212,116307,1,0,0:0:0:0:
246,203,116369,1,0,0:0:0:0:
248,212,116431,1,0,0:0:0:0:
242,210,116493,1,8,0:0:0:0:
246,211,116554,1,8,0:0:0:0:
246,211,116616,1,8,0:0:0:0:
246,211,116678,1,8,0:0:0:0:
258,193,116739,1,0,0:0:0:0:
247,210,116986,1,8,0:0:0:0:
248,212,117048,1,8,0:0:0:0:
247,210,117110,1,8,0:0:0:0:
248,212,117172,1,8,0:0:0:0:
247,208,117233,1,0,0:0:0:0:
231,199,117295,1,0,0:0:0:0:
236,206,117357,1,0,0:0:0:0:
236,206,117419,1,0,0:0:0:0:
84,365,117480,5,12,0:0:0:0:
352,208,117603,1,0,0:0:0:0:
262,193,117727,1,8,0:0:0:0:
262,193,117788,1,8,0:0:0:0:
262,193,117850,1,0,0:0:0:0:
262,193,117912,1,0,0:0:0:0:
273,210,117973,1,8,0:0:0:0:
273,210,118035,1,0,0:0:0:0:
273,210,118097,1,0,0:0:0:0:
273,210,118159,1,0,0:0:0:0:
273,210,118220,1,8,0:0:0:0:
273,210,118282,1,8,0:0:0:0:
273,210,118344,1,0,0:0:0:0:
273,210,118406,1,0,0:0:0:0:
246,194,118467,1,8,0:0:0:0:
246,194,118529,1,0,0:0:0:0:
246,194,118591,1,0,0:0:0:0:
246,194,118652,1,0,0:0:0:0:
246,194,118714,1,8,0:0:0:0:
269,216,118776,1,8,0:0:0:0:
273,210,118838,1,8,0:0:0:0:
264,202,118899,1,0,0:0:0:0:
250,204,118961,1,8,0:0:0:0:
250,204,119023,1,8,0:0:0:0:
250,204,119085,1,0,0:0:0:0:
250,204,119146,1,0,0:0:0:0:
250,204,119208,1,8,0:0:0:0:
237,191,119270,1,8,0:0:0:0:
242,199,119331,1,8,0:0:0:0:
242,199,119393,1,0,0:0:0:0:
242,199,119455,1,8,0:0:0:0:
241,201,119517,1,8,0:0:0:0:
241,201,119578,1,8,0:0:0:0:
241,201,119640,1,8,0:0:0:0:
241,201,119702,1,0,0:0:0:0:
246,211,119764,1,0,0:0:0:0:
246,211,119825,1,8,0:0:0:0:
246,211,119887,1,0,0:0:0:0:
250,204,119949,1,8,0:0:0:0:
246,203,120010,1,8,0:0:0:0:
246,203,120072,1,8,0:0:0:0:
246,203,120134,1,8,0:0:0:0:
246,203,120196,1,0,0:0:0:0:
248,212,120257,1,0,0:0:0:0:
246,203,120319,1,8,0:0:0:0:
248,212,120381,1,0,0:0:0:0:
242,210,120443,1,8,0:0:0:0:
246,211,120504,1,8,0:0:0:0:
246,211,120566,1,0,0:0:0:0:
246,211,120628,1,0,0:0:0:0:
258,193,120689,1,8,0:0:0:0:
247,195,120752,1,8,0:0:0:0:
247,195,120814,1,8,0:0:0:0:
247,195,120875,1,8,0:0:0:0:
247,210,120936,1,0,0:0:0:0:
248,212,120998,1,0,0:0:0:0:
247,210,121060,1,0,0:0:0:0:
248,212,121122,1,0,0:0:0:0:
247,208,121183,1,8,0:0:0:0:
231,199,121245,1,0,0:0:0:0:
236,206,121307,1,8,0:0:0:0:
236,206,121369,1,8,0:0:0:0:
237,194,121431,1,0,0:0:0:0:
237,194,121493,1,0,0:0:0:0:
237,194,121554,1,0,0:0:0:0:
237,194,121616,1,0,0:0:0:0:
237,194,121678,1,8,0:0:0:0:
242,203,121801,1,0,0:0:0:0:
242,203,121925,1,0,0:0:0:0:
242,203,122048,1,0,0:0:0:0:
242,203,122110,1,0,0:0:0:0:
242,203,122172,1,8,0:0:0:0:
240,205,122295,1,0,0:0:0:0:
240,205,122419,1,8,0:0:0:0:
242,203,122480,1,8,0:0:0:0:
242,203,122542,1,0,0:0:0:0:
242,203,122604,1,0,0:0:0:0:
242,203,122665,1,8,0:0:0:0:
279,199,122727,1,0,0:0:0:0:
263,203,122789,1,0,0:0:0:0:
263,202,122912,1,8,0:0:0:0:
262,201,122974,1,8,0:0:0:0:
262,201,123036,1,0,0:0:0:0:
258,205,123159,1,8,0:0:0:0:
258,205,123283,1,0,0:0:0:0:
255,203,123406,1,8,0:0:0:0:
255,203,123468,1,8,0:0:0:0:
255,203,123530,1,0,0:0:0:0:
255,203,123591,1,0,0:0:0:0:
255,203,123653,1,8,0:0:0:0:
257,214,123777,1,0,0:0:0:0:
258,205,123900,1,8,0:0:0:0:
258,205,123962,1,0,0:0:0:0:
258,205,124023,1,0,0:0:0:0:
255,203,124085,1,0,0:0:0:0:
255,203,124147,1,8,0:0:0:0:
255,203,124270,1,0,0:0:0:0:
249,199,124394,1,8,0:0:0:0:
249,199,124456,1,8,0:0:0:0:
249,199,124517,1,8,0:0:0:0:
249,199,124579,1,8,0:0:0:0:
249,199,124641,1,0,0:0:0:0:
258,205,124764,1,0,0:0:0:0:
256,207,124888,1,8,0:0:0:0:
257,211,124949,1,8,0:0:0:0:
257,211,125011,1,0,0:0:0:0:
257,211,125073,1,0,0:0:0:0:
257,211,125135,1,8,0:0:0:0:
257,211,125196,1,0,0:0:0:0:
257,211,125258,1,0,0:0:0:0:
257,211,125320,1,0,0:0:0:0:
257,211,125381,1,12,0:0:0:0:
239,219,125505,1,8,0:0:0:0:
244,219,125628,1,0,0:0:0:0:
244,219,125690,1,0,0:0:0:0:
244,219,125752,1,0,0:0:0:0:
233,221,125875,1,8,0:0:0:0:
233,221,126122,1,0,0:0:0:0:
233,221,126184,1,0,0:0:0:0:
233,221,126246,1,8,0:0:0:0:
233,221,126307,1,8,0:0:0:0:
233,221,126369,1,0,0:0:0:0:
233,227,126493,1,8,0:0:0:0:
233,227,126616,1,0,0:0:0:0:
233,227,126678,1,0,0:0:0:0:
233,227,126739,1,0,0:0:0:0:
234,228,126863,1,8,0:0:0:0:
234,228,127110,1,0,0:0:0:0:
233,227,127172,1,0,0:0:0:0:
233,227,127233,1,8,0:0:0:0:
240,223,127357,1,4,0:0:0:0:
252,234,127604,1,8,0:0:0:0:
255,232,127727,1,0,0:0:0:0:
256,232,127974,1,0,0:0:0:0:
256,232,128036,1,0,0:0:0:0:
256,232,128098,1,8,0:0:0:0:
260,237,128159,1,0,0:0:0:0:
260,237,128221,1,0,0:0:0:0:
252,234,128344,1,8,0:0:0:0:
255,232,128406,1,8,0:0:0:0:
255,232,128468,1,8,0:0:0:0:
256,232,128530,1,8,0:0:0:0:
272,212,128591,1,0,0:0:0:0:
267,229,128838,1,8,0:0:0:0:
267,228,128900,1,8,0:0:0:0:
267,228,128962,1,0,0:0:0:0:
267,228,129023,1,0,0:0:0:0:
249,209,129085,1,8,0:0:0:0:
247,212,129147,1,0,0:0:0:0:
247,212,129209,1,0,0:0:0:0:
211,229,129270,1,0,0:0:0:0:
248,212,129332,1,8,0:0:0:0:
240,216,129394,1,8,0:0:0:0:
311,241,129456,1,0,0:0:0:0:
311,241,129517,1,0,0:0:0:0:
311,241,129579,1,8,0:0:0:0:
282,242,129702,1,0,0:0:0:0:
269,238,129764,1,8,0:0:0:0:
282,242,129826,1,0,0:0:0:0:
282,242,129949,1,0,0:0:0:0:
282,242,130073,1,8,0:0:0:0:
272,243,130196,1,0,0:0:0:0:
272,243,130320,1,0,0:0:0:0:
257,249,130381,1,0,0:0:0:0:
257,249,130443,1,0,0:0:0:0:
257,249,130505,1,0,0:0:0:0:
282,242,130567,1,8,0:0:0:0:
180,220,130690,1,0,0:0:0:0:
208,224,130814,1,8,0:0:0:0:
208,224,130875,1,8,0:0:0:0:
209,232,130937,1,0,0:0:0:0:
221,225,131060,1,8,0:0:0:0:
221,225,131184,1,0,0:0:0:0:
227,230,131307,1,8,0:0:0:0:
227,230,131369,1,0,0:0:0:0:
227,230,131431,1,0,0:0:0:0:
227,230,131493,1,8,0:0:0:0:
227,230,131554,1,8,0:0:0:0:
227,229,131678,1,0,0:0:0:0:
246,226,131801,1,0,0:0:0:0:
239,232,131863,1,0,0:0:0:0:
239,232,131925,1,8,0:0:0:0:
239,232,131986,1,0,0:0:0:0:
239,232,132048,1,8,0:0:0:0:
208,224,132172,1,0,0:0:0:0:
245,213,132295,1,8,0:0:0:0:
245,213,132357,1,8,0:0:0:0:
245,213,132419,1,8,0:0:0:0:
245,213,132480,1,0,0:0:0:0:
245,213,132542,1,8,0:0:0:0:
247,225,132665,1,0,0:0:0:0:
228,211,132789,1,8,0:0:0:0:
228,211,132851,1,8,0:0:0:0:
228,211,132912,1,0,0:0:0:0:
228,211,132974,1,0,0:0:0:0:
242,220,133036,1,8,0:0:0:0:
242,220,133098,1,0,0:0:0:0:
242,220,133159,1,8,0:0:0:0:
242,220,133221,1,8,0:0:0:0:
242,220,133283,1,0,0:0:0:0:
242,220,133344,1,0,0:0:0:0:
242,220,133406,1,8,0:0:0:0:
254,239,133530,1,0,0:0:0:0:
253,237,133591,1,8,0:0:0:0:
253,237,133653,1,8,0:0:0:0:
253,237,133777,1,0,0:0:0:0:
253,237,133838,1,0,0:0:0:0:
253,237,133900,1,8,0:0:0:0:
244,236,134023,1,0,0:0:0:0:
240,240,134085,1,8,0:0:0:0:
240,240,134147,1,8,0:0:0:0:
254,239,134270,1,0,0:0:0:0:
256,240,134332,1,0,0:0:0:0:
256,240,134394,1,8,0:0:0:0:
240,256,134456,1,8,0:0:0:0:
240,256,134517,1,0,0:0:0:0:
240,240,134579,1,0,0:0:0:0:
240,240,134641,1,8,0:0:0:0:
240,240,134764,1,0,0:0:0:0:
240,240,134826,1,0,0:0:0:0:
240,240,134888,1,8,0:0:0:0:
192,240,135011,1,8,0:0:0:0:
208,240,135073,1,0,0:0:0:0:
208,240,135135,1,8,0:0:0:0:
208,240,135196,1,8,0:0:0:0:
208,240,135258,1,0,0:0:0:0:
208,240,135320,1,0,0:0:0:0:
208,240,135381,1,8,0:0:0:0:
240,224,135505,1,8,0:0:0:0:
240,224,135628,1,0,0:0:0:0:
240,240,135752,1,0,0:0:0:0:
240,240,135814,1,0,0:0:0:0:
240,240,135875,1,8,0:0:0:0:
240,240,135937,1,0,0:0:0:0:
240,240,135999,1,8,0:0:0:0:
256,224,136122,1,0,0:0:0:0:
224,208,136246,1,8,0:0:0:0:
224,208,136307,1,8,0:0:0:0:
224,208,136369,1,8,0:0:0:0:
224,208,136431,1,8,0:0:0:0:
224,208,136493,1,0,0:0:0:0:
224,208,136616,1,0,0:0:0:0:
224,208,136739,1,8,0:0:0:0:
224,208,136801,1,8,0:0:0:0:
224,208,136863,1,8,0:0:0:0:
224,208,136925,1,8,0:0:0:0:
224,208,136986,1,0,0:0:0:0:
240,224,137048,1,0,0:0:0:0:
208,192,137110,1,0,0:0:0:0:
240,224,137172,1,0,0:0:0:0:
240,224,137233,1,8,0:0:0:0:
176,192,137295,1,0,0:0:0:0:
176,192,137357,1,0,0:0:0:0:
176,192,137419,1,0,0:0:0:0:
176,192,137480,1,8,0:0:0:0:
240,224,137604,1,0,0:0:0:0:
240,224,137727,1,0,0:0:0:0:
240,224,137789,1,0,0:0:0:0:
240,224,137851,1,0,0:0:0:0:
240,240,137912,1,0,0:0:0:0:
240,240,137974,1,8,0:0:0:0:
240,240,138098,1,0,0:0:0:0:
240,240,138221,1,8,0:0:0:0:
224,256,138283,1,0,0:0:0:0:
224,240,138344,1,0,0:0:0:0:
224,240,138406,1,0,0:0:0:0:
224,240,138468,1,8,0:0:0:0:
176,249,138591,1,0,0:0:0:0:
226,260,138715,1,0,0:0:0:0:
234,252,138777,1,8,0:0:0:0:
234,252,138838,1,0,0:0:0:0:
234,252,138900,1,0,0:0:0:0:
234,252,138962,1,8,0:0:0:0:
224,252,139085,1,8,0:0:0:0:
224,252,139209,1,0,0:0:0:0:
224,252,139270,1,0,0:0:0:0:
224,252,139332,1,0,0:0:0:0:
224,252,139394,1,0,0:0:0:0:
225,252,139456,1,8,0:0:0:0:
234,252,139579,1,0,0:0:0:0:
249,253,139702,1,8,0:0:0:0:
248,252,139764,1,0,0:0:0:0:
249,253,139826,1,8,0:0:0:0:
249,253,139888,1,0,0:0:0:0:
249,253,139949,1,8,0:0:0:0:
254,251,140073,1,0,0:0:0:0:
249,243,140196,1,8,0:0:0:0:
249,243,140258,1,8,0:0:0:0:
249,243,140320,1,0,0:0:0:0:
249,243,140381,1,0,0:0:0:0:
249,243,140443,1,8,0:0:0:0:
249,243,140567,1,0,0:0:0:0:
240,241,140690,1,8,0:0:0:0:
240,241,140752,1,8,0:0:0:0:
240,241,140814,1,0,0:0:0:0:
240,241,140875,1,0,0:0:0:0:
240,241,140937,1,8,0:0:0:0:
240,241,140999,1,8,0:0:0:0:
240,241,141060,1,8,0:0:0:0:
240,241,141122,1,8,0:0:0:0:
240,241,141184,1,4,0:0:0:0:
249,243,141307,1,8,0:0:0:0:
250,241,141431,1,0,0:0:0:0:
250,241,141493,1,0,0:0:0:0:
250,241,141554,1,0,0:0:0:0:
254,244,141678,1,8,0:0:0:0:
254,244,141925,1,0,0:0:0:0:
249,233,141986,1,0,0:0:0:0:
249,233,142048,1,8,0:0:0:0:
249,233,142172,1,0,0:0:0:0:
249,233,142233,1,0,0:0:0:0:
256,239,142419,1,8,0:0:0:0:
256,239,142542,1,0,0:0:0:0:
269,243,142665,1,0,0:0:0:0:
269,243,142727,1,0,0:0:0:0:
269,243,142789,1,8,0:0:0:0:
269,249,142912,1,0,0:0:0:0:
267,240,143036,1,0,0:0:0:0:
267,241,143159,1,12,0:0:0:0:
290,223,143406,1,0,0:0:0:0:
284,225,143530,1,0,0:0:0:0:
257,237,143653,1,8,0:0:0:0:
257,237,143715,1,8,0:0:0:0:
257,237,143777,1,8,0:0:0:0:
257,237,143838,1,8,0:0:0:0:
257,237,143900,1,0,0:0:0:0:
257,237,143962,1,0,0:0:0:0:
257,237,144023,1,8,0:0:0:0:
257,237,144085,1,8,0:0:0:0:
257,237,144147,1,4,0:0:0:0:
256,192,144394,12,0,145135,0:0:0:0:
276,196,145937,5,0,0:0:0:0:
276,226,146431,1,0,0:0:0:0:
269,224,146678,1,0,0:0:0:0:
270,223,146925,1,0,0:0:0:0:
266,223,147110,1,12,0:0:0:0:
285,248,147233,1,0,0:0:0:0:
283,245,147357,1,0,0:0:0:0:
283,245,147480,1,0,0:0:0:0:
283,245,147604,1,0,0:0:0:0:
283,245,147727,1,0,0:0:0:0:
285,248,147851,1,0,0:0:0:0:
251,234,147974,1,0,0:0:0:0:
251,234,148098,1,8,0:0:0:0:
268,238,148221,1,8,0:0:0:0:
268,238,148344,1,0,0:0:0:0:
268,238,148468,1,0,0:0:0:0:
268,238,148591,1,0,0:0:0:0:
268,238,148715,1,0,0:0:0:0:
268,238,148838,1,0,0:0:0:0:
268,238,148962,1,0,0:0:0:0:
268,238,149085,1,12,0:0:0:0:
268,238,149209,1,0,0:0:0:0:
268,238,149332,1,0,0:0:0:0:
268,238,149456,1,0,0:0:0:0:
268,238,149579,1,8,0:0:0:0:
248,247,149702,1,0,0:0:0:0:
256,245,149826,1,8,0:0:0:0:
256,245,149949,1,8,0:0:0:0:
256,244,150073,1,8,0:0:0:0:
227,235,150196,1,0,0:0:0:0:
240,236,150320,1,0,0:0:0:0:
240,236,150443,1,0,0:0:0:0:
240,236,150567,1,0,0:0:0:0:
240,236,150690,1,0,0:0:0:0:
240,236,150814,1,0,0:0:0:0:
240,236,150937,1,0,0:0:0:0:
240,236,151060,1,12,0:0:0:0:
253,247,151184,1,0,0:0:0:0:
253,247,151307,1,0,0:0:0:0:
253,247,151431,1,0,0:0:0:0:
253,247,151554,1,8,0:0:0:0:
269,227,151678,1,8,0:0:0:0:
269,227,151801,1,0,0:0:0:0:
269,227,151925,1,0,0:0:0:0:
269,227,152048,1,0,0:0:0:0:
269,227,152172,1,0,0:0:0:0:
269,227,152295,1,0,0:0:0:0:
269,227,152419,1,0,0:0:0:0:
271,232,152542,1,8,0:0:0:0:
280,248,152665,1,0,0:0:0:0:
280,248,152789,1,0,0:0:0:0:
280,248,152912,1,0,0:0:0:0:
280,248,153036,1,12,0:0:0:0:
270,245,153159,1,0,0:0:0:0:
270,245,153283,1,0,0:0:0:0:
270,245,153406,1,0,0:0:0:0:
270,245,153530,1,8,0:0:0:0:
278,279,153653,1,8,0:0:0:0:
278,279,153777,1,0,0:0:0:0:
278,279,153900,1,8,0:0:0:0:
278,279,154023,1,8,0:0:0:0:
282,277,154147,1,0,0:0:0:0:
282,277,154270,1,0,0:0:0:0:
282,277,154394,1,0,0:0:0:0:
282,277,154517,1,8,0:0:0:0:
268,259,154641,1,0,0:0:0:0:
268,259,154764,1,8,0:0:0:0:
268,259,154888,1,8,0:0:0:0:
268,259,155011,1,8,0:0:0:0:
268,259,155073,1,8,0:0:0:0:
268,259,155135,1,8,0:0:0:0:
269,245,155196,1,0,0:0:0:0:
269,246,155258,1,8,0:0:0:0:
269,246,155320,1,0,0:0:0:0:
269,246,155381,1,0,0:0:0:0:
269,246,155443,1,0,0:0:0:0:
245,231,155505,1,12,0:0:0:0:
267,240,155628,1,8,0:0:0:0:
264,237,155752,1,0,0:0:0:0:
264,237,155875,1,0,0:0:0:0:
264,237,155999,1,12,0:0:0:0:
269,246,156122,1,0,0:0:0:0:
265,241,156184,1,0,0:0:0:0:
265,241,156246,1,8,0:0:0:0:
256,228,156493,1,8,0:0:0:0:
256,228,156554,1,8,0:0:0:0:
256,228,156616,1,0,0:0:0:0:
256,228,156678,1,0,0:0:0:0:
256,228,156739,1,8,0:0:0:0:
256,228,156801,1,8,0:0:0:0:
256,228,156863,1,8,0:0:0:0:
256,228,156925,1,8,0:0:0:0:
265,241,156986,1,4,0:0:0:0:
192,223,157110,1,0,0:0:0:0:
228,229,157233,1,0,0:0:0:0:
228,229,157357,1,0,0:0:0:0:
228,229,157480,1,0,0:0:0:0:
216,226,157542,1,0,0:0:0:0:
228,229,157604,1,8,0:0:0:0:
228,229,157727,1,8,0:0:0:0:
228,229,157851,1,0,0:0:0:0:
228,229,157974,1,8,0:0:0:0:
215,235,158098,1,8,0:0:0:0:
215,235,158221,1,0,0:0:0:0:
215,235,158344,1,0,0:0:0:0:
215,235,158468,1,0,0:0:0:0:
215,235,158591,1,0,0:0:0:0:
215,235,158715,1,0,0:0:0:0:
215,235,158838,1,0,0:0:0:0:
215,235,158962,1,12,0:0:0:0:
215,235,159085,1,0,0:0:0:0:
204,243,159147,1,0,0:0:0:0:
215,235,159209,1,0,0:0:0:0:
224,233,159332,1,0,0:0:0:0:
224,233,159456,1,8,0:0:0:0:
243,243,159579,1,0,0:0:0:0:
237,234,159702,1,8,0:0:0:0:
243,243,159764,1,8,0:0:0:0:
238,237,159826,1,0,0:0:0:0:
240,245,159949,1,12,0:0:0:0:
250,239,160073,1,0,0:0:0:0:
250,239,160196,1,0,0:0:0:0:
250,239,160320,1,0,0:0:0:0:
237,234,160443,1,8,0:0:0:0:
240,231,160567,1,8,0:0:0:0:
240,231,160690,1,8,0:0:0:0:
240,231,160814,1,8,0:0:0:0:
250,218,160937,1,4,0:0:0:0:
204,220,161060,1,0,0:0:0:0:
280,216,161184,1,0,0:0:0:0:
280,216,161307,1,0,0:0:0:0:
280,216,161431,1,8,0:0:0:0:
291,221,161493,1,8,0:0:0:0:
280,216,161554,1,0,0:0:0:0:
280,216,161678,1,8,0:0:0:0:
164,200,161739,1,0,0:0:0:0:
280,216,161801,1,0,0:0:0:0:
280,216,161925,1,8,0:0:0:0:
261,227,162048,1,8,0:0:0:0:
261,227,162172,1,0,0:0:0:0:
261,226,162295,1,0,0:0:0:0:
257,222,162357,1,8,0:0:0:0:
257,222,162419,1,0,0:0:0:0:
255,227,162542,1,0,0:0:0:0:
255,227,162665,1,0,0:0:0:0:
255,227,162789,1,0,0:0:0:0:
255,227,162912,1,12,0:0:0:0:
253,228,163036,1,0,0:0:0:0:
253,228,163159,1,8,0:0:0:0:
255,227,163221,1,0,0:0:0:0:
255,227,163283,1,0,0:0:0:0:
249,231,163406,1,8,0:0:0:0:
249,231,163530,1,0,0:0:0:0:
249,231,163653,1,0,0:0:0:0:
253,228,163777,1,8,0:0:0:0:
253,228,163900,1,8,0:0:0:0:
249,232,164023,1,0,0:0:0:0:
249,231,164147,1,0,0:0:0:0:
249,231,164270,1,0,0:0:0:0:
249,231,164394,1,8,0:0:0:0:
249,232,164456,1,8,0:0:0:0:
249,232,164517,1,0,0:0:0:0:
247,238,164641,1,8,0:0:0:0:
239,250,164764,1,8,0:0:0:0:
239,250,164888,1,8,0:0:0:0:
257,263,164949,1,8,0:0:0:0:
257,263,165011,1,8,0:0:0:0:
257,263,165073,1,8,0:0:0:0:
257,263,165135,1,0,0:0:0:0:
257,263,165196,1,0,0:0:0:0:
257,263,165258,1,0,0:0:0:0:
257,263,165320,1,0,0:0:0:0:
260,259,165381,1,8,0:0:0:0:
260,259,165505,1,8,0:0:0:0:
260,261,165628,1,0,0:0:0:0:
257,263,165690,1,8,0:0:0:0:
257,263,165752,1,0,0:0:0:0:
257,263,165875,1,8,0:0:0:0:
242,240,165937,1,8,0:0:0:0:
257,263,165999,1,0,0:0:0:0:
242,240,166060,1,0,0:0:0:0:
229,205,166122,1,8,0:0:0:0:
260,259,166246,1,0,0:0:0:0:
218,211,166369,1,8,0:0:0:0:
224,236,166493,1,8,0:0:0:0:
249,239,166616,1,8,0:0:0:0:
249,239,166739,1,8,0:0:0:0:
253,247,166863,1,0,0:0:0:0:
269,201,173777,5,0,0:0:0:0:
269,201,173900,1,8,0:0:0:0:
269,201,173962,1,8,0:0:0:0:
269,201,174023,1,8,0:0:0:0:
258,185,174147,1,8,0:0:0:0:
258,187,174270,1,8,0:0:0:0:
258,187,174394,1,8,0:0:0:0:
258,187,174517,1,8,0:0:0:0:
258,187,174764,1,4,0:0:0:0:
273,212,174888,1,8,0:0:0:0:
255,197,175011,1,0,0:0:0:0:
255,197,175135,1,0,0:0:0:0:
254,196,175258,1,8,0:0:0:0:
254,196,175320,1,8,0:0:0:0:
254,196,175381,1,0,0:0:0:0:
246,200,175505,1,0,0:0:0:0:
252,205,175628,1,8,0:0:0:0:
252,205,175752,1,4,0:0:0:0:
241,208,175999,1,0,0:0:0:0:
241,208,176122,1,0,0:0:0:0:
242,205,176246,1,8,0:0:0:0:
242,205,176307,1,0,0:0:0:0:
242,205,176369,1,0,0:0:0:0:
276,219,176493,1,8,0:0:0:0:
250,209,176616,1,8,0:0:0:0:
250,209,176739,1,4,0:0:0:0:
258,208,176986,1,0,0:0:0:0:
258,208,177048,1,0,0:0:0:0:
258,208,177110,1,0,0:0:0:0:
268,216,177233,1,8,0:0:0:0:
268,216,177357,1,0,0:0:0:0:
255,244,177604,1,8,0:0:0:0:
271,256,177727,1,4,0:0:0:0:
271,256,177851,1,8,0:0:0:0:
271,256,177912,1,8,0:0:0:0:
271,256,177974,1,8,0:0:0:0:
258,256,178159,1,0,0:0:0:0:
258,256,178221,1,8,0:0:0:0:
271,258,178344,1,0,0:0:0:0:
271,256,178468,1,8,0:0:0:0:
271,256,178591,1,8,0:0:0:0:
271,256,178715,1,4,0:0:0:0:
242,248,178838,1,0,0:0:0:0:
271,266,178962,1,8,0:0:0:0:
271,266,179023,1,8,0:0:0:0:
271,266,179085,1,0,0:0:0:0:
278,256,179209,1,8,0:0:0:0:
214,242,179332,1,0,0:0:0:0:
251,248,179456,1,0,0:0:0:0:
252,249,179517,1,0,0:0:0:0:
252,249,179579,1,8,0:0:0:0:
271,266,179702,1,12,0:0:0:0:
247,256,179826,1,8,0:0:0:0:
259,254,179949,1,0,0:0:0:0:
260,257,180073,1,0,0:0:0:0:
260,257,180196,1,8,0:0:0:0:
68,211,180320,1,0,0:0:0:0:
267,265,180567,1,0,0:0:0:0:
267,265,180690,1,8,0:0:0:0:
260,267,180752,1,0,0:0:0:0:
260,267,180814,1,0,0:0:0:0:
260,267,180937,1,8,0:0:0:0:
260,267,180999,1,8,0:0:0:0:
260,267,181060,1,0,0:0:0:0:
260,267,181122,1,0,0:0:0:0:
260,267,181184,1,8,0:0:0:0:
229,245,181307,1,0,0:0:0:0:
229,245,181554,1,8,0:0:0:0:
252,272,181678,1,8,0:0:0:0:
252,266,181801,1,8,0:0:0:0:
252,266,181863,1,8,0:0:0:0:
252,266,181925,1,8,0:0:0:0:
261,269,182110,1,0,0:0:0:0:
261,269,182172,1,8,0:0:0:0:
260,269,182295,1,0,0:0:0:0:
260,269,182419,1,8,0:0:0:0:
260,269,182542,1,8,0:0:0:0:
260,232,182665,1,4,0:0:0:0:
264,234,182788,1,0,0:0:0:0:
263,232,182850,1,0,0:0:0:0:
263,230,182912,1,8,0:0:0:0:
263,230,183035,1,0,0:0:0:0:
252,219,183158,1,8,0:0:0:0:
252,219,183220,1,0,0:0:0:0:
252,219,183282,1,0,0:0:0:0:
252,219,183344,1,8,0:0:0:0:
252,219,183405,1,8,0:0:0:0:
252,219,183529,1,8,0:0:0:0:
252,219,183591,1,0,0:0:0:0:
252,219,183652,1,0,0:0:0:0:
263,230,183776,1,0,0:0:0:0:
259,232,183899,1,8,0:0:0:0:
243,220,183961,1,8,0:0:0:0:
243,220,184023,1,0,0:0:0:0:
247,224,184146,1,0,0:0:0:0:
241,196,184208,1,0,0:0:0:0:
247,224,184270,1,8,0:0:0:0:
247,224,184331,1,0,0:0:0:0:
247,224,184393,1,8,0:0:0:0:
253,233,184517,1,0,0:0:0:0:
247,230,184640,1,8,0:0:0:0:
247,230,184702,1,8,0:0:0:0:
247,230,184763,1,0,0:0:0:0:
243,237,184887,1,8,0:0:0:0:
243,237,185010,1,0,0:0:0:0:
238,243,185134,1,8,0:0:0:0:
243,237,185196,1,0,0:0:0:0:
238,243,185257,1,8,0:0:0:0:
251,234,185319,1,0,0:0:0:0:
240,239,185381,1,8,0:0:0:0:
240,239,185504,1,0,0:0:0:0:
240,239,185566,1,0,0:0:0:0:
243,237,185628,1,8,0:0:0:0:
243,237,185689,1,8,0:0:0:0:
243,237,185751,1,0,0:0:0:0:
243,237,185813,1,0,0:0:0:0:
233,246,185875,1,8,0:0:0:0:
233,246,185936,1,0,0:0:0:0:
233,237,185998,1,8,0:0:0:0:
233,237,186060,1,0,0:0:0:0:
233,237,186121,1,0,0:0:0:0:
233,237,186183,1,0,0:0:0:0:
233,237,186245,1,8,0:0:0:0:
233,237,186307,1,8,0:0:0:0:
243,237,186368,1,0,0:0:0:0:
171,211,186430,1,0,0:0:0:0:
171,211,186492,1,0,0:0:0:0:
171,211,186554,1,0,0:0:0:0:
171,211,186615,1,12,0:0:0:0:
149,211,186739,1,0,0:0:0:0:
260,225,186862,1,8,0:0:0:0:
247,231,186986,1,0,0:0:0:0:
247,231,187047,1,8,0:0:0:0:
247,231,187109,1,8,0:0:0:0:
246,232,187171,1,0,0:0:0:0:
246,232,187233,1,0,0:0:0:0:
251,239,187356,1,8,0:0:0:0:
251,239,187479,1,0,0:0:0:0:
251,237,187603,1,8,0:0:0:0:
251,241,187665,1,8,0:0:0:0:
251,241,187726,1,0,0:0:0:0:
251,241,187788,1,0,0:0:0:0:
251,241,187850,1,8,0:0:0:0:
251,241,187973,1,0,0:0:0:0:
251,239,188035,1,0,0:0:0:0:
251,239,188097,1,8,0:0:0:0:
245,245,188220,1,0,0:0:0:0:
245,245,188344,1,8,0:0:0:0:
245,245,188405,1,0,0:0:0:0:
245,245,188467,1,0,0:0:0:0:
251,241,188591,1,8,0:0:0:0:
207,208,188653,1,0,0:0:0:0:
251,241,188714,1,0,0:0:0:0:
198,208,188777,1,8,0:0:0:0:
251,239,188838,1,8,0:0:0:0:
261,234,188961,1,0,0:0:0:0:
261,234,189023,1,0,0:0:0:0:
261,234,189084,1,0,0:0:0:0:
261,234,189146,1,0,0:0:0:0:
261,234,189208,1,8,0:0:0:0:
249,221,189331,1,8,0:0:0:0:
250,221,189455,1,0,0:0:0:0:
258,174,189578,1,8,0:0:0:0:
258,174,189634,1,8,0:0:0:0:
255,179,189689,1,0,0:0:0:0:
255,179,189744,1,8,0:0:0:0:
255,179,189798,1,0,0:0:0:0:
224,192,189853,1,0,0:0:0:0:
255,179,189908,1,8,0:0:0:0:
255,179,189963,1,8,0:0:0:0:
255,179,190018,1,0,0:0:0:0:
255,179,190073,1,8,0:0:0:0:
255,179,190128,1,0,0:0:0:0:
255,179,190183,1,0,0:0:0:0:
255,179,190237,1,8,0:0:0:0:
255,179,190292,1,8,0:0:0:0:
255,179,190347,1,0,0:0:0:0:
255,179,190402,1,8,0:0:0:0:
263,185,190457,1,0,0:0:0:0:
288,192,190512,1,0,0:0:0:0:
263,185,190567,1,12,0:0:0:0:
255,179,190689,1,0,0:0:0:0:
260,176,190813,1,8,0:0:0:0:
261,194,190875,1,0,0:0:0:0:
261,194,190936,1,0,0:0:0:0:
261,194,190998,1,0,0:0:0:0:
261,194,191060,1,8,0:0:0:0:
259,203,191183,1,0,0:0:0:0:
259,203,191307,1,8,0:0:0:0:
259,203,191368,1,8,0:0:0:0:
259,203,191430,1,0,0:0:0:0:
259,203,191554,1,0,0:0:0:0:
261,194,191677,1,8,0:0:0:0:
261,194,191739,1,0,0:0:0:0:
261,194,191800,1,8,0:0:0:0:
261,194,191862,1,8,0:0:0:0:
253,203,191924,1,0,0:0:0:0:
274,213,192047,1,0,0:0:0:0:
274,213,192171,1,0,0:0:0:0:
274,213,192233,1,0,0:0:0:0:
274,213,192294,1,8,0:0:0:0:
268,213,192418,1,0,0:0:0:0:
268,213,192479,1,0,0:0:0:0:
268,213,192541,1,8,0:0:0:0:
268,213,192603,1,0,0:0:0:0:
268,213,192665,1,8,0:0:0:0:
266,222,192788,1,8,0:0:0:0:
266,222,192912,1,0,0:0:0:0:
266,222,193035,1,8,0:0:0:0:
276,229,193097,1,8,0:0:0:0:
276,229,193159,1,0,0:0:0:0:
276,229,193220,1,0,0:0:0:0:
276,228,193282,1,8,0:0:0:0:
287,241,193405,1,8,0:0:0:0:
287,241,193529,1,8,0:0:0:0:
287,241,193591,1,8,0:0:0:0:
287,241,193652,1,8,0:0:0:0:
269,232,193776,1,8,0:0:0:0:
269,232,193899,1,0,0:0:0:0:
269,232,193961,1,0,0:0:0:0:
269,232,194023,1,0,0:0:0:0:
269,232,194084,1,8,0:0:0:0:
269,232,194146,1,0,0:0:0:0:
273,244,194270,1,8,0:0:0:0:
273,244,194393,1,8,0:0:0:0:
273,243,194517,1,4,0:0:0:0:
266,251,194640,1,0,0:0:0:0:
272,258,194763,1,8,0:0:0:0:
261,252,194887,1,0,0:0:0:0:
261,252,194949,1,8,0:0:0:0:
261,252,195010,1,8,0:0:0:0:
261,252,195134,1,0,0:0:0:0:
244,256,195196,1,0,0:0:0:0:
256,256,195257,1,8,0:0:0:0:
284,268,195381,1,0,0:0:0:0:
284,268,195504,1,8,0:0:0:0:
284,268,195566,1,8,0:0:0:0:
284,268,195628,1,0,0:0:0:0:
284,268,195689,1,0,0:0:0:0:
284,268,195751,1,8,0:0:0:0:
272,274,195875,1,0,0:0:0:0:
272,274,195936,1,8,0:0:0:0:
272,274,195998,1,0,0:0:0:0:
272,274,196121,1,8,0:0:0:0:
222,208,196245,1,0,0:0:0:0:
222,208,196307,1,0,0:0:0:0:
222,208,196368,1,0,0:0:0:0:
222,208,196430,1,0,0:0:0:0:
222,208,196492,1,8,0:0:0:0:
248,217,196615,1,0,0:0:0:0:
248,217,196739,1,0,0:0:0:0:
262,245,196862,1,8,0:0:0:0:
233,215,196986,1,8,0:0:0:0:
233,215,197047,1,0,0:0:0:0:
233,215,197109,1,0,0:0:0:0:
233,214,197233,1,8,0:0:0:0:
233,214,197294,1,8,0:0:0:0:
233,214,197356,1,0,0:0:0:0:
230,225,197479,1,8,0:0:0:0:
230,224,197541,1,0,0:0:0:0:
230,224,197603,1,8,0:0:0:0:
260,239,197665,1,8,0:0:0:0:
260,239,197726,1,0,0:0:0:0:
242,237,197850,1,0,0:0:0:0:
242,237,197973,1,8,0:0:0:0:
242,237,198097,1,8,0:0:0:0:
242,237,198220,1,8,0:0:0:0:
242,237,198344,1,0,0:0:0:0:
242,237,198467,1,12,0:0:0:0:
258,242,198591,1,0,0:0:0:0:
258,242,198714,1,0,0:0:0:0:
258,242,198838,1,0,0:0:0:0:
298,200,198961,1,8,0:0:0:0:
281,229,199208,1,4,0:0:0:0:
258,242,199578,1,0,0:0:0:0:
259,239,199825,1,0,0:0:0:0:
259,238,199949,1,8,0:0:0:0:
248,247,200072,1,0,0:0:0:0:
248,228,200196,1,0,0:0:0:0:
248,228,200319,1,0,0:0:0:0:
248,228,200442,1,12,0:0:0:0:
256,228,200566,1,0,0:0:0:0:
256,228,200689,1,0,0:0:0:0:
256,228,200813,1,0,0:0:0:0:
256,228,200936,1,8,0:0:0:0:
255,239,201183,1,12,0:0:0:0:
263,244,201554,1,0,0:0:0:0:
263,244,201800,1,0,0:0:0:0:
263,244,201924,1,0,0:0:0:0:
255,251,201986,1,0,0:0:0:0:
255,251,202047,1,8,0:0:0:0:
255,251,202109,1,8,0:0:0:0:
255,251,202171,1,8,0:0:0:0:
255,251,202233,1,8,0:0:0:0:
255,251,202294,1,8,0:0:0:0:
255,251,202356,1,8,0:0:0:0:
255,251,202418,1,4,0:0:0:0:
255,249,202541,1,0,0:0:0:0:
255,249,202665,1,0,0:0:0:0:
255,251,202788,1,0,0:0:0:0:
255,251,202912,1,8,0:0:0:0:
247,242,203159,1,4,0:0:0:0:
269,243,203529,1,0,0:0:0:0:
271,239,203776,1,0,0:0:0:0:
271,239,203899,1,8,0:0:0:0:
281,250,204023,1,0,0:0:0:0:
280,249,204146,1,0,0:0:0:0:
280,249,204270,1,0,0:0:0:0:
280,249,204393,1,12,0:0:0:0:
221,177,204517,1,0,0:0:0:0:
237,182,204640,1,0,0:0:0:0:
237,182,204702,1,0,0:0:0:0:
237,182,204763,1,0,0:0:0:0:
233,206,204887,1,8,0:0:0:0:
234,203,205134,1,12,0:0:0:0:
238,208,205504,1,0,0:0:0:0:
238,208,205751,1,0,0:0:0:0:
247,214,205875,1,0,0:0:0:0:
247,214,205936,1,0,0:0:0:0:
247,214,205998,1,8,0:0:0:0:
247,214,206060,1,8,0:0:0:0:
247,214,206121,1,8,0:0:0:0:
247,214,206183,1,8,0:0:0:0:
247,214,206245,1,8,0:0:0:0:
247,214,206307,1,8,0:0:0:0:
247,214,206368,1,4,0:0:0:0:
242,207,206492,1,8,0:0:0:0:
240,205,206554,1,8,0:0:0:0:
240,205,206615,1,0,0:0:0:0:
240,205,206739,1,0,0:0:0:0:
238,213,206862,1,8,0:0:0:0:
238,213,206986,1,8,0:0:0:0:
238,213,207047,1,0,0:0:0:0:
238,208,207109,1,8,0:0:0:0:
238,208,207171,1,8,0:0:0:0:
238,208,207233,1,0,0:0:0:0:
245,216,207356,1,8,0:0:0:0:
245,216,207479,1,0,0:0:0:0:
245,216,207603,1,8,0:0:0:0:
246,215,207665,1,8,0:0:0:0:
246,215,207726,1,0,0:0:0:0:
246,215,207788,1,0,0:0:0:0:
246,215,207850,1,8,0:0:0:0:
246,213,207973,1,0,0:0:0:0:
256,230,208097,1,0,0:0:0:0:
255,230,208220,1,8,0:0:0:0:
255,230,208282,1,0,0:0:0:0:
255,230,208344,1,8,0:0:0:0:
251,220,208405,1,8,0:0:0:0:
251,220,208467,1,0,0:0:0:0:
251,220,208591,1,8,0:0:0:0:
251,220,208714,1,0,0:0:0:0:
251,220,208838,1,8,0:0:0:0:
251,220,208899,1,0,0:0:0:0:
251,220,208961,1,0,0:0:0:0:
251,220,209023,1,8,0:0:0:0:
251,220,209084,1,8,0:0:0:0:
251,220,209208,1,0,0:0:0:0:
267,224,209331,1,0,0:0:0:0:
251,220,209455,1,8,0:0:0:0:
251,220,209517,1,0,0:0:0:0:
251,220,209578,1,0,0:0:0:0:
251,220,209640,1,0,0:0:0:0:
251,220,209702,1,8,0:0:0:0:
251,220,209825,1,8,0:0:0:0:
251,220,209949,1,0,0:0:0:0:
251,232,210072,1,8,0:0:0:0:
251,232,210134,1,8,0:0:0:0:
251,232,210196,1,0,0:0:0:0:
252,232,210319,1,8,0:0:0:0:
252,232,210381,1,8,0:0:0:0:
252,232,210442,1,0,0:0:0:0:
252,232,210504,1,0,0:0:0:0:
252,232,210566,1,8,0:0:0:0:
252,232,210628,1,0,0:0:0:0:
252,232,210689,1,0,0:0:0:0:
251,232,210751,1,0,0:0:0:0:
251,232,210813,1,8,0:0:0:0:
251,232,210875,1,8,0:0:0:0:
251,232,210936,1,0,0:0:0:0:
252,232,210998,1,0,0:0:0:0:
244,223,211060,1,8,0:0:0:0:
244,223,211121,1,8,0:0:0:0:
244,223,211183,1,8,0:0:0:0:
244,223,211245,1,8,0:0:0:0:
244,223,211307,1,0,0:0:0:0:
244,223,211368,1,0,0:0:0:0:
244,223,211430,1,0,0:0:0:0:
244,223,211492,1,0,0:0:0:0:
244,223,211554,1,8,0:0:0:0:
244,223,211615,1,0,0:0:0:0:
244,223,211677,1,0,0:0:0:0:
244,223,211739,1,0,0:0:0:0:
248,229,211800,1,8,0:0:0:0:
259,216,211862,1,8,0:0:0:0:
259,216,211924,1,0,0:0:0:0:
259,216,211986,1,0,0:0:0:0:
259,216,212047,1,8,0:0:0:0:
252,221,212109,1,0,0:0:0:0:
252,221,212171,1,0,0:0:0:0:
252,221,212233,1,0,0:0:0:0:
252,221,212294,1,12,0:0:0:0:
262,204,213282,5,8,0:0:0:0:
262,204,213405,1,0,0:0:0:0:
262,204,213467,1,0,0:0:0:0:
262,204,213529,1,0,0:0:0:0:
283,195,213611,1,0,0:0:0:0:
283,195,213693,1,0,0:0:0:0:
283,195,213776,1,8,0:0:0:0:
296,208,213900,1,8,0:0:0:0:
152,192,214023,1,0,0:0:0:0:
296,208,214146,1,0,0:0:0:0:
84,365,214270,5,12,0:0:0:0:
352,208,214393,1,0,0:0:0:0:
262,193,214517,1,8,0:0:0:0:
262,193,214578,1,8,0:0:0:0:
262,193,214640,1,0,0:0:0:0:
262,193,214702,1,0,0:0:0:0:
273,210,214763,1,8,0:0:0:0:
273,210,214825,1,0,0:0:0:0:
273,210,214887,1,0,0:0:0:0:
273,210,214949,1,0,0:0:0:0:
273,210,215010,1,8,0:0:0:0:
273,210,215072,1,8,0:0:0:0:
273,210,215134,1,0,0:0:0:0:
273,210,215196,1,0,0:0:0:0:
246,194,215257,1,8,0:0:0:0:
246,194,215319,1,0,0:0:0:0:
246,194,215381,1,0,0:0:0:0:
246,194,215442,1,0,0:0:0:0:
246,194,215505,1,8,0:0:0:0:
269,216,215566,1,8,0:0:0:0:
273,210,215628,1,8,0:0:0:0:
264,202,215689,1,0,0:0:0:0:
250,204,215751,1,8,0:0:0:0:
250,204,215813,1,8,0:0:0:0:
250,204,215875,1,0,0:0:0:0:
250,204,215936,1,0,0:0:0:0:
250,204,215998,1,8,0:0:0:0:
237,191,216060,1,8,0:0:0:0:
242,199,216121,1,0,0:0:0:0:
242,199,216183,1,0,0:0:0:0:
242,199,216245,1,8,0:0:0:0:
241,201,216307,1,0,0:0:0:0:
241,201,216368,1,0,0:0:0:0:
241,201,216430,1,0,0:0:0:0:
241,201,216492,1,8,0:0:0:0:
246,211,216554,1,8,0:0:0:0:
246,211,216615,1,0,0:0:0:0:
246,211,216677,1,0,0:0:0:0:
250,204,216739,1,8,0:0:0:0:
246,203,216800,1,0,0:0:0:0:
246,203,216862,1,0,0:0:0:0:
246,203,216924,1,8,0:0:0:0:
246,203,216986,1,8,0:0:0:0:
248,212,217047,1,0,0:0:0:0:
246,203,217109,1,0,0:0:0:0:
248,212,217171,1,0,0:0:0:0:
242,210,217233,1,8,0:0:0:0:
246,211,217294,1,8,0:0:0:0:
246,211,217356,1,8,0:0:0:0:
246,211,217418,1,8,0:0:0:0:
258,193,217480,1,0,0:0:0:0:
247,210,217727,1,8,0:0:0:0:
248,212,217788,1,8,0:0:0:0:
247,210,217850,1,8,0:0:0:0:
248,212,217912,1,8,0:0:0:0:
247,208,217973,1,0,0:0:0:0:
231,199,218035,1,0,0:0:0:0:
236,206,218097,1,0,0:0:0:0:
236,206,218159,1,0,0:0:0:0:
84,365,218221,5,12,0:0:0:0:
352,208,218343,1,0,0:0:0:0:
262,193,218467,1,8,0:0:0:0:
262,193,218530,1,8,0:0:0:0:
262,193,218590,1,0,0:0:0:0:
262,193,218652,1,0,0:0:0:0:
273,210,218715,1,8,0:0:0:0:
273,210,218777,1,0,0:0:0:0:
273,210,218837,1,0,0:0:0:0:
273,210,218899,1,0,0:0:0:0:
273,210,218962,1,8,0:0:0:0:
273,210,219022,1,8,0:0:0:0:
273,210,219084,1,0,0:0:0:0:
273,210,219146,1,0,0:0:0:0:
246,194,219209,1,8,0:0:0:0:
246,194,219269,1,0,0:0:0:0:
246,194,219331,1,0,0:0:0:0:
246,194,219394,1,0,0:0:0:0:
246,194,219456,1,8,0:0:0:0:
269,216,219516,1,8,0:0:0:0:
273,210,219578,1,8,0:0:0:0:
264,202,219641,1,0,0:0:0:0:
250,204,219701,1,8,0:0:0:0:
250,204,219763,1,8,0:0:0:0:
250,204,219825,1,0,0:0:0:0:
250,204,219888,1,0,0:0:0:0:
250,204,219948,1,8,0:0:0:0:
237,191,220010,1,8,0:0:0:0:
242,199,220073,1,8,0:0:0:0:
242,199,220135,1,0,0:0:0:0:
242,199,220195,1,8,0:0:0:0:
241,201,220257,1,8,0:0:0:0:
241,201,220320,1,8,0:0:0:0:
241,201,220380,1,8,0:0:0:0:
241,201,220442,1,0,0:0:0:0:
246,211,220504,1,0,0:0:0:0:
246,211,220567,1,8,0:0:0:0:
246,211,220627,1,0,0:0:0:0:
250,204,220689,1,8,0:0:0:0:
246,203,220752,1,8,0:0:0:0:
246,203,220814,1,8,0:0:0:0:
246,203,220874,1,8,0:0:0:0:
246,203,220936,1,0,0:0:0:0:
248,212,220999,1,0,0:0:0:0:
246,203,221059,1,8,0:0:0:0:
248,212,221121,1,0,0:0:0:0:
242,210,221183,1,8,0:0:0:0:
246,211,221246,1,8,0:0:0:0:
246,211,221306,1,0,0:0:0:0:
246,211,221368,1,0,0:0:0:0:
258,193,221431,1,8,0:0:0:0:
247,195,221492,1,8,0:0:0:0:
247,195,221554,1,8,0:0:0:0:
247,195,221615,1,8,0:0:0:0:
247,210,221678,1,0,0:0:0:0:
248,212,221738,1,8,0:0:0:0:
247,210,221800,1,0,0:0:0:0:
248,212,221862,1,0,0:0:0:0:
247,208,221925,1,8,0:0:0:0:
231,199,221985,1,8,0:0:0:0:
236,206,222047,1,0,0:0:0:0:
236,206,222109,1,0,0:0:0:0:
237,194,222172,1,8,0:0:0:0:
237,194,222233,1,0,0:0:0:0:
237,194,222294,1,0,0:0:0:0:
237,194,222356,1,0,0:0:0:0:
237,194,222418,1,8,0:0:0:0:
242,203,222541,1,0,0:0:0:0:
242,203,222665,1,0,0:0:0:0:
242,203,222788,1,0,0:0:0:0:
242,203,222850,1,0,0:0:0:0:
242,203,222912,1,8,0:0:0:0:
240,205,223035,1,0,0:0:0:0:
240,205,223159,1,8,0:0:0:0:
242,203,223220,1,8,0:0:0:0:
242,203,223282,1,0,0:0:0:0:
242,203,223344,1,0,0:0:0:0:
242,203,223405,1,8,0:0:0:0:
279,199,223467,1,0,0:0:0:0:
263,203,223529,1,0,0:0:0:0:
263,202,223652,1,8,0:0:0:0:
262,201,223714,1,8,0:0:0:0:
262,201,223776,1,0,0:0:0:0:
258,205,223899,1,8,0:0:0:0:
258,205,224023,1,0,0:0:0:0:
255,203,224146,1,8,0:0:0:0:
255,203,224208,1,8,0:0:0:0:
255,203,224270,1,0,0:0:0:0:
255,203,224331,1,0,0:0:0:0:
255,203,224393,1,8,0:0:0:0:
257,214,224517,1,0,0:0:0:0:
258,205,224640,1,8,0:0:0:0:
258,205,224702,1,0,0:0:0:0:
258,205,224763,1,0,0:0:0:0:
255,203,224825,1,0,0:0:0:0:
255,203,224887,1,8,0:0:0:0:
255,203,225010,1,0,0:0:0:0:
249,199,225134,1,8,0:0:0:0:
249,199,225196,1,8,0:0:0:0:
249,199,225257,1,8,0:0:0:0:
249,199,225319,1,8,0:0:0:0:
249,199,225381,1,0,0:0:0:0:
258,205,225504,1,0,0:0:0:0:
256,207,225628,1,8,0:0:0:0:
257,211,225689,1,8,0:0:0:0:
257,211,225751,1,0,0:0:0:0:
257,211,225813,1,0,0:0:0:0:
257,211,225875,1,8,0:0:0:0:
257,211,225936,1,0,0:0:0:0:
257,211,225998,1,0,0:0:0:0:
257,211,226060,1,0,0:0:0:0:
257,211,226122,1,12,0:0:0:0:
239,219,226245,1,8,0:0:0:0:
244,219,226368,1,0,0:0:0:0:
244,219,226430,1,0,0:0:0:0:
244,219,226492,1,0,0:0:0:0:
233,221,226615,1,8,0:0:0:0:
233,221,226862,1,0,0:0:0:0:
233,221,226924,1,0,0:0:0:0:
233,221,226986,1,8,0:0:0:0:
233,221,227047,1,8,0:0:0:0:
233,221,227109,1,0,0:0:0:0:
233,227,227233,1,8,0:0:0:0:
233,227,227356,1,0,0:0:0:0:
233,227,227418,1,0,0:0:0:0:
233,227,227479,1,0,0:0:0:0:
234,228,227603,1,8,0:0:0:0:
234,228,227850,1,0,0:0:0:0:
233,227,227912,1,0,0:0:0:0:
233,227,227973,1,8,0:0:0:0:
240,223,228097,1,4,0:0:0:0:
252,234,228344,1,8,0:0:0:0:
255,232,228467,1,0,0:0:0:0:
256,232,228714,1,0,0:0:0:0:
256,232,228776,1,0,0:0:0:0:
256,232,228838,1,8,0:0:0:0:
260,237,228899,1,0,0:0:0:0:
260,237,228961,1,0,0:0:0:0:
252,234,229085,1,8,0:0:0:0:
255,232,229146,1,8,0:0:0:0:
255,232,229208,1,8,0:0:0:0:
256,232,229270,1,8,0:0:0:0:
272,212,229331,1,0,0:0:0:0:
267,229,229578,1,8,0:0:0:0:
267,228,229640,1,8,0:0:0:0:
267,228,229702,1,0,0:0:0:0:
267,228,229763,1,0,0:0:0:0:
249,209,229825,1,8,0:0:0:0:
247,212,229887,1,0,0:0:0:0:
247,212,229949,1,0,0:0:0:0:
211,229,230010,1,0,0:0:0:0:
248,212,230073,1,8,0:0:0:0:
251,217,230135,1,8,0:0:0:0:
311,241,230196,1,0,0:0:0:0:
311,241,230257,1,0,0:0:0:0:
311,241,230319,1,8,0:0:0:0:
282,242,230442,1,0,0:0:0:0:
269,238,230504,1,8,0:0:0:0:
282,242,230566,1,0,0:0:0:0:
282,242,230689,1,0,0:0:0:0:
282,242,230813,1,8,0:0:0:0:
272,243,230936,1,0,0:0:0:0:
272,243,231060,1,0,0:0:0:0:
257,249,231121,1,0,0:0:0:0:
257,249,231183,1,0,0:0:0:0:
257,249,231245,1,0,0:0:0:0:
282,242,231307,1,8,0:0:0:0:
180,220,231430,1,0,0:0:0:0:
208,224,231554,1,8,0:0:0:0:
208,224,231615,1,8,0:0:0:0:
209,232,231677,1,0,0:0:0:0:
221,225,231800,1,8,0:0:0:0:
221,225,231924,1,0,0:0:0:0:
227,230,232047,1,8,0:0:0:0:
227,230,232109,1,0,0:0:0:0:
227,230,232171,1,0,0:0:0:0:
227,230,232233,1,8,0:0:0:0:
227,230,232294,1,8,0:0:0:0:
227,229,232418,1,0,0:0:0:0:
246,226,232541,1,0,0:0:0:0:
239,232,232603,1,0,0:0:0:0:
239,232,232665,1,8,0:0:0:0:
239,232,232726,1,0,0:0:0:0:
239,232,232788,1,8,0:0:0:0:
208,224,232912,1,0,0:0:0:0:
245,213,233035,1,8,0:0:0:0:
245,213,233097,1,8,0:0:0:0:
245,213,233159,1,8,0:0:0:0:
245,213,233220,1,0,0:0:0:0:
245,213,233282,1,8,0:0:0:0:
247,225,233405,1,0,0:0:0:0:
228,211,233530,1,8,0:0:0:0:
228,211,233591,1,8,0:0:0:0:
228,211,233652,1,0,0:0:0:0:
228,211,233714,1,0,0:0:0:0:
242,220,233776,1,8,0:0:0:0:
242,220,233838,1,0,0:0:0:0:
242,220,233899,1,8,0:0:0:0:
242,220,233961,1,8,0:0:0:0:
242,220,234023,1,0,0:0:0:0:
242,220,234084,1,0,0:0:0:0:
242,220,234146,1,8,0:0:0:0:
254,239,234270,1,0,0:0:0:0:
253,237,234331,1,8,0:0:0:0:
253,237,234393,1,8,0:0:0:0:
253,237,234517,1,0,0:0:0:0:
253,237,234578,1,0,0:0:0:0:
253,237,234640,1,8,0:0:0:0:
244,236,234763,1,0,0:0:0:0:
240,240,234825,1,8,0:0:0:0:
240,240,234887,1,8,0:0:0:0:
254,239,235010,1,0,0:0:0:0:
256,240,235072,1,0,0:0:0:0:
256,240,235134,1,8,0:0:0:0:
240,256,235196,1,8,0:0:0:0:
240,256,235258,1,0,0:0:0:0:
240,240,235319,1,0,0:0:0:0:
240,240,235381,1,8,0:0:0:0:
240,240,235504,1,0,0:0:0:0:
240,240,235566,1,0,0:0:0:0:
240,240,235628,1,8,0:0:0:0:
192,240,235751,1,0,0:0:0:0:
208,240,235813,1,0,0:0:0:0:
208,240,235875,1,8,0:0:0:0:
208,240,235936,1,0,0:0:0:0:
208,240,235998,1,8,0:0:0:0:
208,240,236060,1,8,0:0:0:0:
208,240,236121,1,0,0:0:0:0:
240,224,236245,1,8,0:0:0:0:
198,234,236307,1,8,0:0:0:0:
240,224,236368,1,0,0:0:0:0:
240,240,236492,1,0,0:0:0:0:
240,240,236554,1,0,0:0:0:0:
240,240,236615,1,8,0:0:0:0:
240,240,236677,1,0,0:0:0:0:
240,240,236739,1,8,0:0:0:0:
256,224,236862,1,0,0:0:0:0:
224,208,236986,1,8,0:0:0:0:
224,208,237047,1,8,0:0:0:0:
224,208,237109,1,8,0:0:0:0:
224,208,237171,1,8,0:0:0:0:
224,208,237233,1,0,0:0:0:0:
224,208,237356,1,0,0:0:0:0:
224,208,237479,1,8,0:0:0:0:
224,208,237541,1,8,0:0:0:0:
224,208,237603,1,8,0:0:0:0:
224,208,237665,1,8,0:0:0:0:
224,208,237726,1,0,0:0:0:0:
240,224,237788,1,0,0:0:0:0:
208,192,237850,1,0,0:0:0:0:
240,224,237912,1,0,0:0:0:0:
240,224,237974,1,8,0:0:0:0:
176,192,238035,1,0,0:0:0:0:
176,192,238097,1,0,0:0:0:0:
176,192,238159,1,0,0:0:0:0:
176,192,238220,1,8,0:0:0:0:
240,224,238344,1,0,0:0:0:0:
240,224,238467,1,0,0:0:0:0:
240,224,238529,1,0,0:0:0:0:
240,224,238591,1,0,0:0:0:0:
240,240,238652,1,0,0:0:0:0:
240,240,238714,1,8,0:0:0:0:
240,240,238838,1,0,0:0:0:0:
240,240,238961,1,8,0:0:0:0:
224,256,239023,1,0,0:0:0:0:
224,240,239084,1,0,0:0:0:0:
224,240,239146,1,0,0:0:0:0:
224,240,239208,1,8,0:0:0:0:
176,249,239331,1,0,0:0:0:0:
226,260,239455,1,0,0:0:0:0:
234,252,239517,1,8,0:0:0:0:
234,252,239578,1,0,0:0:0:0:
234,252,239640,1,0,0:0:0:0:
234,252,239702,1,8,0:0:0:0:
224,252,239825,1,8,0:0:0:0:
224,252,239949,1,0,0:0:0:0:
224,252,240010,1,0,0:0:0:0:
224,252,240072,1,0,0:0:0:0:
224,252,240134,1,0,0:0:0:0:
225,252,240196,1,8,0:0:0:0:
234,252,240319,1,0,0:0:0:0:
249,253,240442,1,8,0:0:0:0:
248,252,240504,1,0,0:0:0:0:
249,253,240566,1,8,0:0:0:0:
249,253,240628,1,0,0:0:0:0:
249,253,240689,1,8,0:0:0:0:
254,251,240813,1,0,0:0:0:0:
249,243,240936,1,8,0:0:0:0:
249,243,240998,1,8,0:0:0:0:
249,243,241060,1,0,0:0:0:0:
249,243,241121,1,0,0:0:0:0:
249,243,241183,1,8,0:0:0:0:
249,243,241307,1,0,0:0:0:0:
240,241,241430,1,8,0:0:0:0:
240,241,241492,1,8,0:0:0:0:
240,241,241554,1,0,0:0:0:0:
240,241,241615,1,0,0:0:0:0:
240,241,241677,1,8,0:0:0:0:
240,241,241739,1,8,0:0:0:0:
240,241,241800,1,8,0:0:0:0:
240,241,241862,1,8,0:0:0:0:
240,241,241925,1,4,0:0:0:0:
249,243,242047,1,8,0:0:0:0:
250,241,242171,1,0,0:0:0:0:
250,241,242233,1,0,0:0:0:0:
250,241,242294,1,0,0:0:0:0:
254,244,242418,1,8,0:0:0:0:
254,244,242665,1,0,0:0:0:0:
249,233,242726,1,0,0:0:0:0:
249,233,242788,1,8,0:0:0:0:
249,233,242912,1,0,0:0:0:0:
249,233,242973,1,0,0:0:0:0:
256,239,243159,1,8,0:0:0:0:
256,239,243282,1,0,0:0:0:0:
269,243,243405,1,0,0:0:0:0:
269,243,243467,1,0,0:0:0:0:
269,243,243529,1,8,0:0:0:0:
269,249,243652,1,0,0:0:0:0:
267,240,243776,1,0,0:0:0:0:
267,241,243899,1,12,0:0:0:0:
290,223,244146,1,0,0:0:0:0:
284,225,244270,1,0,0:0:0:0:
257,237,244393,1,8,0:0:0:0:
257,237,244455,1,8,0:0:0:0:
257,237,244517,1,8,0:0:0:0:
257,237,244578,1,8,0:0:0:0:
257,237,244640,1,0,0:0:0:0:
257,237,244702,1,0,0:0:0:0:
257,237,244763,1,8,0:0:0:0:
257,237,244825,1,8,0:0:0:0:
257,237,244888,1,4,0:0:0:0:
256,192,245134,12,0,245875,0:0:0:0:
276,196,246677,5,0,0:0:0:0:
276,226,247172,1,0,0:0:0:0:
269,224,247419,1,0,0:0:0:0:
270,223,247665,1,0,0:0:0:0:
266,223,247851,1,12,0:0:0:0:
285,248,247974,1,0,0:0:0:0:
283,245,248098,1,0,0:0:0:0:
283,245,248221,1,0,0:0:0:0:
283,245,248345,1,0,0:0:0:0:
283,245,248468,1,0,0:0:0:0:
285,248,248592,1,8,0:0:0:0:
251,234,248715,1,0,0:0:0:0:
251,234,248839,1,8,0:0:0:0:
268,238,248962,1,8,0:0:0:0:
268,238,249085,1,0,0:0:0:0:
268,238,249209,1,0,0:0:0:0:
268,238,249332,1,0,0:0:0:0:
268,238,249456,1,0,0:0:0:0:
268,238,249579,1,0,0:0:0:0:
268,238,249703,1,0,0:0:0:0:
268,238,249826,1,12,0:0:0:0:
268,238,249950,1,0,0:0:0:0:
268,238,250073,1,0,0:0:0:0:
268,238,250197,1,0,0:0:0:0:
268,238,250320,1,8,0:0:0:0:
248,247,250443,1,0,0:0:0:0:
256,245,250567,1,0,0:0:0:0:
256,245,250690,1,0,0:0:0:0:
256,244,250814,1,8,0:0:0:0:
227,235,250937,1,8,0:0:0:0:
240,236,251061,1,0,0:0:0:0:
240,236,251184,1,0,0:0:0:0:
240,236,251308,1,8,0:0:0:0:
240,236,251431,1,8,0:0:0:0:
240,236,251555,1,8,0:0:0:0:
240,236,251678,1,0,0:0:0:0:
240,236,251801,1,12,0:0:0:0:
253,247,251925,1,0,0:0:0:0:
253,247,252048,1,0,0:0:0:0:
253,247,252172,1,0,0:0:0:0:
253,247,252295,1,8,0:0:0:0:
269,227,252419,1,8,0:0:0:0:
269,227,252542,1,0,0:0:0:0:
269,227,252666,1,8,0:0:0:0:
269,227,252789,1,8,0:0:0:0:
269,227,252913,1,0,0:0:0:0:
269,227,253036,1,0,0:0:0:0:
269,227,253160,1,0,0:0:0:0:
271,232,253283,1,8,0:0:0:0:
280,248,253406,1,0,0:0:0:0:
280,248,253530,1,8,0:0:0:0:
240,218,253591,1,8,0:0:0:0:
280,248,253653,1,0,0:0:0:0:
252,231,253715,1,0,0:0:0:0:
280,248,253777,1,12,0:0:0:0:
270,245,253900,1,0,0:0:0:0:
270,245,254024,1,0,0:0:0:0:
270,245,254147,1,0,0:0:0:0:
270,245,254271,1,0,0:0:0:0:
278,279,254394,1,0,0:0:0:0:
278,279,254518,1,8,0:0:0:0:
273,282,254579,1,0,0:0:0:0:
278,279,254641,1,0,0:0:0:0:
278,279,254764,1,8,0:0:0:0:
282,277,254888,1,0,0:0:0:0:
282,277,255011,1,0,0:0:0:0:
282,277,255135,1,0,0:0:0:0:
282,277,255258,1,8,0:0:0:0:
268,259,255382,1,0,0:0:0:0:
268,259,255505,1,8,0:0:0:0:
268,259,255629,1,8,0:0:0:0:
268,259,255752,1,8,0:0:0:0:
268,259,255814,1,8,0:0:0:0:
268,259,255876,1,8,0:0:0:0:
269,245,255937,1,0,0:0:0:0:
269,246,255999,1,8,0:0:0:0:
269,246,256061,1,0,0:0:0:0:
269,246,256122,1,0,0:0:0:0:
269,246,256184,1,0,0:0:0:0:
245,231,256246,1,12,0:0:0:0:
267,240,256369,1,8,0:0:0:0:
264,237,256493,1,0,0:0:0:0:
257,242,256554,1,8,0:0:0:0:
264,237,256616,1,0,0:0:0:0:
264,237,256740,1,12,0:0:0:0:
269,246,256863,1,0,0:0:0:0:
265,241,256925,1,0,0:0:0:0:
265,241,256987,1,8,0:0:0:0:
256,228,257234,1,8,0:0:0:0:
256,228,257295,1,8,0:0:0:0:
256,228,257357,1,0,0:0:0:0:
256,228,257419,1,0,0:0:0:0:
256,228,257480,1,8,0:0:0:0:
256,228,257542,1,8,0:0:0:0:
256,228,257604,1,8,0:0:0:0:
256,228,257666,1,8,0:0:0:0:
265,241,257727,1,4,0:0:0:0:
192,223,257851,1,0,0:0:0:0:
228,229,257974,1,0,0:0:0:0:
228,229,258098,1,0,0:0:0:0:
228,229,258221,1,0,0:0:0:0:
216,226,258283,1,0,0:0:0:0:
228,229,258345,1,8,0:0:0:0:
228,229,258468,1,8,0:0:0:0:
228,229,258592,1,0,0:0:0:0:
228,229,258715,1,8,0:0:0:0:
215,235,258839,1,8,0:0:0:0:
215,235,258962,1,0,0:0:0:0:
215,235,259085,1,0,0:0:0:0:
215,235,259209,1,0,0:0:0:0:
215,235,259332,1,0,0:0:0:0:
215,235,259456,1,8,0:0:0:0:
215,235,259579,1,0,0:0:0:0:
215,235,259703,1,12,0:0:0:0:
215,235,259826,1,0,0:0:0:0:
204,243,259888,1,0,0:0:0:0:
215,235,259950,1,0,0:0:0:0:
224,233,260073,1,0,0:0:0:0:
224,233,260197,1,8,0:0:0:0:
243,243,260320,1,0,0:0:0:0:
237,234,260443,1,8,0:0:0:0:
243,243,260505,1,8,0:0:0:0:
238,237,260567,1,0,0:0:0:0:
240,245,260690,1,12,0:0:0:0:
250,239,260814,1,0,0:0:0:0:
250,239,260937,1,0,0:0:0:0:
250,239,261061,1,0,0:0:0:0:
250,218,261184,1,8,0:0:0:0:
144,217,261349,1,0,0:0:0:0:
250,218,261513,1,0,0:0:0:0:
250,218,261678,1,12,0:0:0:0:
280,216,261801,1,0,0:0:0:0:
280,216,261863,1,0,0:0:0:0:
243,229,261925,1,8,0:0:0:0:
280,216,262419,1,0,0:0:0:0:
280,216,262666,1,8,0:0:0:0:
261,227,262789,1,8,0:0:0:0:
261,227,262913,1,0,0:0:0:0:
261,226,263036,1,0,0:0:0:0:
257,222,263098,1,0,0:0:0:0:
257,222,263160,1,8,0:0:0:0:
255,227,263283,1,0,0:0:0:0:
255,227,263406,1,0,0:0:0:0:
255,227,263530,1,0,0:0:0:0:
255,227,263653,1,12,0:0:0:0:
228,212,267357,1,0,0:0:0:0:
275,220,267603,1,0,0:0:0:0:
264,212,271307,1,0,0:0:0:0:
264,212,271553,1,0,0:0:0:0:
262,192,275258,1,0,0:0:0:0:
262,192,275504,1,0,0:0:0:0:
274,181,277398,1,0,0:0:0:0:
274,181,277439,1,0,0:0:0:0:
274,181,277480,1,8,0:0:0:0:
278,199,277604,1,8,0:0:0:0:
276,199,277727,1,0,0:0:0:0:
276,199,277851,1,0,0:0:0:0:
272,209,277974,1,0,0:0:0:0:
64,64,278029,1,0,0:0:0:0:
272,209,278084,1,8,0:0:0:0:
272,209,278221,1,0,0:0:0:0:
268,211,278344,1,8,0:0:0:0:
268,211,278406,1,8,0:0:0:0:
268,211,278468,1,4,0:0:0:0:
296,231,278715,1,0,0:0:0:0:
296,231,278756,1,0,0:0:0:0:
296,231,278797,1,0,0:0:0:0:
296,231,278838,1,8,0:0:0:0:
234,234,278962,1,8,0:0:0:0:
244,236,279044,1,8,0:0:0:0:
244,236,279126,1,0,0:0:0:0:
293,241,279209,1,8,0:0:0:0:
273,245,279270,1,8,0:0:0:0:
273,210,279332,1,0,0:0:0:0:
273,245,279394,1,0,0:0:0:0:
273,210,279456,1,12,0:0:0:0:
278,234,279579,1,0,0:0:0:0:
256,230,279641,1,8,0:0:0:0:
278,234,279702,1,0,0:0:0:0:
278,234,279826,1,8,0:0:0:0:
278,234,279888,1,0,0:0:0:0:
278,234,279949,1,8,0:0:0:0:
256,177,280011,1,8,0:0:0:0:
278,234,280073,1,0,0:0:0:0:
278,234,280196,1,8,0:0:0:0:
280,241,280258,1,0,0:0:0:0:
280,241,280320,1,0,0:0:0:0:
196,231,280443,1,8,0:0:0:0:
251,240,280505,1,0,0:0:0:0:
196,231,280567,1,8,0:0:0:0:
251,231,280690,1,0,0:0:0:0:
251,231,280752,1,0,0:0:0:0:
257,239,280814,1,8,0:0:0:0:
257,239,280875,1,0,0:0:0:0:
257,239,280937,1,8,0:0:0:0:
257,239,280999,1,8,0:0:0:0:
257,239,281060,1,8,0:0:0:0:
257,239,281122,1,0,0:0:0:0:
244,231,281184,1,8,0:0:0:0:
251,231,281307,1,8,0:0:0:0:
251,231,281431,1,0,0:0:0:0:
285,235,281493,1,0,0:0:0:0:
309,221,281554,1,8,0:0:0:0:
158,240,281678,1,0,0:0:0:0:
232,245,281801,1,0,0:0:0:0:
275,211,281925,1,8,0:0:0:0:
275,211,282048,1,0,0:0:0:0:
292,231,282172,1,8,0:0:0:0:
307,196,282233,1,0,0:0:0:0:
307,196,282295,1,0,0:0:0:0:
307,196,282357,1,0,0:0:0:0:
307,196,282419,1,8,0:0:0:0:
296,221,282665,1,8,0:0:0:0:
297,224,282789,1,0,0:0:0:0:
296,221,282912,1,8,0:0:0:0:
296,221,283036,1,8,0:0:0:0:
293,230,283159,1,0,0:0:0:0:
293,230,283221,1,0,0:0:0:0:
293,230,283283,1,0,0:0:0:0:
293,230,283406,1,12,0:0:0:0:
265,222,283653,1,0,0:0:0:0:
277,224,283838,1,0,0:0:0:0:
277,224,283900,1,8,0:0:0:0:
278,227,284023,1,0,0:0:0:0:
278,227,284147,1,8,0:0:0:0:
278,227,284270,1,0,0:0:0:0:
278,227,284394,1,8,0:0:0:0:
273,230,284517,1,8,0:0:0:0:
273,230,284641,1,8,0:0:0:0:
273,230,284764,1,8,0:0:0:0:
272,238,285011,1,0,0:0:0:0:
272,238,285135,1,8,0:0:0:0:
272,238,285258,1,0,0:0:0:0:
270,241,285381,1,8,0:0:0:0:
270,241,285443,1,8,0:0:0:0:
270,241,285505,1,8,0:0:0:0:
272,238,285567,1,8,0:0:0:0:
272,238,285628,1,0,0:0:0:0:
272,238,285752,1,0,0:0:0:0:
279,235,285783,1,0,0:0:0:0:
276,247,285875,1,8,0:0:0:0:
276,247,285958,1,8,0:0:0:0:
276,247,286040,1,0,0:0:0:0:
448,64,286122,1,8,0:0:0:0:
281,246,286184,1,0,0:0:0:0:
280,246,286246,1,0,0:0:0:0:
280,246,286307,1,8,0:0:0:0:
280,246,286369,1,8,0:0:0:0:
265,241,286431,1,0,0:0:0:0:
265,241,286493,1,8,0:0:0:0:
284,244,286534,1,0,0:0:0:0:
268,210,286575,1,0,0:0:0:0:
284,244,286616,1,8,0:0:0:0:
284,244,286678,1,8,0:0:0:0:
284,244,286739,1,0,0:0:0:0:
286,252,286801,1,0,0:0:0:0:
286,252,286863,1,8,0:0:0:0:
288,263,286986,1,0,0:0:0:0:
288,263,287048,1,8,0:0:0:0:
288,263,287110,1,0,0:0:0:0:
280,243,287172,1,0,0:0:0:0:
280,243,287233,1,0,0:0:0:0:
284,244,287295,1,0,0:0:0:0:
284,244,287357,1,12,0:0:0:0:
245,239,287480,1,0,0:0:0:0:
75,206,287604,1,8,0:0:0:0:
219,237,287665,1,8,0:0:0:0:
244,218,287727,1,0,0:0:0:0:
110,218,287789,1,0,0:0:0:0:
302,268,287851,1,8,0:0:0:0:
302,268,287974,1,0,0:0:0:0:
226,228,288098,1,8,0:0:0:0:
281,268,288159,1,0,0:0:0:0:
226,228,288221,1,0,0:0:0:0:
226,228,288344,1,8,0:0:0:0:
243,234,288406,1,0,0:0:0:0:
242,230,288468,1,8,0:0:0:0:
242,230,288591,1,8,0:0:0:0:
242,230,288715,1,8,0:0:0:0:
242,230,288838,1,0,0:0:0:0:
242,230,288962,1,0,0:0:0:0:
242,230,289085,1,8,0:0:0:0:
247,224,289147,1,8,0:0:0:0:
247,224,289209,1,8,0:0:0:0:
247,224,289270,1,8,0:0:0:0:
247,224,289332,1,0,0:0:0:0:
271,230,289579,1,0,0:0:0:0:
271,230,289702,1,0,0:0:0:0:
271,230,289826,1,8,0:0:0:0:
198,199,289949,1,8,0:0:0:0:
284,237,290135,1,0,0:0:0:0:
284,237,290196,1,0,0:0:0:0:
284,237,290258,1,0,0:0:0:0:
284,237,290320,1,8,0:0:0:0:
289,247,290505,1,8,0:0:0:0:
287,269,290567,1,0,0:0:0:0:
209,229,290690,1,8,0:0:0:0:
222,232,290752,1,0,0:0:0:0:
222,232,290814,1,8,0:0:0:0:
226,251,290937,1,8,0:0:0:0:
226,251,291060,1,8,0:0:0:0:
220,241,291184,1,0,0:0:0:0:
238,252,291307,1,12,0:0:0:0:
278,260,291554,1,0,0:0:0:0:
250,254,291724,1,0,0:0:0:0:
250,255,291801,1,8,0:0:0:0:
250,255,291925,1,0,0:0:0:0:
256,248,292048,1,8,0:0:0:0:
256,248,292079,1,8,0:0:0:0:
267,254,292172,1,0,0:0:0:0:
267,254,292295,1,8,0:0:0:0:
262,244,292357,1,0,0:0:0:0:
207,258,292419,1,8,0:0:0:0:
239,284,292480,1,8,0:0:0:0:
280,272,292542,1,0,0:0:0:0:
247,212,292789,1,8,0:0:0:0:
247,212,292912,1,0,0:0:0:0:
247,212,293036,1,8,0:0:0:0:
247,212,293159,1,0,0:0:0:0:
247,212,293283,1,8,0:0:0:0:
247,212,293344,1,8,0:0:0:0:
266,234,293406,1,0,0:0:0:0:
266,234,293468,1,0,0:0:0:0:
266,234,293530,1,8,0:0:0:0:
266,234,293591,1,0,0:0:0:0:
266,234,293653,1,0,0:0:0:0:
266,234,293715,1,0,0:0:0:0:
256,227,293777,1,8,0:0:0:0:
256,227,293838,1,8,0:0:0:0:
256,227,293900,1,0,0:0:0:0:
256,227,293962,1,0,0:0:0:0:
256,227,294023,1,0,0:0:0:0:
273,232,294085,1,0,0:0:0:0:
273,232,294147,1,8,0:0:0:0:
64,64,294209,1,0,0:0:0:0:
273,232,294270,1,8,0:0:0:0:
266,234,294332,1,8,0:0:0:0:
240,218,294394,1,0,0:0:0:0:
240,218,294456,1,0,0:0:0:0:
226,221,294517,1,8,0:0:0:0:
226,221,294579,1,8,0:0:0:0:
226,221,294641,1,0,0:0:0:0:
226,221,294702,1,8,0:0:0:0:
244,233,294764,1,0,0:0:0:0:
244,233,294826,1,0,0:0:0:0:
244,232,294888,1,8,0:0:0:0:
244,232,294949,1,0,0:0:0:0:
244,232,295011,1,8,0:0:0:0:
244,232,295073,1,8,0:0:0:0:
244,232,295135,1,8,0:0:0:0:
264,236,295196,1,8,0:0:0:0:
264,236,295258,1,4,0:0:0:0:
275,256,295381,1,0,0:0:0:0:
275,256,295443,1,0,0:0:0:0:
275,256,295505,1,8,0:0:0:0:
282,256,295567,1,0,0:0:0:0:
282,258,295628,1,8,0:0:0:0:
282,258,295690,1,8,0:0:0:0:
282,257,295752,1,0,0:0:0:0:
271,245,295875,1,0,0:0:0:0:
271,245,295999,1,8,0:0:0:0:
271,245,296060,1,8,0:0:0:0:
271,245,296122,1,0,0:0:0:0:
448,320,296246,1,12,0:0:0:0:
282,258,296369,1,8,0:0:0:0:
282,258,296431,1,8,0:0:0:0:
282,258,296493,1,8,0:0:0:0:
284,262,296616,1,8,0:0:0:0:
262,261,296698,1,8,0:0:0:0:
268,258,296781,1,0,0:0:0:0:
268,258,296863,1,0,0:0:0:0:
267,260,296986,1,8,0:0:0:0:
267,260,297110,1,8,0:0:0:0:
267,260,297233,1,0,0:0:0:0:
276,263,297480,1,0,0:0:0:0:
274,258,297604,1,0,0:0:0:0:
273,258,297727,1,8,0:0:0:0:
311,270,297820,1,8,0:0:0:0:
291,262,297912,1,0,0:0:0:0:
298,264,298036,1,8,0:0:0:0:
298,264,298098,1,0,0:0:0:0:
298,264,298159,1,0,0:0:0:0:
298,264,298221,1,8,0:0:0:0:
231,239,298344,1,0,0:0:0:0:
276,263,298406,1,0,0:0:0:0:
225,229,298468,1,8,0:0:0:0:
225,229,298530,1,8,0:0:0:0:
225,229,298591,1,0,0:0:0:0:
258,241,298715,1,8,0:0:0:0:
205,230,298838,1,8,0:0:0:0:
273,243,298900,1,0,0:0:0:0:
244,240,298962,1,8,0:0:0:0:
286,226,299023,1,8,0:0:0:0:
244,240,299085,1,0,0:0:0:0:
270,232,299147,1,0,0:0:0:0:
244,240,299209,1,12,0:0:0:0:
202,203,299332,1,0,0:0:0:0:
216,206,299394,1,8,0:0:0:0:
216,206,299456,1,0,0:0:0:0:
254,234,299579,1,8,0:0:0:0:
254,234,299702,1,8,0:0:0:0:
254,234,299826,1,0,0:0:0:0:
287,251,299888,1,0,0:0:0:0:
287,251,299949,1,8,0:0:0:0:
291,259,300011,1,8,0:0:0:0:
296,251,300073,1,0,0:0:0:0:
296,251,300196,1,8,0:0:0:0:
294,257,300258,1,8,0:0:0:0:
294,257,300320,1,0,0:0:0:0:
291,272,300567,1,0,0:0:0:0:
291,272,300628,1,0,0:0:0:0:
291,272,300690,1,8,0:0:0:0:
287,268,300814,1,0,0:0:0:0:
287,268,300937,1,0,0:0:0:0:
287,268,300999,1,0,0:0:0:0:
287,268,301060,1,0,0:0:0:0:
287,268,301122,1,0,0:0:0:0:
291,272,301184,1,8,0:0:0:0:
281,269,301246,1,8,0:0:0:0:
281,269,301307,1,0,0:0:0:0:
281,269,301369,1,0,0:0:0:0:
314,279,301431,1,8,0:0:0:0:
281,269,301493,1,8,0:0:0:0:
314,279,301554,1,8,0:0:0:0:
314,279,301616,1,8,0:0:0:0:
314,279,301678,1,0,0:0:0:0:
314,279,301739,1,0,0:0:0:0:
305,284,301801,1,8,0:0:0:0:
305,284,301863,1,0,0:0:0:0:
305,284,301925,1,8,0:0:0:0:
302,281,301986,1,8,0:0:0:0:
314,279,302048,1,0,0:0:0:0:
314,279,302110,1,0,0:0:0:0:
314,279,302172,1,8,0:0:0:0:
310,268,302233,1,0,0:0:0:0:
310,268,302295,1,0,0:0:0:0:
310,268,302357,1,0,0:0:0:0:
310,268,302419,1,8,0:0:0:0:
310,268,302480,1,0,0:0:0:0:
310,268,302542,1,8,0:0:0:0:
299,271,302604,1,8,0:0:0:0:
299,271,302665,1,0,0:0:0:0:
309,277,302727,1,0,0:0:0:0:
309,277,302789,1,8,0:0:0:0:
314,279,302851,1,0,0:0:0:0:
314,279,302912,1,8,0:0:0:0:
314,279,302974,1,8,0:0:0:0:
309,277,303036,1,8,0:0:0:0:
309,277,303098,1,8,0:0:0:0:
309,276,303159,1,4,0:0:0:0:
305,269,303406,1,0,0:0:0:0:
305,269,303653,1,8,0:0:0:0:
262,225,303715,1,8,0:0:0:0:
308,281,303777,1,0,0:0:0:0:
262,225,303921,1,8,0:0:0:0:
271,261,304023,1,0,0:0:0:0:
216,199,304147,1,8,0:0:0:0:
248,222,304270,1,8,0:0:0:0:
248,222,304394,1,0,0:0:0:0:
253,198,304517,1,8,0:0:0:0:
253,198,304548,1,8,0:0:0:0:
277,239,304641,1,8,0:0:0:0:
253,219,304764,1,0,0:0:0:0:
253,219,304826,1,0,0:0:0:0:
253,219,304888,1,8,0:0:0:0:
264,216,305011,1,8,0:0:0:0:
264,216,305135,1,4,0:0:0:0:
273,229,305381,1,0,0:0:0:0:
273,229,305505,1,0,0:0:0:0:
292,261,305628,1,8,0:0:0:0:
291,266,305752,1,8,0:0:0:0:
280,237,305937,1,0,0:0:0:0:
280,237,305999,1,0,0:0:0:0:
280,237,306060,1,0,0:0:0:0:
280,237,306122,1,8,0:0:0:0:
171,221,306446,1,0,0:0:0:0:
302,276,306493,1,8,0:0:0:0:
284,254,306616,1,8,0:0:0:0:
284,254,306739,1,0,0:0:0:0:
284,254,306801,1,0,0:0:0:0:
284,254,306863,1,8,0:0:0:0:
277,260,307110,1,4,0:0:0:0:
315,264,307233,1,8,0:0:0:0:
293,268,307357,1,0,0:0:0:0:
292,266,307604,1,8,0:0:0:0:
302,262,307727,1,0,0:0:0:0:
301,262,307851,1,8,0:0:0:0:
301,262,307974,1,0,0:0:0:0:
301,262,308098,1,8,0:0:0:0:
286,258,308159,1,8,0:0:0:0:
306,248,308221,1,0,0:0:0:0:
289,259,308283,1,0,0:0:0:0:
301,262,308344,1,8,0:0:0:0:
302,262,308406,1,0,0:0:0:0:
302,262,308468,1,8,0:0:0:0:
301,262,308530,1,8,0:0:0:0:
301,262,308591,1,0,0:0:0:0:
298,266,308756,1,8,0:0:0:0:
280,249,308838,1,8,0:0:0:0:
280,249,308921,1,0,0:0:0:0:
273,244,309085,1,8,0:0:0:0:
232,242,309209,1,0,0:0:0:0:
233,242,309270,1,0,0:0:0:0:
233,242,309332,1,8,0:0:0:0:
273,243,309394,1,8,0:0:0:0:
273,243,309456,1,8,0:0:0:0:
273,243,309517,1,0,0:0:0:0:
273,243,309579,1,8,0:0:0:0:
280,268,309641,1,8,0:0:0:0:
280,268,309702,1,0,0:0:0:0:
280,268,309764,1,0,0:0:0:0:
264,254,309826,1,8,0:0:0:0:
264,254,309949,1,0,0:0:0:0:
264,254,310011,1,0,0:0:0:0:
264,254,310073,1,0,0:0:0:0:
271,256,310227,1,8,0:0:0:0:
267,256,310320,1,8,0:0:0:0:
277,258,310412,1,0,0:0:0:0:
267,256,310567,1,8,0:0:0:0:
240,234,310721,1,0,0:0:0:0:
264,254,310814,1,0,0:0:0:0:
269,250,310906,1,8,0:0:0:0:
269,250,311060,1,4,0:0:0:0:
226,243,311307,1,8,0:0:0:0:
254,245,311431,1,8,0:0:0:0:
254,245,311554,1,0,0:0:0:0:
277,253,315011,1,8,0:0:0:0:
277,253,315135,1,0,0:0:0:0:
268,234,315258,1,8,0:0:0:0:
268,234,315381,1,8,0:0:0:0:
268,234,315505,1,0,0:0:0:0:
258,213,318962,1,0,0:0:0:0:
258,213,319085,1,0,0:0:0:0:
258,213,319209,1,8,0:0:0:0:
258,213,319332,1,8,0:0:0:0:
258,213,319456,1,0,0:0:0:0:
243,189,322912,1,8,0:0:0:0:
243,189,323036,1,0,0:0:0:0:
233,199,323159,1,8,0:0:0:0:
233,199,323283,1,8,0:0:0:0:
233,199,323406,1,0,0:0:0:0:
264,218,326616,1,8,0:0:0:0:
264,218,326739,1,8,0:0:0:0:
264,218,326863,1,4,0:0:0:0:
254,230,326986,1,0,0:0:0:0:
254,228,327110,1,8,0:0:0:0:
254,228,327172,1,0,0:0:0:0:
256,233,327233,1,8,0:0:0:0:
247,241,327357,1,8,0:0:0:0:
265,268,327419,1,0,0:0:0:0:
263,255,327480,1,0,0:0:0:0:
263,255,327604,1,0,0:0:0:0:
263,255,327727,1,0,0:0:0:0:
262,254,327851,1,8,0:0:0:0:
182,220,327974,1,0,0:0:0:0:
192,226,328036,1,8,0:0:0:0:
192,226,328098,1,0,0:0:0:0:
271,256,328221,1,8,0:0:0:0:
271,256,328344,1,8,0:0:0:0:
271,256,328468,1,0,0:0:0:0:
271,256,328591,1,0,0:0:0:0:
271,256,328715,1,0,0:0:0:0:
271,256,328838,1,8,0:0:0:0:
271,269,328900,1,0,0:0:0:0:
271,269,328962,1,8,0:0:0:0:
271,270,329085,1,0,0:0:0:0:
271,270,329147,1,8,0:0:0:0:
271,270,329209,1,8,0:0:0:0:
271,278,329332,1,0,0:0:0:0:
271,278,329456,1,0,0:0:0:0:
271,278,329579,1,0,0:0:0:0:
271,278,329702,1,0,0:0:0:0:
271,278,329826,1,8,0:0:0:0:
263,274,329888,1,0,0:0:0:0:
266,280,329949,1,8,0:0:0:0:
263,274,330073,1,0,0:0:0:0:
276,280,330135,1,8,0:0:0:0:
276,280,330196,1,0,0:0:0:0:
277,274,330320,1,8,0:0:0:0:
277,274,330443,1,0,0:0:0:0:
277,274,330567,1,0,0:0:0:0:
277,274,330690,1,8,0:0:0:0:
264,218,330814,1,4,0:0:0:0:
254,230,330937,1,0,0:0:0:0:
254,228,331061,1,8,0:0:0:0:
254,228,331123,1,0,0:0:0:0:
256,233,331184,1,8,0:0:0:0:
247,241,331308,1,8,0:0:0:0:
265,268,331370,1,0,0:0:0:0:
263,255,331431,1,0,0:0:0:0:
263,255,331555,1,0,0:0:0:0:
263,255,331678,1,0,0:0:0:0:
262,254,331802,1,8,0:0:0:0:
182,220,331925,1,0,0:0:0:0:
192,226,331987,1,8,0:0:0:0:
192,226,332049,1,0,0:0:0:0:
271,256,332172,1,8,0:0:0:0:
271,256,332295,1,8,0:0:0:0:
271,256,332419,1,0,0:0:0:0:
271,256,332542,1,0,0:0:0:0:
271,256,332666,1,0,0:0:0:0:
271,256,332789,1,8,0:0:0:0:
271,269,332851,1,0,0:0:0:0:
271,269,332913,1,8,0:0:0:0:
271,270,333036,1,0,0:0:0:0:
271,270,333098,1,8,0:0:0:0:
271,270,333160,1,8,0:0:0:0:
271,278,333283,1,0,0:0:0:0:
271,278,333407,1,0,0:0:0:0:
271,278,333530,1,0,0:0:0:0:
271,278,333653,1,0,0:0:0:0:
271,278,333777,1,8,0:0:0:0:
263,274,333839,1,0,0:0:0:0:
266,280,333900,1,8,0:0:0:0:
263,274,334024,1,0,0:0:0:0:
276,280,334086,1,8,0:0:0:0:
276,280,334147,1,0,0:0:0:0:
277,274,334271,1,8,0:0:0:0:
277,274,334394,1,0,0:0:0:0:
277,274,334518,1,0,0:0:0:0:
277,274,334641,1,8,0:0:0:0:
264,218,334764,1,4,0:0:0:0:
254,230,334887,1,0,0:0:0:0:
254,228,335011,1,8,0:0:0:0:
254,228,335073,1,0,0:0:0:0:
256,233,335134,1,8,0:0:0:0:
247,241,335258,1,8,0:0:0:0:
265,268,335320,1,0,0:0:0:0:
263,255,335381,1,0,0:0:0:0:
259,250,335443,1,8,0:0:0:0:
263,255,335505,1,0,0:0:0:0:
263,255,335628,1,0,0:0:0:0:
262,254,335752,1,8,0:0:0:0:
182,220,335875,1,0,0:0:0:0:
192,226,335937,1,8,0:0:0:0:
192,226,335999,1,0,0:0:0:0:
257,270,336060,1,0,0:0:0:0:
271,256,336122,1,8,0:0:0:0:
271,256,336245,1,8,0:0:0:0:
271,256,336369,1,0,0:0:0:0:
279,280,336431,1,8,0:0:0:0:
271,256,336492,1,0,0:0:0:0:
271,256,336616,1,0,0:0:0:0:
271,256,336739,1,8,0:0:0:0:
271,269,336801,1,0,0:0:0:0:
271,269,336863,1,8,0:0:0:0:
271,270,336986,1,0,0:0:0:0:
271,270,337048,1,8,0:0:0:0:
271,270,337110,1,0,0:0:0:0:
275,273,337172,1,8,0:0:0:0:
271,278,337233,1,0,0:0:0:0:
271,278,337357,1,8,0:0:0:0:
274,281,337419,1,8,0:0:0:0:
271,278,337480,1,0,0:0:0:0:
271,278,337603,1,0,0:0:0:0:
271,278,337727,1,8,0:0:0:0:
263,274,337789,1,0,0:0:0:0:
266,280,337850,1,8,0:0:0:0:
263,274,337974,1,0,0:0:0:0:
276,280,338036,1,8,0:0:0:0:
276,280,338097,1,0,0:0:0:0:
277,274,338221,1,8,0:0:0:0:
277,274,338344,1,0,0:0:0:0:
223,223,338406,1,0,0:0:0:0:
277,274,338468,1,8,0:0:0:0:
256,235,338530,1,0,0:0:0:0:
277,274,338591,1,8,0:0:0:0:
258,251,338653,1,8,0:0:0:0:
264,218,338715,1,4,0:0:0:0:
254,230,338838,1,0,0:0:0:0:
303,269,338900,1,0,0:0:0:0:
254,228,338962,1,8,0:0:0:0:
254,228,339024,1,0,0:0:0:0:
256,233,339085,1,8,0:0:0:0:
247,241,339209,1,8,0:0:0:0:
265,268,339271,1,0,0:0:0:0:
263,255,339332,1,8,0:0:0:0:
259,250,339394,1,8,0:0:0:0:
263,255,339456,1,0,0:0:0:0:
263,255,339579,1,8,0:0:0:0:
262,254,339703,1,8,0:0:0:0:
182,220,339826,1,0,0:0:0:0:
192,226,339888,1,8,0:0:0:0:
192,226,339950,1,0,0:0:0:0:
257,270,340011,1,0,0:0:0:0:
271,256,340073,1,8,0:0:0:0:
271,256,340196,1,8,0:0:0:0:
271,256,340320,1,0,0:0:0:0:
279,280,340382,1,8,0:0:0:0:
271,256,340443,1,0,0:0:0:0:
271,256,340567,1,0,0:0:0:0:
271,256,340690,1,8,0:0:0:0:
271,269,340752,1,0,0:0:0:0:
271,269,340814,1,8,0:0:0:0:
191,243,340875,1,8,0:0:0:0:
271,270,340937,1,0,0:0:0:0:
271,270,340999,1,0,0:0:0:0:
271,270,341061,1,8,0:0:0:0:
271,278,341184,1,0,0:0:0:0:
232,243,341246,1,0,0:0:0:0:
271,278,341308,1,0,0:0:0:0:
274,281,341370,1,8,0:0:0:0:
271,278,341431,1,8,0:0:0:0:
271,278,341554,1,8,0:0:0:0:
271,278,341678,1,8,0:0:0:0:
263,274,341740,1,0,0:0:0:0:
266,280,341801,1,8,0:0:0:0:
263,274,341925,1,0,0:0:0:0:
276,280,341987,1,8,0:0:0:0:
276,280,342048,1,0,0:0:0:0:
277,274,342172,1,8,0:0:0:0:
198,223,342233,1,8,0:0:0:0:
277,274,342295,1,0,0:0:0:0:
223,223,342357,1,0,0:0:0:0:
277,274,342419,1,8,0:0:0:0:
256,235,342481,1,0,0:0:0:0:
277,274,342542,1,8,0:0:0:0:
258,251,342604,1,8,0:0:0:0:
264,218,342665,1,4,0:0:0:0:
254,230,342788,1,0,0:0:0:0:
254,228,342912,1,8,0:0:0:0:
254,228,342974,1,0,0:0:0:0:
256,233,343035,1,8,0:0:0:0:
247,241,343159,1,8,0:0:0:0:
265,268,343221,1,8,0:0:0:0:
263,255,343282,1,0,0:0:0:0:
259,250,343344,1,8,0:0:0:0:
263,255,343406,1,0,0:0:0:0:
182,220,343468,1,0,0:0:0:0:
263,255,343529,1,8,0:0:0:0:
262,254,343653,1,0,0:0:0:0:
182,220,343776,1,8,0:0:0:0:
192,226,343838,1,8,0:0:0:0:
192,226,343900,1,0,0:0:0:0:
257,270,343961,1,0,0:0:0:0:
271,256,344023,1,8,0:0:0:0:
271,256,344146,1,8,0:0:0:0:
271,256,344270,1,0,0:0:0:0:
279,280,344332,1,8,0:0:0:0:
271,256,344393,1,0,0:0:0:0:
271,256,344517,1,8,0:0:0:0:
271,256,344640,1,8,0:0:0:0:
271,269,344702,1,0,0:0:0:0:
271,269,344764,1,8,0:0:0:0:
271,270,344887,1,0,0:0:0:0:
271,270,344949,1,8,0:0:0:0:
271,270,345011,1,0,0:0:0:0:
275,273,345073,1,0,0:0:0:0:
271,278,345134,1,8,0:0:0:0:
271,278,345258,1,8,0:0:0:0:
274,281,345320,1,8,0:0:0:0:
271,278,345381,1,0,0:0:0:0:
271,278,345504,1,8,0:0:0:0:
271,278,345628,1,8,0:0:0:0:
263,274,345690,1,0,0:0:0:0:
266,280,345751,1,8,0:0:0:0:
263,274,345875,1,0,0:0:0:0:
276,280,345937,1,8,0:0:0:0:
276,280,345998,1,0,0:0:0:0:
169,212,346060,1,0,0:0:0:0:
277,274,346122,1,8,0:0:0:0:
277,274,346245,1,8,0:0:0:0:
223,223,346307,1,8,0:0:0:0:
277,274,346369,1,0,0:0:0:0:
256,235,346431,1,8,0:0:0:0:
277,274,346492,1,0,0:0:0:0:
258,251,346554,1,0,0:0:0:0:
264,218,346616,1,12,0:0:0:0:
254,230,346739,1,0,0:0:0:0:
303,269,346801,1,0,0:0:0:0:
254,228,346863,1,8,0:0:0:0:
254,228,346925,1,0,0:0:0:0:
256,233,346986,1,8,0:0:0:0:
247,241,347110,1,8,0:0:0:0:
265,268,347172,1,0,0:0:0:0:
263,255,347233,1,8,0:0:0:0:
259,250,347295,1,8,0:0:0:0:
263,255,347357,1,0,0:0:0:0:
276,232,347419,1,0,0:0:0:0:
263,255,347480,1,8,0:0:0:0:
262,254,347604,1,8,0:0:0:0:
182,220,347727,1,0,0:0:0:0:
192,226,347789,1,8,0:0:0:0:
192,226,347851,1,0,0:0:0:0:
257,270,347912,1,0,0:0:0:0:
271,256,347974,1,8,0:0:0:0:
271,256,348097,1,8,0:0:0:0:
271,256,348221,1,0,0:0:0:0:
279,280,348283,1,8,0:0:0:0:
271,256,348344,1,0,0:0:0:0:
271,256,348468,1,8,0:0:0:0:
271,256,348591,1,8,0:0:0:0:
271,269,348653,1,0,0:0:0:0:
271,269,348715,1,8,0:0:0:0:
191,243,348776,1,8,0:0:0:0:
271,270,348838,1,0,0:0:0:0:
271,270,348900,1,0,0:0:0:0:
271,270,348962,1,8,0:0:0:0:
271,278,349085,1,8,0:0:0:0:
232,243,349147,1,0,0:0:0:0:
271,278,349209,1,0,0:0:0:0:
274,281,349271,1,8,0:0:0:0:
271,278,349332,1,0,0:0:0:0:
271,278,349455,1,8,0:0:0:0:
271,278,349579,1,8,0:0:0:0:
263,274,349641,1,0,0:0:0:0:
266,280,349702,1,8,0:0:0:0:
291,259,349764,1,8,0:0:0:0:
263,274,349826,1,0,0:0:0:0:
276,280,349888,1,8,0:0:0:0:
276,280,349949,1,0,0:0:0:0:
277,274,350073,1,8,0:0:0:0:
198,223,350134,1,8,0:0:0:0:
277,274,350196,1,0,0:0:0:0:
223,223,350258,1,0,0:0:0:0:
277,274,350320,1,8,0:0:0:0:
256,235,350382,1,0,0:0:0:0:
277,274,350443,1,8,0:0:0:0:
258,251,350505,1,8,0:0:0:0:
264,218,350567,1,4,0:0:0:0:
254,230,350690,1,0,0:0:0:0:
254,228,350814,1,8,0:0:0:0:
254,228,350876,1,0,0:0:0:0:
256,233,350937,1,8,0:0:0:0:
247,241,351061,1,8,0:0:0:0:
265,268,351123,1,0,0:0:0:0:
263,255,351184,1,0,0:0:0:0:
259,250,351246,1,8,0:0:0:0:
263,255,351308,1,0,0:0:0:0:
263,255,351431,1,8,0:0:0:0:
262,254,351555,1,0,0:0:0:0:
182,220,351678,1,0,0:0:0:0:
192,226,351740,1,0,0:0:0:0:
192,226,351802,1,8,0:0:0:0:
257,270,351863,1,0,0:0:0:0:
271,256,351925,1,8,0:0:0:0:
271,256,352048,1,8,0:0:0:0:
271,256,352172,1,0,0:0:0:0:
279,280,352234,1,8,0:0:0:0:
271,256,352295,1,0,0:0:0:0:
271,256,352419,1,8,0:0:0:0:
271,256,352542,1,8,0:0:0:0:
271,269,352604,1,0,0:0:0:0:
271,269,352666,1,8,0:0:0:0:
257,259,352727,1,8,0:0:0:0:
271,270,352789,1,0,0:0:0:0:
271,270,352851,1,8,0:0:0:0:
271,270,352913,1,0,0:0:0:0:
275,273,352975,1,0,0:0:0:0:
271,278,353036,1,8,0:0:0:0:
271,278,353160,1,8,0:0:0:0:
274,281,353222,1,8,0:0:0:0:
271,278,353283,1,0,0:0:0:0:
271,278,353406,1,8,0:0:0:0:
271,278,353530,1,0,0:0:0:0:
263,274,353592,1,8,0:0:0:0:
266,280,353653,1,0,0:0:0:0:
263,274,353777,1,8,0:0:0:0:
276,280,353839,1,0,0:0:0:0:
276,280,353900,1,0,0:0:0:0:
277,274,354024,1,8,0:0:0:0:
277,274,354147,1,0,0:0:0:0:
223,223,354209,1,0,0:0:0:0:
277,274,354271,1,8,0:0:0:0:
256,235,354333,1,0,0:0:0:0:
277,274,354394,1,8,0:0:0:0:
258,251,354456,1,8,0:0:0:0:
264,218,354518,1,4,0:0:0:0:
254,230,354641,1,0,0:0:0:0:
303,269,354703,1,0,0:0:0:0:
254,228,354765,1,8,0:0:0:0:
254,228,354827,1,0,0:0:0:0:
256,233,354888,1,8,0:0:0:0:
247,241,355012,1,8,0:0:0:0:
265,268,355074,1,0,0:0:0:0:
263,255,355135,1,8,0:0:0:0:
259,250,355197,1,8,0:0:0:0:
263,255,355259,1,0,0:0:0:0:
263,255,355382,1,8,0:0:0:0:
262,254,355506,1,0,0:0:0:0:
182,220,355629,1,0,0:0:0:0:
192,226,355691,1,8,0:0:0:0:
192,226,355753,1,0,0:0:0:0:
257,270,355814,1,0,0:0:0:0:
271,256,355876,1,8,0:0:0:0:
271,256,355999,1,8,0:0:0:0:
271,256,356123,1,0,0:0:0:0:
279,280,356185,1,8,0:0:0:0:
271,256,356246,1,0,0:0:0:0:
271,256,356370,1,8,0:0:0:0:
271,256,356493,1,8,0:0:0:0:
271,269,356555,1,0,0:0:0:0:
271,269,356617,1,8,0:0:0:0:
191,243,356678,1,8,0:0:0:0:
271,270,356740,1,0,0:0:0:0:
271,270,356802,1,0,0:0:0:0:
271,270,356864,1,8,0:0:0:0:
271,278,356987,1,8,0:0:0:0:
271,278,357111,1,0,0:0:0:0:
274,281,357173,1,0,0:0:0:0:
271,278,357234,1,8,0:0:0:0:
262,320,357295,1,8,0:0:0:0:
271,278,357357,5,8,0:0:0:0:
271,260,357419,1,0,0:0:0:0:
271,278,357481,1,8,0:0:0:0:
263,274,357543,1,8,0:0:0:0:
266,280,357604,1,0,0:0:0:0:
240,257,357665,1,0,0:0:0:0:
263,274,357728,1,8,0:0:0:0:
276,280,357790,1,0,0:0:0:0:
276,280,357851,1,0,0:0:0:0:
228,243,357912,1,0,0:0:0:0:
277,274,357975,1,8,0:0:0:0:
198,223,358036,1,0,0:0:0:0:
277,274,358098,1,8,0:0:0:0:
223,223,358160,1,8,0:0:0:0:
277,274,358222,1,0,0:0:0:0:
256,235,358284,1,8,0:0:0:0:
277,274,358345,1,8,0:0:0:0:
258,251,358407,1,8,0:0:0:0:
243,186,358468,5,4,0:0:0:0:
255,200,358715,1,8,0:0:0:0:
255,200,358797,1,8,0:0:0:0:
255,200,358879,1,0,0:0:0:0:
282,215,358962,1,8,0:0:0:0:
282,215,359044,1,0,0:0:0:0:
282,215,359126,1,0,0:0:0:0:
260,213,359209,1,8,0:0:0:0:
264,215,359270,1,0,0:0:0:0:
264,215,359332,1,8,0:0:0:0:
253,226,359394,1,8,0:0:0:0:
264,215,359456,1,0,0:0:0:0:
272,224,359538,1,0,0:0:0:0:
272,224,359620,1,8,0:0:0:0:
272,224,359702,1,0,0:0:0:0:
268,228,359764,1,8,0:0:0:0:
209,215,359826,1,0,0:0:0:0:
281,230,359888,1,0,0:0:0:0:
239,219,359949,1,8,0:0:0:0:
268,228,360073,1,0,0:0:0:0:
268,221,360196,1,8,0:0:0:0:
272,224,360320,1,8,0:0:0:0:
272,224,360381,1,8,0:0:0:0:
272,224,360443,1,0,0:0:0:0:
263,233,360505,1,8,0:0:0:0:
263,233,360567,1,0,0:0:0:0:
278,233,360628,1,0,0:0:0:0:
276,235,360690,1,8,0:0:0:0:
276,235,360752,1,0,0:0:0:0:
268,228,360814,1,8,0:0:0:0:
267,225,360875,1,0,0:0:0:0:
267,225,360937,1,8,0:0:0:0:
277,243,361060,1,8,0:0:0:0:
277,243,361122,1,0,0:0:0:0:
277,243,361184,1,0,0:0:0:0:
278,236,361307,1,8,0:0:0:0:
276,235,361431,1,4,0:0:0:0:
282,241,361554,1,8,0:0:0:0:
282,241,361616,1,8,0:0:0:0:
282,241,361678,1,8,0:0:0:0:
269,241,361760,1,0,0:0:0:0:
269,241,361842,1,0,0:0:0:0:
264,241,361925,1,8,0:0:0:0:
262,246,362007,1,8,0:0:0:0:
265,246,362089,1,0,0:0:0:0:
265,246,362172,1,8,0:0:0:0:
265,246,362254,1,8,0:0:0:0:
265,246,362336,1,8,0:0:0:0:
265,246,362419,1,0,0:0:0:0:
272,240,362480,1,8,0:0:0:0:
272,255,362542,1,0,0:0:0:0:
272,255,362665,1,0,0:0:0:0:
276,245,362789,1,8,0:0:0:0:
272,240,362851,1,0,0:0:0:0:
276,245,362912,1,8,0:0:0:0:
282,262,363036,1,0,0:0:0:0:
282,262,363159,1,0,0:0:0:0:
282,262,363221,1,8,0:0:0:0:
282,261,363283,1,8,0:0:0:0:
291,257,363406,1,0,0:0:0:0:
284,254,363530,1,0,0:0:0:0:
284,254,363653,1,8,0:0:0:0:
288,256,363777,1,0,0:0:0:0:
288,256,363900,1,8,0:0:0:0:
288,256,364023,1,0,0:0:0:0:
272,240,364147,1,8,0:0:0:0:
272,240,364229,1,8,0:0:0:0:
272,240,364312,1,8,0:0:0:0:
272,240,364394,1,0,0:0:0:0:
272,240,364517,1,0,0:0:0:0:
272,240,364641,1,0,0:0:0:0:
288,256,364764,1,0,0:0:0:0:
288,256,364826,1,8,0:0:0:0:
288,256,364888,1,8,0:0:0:0:
256,256,365011,1,0,0:0:0:0:
272,256,365135,1,8,0:0:0:0:
272,256,365258,1,8,0:0:0:0:
288,256,365381,1,8,0:0:0:0:
288,256,365505,1,8,0:0:0:0:
288,256,365567,1,8,0:0:0:0:
288,256,365628,1,8,0:0:0:0:
272,240,365814,1,0,0:0:0:0:
272,240,365875,1,8,0:0:0:0:
272,240,365999,1,0,0:0:0:0:
288,240,366122,1,8,0:0:0:0:
304,256,366246,1,8,0:0:0:0:
288,256,366369,1,4,0:0:0:0:
224,208,366523,1,8,0:0:0:0:
288,240,366616,1,0,0:0:0:0:
304,256,366709,1,8,0:0:0:0:
288,240,366863,1,8,0:0:0:0:
288,240,366904,1,8,0:0:0:0:
224,208,366945,1,8,0:0:0:0:
288,240,366986,1,0,0:0:0:0:
272,256,367110,1,8,0:0:0:0:
288,240,367233,1,8,0:0:0:0:
272,224,367357,1,0,0:0:0:0:
272,224,367419,1,8,0:0:0:0:
272,224,367480,1,0,0:0:0:0:
272,240,367604,1,8,0:0:0:0:
272,240,367665,1,0,0:0:0:0:
272,240,367727,1,8,0:0:0:0:
272,240,367851,1,8,0:0:0:0:
288,240,367974,1,0,0:0:0:0:
288,240,368036,1,8,0:0:0:0:
288,240,368098,1,0,0:0:0:0:
288,240,368221,5,8,0:0:0:0:
272,224,368344,1,8,0:0:0:0:
272,224,368406,1,8,0:0:0:0:
272,224,368591,1,0,0:0:0:0:
272,224,368715,1,0,0:0:0:0:
272,224,368838,1,8,0:0:0:0:
288,224,368900,1,8,0:0:0:0:
288,224,368962,1,0,0:0:0:0:
272,224,369085,1,0,0:0:0:0:
272,224,369209,1,8,0:0:0:0:
288,208,369332,5,8,0:0:0:0:
288,208,369394,1,0,0:0:0:0:
272,208,369456,1,8,0:0:0:0:
272,208,369517,1,8,0:0:0:0:
272,208,369579,1,8,0:0:0:0:
272,208,369641,1,0,0:0:0:0:
272,208,369702,1,8,0:0:0:0:
272,208,369764,1,0,0:0:0:0:
272,208,369826,1,8,0:0:0:0:
272,208,369888,1,8,0:0:0:0:
272,208,369949,1,0,0:0:0:0:
272,208,370011,1,0,0:0:0:0:
272,208,370073,1,8,0:0:0:0:
256,208,370135,1,8,0:0:0:0:
256,208,370196,1,0,0:0:0:0:
256,208,370258,1,0,0:0:0:0:
256,208,370320,1,8,0:0:0:0:
288,192,370484,1,0,0:0:0:0:
272,224,370567,1,0,0:0:0:0:
272,240,370649,1,8,0:0:0:0:
288,240,370731,1,8,0:0:0:0:
304,240,370814,1,0,0:0:0:0:
272,224,370896,1,8,0:0:0:0:
288,224,370978,1,0,0:0:0:0:
288,224,371060,1,8,0:0:0:0:
186,191,371184,1,0,0:0:0:0:
288,240,371307,1,8,0:0:0:0:
240,204,371369,1,0,0:0:0:0:
281,227,371431,1,8,0:0:0:0:
299,246,371493,1,8,0:0:0:0:
304,240,371554,1,0,0:0:0:0:
288,240,371678,1,0,0:0:0:0:
288,224,371801,1,8,0:0:0:0:
288,224,371884,1,0,0:0:0:0:
216,220,371966,1,0,0:0:0:0:
224,208,372048,1,8,0:0:0:0:
224,208,372172,1,8,0:0:0:0:
256,208,372295,1,0,0:0:0:0:
256,208,372377,1,0,0:0:0:0:
128,208,372460,1,0,0:0:0:0:
256,208,372542,1,8,0:0:0:0:
201,228,372665,1,0,0:0:0:0:
253,236,372789,1,8,0:0:0:0:
253,236,372871,1,8,0:0:0:0:
253,236,372953,1,8,0:0:0:0:
253,236,373036,1,0,0:0:0:0:
265,239,373159,1,8,0:0:0:0:
265,239,373283,1,8,0:0:0:0:
267,236,373344,1,8,0:0:0:0:
267,236,373406,1,0,0:0:0:0:
267,236,373468,1,0,0:0:0:0:
267,236,373530,1,8,0:0:0:0:
269,236,373653,1,0,0:0:0:0:
269,236,373715,1,0,0:0:0:0:
253,236,373777,1,8,0:0:0:0:
269,233,373838,1,0,0:0:0:0:
269,233,373900,1,8,0:0:0:0:
269,233,373962,1,8,0:0:0:0:
269,233,374023,1,0,0:0:0:0:
267,236,374147,1,8,0:0:0:0:
267,236,374270,1,0,0:0:0:0:
269,244,374332,1,0,0:0:0:0:
269,244,374394,1,8,0:0:0:0:
269,244,374456,1,8,0:0:0:0:
269,244,374517,1,0,0:0:0:0:
271,252,374641,1,0,0:0:0:0:
261,245,374702,1,0,0:0:0:0:
261,245,374764,1,8,0:0:0:0:
261,245,374826,1,0,0:0:0:0:
261,245,374888,1,8,0:0:0:0:
261,245,374949,1,8,0:0:0:0:
261,245,375011,1,0,0:0:0:0:
262,207,375073,1,0,0:0:0:0:
269,258,375135,1,8,0:0:0:0:
259,251,375196,1,8,0:0:0:0:
269,258,375258,1,0,0:0:0:0:
262,250,375381,1,8,0:0:0:0:
261,245,375443,1,8,0:0:0:0:
261,245,375505,1,0,0:0:0:0:
261,245,375567,1,0,0:0:0:0:
261,245,375628,1,8,0:0:0:0:
281,255,375752,1,8,0:0:0:0:
278,261,375875,1,0,0:0:0:0:
278,261,375937,1,0,0:0:0:0:
278,261,375999,1,8,0:0:0:0:
278,261,376060,1,8,0:0:0:0:
278,261,376122,1,8,0:0:0:0:
278,261,376184,1,8,0:0:0:0:
278,261,376246,1,0,0:0:0:0:
276,259,376369,1,0,0:0:0:0:
276,259,376493,1,8,0:0:0:0:
276,259,376554,1,0,0:0:0:0:
278,261,376616,1,0,0:0:0:0:
278,261,376739,1,8,0:0:0:0:
262,253,376801,1,8,0:0:0:0:
266,256,376863,1,0,0:0:0:0:
266,256,376925,1,0,0:0:0:0:
266,256,376986,1,8,0:0:0:0:
266,256,377110,1,8,0:0:0:0:
266,256,377172,1,0,0:0:0:0:
266,256,377233,1,8,0:0:0:0:
218,245,377357,1,8,0:0:0:0:
218,245,377419,1,8,0:0:0:0:
218,245,377480,1,8,0:0:0:0:
279,255,377542,1,0,0:0:0:0:
279,255,377604,1,0,0:0:0:0:
279,255,377665,1,0,0:0:0:0:
279,255,377727,1,8,0:0:0:0:
276,254,377851,1,0,0:0:0:0:
272,246,377974,1,8,0:0:0:0:
289,259,378036,1,0,0:0:0:0:
289,259,378098,1,8,0:0:0:0:
283,252,378221,1,8,0:0:0:0:
283,252,378283,1,8,0:0:0:0:
288,270,378344,1,0,0:0:0:0:
283,252,378406,1,8,0:0:0:0:
283,252,378468,1,0,0:0:0:0:
259,205,378591,1,0,0:0:0:0:
275,210,378715,1,8,0:0:0:0:
236,217,378777,1,8,0:0:0:0:
236,217,378838,1,0,0:0:0:0:
265,258,378900,1,0,0:0:0:0:
277,261,378962,1,0,0:0:0:0:
207,228,379085,1,8,0:0:0:0:
207,228,379147,1,8,0:0:0:0:
207,228,379209,1,0,0:0:0:0:
250,236,379270,1,0,0:0:0:0:
250,236,379332,1,8,0:0:0:0:
250,236,379394,1,0,0:0:0:0:
250,236,379456,1,8,0:0:0:0:
250,236,379517,1,8,0:0:0:0:
250,236,379579,1,0,0:0:0:0:
250,236,379702,1,8,0:0:0:0:
250,236,379764,1,0,0:0:0:0:
250,236,379826,1,8,0:0:0:0:
277,251,379888,1,8,0:0:0:0:
277,251,379949,1,0,0:0:0:0:
277,251,380073,1,8,0:0:0:0:
254,239,380196,1,0,0:0:0:0:
254,239,380258,1,8,0:0:0:0:
254,239,380320,1,0,0:0:0:0:
264,259,380443,1,0,0:0:0:0:
263,257,380567,1,8,0:0:0:0:
263,257,380628,1,8,0:0:0:0:
263,257,380690,1,8,0:0:0:0:
263,257,380752,1,0,0:0:0:0:
263,257,380814,1,0,0:0:0:0:
262,259,380875,1,8,0:0:0:0:
262,259,380937,1,0,0:0:0:0:
247,251,381060,1,8,0:0:0:0:
247,251,381184,1,8,0:0:0:0:
272,260,381307,1,8,0:0:0:0:
272,260,381369,1,8,0:0:0:0:
272,260,381431,1,8,0:0:0:0:
280,259,381554,1,0,0:0:0:0:
280,259,381616,1,0,0:0:0:0:
280,259,381678,1,8,0:0:0:0:
268,256,381739,1,8,0:0:0:0:
268,256,381801,1,0,0:0:0:0:
274,276,381863,1,0,0:0:0:0:
269,249,381925,1,8,0:0:0:0:
276,272,381986,1,0,0:0:0:0:
269,249,382048,1,8,0:0:0:0:
280,279,382110,1,8,0:0:0:0:
275,272,382172,1,4,0:0:0:0:
276,262,382419,1,0,0:0:0:0:
289,271,382501,1,0,0:0:0:0:
289,271,382583,1,0,0:0:0:0:
289,271,382665,1,8,0:0:0:0:
283,260,382789,1,0,0:0:0:0:
283,270,382851,1,8,0:0:0:0:
283,270,382912,1,0,0:0:0:0:
276,262,383036,1,8,0:0:0:0:
273,253,383159,1,0,0:0:0:0:
274,267,383344,1,0,0:0:0:0:
274,267,383406,1,8,0:0:0:0:
278,264,383468,1,8,0:0:0:0:
278,264,383530,1,0,0:0:0:0:
278,264,383591,1,0,0:0:0:0:
278,264,383653,1,8,0:0:0:0:
268,256,383777,1,0,0:0:0:0:
281,261,383900,1,0,0:0:0:0:
281,261,383962,1,0,0:0:0:0:
281,261,384023,1,8,0:0:0:0:
281,261,384085,1,0,0:0:0:0:
281,261,384147,1,8,0:0:0:0:
265,255,384209,1,8,0:0:0:0:
265,255,384270,1,0,0:0:0:0:
265,255,384332,1,0,0:0:0:0:
265,255,384394,1,8,0:0:0:0:
280,262,384456,1,8,0:0:0:0:
280,262,384517,1,0,0:0:0:0:
281,261,384579,1,0,0:0:0:0:
281,261,384641,1,8,0:0:0:0:
281,261,384702,1,0,0:0:0:0:
281,261,384764,1,8,0:0:0:0:
281,261,384826,1,8,0:0:0:0:
281,261,384888,1,0,0:0:0:0:
285,265,384949,1,0,0:0:0:0:
285,265,385011,1,8,0:0:0:0:
285,265,385073,1,0,0:0:0:0:
285,265,385135,1,8,0:0:0:0:
272,265,385196,1,0,0:0:0:0:
272,265,385258,1,8,0:0:0:0:
272,265,385320,1,8,0:0:0:0:
272,265,385381,1,8,0:0:0:0:
277,266,385443,1,0,0:0:0:0:
277,266,385505,1,0,0:0:0:0:
277,266,385567,1,0,0:0:0:0:
267,278,385628,1,8,0:0:0:0:
267,278,385690,1,0,0:0:0:0:
267,278,385752,1,8,0:0:0:0:
267,278,385814,1,8,0:0:0:0:
267,278,385875,1,0,0:0:0:0:
270,276,385937,1,0,0:0:0:0:
270,276,385999,1,8,0:0:0:0:
270,276,386060,1,8,0:0:0:0:
270,276,386122,1,0,0:0:0:0:
240,215,386246,1,8,0:0:0:0:
240,215,386307,1,0,0:0:0:0:
240,215,386369,1,8,0:0:0:0:
249,191,386493,1,0,0:0:0:0:
262,252,386647,1,8,0:0:0:0:
278,241,386770,1,0,0:0:0:0:
278,241,386986,1,0,0:0:0:0:
213,193,387110,5,8,0:0:0:0:
213,193,387172,1,8,0:0:0:0:
213,193,387233,1,8,0:0:0:0:
273,256,387295,1,0,0:0:0:0:
273,256,387357,1,0,0:0:0:0:
273,256,387419,1,0,0:0:0:0:
243,227,387480,1,8,0:0:0:0:
243,227,387542,1,8,0:0:0:0:
273,256,387604,1,0,0:0:0:0:
273,256,387665,1,0,0:0:0:0:
267,259,387727,1,8,0:0:0:0:
329,304,387789,1,8,0:0:0:0:
329,304,387851,1,8,0:0:0:0:
329,304,387912,1,8,0:0:0:0:
279,264,387974,1,0,0:0:0:0:
279,264,388036,1,0,0:0:0:0:
279,264,388098,1,12,0:0:0:0:
288,275,388221,1,12,0:0:0:0:
288,275,388344,1,12,0:0:0:0:
288,275,388468,1,12,0:0:0:0:
288,275,388591,1,12,0:0:0:0:
288,275,388715,1,12,0:0:0:0:
288,275,388838,1,12,0:0:0:0:
288,275,388962,1,12,0:0:0:0:
288,275,389085,1,4,0:0:0:0:
227,219,389456,1,4,0:0:0:0:
276,267,389949,1,12,0:0:0:0:
256,192,390073,12,0,405875,0:0:0:0:
245,191,421679,5,12,0:0:0:0:
260,202,421801,1,0,0:0:0:0:
259,201,421925,1,0,0:0:0:0:
259,201,422048,1,0,0:0:0:0:
257,196,422172,1,8,0:0:0:0:
257,196,422295,1,0,0:0:0:0:
257,196,422419,1,8,0:0:0:0:
257,196,422542,1,8,0:0:0:0:
259,201,422665,1,0,0:0:0:0:
259,201,422789,1,8,0:0:0:0:
257,196,422912,1,0,0:0:0:0:
257,196,422974,1,8,0:0:0:0:
257,196,423036,1,0,0:0:0:0:
259,202,423159,1,8,0:0:0:0:
259,202,423283,1,0,0:0:0:0:
259,201,423406,1,0,0:0:0:0:
259,201,423468,1,0,0:0:0:0:
273,216,423530,1,8,0:0:0:0:
273,216,423591,1,0,0:0:0:0:
270,221,423653,1,8,0:0:0:0:
258,210,423777,1,8,0:0:0:0:
258,210,423838,1,0,0:0:0:0:
258,210,423900,1,8,0:0:0:0:
267,221,424023,1,0,0:0:0:0:
267,221,424147,1,8,0:0:0:0:
267,221,424209,1,0,0:0:0:0:
267,221,424270,1,0,0:0:0:0:
268,230,424394,1,8,0:0:0:0:
268,230,424517,1,0,0:0:0:0:
264,237,424641,1,8,0:0:0:0:
264,237,424702,1,0,0:0:0:0:
264,237,424764,1,8,0:0:0:0:
264,237,424826,1,8,0:0:0:0:
264,237,424888,1,0,0:0:0:0:
307,328,425011,1,0,0:0:0:0:
256,243,425135,1,8,0:0:0:0:
256,243,425196,1,0,0:0:0:0:
256,243,425258,1,8,0:0:0:0:
256,243,425381,1,8,0:0:0:0:
256,243,425443,1,8,0:0:0:0:
256,243,425505,1,0,0:0:0:0:
294,256,425567,1,0,0:0:0:0:
294,256,425628,1,8,0:0:0:0:
285,244,425752,1,8,0:0:0:0:
285,244,425875,1,8,0:0:0:0:
279,231,426122,1,8,0:0:0:0:
265,213,426246,1,0,0:0:0:0:
269,233,426369,1,8,0:0:0:0:
269,233,426493,1,8,0:0:0:0:
64,320,426616,1,0,0:0:0:0:
262,225,426739,1,8,0:0:0:0:
262,225,426863,1,0,0:0:0:0:
262,225,426925,1,0,0:0:0:0:
277,235,426986,1,0,0:0:0:0:
264,234,427110,1,8,0:0:0:0:
264,234,427172,1,8,0:0:0:0:
264,234,427233,1,0,0:0:0:0:
264,234,427295,1,0,0:0:0:0:
264,234,427357,1,8,0:0:0:0:
264,234,427419,1,0,0:0:0:0:
263,234,427480,1,8,0:0:0:0:
258,219,427604,1,8,0:0:0:0:
258,219,427665,1,8,0:0:0:0:
258,222,427727,1,0,0:0:0:0:
254,238,427789,1,0,0:0:0:0:
258,222,427851,1,8,0:0:0:0:
280,245,427974,1,0,0:0:0:0:
264,234,428098,1,8,0:0:0:0:
264,234,428159,1,8,0:0:0:0:
263,234,428221,1,0,0:0:0:0:
264,231,428344,1,0,0:0:0:0:
264,245,428406,1,8,0:0:0:0:
264,245,428468,1,0,0:0:0:0:
264,247,428591,1,8,0:0:0:0:
264,247,428715,1,8,0:0:0:0:
258,245,428838,1,0,0:0:0:0:
258,245,428900,1,0,0:0:0:0:
258,245,428962,1,0,0:0:0:0:
258,245,429023,1,0,0:0:0:0:
258,245,429085,1,8,0:0:0:0:
251,250,429209,1,8,0:0:0:0:
251,250,429332,1,8,0:0:0:0:
251,250,429394,1,8,0:0:0:0:
251,250,429456,1,0,0:0:0:0:
251,250,429517,1,0,0:0:0:0:
251,250,429579,1,12,0:0:0:0:
266,218,430320,1,0,0:0:0:0:
266,218,430381,1,0,0:0:0:0:
266,218,430443,1,0,0:0:0:0:
266,218,430505,1,0,0:0:0:0:
266,218,430567,1,12,0:0:0:0:
265,235,430814,1,8,0:0:0:0:
265,235,430875,1,0,0:0:0:0:
265,235,430937,1,0,0:0:0:0:
265,235,431060,1,8,0:0:0:0:
265,235,431122,1,8,0:0:0:0:
265,235,431184,1,0,0:0:0:0:
256,239,431307,1,8,0:0:0:0:
256,239,431369,1,8,0:0:0:0:
256,239,431431,1,0,0:0:0:0:
256,239,431493,1,0,0:0:0:0:
256,239,431554,1,12,0:0:0:0:
256,245,431678,1,0,0:0:0:0:
256,245,431801,1,8,0:0:0:0:
256,245,431863,1,0,0:0:0:0:
256,245,431925,1,8,0:0:0:0:
256,239,432048,1,0,0:0:0:0:
256,239,432110,1,8,0:0:0:0:
256,239,432172,1,0,0:0:0:0:
232,218,432295,1,0,0:0:0:0:
232,218,432357,1,0,0:0:0:0:
232,218,432419,1,0,0:0:0:0:
232,218,432480,1,0,0:0:0:0:
232,218,432542,1,12,0:0:0:0:
256,239,432912,1,8,0:0:0:0:
256,239,432974,1,0,0:0:0:0:
256,239,433036,1,8,0:0:0:0:
256,239,433098,1,8,0:0:0:0:
256,239,433159,1,0,0:0:0:0:
256,239,433221,1,0,0:0:0:0:
256,239,433283,1,8,0:0:0:0:
256,239,433344,1,0,0:0:0:0:
256,239,433406,1,0,0:0:0:0:
256,239,433468,1,0,0:0:0:0:
256,239,433530,1,12,0:0:0:0:
269,239,433777,1,8,0:0:0:0:
270,236,433838,1,0,0:0:0:0:
270,236,433900,1,0,0:0:0:0:
270,236,434023,1,8,0:0:0:0:
270,236,434085,1,8,0:0:0:0:
270,236,434147,1,0,0:0:0:0:
275,234,434270,1,8,0:0:0:0:
275,234,434332,1,0,0:0:0:0:
275,234,434394,1,8,0:0:0:0:
280,244,434517,1,8,0:0:0:0:
280,243,434579,1,8,0:0:0:0:
280,243,434641,1,8,0:0:0:0:
280,243,434702,1,8,0:0:0:0:
280,243,434764,1,0,0:0:0:0:
280,243,434826,1,0,0:0:0:0:
280,243,434888,1,8,0:0:0:0:
448,64,435011,1,8,0:0:0:0:
281,256,435135,1,0,0:0:0:0:
281,256,435196,1,0,0:0:0:0:
281,256,435258,1,8,0:0:0:0:
281,256,435320,1,8,0:0:0:0:
281,256,435381,1,8,0:0:0:0:
281,256,435443,1,8,0:0:0:0:
272,255,435505,1,0,0:0:0:0:
272,255,435567,1,0,0:0:0:0:
272,255,435628,1,8,0:0:0:0:
272,255,435690,1,0,0:0:0:0:
272,255,435752,1,8,0:0:0:0:
274,241,435814,1,8,0:0:0:0:
274,241,435875,1,0,0:0:0:0:
274,241,435937,1,0,0:0:0:0:
265,246,435999,1,8,0:0:0:0:
265,246,436060,1,0,0:0:0:0:
265,246,436122,1,0,0:0:0:0:
265,246,436184,1,0,0:0:0:0:
265,246,436246,1,8,0:0:0:0:
265,246,436307,1,8,0:0:0:0:
265,246,436369,1,8,0:0:0:0:
265,246,436431,1,8,0:0:0:0:
264,252,436493,1,0,0:0:0:0:
264,252,436554,1,8,0:0:0:0:
264,251,436616,1,0,0:0:0:0:
264,251,436678,1,0,0:0:0:0:
253,248,436739,1,8,0:0:0:0:
253,248,436801,1,8,0:0:0:0:
253,248,436863,1,0,0:0:0:0:
253,248,436925,1,0,0:0:0:0:
258,248,436986,1,8,0:0:0:0:
258,248,437048,1,8,0:0:0:0:
258,248,437110,1,0,0:0:0:0:
258,248,437172,1,8,0:0:0:0:
258,248,437233,1,0,0:0:0:0:
258,248,437295,1,0,0:0:0:0:
199,215,437357,1,0,0:0:0:0:
199,215,437419,1,0,0:0:0:0:
258,248,437480,1,8,0:0:0:0:
189,203,438221,1,8,0:0:0:0:
280,292,438715,1,8,0:0:0:0:
285,248,438977,1,8,0:0:0:0:
285,248,439224,1,8,0:0:0:0:
266,223,439456,1,12,0:0:0:0:
285,248,439579,1,0,0:0:0:0:
283,245,439703,1,0,0:0:0:0:
283,245,439826,1,0,0:0:0:0:
283,245,439950,1,0,0:0:0:0:
283,245,440073,1,0,0:0:0:0:
285,248,440197,1,0,0:0:0:0:
251,234,440320,1,0,0:0:0:0:
251,234,440444,1,8,0:0:0:0:
268,238,440567,1,8,0:0:0:0:
268,238,440690,1,0,0:0:0:0:
268,238,440814,1,0,0:0:0:0:
268,238,440937,1,0,0:0:0:0:
268,238,441061,1,0,0:0:0:0:
268,238,441184,1,0,0:0:0:0:
268,238,441308,1,0,0:0:0:0:
268,238,441431,1,12,0:0:0:0:
268,238,441555,1,0,0:0:0:0:
268,238,441678,1,0,0:0:0:0:
268,238,441802,1,0,0:0:0:0:
268,238,441925,1,8,0:0:0:0:
248,247,442048,1,0,0:0:0:0:
256,245,442172,1,8,0:0:0:0:
256,245,442295,1,0,0:0:0:0:
256,244,442419,1,8,0:0:0:0:
227,235,442542,1,8,0:0:0:0:
240,236,442666,1,0,0:0:0:0:
240,236,442789,1,0,0:0:0:0:
240,236,442913,1,0,0:0:0:0:
240,236,443036,1,0,0:0:0:0:
240,236,443160,1,8,0:0:0:0:
240,236,443283,1,8,0:0:0:0:
240,236,443406,1,12,0:0:0:0:
253,247,443530,1,0,0:0:0:0:
253,247,443653,1,0,0:0:0:0:
253,247,443777,1,0,0:0:0:0:
253,247,443900,1,8,0:0:0:0:
269,227,444024,1,0,0:0:0:0:
269,227,444147,1,8,0:0:0:0:
269,227,444271,1,8,0:0:0:0:
269,227,444394,1,8,0:0:0:0:
269,227,444518,1,0,0:0:0:0:
269,227,444641,1,0,0:0:0:0:
269,227,444765,1,0,0:0:0:0:
271,232,444888,1,8,0:0:0:0:
280,248,445011,1,8,0:0:0:0:
280,248,445135,1,0,0:0:0:0:
280,248,445258,1,0,0:0:0:0:
280,248,445382,1,12,0:0:0:0:
270,245,445505,1,0,0:0:0:0:
270,245,445629,1,0,0:0:0:0:
270,245,445752,1,0,0:0:0:0:
270,245,445876,1,8,0:0:0:0:
278,279,445999,1,8,0:0:0:0:
278,279,446123,1,0,0:0:0:0:
278,279,446246,1,8,0:0:0:0:
278,279,446369,1,0,0:0:0:0:
282,277,446493,1,8,0:0:0:0:
282,277,446616,1,8,0:0:0:0:
282,277,446740,1,0,0:0:0:0:
282,277,446863,1,8,0:0:0:0:
268,259,446987,1,0,0:0:0:0:
268,259,447110,1,8,0:0:0:0:
268,259,447234,1,8,0:0:0:0:
268,259,447357,1,8,0:0:0:0:
268,259,447419,1,8,0:0:0:0:
268,259,447481,1,8,0:0:0:0:
269,245,447542,1,0,0:0:0:0:
269,246,447604,1,8,0:0:0:0:
269,246,447666,1,0,0:0:0:0:
269,246,447727,1,0,0:0:0:0:
269,246,447789,1,0,0:0:0:0:
245,231,447851,1,12,0:0:0:0:
267,240,447974,1,8,0:0:0:0:
264,237,448098,1,0,0:0:0:0:
264,237,448221,1,0,0:0:0:0:
264,237,448345,1,12,0:0:0:0:
269,246,448468,1,0,0:0:0:0:
265,241,448530,1,0,0:0:0:0:
265,241,448592,1,8,0:0:0:0:
256,228,448839,1,8,0:0:0:0:
256,228,448900,1,8,0:0:0:0:
256,228,448962,1,0,0:0:0:0:
256,228,449024,1,0,0:0:0:0:
256,228,449085,1,8,0:0:0:0:
256,228,449147,1,8,0:0:0:0:
256,228,449209,1,8,0:0:0:0:
256,228,449271,1,8,0:0:0:0:
265,241,449332,1,4,0:0:0:0:
192,223,449456,1,0,0:0:0:0:
228,229,449579,1,0,0:0:0:0:
228,229,449703,1,0,0:0:0:0:
228,229,449826,1,0,0:0:0:0:
216,226,449888,1,0,0:0:0:0:
228,229,449950,1,8,0:0:0:0:
228,229,450073,1,8,0:0:0:0:
228,229,450197,1,0,0:0:0:0:
228,229,450320,1,8,0:0:0:0:
215,235,450444,1,8,0:0:0:0:
215,235,450567,1,0,0:0:0:0:
215,235,450690,1,0,0:0:0:0:
215,235,450814,1,0,0:0:0:0:
215,235,450937,1,0,0:0:0:0:
215,235,451061,1,0,0:0:0:0:
215,235,451184,1,0,0:0:0:0:
215,235,451308,1,12,0:0:0:0:
215,235,451431,1,0,0:0:0:0:
204,243,451493,1,0,0:0:0:0:
215,235,451555,1,0,0:0:0:0:
224,233,451678,1,0,0:0:0:0:
224,233,451802,1,8,0:0:0:0:
243,243,451925,1,0,0:0:0:0:
237,234,452048,1,8,0:0:0:0:
243,243,452110,1,8,0:0:0:0:
238,237,452172,1,0,0:0:0:0:
240,245,452295,1,12,0:0:0:0:
250,239,452419,1,0,0:0:0:0:
250,239,452542,1,0,0:0:0:0:
250,239,452666,1,0,0:0:0:0:
250,218,452789,1,8,0:0:0:0:
250,218,452913,1,0,0:0:0:0:
250,218,453036,1,8,0:0:0:0:
250,218,453160,1,8,0:0:0:0:
250,218,453283,1,4,0:0:0:0:
265,223,453406,1,8,0:0:0:0:
265,218,453530,1,0,0:0:0:0:
265,218,453653,1,0,0:0:0:0:
265,218,453715,1,0,0:0:0:0:
265,218,453777,1,8,0:0:0:0:
256,216,453900,1,8,0:0:0:0:
256,216,454023,1,8,0:0:0:0:
256,216,454147,1,8,0:0:0:0:
256,216,454270,1,8,0:0:0:0:
276,225,454641,1,8,0:0:0:0:
276,225,455011,1,8,0:0:0:0:
251,197,455258,5,4,0:0:0:0:
264,201,455382,1,8,0:0:0:0:
264,201,455505,1,0,0:0:0:0:
245,210,455567,1,0,0:0:0:0:
264,201,455629,1,8,0:0:0:0:
182,186,455752,1,8,0:0:0:0:
182,186,455814,1,8,0:0:0:0:
182,186,455876,1,0,0:0:0:0:
206,205,455937,1,8,0:0:0:0:
267,210,455999,1,0,0:0:0:0:
267,210,456123,1,8,0:0:0:0:
256,204,456370,1,0,0:0:0:0:
256,204,456493,1,8,0:0:0:0:
196,201,456617,1,0,0:0:0:0:
204,200,456740,1,8,0:0:0:0:
204,200,456863,1,0,0:0:0:0:
258,212,456987,1,0,0:0:0:0:
258,212,457049,1,0,0:0:0:0:
258,212,457110,1,8,0:0:0:0:
226,236,457234,1,4,0:0:0:0:
244,230,457481,1,0,0:0:0:0:
244,230,457604,1,0,0:0:0:0:
254,226,457851,1,8,0:0:0:0:
149,212,458098,1,0,0:0:0:0:
180,219,458221,1,8,0:0:0:0:
204,217,458345,1,0,0:0:0:0:
215,218,458592,1,0,0:0:0:0:
215,218,458715,1,0,0:0:0:0:
215,218,458777,1,0,0:0:0:0:
215,218,458839,1,0,0:0:0:0:
234,220,458962,1,8,0:0:0:0:
234,220,459024,1,8,0:0:0:0:
234,220,459086,1,8,0:0:0:0:
234,220,459147,1,8,0:0:0:0:
234,220,459209,1,0,0:0:0:0:
228,231,459271,1,0,0:0:0:0:
228,231,459333,1,8,0:0:0:0:
259,230,459456,1,0,0:0:0:0:
259,230,459579,1,0,0:0:0:0:
259,230,459641,1,0,0:0:0:0:
259,230,459703,1,8,0:0:0:0:
251,233,459826,1,0,0:0:0:0:
251,233,459950,1,0,0:0:0:0:
251,233,460073,1,8,0:0:0:0:
251,234,460197,1,0,0:0:0:0:
251,234,460258,1,8,0:0:0:0:
251,234,460320,1,8,0:0:0:0:
251,234,460444,1,0,0:0:0:0:
256,224,460567,1,0,0:0:0:0:
240,224,460691,1,8,0:0:0:0:
240,224,460752,1,8,0:0:0:0:
240,224,460814,1,0,0:0:0:0:
240,224,460938,1,8,0:0:0:0:
240,224,461061,1,8,0:0:0:0:
240,224,461184,1,4,0:0:0:0:
224,256,461308,1,0,0:0:0:0:
241,230,461369,1,0,0:0:0:0:
256,192,461431,1,8,0:0:0:0:
256,192,461493,1,8,0:0:0:0:
256,192,461555,1,0,0:0:0:0:
256,224,461678,1,8,0:0:0:0:
256,224,461802,1,0,0:0:0:0:
240,208,461925,1,8,0:0:0:0:
240,208,461987,1,0,0:0:0:0:
240,208,462049,1,0,0:0:0:0:
262,228,462110,1,0,0:0:0:0:
240,208,462172,1,8,0:0:0:0:
240,208,462234,1,8,0:0:0:0:
240,208,462296,1,0,0:0:0:0:
256,224,462419,1,8,0:0:0:0:
256,224,462542,1,0,0:0:0:0:
256,224,462666,1,8,0:0:0:0:
256,224,462728,1,8,0:0:0:0:
256,224,462789,1,0,0:0:0:0:
256,224,462851,1,0,0:0:0:0:
256,224,462913,1,8,0:0:0:0:
256,224,462975,1,8,0:0:0:0:
256,224,463036,1,8,0:0:0:0:
256,224,463098,1,8,0:0:0:0:
256,224,463160,1,4,0:0:0:0:
256,224,463283,1,8,0:0:0:0:
272,224,463407,1,0,0:0:0:0:
272,224,463530,1,8,0:0:0:0:
256,208,463654,1,8,0:0:0:0:
256,208,463715,1,8,0:0:0:0:
256,208,463777,1,0,0:0:0:0:
272,224,463900,1,0,0:0:0:0:
272,224,464024,1,8,0:0:0:0:
272,224,464271,1,0,0:0:0:0:
256,224,464394,1,8,0:0:0:0:
256,224,464518,1,0,0:0:0:0:
256,224,464641,1,8,0:0:0:0:
272,224,464765,1,0,0:0:0:0:
272,224,464888,1,0,0:0:0:0:
272,224,464950,1,0,0:0:0:0:
272,224,465012,1,8,0:0:0:0:
256,224,465135,1,4,0:0:0:0:
208,192,465382,1,0,0:0:0:0:
240,224,465505,1,0,0:0:0:0:
256,224,465752,1,8,0:0:0:0:
256,240,465999,1,0,0:0:0:0:
256,240,466123,1,8,0:0:0:0:
288,256,466246,1,0,0:0:0:0:
288,256,466493,1,0,0:0:0:0:
288,256,466617,1,0,0:0:0:0:
288,256,466678,1,0,0:0:0:0:
288,256,466740,1,0,0:0:0:0:
288,256,466863,1,8,0:0:0:0:
304,256,466925,1,8,0:0:0:0:
304,256,466987,1,8,0:0:0:0:
304,256,467049,1,8,0:0:0:0:
304,256,467110,1,0,0:0:0:0:
304,256,467172,1,0,0:0:0:0:
304,256,467234,1,8,0:0:0:0:
224,208,467357,1,0,0:0:0:0:
240,208,467481,1,0,0:0:0:0:
240,208,467542,1,0,0:0:0:0:
240,208,467604,1,8,0:0:0:0:
272,224,467728,1,8,0:0:0:0:
176,224,467789,1,8,0:0:0:0:
272,224,467851,1,0,0:0:0:0:
208,224,467913,1,0,0:0:0:0:
272,224,467975,1,8,0:0:0:0:
272,224,468221,1,0,0:0:0:0:
240,224,468283,1,0,0:0:0:0:
272,224,468345,1,0,0:0:0:0:
272,224,468468,1,0,0:0:0:0:
256,224,468592,1,8,0:0:0:0:
240,224,468715,1,0,0:0:0:0:
240,224,468839,1,8,0:0:0:0:
224,272,468900,1,0,0:0:0:0:
240,224,468962,1,8,0:0:0:0:
240,224,469086,1,4,0:0:0:0:
224,224,469209,1,0,0:0:0:0:
224,224,469333,1,8,0:0:0:0:
224,224,469394,1,0,0:0:0:0:
224,224,469456,1,0,0:0:0:0:
256,224,469579,1,8,0:0:0:0:
224,224,469641,1,8,0:0:0:0:
256,224,469703,1,0,0:0:0:0:
251,237,469764,1,0,0:0:0:0:
256,224,469826,1,8,0:0:0:0:
256,224,469888,1,0,0:0:0:0:
256,224,469950,1,0,0:0:0:0:
256,224,470073,1,8,0:0:0:0:
256,224,470135,1,0,0:0:0:0:
256,224,470197,1,0,0:0:0:0:
256,224,470258,1,8,0:0:0:0:
256,224,470320,1,8,0:0:0:0:
256,224,470444,1,8,0:0:0:0:
368,320,470505,1,0,0:0:0:0:
272,240,470567,1,8,0:0:0:0:
272,240,470629,1,8,0:0:0:0:
272,240,470691,1,0,0:0:0:0:
272,240,470752,1,0,0:0:0:0:
272,240,470814,1,8,0:0:0:0:
272,240,470876,1,8,0:0:0:0:
272,240,470938,1,8,0:0:0:0:
272,240,470999,1,8,0:0:0:0:
251,197,471061,5,4,0:0:0:0:
264,201,471185,1,0,0:0:0:0:
264,201,471308,1,0,0:0:0:0:
245,210,471370,1,0,0:0:0:0:
264,201,471432,1,8,0:0:0:0:
182,186,471555,1,8,0:0:0:0:
182,186,471617,1,8,0:0:0:0:
182,186,471679,1,0,0:0:0:0:
267,210,471802,1,0,0:0:0:0:
267,210,471926,1,8,0:0:0:0:
256,204,472173,1,0,0:0:0:0:
256,204,472296,1,8,0:0:0:0:
196,201,472420,1,0,0:0:0:0:
204,200,472543,1,8,0:0:0:0:
204,200,472666,1,0,0:0:0:0:
258,212,472790,1,0,0:0:0:0:
258,212,472852,1,0,0:0:0:0:
258,212,472913,1,8,0:0:0:0:
226,236,473037,1,4,0:0:0:0:
244,230,473284,1,0,0:0:0:0:
244,230,473407,1,0,0:0:0:0:
254,226,473654,1,8,0:0:0:0:
149,212,473901,1,0,0:0:0:0:
180,219,474024,1,8,0:0:0:0:
204,217,474148,1,0,0:0:0:0:
215,218,474395,1,0,0:0:0:0:
215,218,474518,1,0,0:0:0:0:
215,218,474580,1,0,0:0:0:0:
215,218,474642,1,0,0:0:0:0:
234,220,474765,1,8,0:0:0:0:
234,220,474827,1,8,0:0:0:0:
234,220,474889,1,8,0:0:0:0:
234,220,474950,1,8,0:0:0:0:
234,220,475012,1,0,0:0:0:0:
228,231,475074,1,0,0:0:0:0:
228,231,475136,1,8,0:0:0:0:
259,230,475259,1,0,0:0:0:0:
259,230,475382,1,0,0:0:0:0:
259,230,475444,1,0,0:0:0:0:
259,230,475506,1,8,0:0:0:0:
251,233,475629,1,0,0:0:0:0:
251,233,475753,1,0,0:0:0:0:
251,233,475876,1,8,0:0:0:0:
251,234,476000,1,0,0:0:0:0:
251,234,476061,1,8,0:0:0:0:
251,234,476123,1,8,0:0:0:0:
251,234,476247,1,0,0:0:0:0:
256,224,476370,1,0,0:0:0:0:
240,224,476494,1,8,0:0:0:0:
240,224,476555,1,8,0:0:0:0:
240,224,476617,1,0,0:0:0:0:
240,224,476739,1,8,0:0:0:0:
240,224,476864,1,8,0:0:0:0:
240,224,476987,1,4,0:0:0:0:
224,256,477111,1,0,0:0:0:0:
256,192,477234,1,8,0:0:0:0:
256,192,477296,1,8,0:0:0:0:
256,192,477358,1,0,0:0:0:0:
246,219,477419,1,0,0:0:0:0:
256,224,477481,1,8,0:0:0:0:
256,224,477605,1,0,0:0:0:0:
240,208,477728,1,8,0:0:0:0:
240,208,477789,1,0,0:0:0:0:
240,208,477852,1,0,0:0:0:0:
240,208,477975,1,8,0:0:0:0:
240,208,478037,1,0,0:0:0:0:
240,208,478099,1,0,0:0:0:0:
218,208,478159,1,0,0:0:0:0:
256,224,478222,1,8,0:0:0:0:
256,224,478345,1,0,0:0:0:0:
256,224,478469,1,8,0:0:0:0:
256,224,478531,1,8,0:0:0:0:
256,224,478592,1,0,0:0:0:0:
256,224,478654,1,0,0:0:0:0:
256,224,478716,1,8,0:0:0:0:
256,224,478778,1,8,0:0:0:0:
256,224,478839,1,8,0:0:0:0:
256,224,478901,1,8,0:0:0:0:
256,224,478963,1,4,0:0:0:0:
256,224,479086,1,8,0:0:0:0:
272,224,479210,1,0,0:0:0:0:
272,224,479333,1,8,0:0:0:0:
256,208,479457,1,8,0:0:0:0:
256,208,479518,1,8,0:0:0:0:
256,208,479580,1,0,0:0:0:0:
272,224,479703,1,0,0:0:0:0:
272,224,479827,1,8,0:0:0:0:
272,224,480074,1,0,0:0:0:0:
256,224,480197,1,8,0:0:0:0:
256,224,480321,1,0,0:0:0:0:
256,224,480444,1,8,0:0:0:0:
272,224,480568,1,0,0:0:0:0:
272,224,480691,1,0,0:0:0:0:
272,224,480753,1,0,0:0:0:0:
272,224,480815,1,8,0:0:0:0:
256,224,480938,1,4,0:0:0:0:
144,208,481061,1,8,0:0:0:0:
160,224,481123,1,0,0:0:0:0:
208,192,481185,1,8,0:0:0:0:
240,224,481308,1,8,0:0:0:0:
272,240,481431,1,8,0:0:0:0:
256,224,481555,1,0,0:0:0:0:
256,224,481617,1,8,0:0:0:0:
256,224,481678,1,0,0:0:0:0:
256,240,481802,1,8,0:0:0:0:
288,256,482049,1,0,0:0:0:0:
176,240,482172,1,8,0:0:0:0:
288,256,482296,1,0,0:0:0:0:
288,256,482420,1,8,0:0:0:0:
288,256,482481,1,0,0:0:0:0:
288,256,482543,1,0,0:0:0:0:
288,256,482666,1,8,0:0:0:0:
304,256,482728,1,8,0:0:0:0:
304,256,482790,1,8,0:0:0:0:
304,256,482852,1,8,0:0:0:0:
304,256,482913,1,0,0:0:0:0:
304,256,482975,1,0,0:0:0:0:
304,256,483037,1,8,0:0:0:0:
224,208,483160,1,0,0:0:0:0:
240,208,483284,1,8,0:0:0:0:
240,208,483345,1,0,0:0:0:0:
240,208,483407,1,8,0:0:0:0:
272,224,483531,1,0,0:0:0:0:
272,224,483654,1,0,0:0:0:0:
272,224,483778,1,8,0:0:0:0:
144,192,483900,1,4,0:0:0:0:
272,224,484024,1,0,0:0:0:0:
240,224,484086,1,0,0:0:0:0:
272,224,484148,1,8,0:0:0:0:
272,224,484271,1,0,0:0:0:0:
256,224,484395,1,8,0:0:0:0:
240,224,484518,1,0,0:0:0:0:
240,224,484642,1,8,0:0:0:0:
240,224,484765,1,0,0:0:0:0:
240,224,484889,1,8,0:0:0:0:
240,224,484950,1,8,0:0:0:0:
240,224,485012,1,0,0:0:0:0:
240,224,485073,1,0,0:0:0:0:
224,224,485136,1,8,0:0:0:0:
224,224,485197,1,8,0:0:0:0:
224,224,485259,1,8,0:0:0:0:
272,240,485320,1,0,0:0:0:0:
256,224,485382,1,8,0:0:0:0:
304,256,485444,1,0,0:0:0:0:
256,224,485506,1,0,0:0:0:0:
304,256,485567,1,0,0:0:0:0:
256,224,485629,1,8,0:0:0:0:
256,224,485691,1,0,0:0:0:0:
256,224,485753,1,8,0:0:0:0:
192,224,485814,1,0,0:0:0:0:
256,224,485876,1,8,0:0:0:0:
256,224,485938,1,8,0:0:0:0:
256,224,486000,1,0,0:0:0:0:
256,224,486061,1,0,0:0:0:0:
256,224,486123,1,8,0:0:0:0:
240,240,486184,1,8,0:0:0:0:
256,224,486247,1,0,0:0:0:0:
368,320,486308,1,0,0:0:0:0:
272,240,486370,1,12,0:0:0:0:
272,240,486534,1,12,0:0:0:0:
272,240,486699,1,12,0:0:0:0:
