osu file format v14

[General]
AudioFilename: audio.mp3
AudioLeadIn: 0
PreviewTime: 374843
Countdown: 0
SampleSet: Normal
StackLeniency: 0.7
Mode: 1
LetterboxInBreaks: 0
WidescreenStoryboard: 0

[Editor]
Bookmarks: 8231,38467,68703,83821,114057,153742,161301,253427,260514,265238,265711,273860,274687,275159,279411,285553,289805,320277,363506,374844,401300,439538,447834,447893,447952,448011,448070,448543,448544,449014,459883,462245,492952,508691,512796
DistanceSpacing: 1.4
BeatDivisor: 3
GridSize: 8
TimelineZoom: 2.900006

[Metadata]
Title:Lovers in Abyss
TitleUnicode:Lovers in Abyss
Artist:Release Hallucination
ArtistUnicode:Release Hallucination
Creator:Hana Hayashi
Version:The Blasphemous Oath Between Spirit and Flesh
Source:
Tags:featured artist fa dark gothic symphonic prog heavy progressive metal jmetal j-metal rock jrock j-rock japanese emi kaorin kaoru hirato
BeatmapID:3717813
BeatmapSetID:1812405

[Difficulty]
HPDrainRate:4
CircleSize:5
OverallDifficulty:7
ApproachRate:5
SliderMultiplier:1.4
SliderTickRate:1

[Events]
//Background and Video events
0,0,"1561310097.jpg",0,43
//Break Periods
//Storyboard Layer 0 (Background)
//Storyboard Layer 1 (Fail)
//Storyboard Layer 2 (Pass)
//Storyboard Layer 3 (Foreground)
//Storyboard Layer 4 (Overlay)
//Storyboard Sound Samples

[TimingPoints]
672,236.220472440945,16,1,0,20,1,8
4391,-100,16,1,0,100,0,8
4451,236.220472440945,4,1,0,100,1,1
4451,-83.3333333333333,4,1,0,100,0,1
4674,-100,4,1,0,100,0,1
4753,-99.8117676780592,4,1,0,100,0,1
4832,-99.4315599115922,4,1,0,100,0,1
4910,-98.9253283027529,4,1,0,100,0,1
4989,-98.3049543521627,4,1,0,100,0,1
5068,-97.5927531277935,4,1,0,100,0,1
5147,-96.8013384219174,4,1,0,100,0,1
5225,-95.9523112939494,4,1,0,100,0,1
5304,-95.0326275672345,4,1,0,100,0,1
5383,-94.0604938379607,4,1,0,100,0,1
5462,-93.0428098743198,4,1,0,100,0,1
5540,-91.9993971063129,4,1,0,100,0,1
5619,-90.9090909090909,4,1,0,100,0,1
5855,-94.3396226415094,4,1,0,100,0,1
5934,-94.8274695107214,4,1,0,100,0,1
6013,-95.3178391223521,4,1,0,100,0,1
6092,-95.8107445219485,4,1,0,100,0,1
6170,-96.2999112665228,4,1,0,100,0,1
6249,-96.7978951348205,4,1,0,100,0,1
6328,-97.2984541657515,4,1,0,100,0,1
6407,-97.8016016759371,4,1,0,100,0,1
6485,-98.3009328453657,4,1,0,100,0,1
6564,-98.8092643500555,4,1,0,100,0,1
6643,-99.3202245268361,4,1,0,100,0,1
6721,-99.8273091042975,4,1,0,100,0,1
6800,-100.343533770506,4,1,0,100,0,1
6879,-100.86242792574,4,1,0,100,0,1
6958,-101.384005374398,4,1,0,100,0,1
7036,-101.901626692428,4,1,0,100,0,1
7115,-102.428578021652,4,1,0,100,0,1
7194,-102.958254309373,4,1,0,100,0,1
7273,-100,4,1,0,100,0,1
7351,-99.8115719761845,4,1,0,100,0,1
7430,-99.5334692180037,4,1,0,100,0,1
7509,-99.2100801657131,4,1,0,100,0,1
7588,-98.8543782684083,4,1,0,100,0,1
7666,-98.4784261732779,4,1,0,100,0,1
7745,-98.0771993147118,4,1,0,100,0,1
7824,-97.6587391355791,4,1,0,100,0,1
7903,-97.2256255596778,4,1,0,100,0,1
7981,-96.7856309702544,4,1,0,100,0,1
8060,-96.3291511723302,4,1,0,100,0,1
8139,-95.8631792605752,4,1,0,100,0,1
8218,-95.3889378246711,4,1,0,100,0,1
8296,-94.9136236354975,4,1,0,100,0,1
8375,-94.425971935814,4,1,0,100,0,1
8454,-93.9328598634235,4,1,0,100,0,1
8533,-93.4350256704261,4,1,0,100,0,1
8611,-92.93950851941,4,1,0,100,0,1
8690,-92.4341959765047,4,1,0,100,0,1
8769,-91.9259606276182,4,1,0,100,0,1
8847,-91.4217754224238,4,1,0,100,0,1
8926,-90.9091608619913,4,1,0,100,0,1
9005,-90.3949818425641,4,1,0,100,0,1
9084,-89.879619839506,4,1,0,100,0,1
9162,-89.6057347670251,4,1,0,100,0,1
9241,-89.2141886212828,4,1,0,100,0,1
9320,-88.4292322230456,4,1,0,100,0,1
9399,-87.3815903890372,4,1,0,100,0,1
9477,-86.1487953227498,4,1,0,100,0,1
9556,-84.7412748907444,4,1,0,100,0,1
9635,-83.207146970382,4,1,0,100,0,1
9714,-81.5741582274031,4,1,0,100,0,1
9792,-79.8878590854884,4,1,0,100,0,1
9871,-78.125,4,1,0,100,0,1
10107,-83.3333333333333,4,1,0,100,0,1
10186,-84.4250233667625,4,1,0,100,0,1
10265,-85.5310148457407,4,1,0,100,0,1
10344,-86.6514951232148,4,1,0,100,0,1
10422,-87.772192386733,4,1,0,100,0,1
10501,-88.9220327184229,4,1,0,100,0,1
10580,-90.0869362808744,4,1,0,100,0,1
10659,-91.2671004066344,4,1,0,100,0,1
10737,-92.4474930764841,4,1,0,100,0,1
10816,-93.6585811581694,4,1,0,100,0,1
10895,-94.8855348333152,4,1,0,100,0,1
10973,-96.1127261135575,4,1,0,100,0,1
11052,-97.371829775764,4,1,0,100,0,1
11131,-98.6474280489995,4,1,0,100,0,1
11210,-99.9397370172937,4,1,0,100,0,1
11288,-101.232296247031,4,1,0,100,0,1
11367,-102.558467713519,4,1,0,100,0,1
11446,-103.902012398078,4,1,0,100,0,1
11525,-105.263157894737,4,1,0,100,0,1
11762,-99.7506235118244,4,1,0,100,0,1
12308,-101.010101010101,4,1,0,100,0,1
12387,-102.959900764053,4,1,0,100,0,1
12466,-104.947337536901,4,1,0,100,0,1
12544,-106.947252010626,4,1,0,100,0,1
12623,-109.011656694621,4,1,0,100,0,1
12702,-111.115910618492,4,1,0,100,0,1
12780,-113.233375654981,4,1,0,100,0,1
12859,-115.419121494094,4,1,0,100,0,1
12938,-110.803324099723,4,1,0,100,0,1
13178,-111.111111111111,4,1,0,100,0,1
13257,-110.382196143006,4,1,0,100,0,1
13336,-109.333365765832,4,1,0,100,0,1
13414,-105.263157894737,4,1,0,100,0,1
13651,-104.072027592798,4,1,0,100,0,1
13729,-102.644756287575,4,1,0,100,0,1
13808,-101.177872317967,4,1,0,100,0,1
13887,-96.1538461538461,4,1,0,100,0,1
14123,-95.2670444069048,4,1,0,100,0,1
14202,-93.7956096440002,4,1,0,100,0,1
14281,-92.3360241918094,4,1,0,100,0,1
14359,-87.719298245614,4,1,0,100,0,1
14596,-101.781170664842,4,1,0,100,0,1
14836,-99.9999999999999,4,1,0,100,0,1
14914,-98.998996701307,4,1,0,100,0,1
14993,-97.9970412686833,4,1,0,100,0,1
15072,-97.0068687531019,4,1,0,100,0,1
15151,-96.0283076504259,4,1,0,100,0,1
15229,-95.073360806291,4,1,0,100,0,1
15308,-94.1173788867517,4,1,0,100,0,1
15387,-93.1725146331232,4,1,0,100,0,1
15466,-92.2386087551596,4,1,0,100,0,1
15544,-91.3271228504426,4,1,0,100,0,1
15623,-90.4145335108749,4,1,0,100,0,1
15702,-89.512443656212,4,1,0,100,0,1
15789,-83.3333333333333,4,1,0,100,0,0
15841,-103.886196887235,4,1,0,85,0,0
17796,-101.445014527025,4,1,0,85,0,0
17915,-99.2714469636492,4,1,0,85,0,0
18033,-97.5120497843057,4,1,0,85,0,0
18269,-95.4584915158356,4,1,0,85,0,0
18499,-91.116173120729,4,1,0,85,0,0
18624,-102.040816326531,4,1,0,85,0,0
19411,-100.031101746498,4,1,0,85,0,0
19489,-98.0856631904247,4,1,0,85,0,0
19568,-96.1538461538461,4,1,0,85,0,0
20501,-95.0118764845605,4,1,0,85,0,0
21450,-96.6715055067335,4,1,0,85,0,0
21509,-97.5135266972848,4,1,0,85,0,0
21568,-98.3638132889298,4,1,0,85,0,0
21686,-100.089574009131,4,1,0,85,0,0
21804,-101.849584902859,4,1,0,85,0,0
21863,-102.742689816779,4,1,0,85,0,0
21922,-103.644667124141,4,1,0,85,0,0
22040,-105.475666645515,4,1,0,85,0,0
22159,-107.359443673547,4,1,0,85,0,0
22218,-108.307574209456,4,1,0,85,0,0
22277,-109.265243039544,4,1,0,85,0,0
22395,-111.209664136087,4,1,0,85,0,0
22513,-113.193662315738,4,1,0,85,0,0
22572,-114.200809528276,4,1,0,85,0,0
22631,-115.218222922733,4,1,0,85,0,0
22749,-115.924746477728,4,1,0,85,0,0
22867,-113.960113960114,4,1,0,85,0,0
22985,-109.849485835307,4,1,0,85,0,0
23103,-105.022192729408,4,1,0,85,0,0
23222,-98.706758641033,4,1,0,85,0,0
23348,-90.9090909090909,4,1,0,85,0,0
23466,-91.8956393785902,4,1,0,85,0,0
23584,-92.9038348757706,4,1,0,85,0,0
23702,-93.9343977785491,4,1,0,85,0,0
23820,-94.9880807873993,4,1,0,85,0,0
23938,-96.0656707587635,4,1,0,85,0,0
24056,-97.1679906646919,4,1,0,85,0,0
24174,-98.2959016889642,4,1,0,85,0,0
24293,-99.4602044332146,4,1,0,85,0,0
24411,-100.642282154783,4,1,0,85,0,0
24529,-101.852795659299,4,1,0,85,0,0
24647,-103.092783505155,4,1,0,85,0,0
24765,-95.2380952380952,4,1,0,85,0,0
24883,-96.6159882295243,4,1,0,85,0,0
25001,-98.0343368997263,4,1,0,85,0,0
25119,-99.4949494949495,4,1,0,85,0,0
25237,-100.999743655473,4,1,0,85,0,0
25356,-102.30179028133,4,1,0,85,0,0
25474,-97.0873786407767,4,1,0,85,0,0
25592,-95.0570342205323,4,1,0,85,0,0
25710,-93.1098696461825,4,1,0,85,0,0
25828,-91.2408759124088,4,1,0,85,0,0
25946,-89.4454382826476,4,1,0,85,0,0
26064,-86.7678958785249,4,1,0,85,0,0
26183,-95.0118764845606,4,1,0,85,0,0
26419,-94.0950048509421,4,1,0,85,0,0
26537,-92.7975568547609,4,1,0,85,0,0
26655,-91.3269671040873,4,1,0,85,0,0
26773,-89.7529267458371,4,1,0,85,0,0
26891,-88.1151172296489,4,1,0,85,0,0
27009,-86.4398226339685,4,1,0,85,0,0
27127,-84.7457627118644,4,1,0,85,0,0
27245,-86.5800865800866,4,1,0,85,0,0
27304,-87.527352297593,4,1,0,85,0,0
27363,-88.495575221239,4,1,0,85,0,0
27482,-86.9692855308062,4,1,0,85,0,0
27600,-88.5021845475933,4,1,0,85,0,0
27659,-89.2890780996873,4,1,0,85,0,0
27718,-90.0900900900901,4,1,0,85,0,0
27836,-88.495575221239,4,1,0,85,0,0
27954,-90.0900900900901,4,1,0,85,0,0
28013,-90.9090909090909,4,1,0,85,0,0
28072,-91.743119266055,4,1,0,85,0,0
28190,-92.5868273703749,4,1,0,85,0,0
28308,-93.4382945673764,4,1,0,85,0,0
28426,-94.2975922129219,4,1,0,85,0,0
28545,-95.1721754487474,4,1,0,85,0,0
28663,-96.0474185882247,4,1,0,85,0,0
28781,-96.9307108297592,4,1,0,85,0,0
28899,-97.8221261962608,4,1,0,85,0,0
29017,-98.7217393913849,4,1,0,85,0,0
29135,-99.6296258057929,4,1,0,85,0,0
29253,-100.54586152347,4,1,0,85,0,0
29371,-101.470523328103,4,1,0,85,0,0
29430,-101.936038200836,4,1,0,85,0,0
29489,-102.403688709511,4,1,0,85,0,0
29608,-103.353453675194,4,1,0,85,0,0
29726,-104.303935271773,4,1,0,85,0,0
29785,-104.782448948071,4,1,0,85,0,0
29844,-105.263157894737,4,1,0,85,0,0
29962,-100,4,1,0,85,0,0
30021,-99.7155548890742,4,1,0,85,0,0
30080,-99.3025151065565,4,1,0,85,0,0
30139,-98.8241383384045,4,1,0,85,0,0
30198,-98.2999301665672,4,1,0,85,0,0
30257,-97.7407096024552,4,1,0,85,0,0
30316,-97.1536308454023,4,1,0,85,0,0
30375,-96.5438880622557,4,1,0,85,0,0
30434,-95.9154779810056,4,1,0,85,0,0
30513,-95.0503038869693,4,1,0,85,0,0
30592,-94.1634903187262,4,1,0,85,0,0
30671,-93.2599483539116,4,1,0,85,0,0
30749,-92.3553572837092,4,1,0,85,0,0
30828,-91.4298357173817,4,1,0,85,0,0
30907,-90.4977375565611,4,1,0,85,0,1
45072,-92.3787528868361,4,1,0,85,0,1
45151,-94.6188056544412,4,1,0,85,0,1
45229,-96.9396998150763,4,1,0,85,0,1
45308,-99.4093625672574,4,1,0,85,0,1
45387,-102.00815058072,4,1,0,85,0,1
45466,-104.746462590813,4,1,0,85,0,1
45544,-107.598274481832,4,1,0,85,0,1
45781,-113.636363636364,4,1,0,85,0,1
46025,-121.139531954943,4,1,0,85,0,0
46143,-125.04102057418,4,1,0,85,0,0
46261,-129.138118579912,4,1,0,85,0,0
46379,-133.333333333333,4,1,0,85,0,0
46439,-133.333333333333,4,1,0,85,0,0
53551,-120.481927710843,4,1,0,85,0,0
53686,-124.621847108515,4,1,0,85,0,0
53787,-128.904019646927,4,1,0,85,0,0
53922,-133.333333333333,4,1,0,85,0,0
58545,-133.331716876716,4,1,0,85,0,0
58603,-133.010020786699,4,1,0,85,0,0
58663,-132.531359341645,4,1,0,85,0,0
58781,-131.386387789422,4,1,0,85,0,0
58899,-130.074079374785,4,1,0,85,0,0
59017,-128.652030776915,4,1,0,85,0,0
59135,-127.152877599605,4,1,0,85,0,0
59194,-126.381468143363,4,1,0,85,0,0
59253,-125.598429868081,4,1,0,85,0,0
59371,-124.004542836425,4,1,0,85,0,0
59489,-122.38333121256,4,1,0,85,0,0
59608,-120.730407912953,4,1,0,85,0,0
59726,-119.081298852151,4,1,0,85,0,0
59785,-118.254997833139,4,1,0,85,0,0
59844,-117.428457077152,4,1,0,85,0,0
59903,-116.60229230978,4,1,0,85,0,0
59962,-115.777064726916,4,1,0,85,0,0
60021,-114.953286339998,4,1,0,85,0,0
60080,-114.131424623413,4,1,0,85,0,0
60139,-113.311906583158,4,1,0,85,0,0
60198,-112.495122341181,4,1,0,85,0,0
60316,-110.871150025944,4,1,0,85,0,0
60434,-109.262003347873,4,1,0,85,0,0
60552,-107.669758969957,4,1,0,85,0,0
60671,-106.082885541848,4,1,0,85,0,0
60789,-104.529478443628,4,1,0,85,0,0
60907,-102.997274783674,4,1,0,85,0,0
61025,-101.4872035145,4,1,0,85,0,0
61143,-100,4,1,0,85,0,0
61261,-102.818372270193,4,1,0,85,0,0
61379,-105.716176762919,4,1,0,85,0,0
61497,-108.695652173913,4,1,0,85,0,0
61557,-132.890366099807,4,1,0,85,0,0
68669,-120.481927710843,4,1,0,85,0,0
68804,-124.621847108515,4,1,0,85,0,0
68905,-128.904019646927,4,1,0,85,0,0
69040,-133.333333333333,4,1,0,85,0,0
73184,-100.250626270641,4,1,0,85,0,0
73420,-121.951219512195,4,1,0,85,0,0
73891,-119.773319814646,4,1,0,85,0,0
73970,-119.053000857091,4,1,0,85,0,0
74048,-118.34605007423,4,1,0,85,0,0
74127,-117.634314743256,4,1,0,85,0,0
74206,-116.926859801707,4,1,0,85,0,0
74285,-116.223659507244,4,1,0,85,0,0
74363,-115.533509687549,4,1,0,85,0,0
74364,-115.524688272339,4,1,0,85,0,0
74481,-114.497218497852,4,1,0,85,0,0
74599,-113.470222441945,4,1,0,85,0,0
74718,-112.443851982167,4,1,0,85,0,0
74836,-111.435273834927,4,1,0,85,0,0
74954,-110.435742246136,4,1,0,85,0,0
75072,-109.44517607164,4,1,0,85,0,0
75190,-108.463494895117,4,1,0,85,0,0
75308,-107.490619021549,4,1,0,85,0,0
75309,-107.482411711098,4,1,0,85,0,0
75426,-106.526469470753,4,1,0,85,0,0
75544,-105.570967970967,4,1,0,85,0,0
75662,-104.624036952494,4,1,0,85,0,0
75781,-103.677682758417,4,1,0,85,0,0
75859,-103.062032430718,4,1,0,85,0,0
75938,-102.442215464144,4,1,0,85,0,0
76017,-101.826126088255,4,1,0,85,0,0
76096,-101.213741885252,4,1,0,85,0,0
76174,-100.612722729524,4,1,0,85,0,0
76253,-100.007635956731,4,1,0,85,0,0
76254,-100,4,1,0,85,0,0
76314,-125.000000465661,4,1,0,85,0,0
81922,-121.951219512195,4,1,0,85,0,0
81923,-121.951219512195,4,1,0,85,0,0
82001,-120.626285889727,4,1,0,85,0,0
82080,-119.299037942157,4,1,0,85,0,0
82159,-117.986393669907,4,1,0,85,0,0
82237,-116.704535722178,4,1,0,85,0,0
82316,-115.420438691693,4,1,0,85,0,0
82395,-114.150470548089,4,1,0,85,0,0
82474,-112.894475831584,4,1,0,85,0,0
82552,-111.667938799658,4,1,0,85,0,0
82631,-110.439259316674,4,1,0,85,0,0
82710,-109.224098962709,4,1,0,85,0,0
82788,-108.037438577694,4,1,0,85,0,0
82867,-106.848705396071,4,1,0,85,0,0
82868,-106.833742276007,4,1,0,85,0,0
82946,-105.673051815332,4,1,0,85,0,0
83025,-104.510333920962,4,1,0,85,0,0
83103,-103.374886027442,4,1,0,85,0,0
83182,-102.237454792631,4,1,0,85,0,0
83261,-101.112538684691,4,1,0,85,0,0
83340,-100,4,1,0,85,0,0
83873,-124.223602932869,4,1,0,85,0,0
89726,-124.223602484472,4,1,0,85,0,0
89804,-122.268295680829,4,1,0,85,0,0
89883,-120.319290075506,4,1,0,85,0,0
89962,-118.401352400167,4,1,0,85,0,0
90041,-116.513987419565,4,1,0,85,0,0
90119,-114.680031651381,4,1,0,85,0,0
90198,-112.851986014017,4,1,0,85,0,0
90277,-111.0530801563,4,1,0,85,0,0
90355,-109.30508026858,4,1,0,85,0,0
90434,-107.56271350909,4,1,0,85,0,0
90552,-105.011780333078,4,1,0,85,0,0
90671,-102.500493515731,4,1,0,85,0,0
90789,-100.069614813097,4,1,0,85,0,0
90907,-97.6963862842736,4,1,0,85,0,0
91025,-95.3794407106768,4,1,0,85,0,0
91143,-93.11744329837,4,1,0,85,0,0
91261,-90.9090909090909,4,1,0,85,0,0
91372,-88.8888888888889,4,1,0,85,0,0
91481,-100,4,1,0,85,0,0
97463,-111.735547298941,4,1,0,85,0,0
97935,-116.859041746074,4,1,0,85,0,0
98408,-122.229077192748,4,1,0,85,0,0
98644,-125,4,1,0,85,0,0
98939,-90.9090909090909,4,1,0,85,0,1
113112,-90.9090909090909,4,1,0,85,0,0
114057,-90.9090909090909,4,1,0,85,0,1
128229,-100,4,1,0,85,0,1
128230,-100,4,1,0,85,0,1
128583,-96.4987285620159,4,1,0,85,0,1
128938,-93.1012444622223,4,1,0,85,0,1
129175,-90.9090909090909,4,1,0,85,0,0
130120,-90.9008271975275,4,1,0,85,0,1
130237,-92.0247459897904,4,1,0,85,0,1
130277,-92.4120694269875,4,1,0,85,0,1
130316,-92.7928618820965,4,1,0,85,0,1
130356,-93.1866919937248,4,1,0,85,0,1
130415,-93.7737318243933,4,1,0,85,0,1
130474,-94.3682147880485,4,1,0,85,0,1
130533,-94.9702833461016,4,1,0,85,0,1
130592,-95.5800836189189,4,1,0,85,0,1
130651,-96.1977655040513,4,1,0,85,0,1
130710,-96.8234827990778,4,1,0,85,0,1
130769,-97.4573933292735,4,1,0,85,0,1
130828,-98.0996590803276,4,1,0,85,0,1
130887,-98.7504463363428,4,1,0,85,0,1
130946,-99.409925823364,4,1,0,85,0,1
131005,-100.078272858698,4,1,0,85,0,1
131065,-100.755667506297,4,1,0,85,0,0
144284,-98.5221674876848,4,1,0,85,0,0
144285,-98.5221674876848,4,1,0,85,0,0
144344,-97.730667020645,4,1,0,85,0,0
144403,-96.9461118464089,4,1,0,85,0,0
144462,-96.1684316513873,4,1,0,85,0,0
144521,-95.3975569844709,4,1,0,85,0,0
144580,-94.6334192440268,4,1,0,85,0,0
144639,-93.8759506651331,4,1,0,85,0,0
144698,-93.125084307043,4,1,0,85,0,0
144757,-92.3807540408753,4,1,0,85,0,0
144816,-91.6428945375261,4,1,0,85,0,0
144875,-90.9114412557977,4,1,0,85,0,0
144934,-90.1863304307386,4,1,0,85,0,0
144993,-89.4674990621915,4,1,0,85,0,0
145052,-88.7548849035457,4,1,0,85,0,0
145111,-88.048426450687,4,1,0,85,0,0
145170,-87.348062931144,4,1,0,85,0,0
145229,-85.8369098712447,4,1,0,85,0,0
145230,-85.8369098712447,4,1,0,85,0,0
145288,-87.2953888967455,4,1,0,85,0,0
145348,-88.8324750965345,4,1,0,85,0,0
145407,-90.3726264286082,4,1,0,85,0,0
145466,-91.9418383682611,4,1,0,85,0,0
145525,-93.5407420343673,4,1,0,85,0,0
145584,-95.1699851875124,4,1,0,85,0,0
145643,-96.8302327733768,4,1,0,85,0,0
145702,-98.5221674876848,4,1,0,85,0,0
145939,-93.6768149882903,4,1,0,85,0,0
146175,-83.6820083682008,4,1,0,85,0,0
146234,-100.502512562814,4,1,0,85,0,0
160119,-100.502512562814,4,1,0,85,0,0
160178,-100.331459327889,4,1,0,85,0,0
160237,-99.9857627596554,4,1,0,85,0,0
160296,-99.5185194097782,4,1,0,85,0,0
160355,-98.9522128746152,4,1,0,85,0,0
160356,-98.9418524354514,4,1,0,85,0,0
160474,-97.5649302317427,4,1,0,85,0,0
160592,-95.9309213939886,4,1,0,85,0,0
160710,-94.0984801351328,4,1,0,85,0,0
160828,-92.1139008114788,4,1,0,85,0,0
160946,-90.0153860370666,4,1,0,85,0,0
161064,-87.8350484414727,4,1,0,85,0,0
161182,-85.6000457263138,4,1,0,85,0,0
161300,-83.3333333333333,4,1,0,85,0,0
161353,-99.7506236600937,4,1,0,85,0,0
167678,-99.7506234413965,4,1,0,85,0,0
167796,-98.3918939742459,4,1,0,85,0,0
167855,-97.7194854320046,4,1,0,85,0,0
167914,-97.0516721183884,4,1,0,85,0,0
167915,-97.0403926690612,4,1,0,85,0,0
167973,-96.3884226296827,4,1,0,85,0,0
168032,-95.7297057767849,4,1,0,85,0,0
168150,-94.4257462862761,4,1,0,85,0,0
168268,-93.1395483708092,4,1,0,85,0,0
168387,-91.860192764336,4,1,0,85,0,0
168446,-91.2324217578866,4,1,0,85,0,0
168505,-90.6089409278964,4,1,0,85,0,0
168623,-89.3747327216854,4,1,0,85,0,0
168741,-88.1573359899345,4,1,0,85,0,0
168859,-86.9565217391304,4,1,0,85,0,0
168912,-100.250626787311,4,1,0,85,0,0
175466,-102.040816326531,4,1,0,85,0,0
175584,-104.659649790868,4,1,0,85,0,0
175702,-107.345694484602,4,1,0,85,0,0
175820,-110.100675354897,4,1,0,85,0,0
175938,-112.92636161894,4,1,0,85,0,0
176174,-118.797155393323,4,1,0,85,0,0
176292,-121.846033060243,4,1,0,85,0,0
176411,-125,4,1,0,85,0,0
182081,-121.951219512195,4,1,0,85,0,0
182082,-121.951219512195,4,1,0,85,0,0
182160,-120.626285889727,4,1,0,85,0,0
182239,-119.299037942157,4,1,0,85,0,0
182318,-117.986393669907,4,1,0,85,0,0
182396,-116.704535722178,4,1,0,85,0,0
182475,-115.420438691693,4,1,0,85,0,0
182554,-114.150470548089,4,1,0,85,0,0
182631,-112.894475831584,4,1,0,85,0,0
182711,-111.667938799658,4,1,0,85,0,0
182790,-110.439259316674,4,1,0,85,0,0
182869,-109.224098962709,4,1,0,85,0,0
182947,-108.037438577694,4,1,0,85,0,0
183026,-106.848705396071,4,1,0,85,0,0
183027,-106.833742276007,4,1,0,85,0,0
183105,-105.673051815332,4,1,0,85,0,0
183184,-104.510333920962,4,1,0,85,0,0
183262,-103.374886027442,4,1,0,85,0,0
183341,-102.237454792631,4,1,0,85,0,0
183420,-101.112538684691,4,1,0,85,0,0
183499,-100,4,1,0,85,0,0
184030,-124.223602932869,4,1,0,85,0,0
189884,-124.198354081694,4,1,0,85,0,0
189962,-122.244707357971,4,1,0,85,0,0
190041,-120.297336240139,4,1,0,85,0,0
190120,-118.380986950185,4,1,0,85,0,0
190199,-116.495165307109,4,1,0,85,0,0
190277,-114.662690153033,4,1,0,85,0,0
190356,-112.836101371213,4,1,0,85,0,0
190435,-111.038610341883,4,1,0,85,0,0
190513,-109.291967087992,4,1,0,85,0,0
190592,-107.550934492651,4,1,0,85,0,0
190710,-105.00192141136,4,1,0,85,0,0
190827,-102.534161297369,4,1,0,85,0,0
190947,-100.063360261157,4,1,0,85,0,0
191065,-97.6918065832012,4,1,0,85,0,0
191183,-95.3764599607821,4,1,0,85,0,0
191301,-93.1159882574524,4,1,0,85,0,0
191419,-90.9090909090909,4,1,0,85,0,0
191530,-88.8888888888889,4,1,0,85,0,0
191639,-100,4,1,0,85,0,0
197620,-111.746161151367,4,1,0,85,0,0
198092,-116.870142283492,4,1,0,85,0,0
198565,-122.240687834292,4,1,0,85,0,0
198801,-125.011873853803,4,1,0,85,0,0
199096,-90.9090909090909,4,1,0,85,0,1
213269,-90.9090909090909,4,1,0,85,0,0
214214,-90.9090909090909,4,1,0,85,0,1
228387,-100,4,1,0,85,0,1
228741,-96.4926355666616,4,1,0,85,0,1
229095,-93.1082871860057,4,1,0,85,0,1
229332,-90.9090909090909,4,1,0,85,0,0
233112,-74.0740740740741,4,1,0,85,0,1
233171,-81.300813126323,4,1,0,85,0,1
235939,-89.8876404494382,4,1,0,85,0,1
236891,-100,4,1,0,55,0,0
237355,-100,4,1,0,55,0,0
237828,-109.043272707201,4,1,0,55,0,0
238300,-118.90435322697,4,1,0,55,0,0
238773,-129.680982157426,4,1,0,55,0,0
239245,-141.408387023299,4,1,0,55,0,0
239718,-154.224618500506,4,1,0,55,0,0
240190,-168.171571333147,4,1,0,55,0,0
240663,-183.413423895514,4,1,0,55,0,0
241135,-200,4,1,0,55,0,0
241607,-192.307692307692,4,1,0,55,0,0
241608,-192.307692307692,4,1,0,55,0,0
241666,-190.599940312312,4,1,0,55,0,0
241725,-188.878303350776,4,1,0,55,0,0
241785,-187.143433960316,4,1,0,55,0,0
241844,-185.453018672217,4,1,0,55,0,0
241962,-182.117857347189,4,1,0,55,0,0
242080,-178.842675100116,4,1,0,55,0,0
242198,-175.626393275592,4,1,0,55,0,0
242316,-172.467952616601,4,1,0,55,0,0
242552,-166.32045267222,4,1,0,55,0,0
242553,-166.294875771197,4,1,0,55,0,0
242670,-163.329368756277,4,1,0,55,0,0
242788,-160.392076077963,4,1,0,55,0,0
242907,-157.48338560899,4,1,0,55,0,0
243025,-154.651226279483,4,1,0,55,0,0
243143,-151.870000109921,4,1,0,55,0,0
243379,-146.456699823901,4,1,0,55,0,0
243497,-143.822842879748,4,1,0,55,0,0
243498,-143.80072568034,4,1,0,55,0,0
243556,-142.523730604008,4,1,0,55,0,0
243615,-141.236352852988,4,1,0,55,0,0
243674,-139.960603631945,4,1,0,55,0,0
243733,-138.69637790356,4,1,0,55,0,0
243851,-136.202081510773,4,1,0,55,0,0
243970,-133.732073602452,4,1,0,55,0,0
244088,-131.327054568585,4,1,0,55,0,0
244324,-126.64599325599,4,1,0,55,0,0
244443,-124.349283826665,4,1,0,55,0,0
244560,-122.131785110736,4,1,0,55,0,0
244619,-121.028602207948,4,1,0,55,0,0
244678,-119.935384053614,4,1,0,55,0,0
244796,-117.778482767985,4,1,0,55,0,0
244855,-116.714622050743,4,1,0,55,0,0
244914,-115.660370895443,4,1,0,55,0,0
244974,-114.598016810321,4,1,0,55,0,0
245033,-113.562884369376,4,1,0,55,0,0
245092,-112.537101995737,4,1,0,55,0,0
245151,-111.520585232812,4,1,0,55,0,0
245387,-107.54551171269,4,1,0,55,0,0
245446,-106.574082615134,4,1,0,55,0,0
245505,-105.611428170062,4,1,0,55,0,0
245623,-103.712126917186,4,1,0,55,0,0
245682,-102.775323732634,4,1,0,55,0,0
245741,-101.846982434195,4,1,0,55,0,0
245800,-100.927026587974,4,1,0,55,0,0
245859,-100.015380450483,4,1,0,55,0,0
245978,-86.9565217391304,4,1,0,55,0,0
246096,-91.1034394062302,4,1,0,55,0,0
246214,-95.4481217239136,4,1,0,55,0,0
246332,-100,4,1,0,55,0,0
246570,-142.348754757891,4,1,0,55,0,0
255789,-129.032257946671,4,1,0,55,0,0
256379,-142.362745729316,4,1,0,55,0,0
256438,-142.116189160836,4,1,0,55,0,0
256497,-141.870059601129,4,1,0,55,0,0
256615,-141.37907855119,4,1,0,55,0,0
256733,-140.889796678596,4,1,0,55,0,0
256970,-139.91219635165,4,1,0,55,0,0
257324,-138.464601787886,4,1,0,55,0,0
257383,-138.224796374623,4,1,0,55,0,0
257442,-137.985406277878,4,1,0,55,0,0
257560,-137.507869158058,4,1,0,55,0,0
257678,-137.031984689101,4,1,0,55,0,0
257915,-136.081152789331,4,1,0,55,0,0
258269,-134.673195926774,4,1,0,55,0,0
258328,-134.439956810151,4,1,0,55,0,0
258387,-134.207121637944,4,1,0,55,0,0
258505,-133.742660329642,4,1,0,55,0,0
258623,-133.279806419698,4,1,0,55,0,0
258741,-132.81855434526,4,1,0,55,0,0
258859,-132.358898562727,4,1,0,55,0,0
259096,-131.440492080785,4,1,0,55,0,0
259332,-130.532293118519,4,1,0,55,0,0
259450,-130.080549582874,4,1,0,55,0,0
259568,-129.630369432175,4,1,0,55,0,0
259686,-129.18174725589,4,1,0,55,0,0
259745,-128.958018722484,4,1,0,55,0,0
259804,-128.734677662214,4,1,0,55,0,0
259922,-128.289155277998,4,1,0,55,0,0
260041,-127.841418775206,4,1,0,55,0,0
260159,-127.398987763388,4,1,0,55,0,0
260277,-126.95808790792,4,1,0,55,0,0
260513,-113.636363636364,4,1,0,55,0,0
261104,-123.910577998951,4,1,0,55,0,0
261163,-123.69597854912,4,1,0,55,0,0
261222,-123.48175076186,4,1,0,55,0,0
261340,-123.054407601451,4,1,0,55,0,0
261458,-122.628543381659,4,1,0,55,0,0
261695,-121.777653488075,4,1,0,55,0,0
262049,-120.517687067891,4,1,0,55,0,0
262108,-120.30896373081,4,1,0,55,0,0
262167,-120.10060187952,4,1,0,55,0,0
262285,-119.684960131184,4,1,0,55,0,0
262403,-119.270756827453,4,1,0,55,0,0
262638,-118.450125614074,4,1,0,55,0,0
262994,-117.217699495495,4,1,0,55,0,0
263053,-117.014691372796,4,1,0,55,0,0
263112,-116.812034837768,4,1,0,55,0,0
263230,-116.407774096132,4,1,0,55,0,0
263348,-116.004912411943,4,1,0,55,0,0
263466,-115.603444943371,4,1,0,55,0,0
263584,-115.203366865343,4,1,0,55,0,0
263821,-114.403998481203,4,1,0,55,0,0
263938,-114.011420973918,4,1,0,55,0,0
264057,-113.61351458195,4,1,0,55,0,0
264175,-113.220323214909,4,1,0,55,0,0
264293,-112.828492596646,4,1,0,55,0,0
264411,-112.438018017908,4,1,0,55,0,0
264470,-112.243287776178,4,1,0,55,0,0
264529,-112.048894785742,4,1,0,55,0,0
264647,-111.661118223434,4,1,0,55,0,0
264764,-111.277952914225,4,1,0,55,0,0
264884,-110.886328648491,4,1,0,55,0,0
265002,-110.502575471698,4,1,0,55,0,0
265119,-110.12338570383,4,1,0,55,0,0
265238,-98.8872554305473,4,1,0,55,0,0
265828,-107.85323334452,4,1,0,55,0,0
265887,-107.666443443997,4,1,0,55,0,0
265946,-107.479977042973,4,1,0,55,0,0
266064,-107.10801249933,4,1,0,55,0,0
266182,-106.737335243102,4,1,0,55,0,0
266419,-105.996710611008,4,1,0,55,0,0
266773,-104.900020929489,4,1,0,55,0,0
266832,-104.718345667037,4,1,0,55,0,0
266891,-104.536985046094,4,1,0,55,0,0
267009,-104.175205549984,4,1,0,55,0,0
267127,-103.814678093082,4,1,0,55,0,0
267364,-103.094333074222,4,1,0,55,0,0
267718,-102.027672697181,4,1,0,55,0,0
267777,-101.850972024955,4,1,0,55,0,0
267836,-101.674577378798,4,1,0,55,0,0
267954,-101.322704045595,4,1,0,55,0,0
268072,-100.972048468548,4,1,0,55,0,0
268190,-100.622606433273,4,1,0,55,0,0
268308,-100.274373739968,4,1,0,55,0,0
268545,-99.5785940393543,4,1,0,55,0,0
268663,-99.2339744431517,4,1,0,55,0,0
268781,-98.890547499519,4,1,0,55,0,0
268899,-98.5483090809481,4,1,0,55,0,0
269017,-98.2072550742155,4,1,0,55,0,0
269135,-97.8673813803324,4,1,0,55,0,0
269194,-97.6978858736557,4,1,0,55,0,0
269253,-97.5286839144959,4,1,0,55,0,0
269371,-97.1911586060396,4,1,0,55,0,0
269490,-96.8519558935242,4,1,0,55,0,0
269608,-96.5167725917971,4,1,0,55,0,0
269726,-96.1827492857016,4,1,0,55,0,0
269962,-87.0003043141142,4,1,0,55,0,0
270552,-93.8767305481047,4,1,0,55,0,0
270611,-93.7141464083741,4,1,0,55,0,0
270670,-93.5518438464354,4,1,0,55,0,0
270788,-93.2280815061314,4,1,0,55,0,0
270906,-92.9054396360254,4,1,0,55,0,0
270907,-92.902710159776,4,1,0,55,0,0
271143,-92.2607911923171,4,1,0,55,0,0
271261,-91.9414969010816,4,1,0,55,0,0
271379,-91.6233076171097,4,1,0,55,0,0
271497,-91.3062195162145,4,1,0,55,0,0
271556,-91.1480872179823,4,1,0,55,0,0
271615,-90.9902287874437,4,1,0,55,0,0
271733,-90.675331633034,4,1,0,55,0,0
271851,-90.3615242683652,4,1,0,55,0,0
271852,-90.3588695300064,4,1,0,55,0,0
272088,-89.7345274399888,4,1,0,55,0,0
272324,-89.1144992933328,4,1,0,55,0,0
272383,-88.9601628127104,4,1,0,55,0,0
272442,-88.8060936258443,4,1,0,55,0,0
272560,-88.4987552824894,4,1,0,55,0,0
272678,-88.1924805694941,4,1,0,55,0,0
272796,-87.8872658058678,4,1,0,55,0,0
273032,-87.2800014664113,4,1,0,55,0,0
273151,-86.9753892602151,4,1,0,55,0,0
273269,-86.674386581722,4,1,0,55,0,0
273387,-86.374425607247,4,1,0,55,0,0
273505,-86.0755027316816,4,1,0,55,0,0
273623,-85.7776143623941,4,1,0,55,0,0
273741,-85.4807569191859,4,1,0,55,0,0
273859,-85.1849268342488,4,1,0,55,0,0
273977,-84.8901205521219,4,1,0,55,0,0
274095,-84.5963345296491,4,1,0,55,0,0
274155,-84.24599831508,4,1,0,55,0,0
274214,-84.3010884748342,4,1,0,55,0,0
274332,-84.0093409627319,4,1,0,55,0,0
274450,-83.7186031245537,4,1,0,55,0,0
274509,-83.5736117407574,4,1,0,55,0,0
274568,-83.4288714660406,4,1,0,55,0,0
274687,236.220472440945,5,1,0,85,1,0
274687,-80,5,1,0,85,0,0
274796,-80.3355484220886,5,1,0,85,0,0
275032,-81.010873397324,5,1,0,85,0,0
275268,-81.6918753590384,5,1,0,85,0,0
275386,-82.0345201074656,5,1,0,85,0,0
275622,-82.7241271537629,5,1,0,85,0,0
275859,-83.4224902765101,5,1,0,85,0,0
275977,-83.7723938387474,5,1,0,85,0,0
276213,-84.4766099784981,5,1,0,85,0,0
276449,-85.1867459726157,5,1,0,85,0,0
276567,-85.5440494500403,5,1,0,85,0,0
276803,-86.2631586639696,5,1,0,85,0,0
277040,-86.9913985491803,5,1,0,85,0,0
277166,-87.356271380661,5,1,0,85,0,0
277394,-88.0937394032556,5,1,0,85,0,0
277630,-88.8311310948509,5,1,0,85,0,0
277748,-89.2037204182411,5,1,0,85,0,0
277985,-89.9567847405296,5,1,0,85,0,0
278221,-90.7129887451126,5,1,0,85,0,0
278339,-91.0934712480671,5,1,0,85,0,0
278575,-91.8592305840399,5,1,0,85,0,0
278811,-92.6314271251449,5,1,0,85,0,0
278929,-93.0199562402406,5,1,0,85,0,0
279166,-93.0232558139535,5,1,0,85,0,0
279402,-85.1063829787234,5,1,0,85,0,0
279520,-85.7049657127846,5,1,0,85,0,0
279756,-86.9147909120363,5,1,0,85,0,0
279992,-88.1416942000611,5,1,0,85,0,0
280111,-88.7668975740275,5,1,0,85,0,0
280347,-90.0199455001459,5,1,0,85,0,0
280592,-91.2906816540615,5,1,0,85,0,0
280701,-91.9327607074324,5,1,0,85,0,0
280819,-86.3873659067863,5,1,0,85,0,0
280937,-93.2304984711153,5,1,0,85,0,0
281174,-94.552171165975,5,1,0,85,0,0
281292,-95.2171894072285,5,1,0,85,0,0
281528,-96.561290699245,5,1,0,85,0,0
281765,-102.948398712048,5,1,0,85,0,0
281773,-97.9301820319149,5,1,0,85,0,0
281890,-98.6131015980245,5,1,0,85,0,0
282118,-100.005140137419,5,1,0,85,0,0
282355,-101.422852851957,5,1,0,85,0,0
282473,-102.136194982495,5,1,0,85,0,0
282709,-103.577966079628,5,1,0,85,0,0
282954,-105.040089451456,5,1,0,85,0,0
283063,-105.778872862632,5,1,0,85,0,0
283300,-107.278436312879,5,1,0,85,0,0
283536,-108.792796122818,5,1,0,85,0,0
283654,-109.557973622673,5,1,0,85,0,0
283890,-111.104511751069,5,1,0,85,0,0
284135,-90.6985771587375,5,1,0,85,0,0
284136,236.220472440945,3,1,0,85,1,8
284137,-90.9090909090909,3,1,0,85,0,0
299713,-91.743119266055,3,1,0,85,0,0
299792,-93.1026197740891,3,1,0,85,0,0
299871,-94.9766861231757,3,1,0,85,0,0
299949,-96.7699861722999,3,1,0,85,0,0
300028,-98.459368519976,3,1,0,85,0,0
300107,-99.9499022912873,3,1,0,85,0,0
300185,-101.159659911716,3,1,0,85,0,0
300264,-102.06025462881,3,1,0,85,0,0
300343,-102.587976198966,3,1,0,85,0,0
300422,-102.578169444514,3,1,0,85,0,0
300500,-102.318541012871,3,1,0,85,0,0
300579,-101.686279745091,3,1,0,85,0,0
300658,-100.714035230121,3,1,0,85,0,0
300737,-99.4488495920823,3,1,0,85,0,0
300815,-97.9689519318898,3,1,0,85,0,0
300894,-96.299950132688,3,1,0,85,0,0
300973,-94.5253459604485,3,1,0,85,0,0
301052,-92.7088430422324,3,1,0,85,0,0
301131,-90.9315456054573,3,1,0,85,0,0
305394,-91.743119266055,3,1,0,85,0,0
305395,-91.743119266055,3,1,0,85,0,0
305473,-92.9097037818537,3,1,0,85,0,0
305552,-94.1063658390555,3,1,0,85,0,0
305630,-95.3030008576181,3,1,0,85,0,0
305709,-96.5304881966323,3,1,0,85,0,0
305788,-97.7737853753565,3,1,0,85,0,0
305866,-99.0170544617185,3,1,0,85,0,0
305945,-100.292378214428,3,1,0,85,0,0
306024,-101.584127932171,3,1,0,85,0,0
306103,-102.892515178736,3,1,0,85,0,0
306104,-102.909184594851,3,1,0,85,0,0
306181,-104.200872862226,3,1,0,85,0,0
306260,-105.542963363067,3,1,0,85,0,0
306339,-106.902339773929,3,1,0,85,0,0
306418,-108.279224734556,3,1,0,85,0,0
306496,-109.656078584399,3,1,0,85,0,0
306575,-111.06843125847,3,1,0,85,0,0
306811,-105.820105820106,3,1,0,85,0,0
306812,-105.820105820106,3,1,0,85,0,0
306871,-105.255120240323,3,1,0,85,0,0
306930,-104.693315324905,3,1,0,85,0,0
306989,-104.13467142107,3,1,0,85,0,0
307048,-103.579169016094,3,1,0,85,0,0
307107,-103.026788736125,3,1,0,85,0,0
307166,-102.47751134499,3,1,0,85,0,0
307225,-101.931317743036,3,1,0,85,0,0
307284,-101.388188965959,3,1,0,85,0,0
307343,-100.848106183666,3,1,0,85,0,0
307402,-100.311050699135,3,1,0,85,0,0
307461,-99.7770039472943,3,1,0,85,0,0
307520,-99.245947493906,3,1,0,85,0,0
307579,-98.7178630344685,3,1,0,85,0,0
307638,-98.1927323931245,3,1,0,85,0,0
307697,-97.6705375215832,3,1,0,85,0,0
307757,-97.1424842359107,3,1,0,85,0,0
307816,-96.626156264802,3,1,0,85,0,0
307875,-96.1127103749312,3,1,0,85,0,0
307934,-95.6021290197778,3,1,0,85,0,0
307993,-95.0943947751355,3,1,0,85,0,0
308052,-94.5894903380964,3,1,0,85,0,0
308111,-94.0873985260454,3,1,0,85,0,0
308229,-93.0915846419505,3,1,0,85,0,0
308289,-92.5894837587952,3,1,0,85,0,0
308347,-92.1068180302127,3,1,0,85,0,0
308406,-91.6185357450057,3,1,0,85,0,0
308465,-91.1329654601934,3,1,0,85,0,0
308524,-90.6500908078859,3,1,0,85,0,0
308583,-90.1698955327938,3,1,0,85,0,0
308642,-89.6923634913084,3,1,0,85,0,0
308701,-89.217478650591,3,1,0,85,0,0
308760,-88.7452250876716,3,1,0,85,0,0
308819,-88.2755869885564,3,1,0,85,0,0
308878,-87.8085486473429,3,1,0,85,0,0
308938,-87.3362445414847,3,1,0,85,0,0
308998,-105.263157894737,3,1,0,85,0,0
309233,-105.127462978813,3,1,0,85,0,0
309292,-104.929666463778,3,1,0,85,0,0
309410,-104.445792343255,3,1,0,85,0,0
309528,-103.885945837629,3,1,0,85,0,0
309646,-103.27316348594,3,1,0,85,0,0
309647,-103.267784757685,3,1,0,85,0,0
309725,-102.839906186041,3,1,0,85,0,0
309804,-102.391411904897,3,1,0,85,0,0
309883,-101.929806616108,3,1,0,85,0,0
310001,-101.219618882967,3,1,0,85,0,0
310119,-100.488759940731,3,1,0,85,0,0
310237,-99.7410250709032,3,1,0,85,0,0
310355,-98.9795358159927,3,1,0,85,0,0
310414,-98.5944680928522,3,1,0,85,0,0
310473,-98.2069116586711,3,1,0,85,0,0
310532,-97.8171342113089,3,1,0,85,0,0
310591,-97.4253843647742,3,1,0,85,0,0
310670,-96.8981503681199,3,1,0,85,0,0
310749,-96.3683058767934,3,1,0,85,0,0
310827,-95.8430650953541,3,1,0,85,0,0
310946,-95.0386403456584,3,1,0,85,0,0
311064,-94.2384235073267,3,1,0,85,0,0
311142,-93.7086351416459,3,1,0,85,0,0
311221,-93.1717412887766,3,1,0,85,0,0
311300,-92.6348178551758,3,1,0,85,0,0
311379,-92.0981305882107,3,1,0,85,0,0
311457,-91.5687091679684,3,1,0,85,0,0
311536,-91.0332047355437,3,1,0,85,0,0
311654,-90.2351116609372,3,1,0,85,0,0
311772,-89.439712192074,3,1,0,85,0,0
311890,-88.6475830251247,3,1,0,85,0,0
311949,-88.2529082673967,3,1,0,85,0,0
312009,-87.8525768844083,3,1,0,85,0,0
312127,-87.0685198631607,3,1,0,85,0,0
312186,-86.6782162942701,3,1,0,85,0,0
312245,-86.2891266234257,3,1,0,85,0,0
312363,-85.5147649993662,3,1,0,85,0,0
312481,-84.7457627118644,3,1,0,85,0,0
312778,-90.4977376114782,3,1,0,85,0,0
313014,-97.087378809326,3,1,0,85,0,0
313190,-101.010101010101,3,1,0,85,0,0
313249,-101.45904971686,3,1,0,85,0,0
313308,-101.909993817538,3,1,0,85,0,0
313367,-102.362942180847,3,1,0,85,0,0
313426,-102.817903714918,3,1,0,85,0,0
313544,-103.733902126003,3,1,0,85,0,0
313662,-104.658061110868,3,1,0,85,0,0
313780,-105.590453371565,3,1,0,85,0,0
313898,-106.531152257843,3,1,0,85,0,0
313899,-106.539159989402,3,1,0,85,0,0
314016,-107.480231772923,3,1,0,85,0,0
314075,-107.957937572384,3,1,0,85,0,0
314135,-108.445917627219,3,1,0,85,0,0
314194,-108.927915506493,3,1,0,85,0,0
314253,-109.412055669779,3,1,0,85,0,0
314371,-110.386800977026,3,1,0,85,0,0
314489,-111.370230230555,3,1,0,85,0,0
314607,-112.362420795111,3,1,0,85,0,0
314666,-112.861825933804,3,1,0,85,0,0
314725,-113.363450724679,3,1,0,85,0,0
314843,-114.37339876862,3,1,0,85,0,0
314902,-114.881741884321,3,1,0,85,0,0
314961,-115.392344377869,3,1,0,85,0,0
315020,-115.905216291274,3,1,0,85,0,0
315079,-116.420367711184,3,1,0,85,0,0
315197,-117.457549641455,3,1,0,85,0,0
315316,-118.51287946628,3,1,0,85,0,0
315434,-119.568703455701,3,1,0,85,0,0
315493,-120.100137582076,3,1,0,85,0,0
315552,-120.633933716422,3,1,0,85,0,0
315670,-121.708654048336,3,1,0,85,0,0
315729,-122.249599382416,3,1,0,85,0,0
315788,-122.792948997908,3,1,0,85,0,0
315847,-123.33871358086,3,1,0,85,0,0
315906,-123.886903864819,3,1,0,85,0,0
316024,-124.990604708683,3,1,0,85,0,0
316247,-114.285714285714,3,1,0,85,0,0
316601,-113.636363636364,3,1,0,85,0,0
316640,-113.579017589392,3,1,0,85,0,0
316680,-113.401880369076,3,1,0,85,0,0
316719,-113.116175812987,3,1,0,85,0,0
316800,-112.212673166699,3,1,0,85,0,0
316878,-110.934871399083,3,1,0,85,0,0
316957,-109.314665130752,3,1,0,85,0,0
317076,-106.451184351162,3,1,0,85,0,0
317155,-104.356332246883,3,1,0,85,0,0
317234,-102.211785539645,3,1,0,85,0,0
317312,-100.116522314567,3,1,0,85,0,0
317428,-95.2380952380952,3,1,0,85,0,0
317546,-93.9683703275062,3,1,0,85,0,0
317664,-91.4905061287985,3,1,0,85,0,0
317782,-88.3171265687549,3,1,0,85,0,0
317900,-84.7184319337258,3,1,0,85,0,0
318018,-80.8849333316807,3,1,0,85,0,0
318137,-76.9564604064674,3,1,0,85,0,0
318447,-90.4977376724973,3,1,0,85,0,0
318683,-96.8523004762595,3,1,0,85,0,0
318859,-101.010101010101,3,1,0,85,0,0
318918,-102.309070863672,3,1,0,85,0,0
318977,-103.624745211779,3,1,0,85,0,0
319036,-104.957338870908,3,1,0,85,0,0
319095,-106.307069420041,3,1,0,85,0,0
319154,-107.674157236182,3,1,0,85,0,0
319213,-109.058825530341,3,1,0,85,0,0
319272,-110.461300383975,3,1,0,85,0,0
319331,-111.881810785907,3,1,0,85,0,0
319390,-113.320588669707,3,1,0,85,0,0
319449,-114.777868951568,3,1,0,85,0,0
319509,-116.279069767442,3,1,0,85,0,0
319568,-116.279069767442,3,1,0,85,0,0
319627,-115.623015401326,3,1,0,85,0,0
319686,-114.676892923478,3,1,0,85,0,0
319745,-113.590658015357,3,1,0,85,0,0
319804,-112.41196389119,3,1,0,85,0,0
319863,-111.167724024208,3,1,0,85,0,0
319922,-109.875905667621,3,1,0,85,0,0
319981,-108.549574823484,3,1,0,85,0,0
320040,-107.198728789385,3,1,0,85,0,0
320099,-105.831270699944,3,1,0,85,0,0
320158,-104.453586568003,3,1,0,85,0,0
320217,-103.070914684232,3,1,0,85,0,0
320276,-102.040816326531,3,1,0,85,0,0
320316,-101.442111371403,3,1,0,85,0,0
320355,-100.850391008931,3,1,0,85,0,0
320394,-100.265533722783,3,1,0,85,0,0
320514,-92.8160386114721,3,1,0,85,0,0
320572,-93.6285754412247,3,1,0,85,0,0
320631,-94.4554642486068,3,1,0,85,0,0
320690,-95.297088673941,3,1,0,85,0,0
320749,-96.1538461538461,3,1,0,85,0,0
320985,-83.3333333333333,3,1,0,85,0,0
321103,-84.230976421395,3,1,0,85,0,0
321221,-85.1382886668192,3,1,0,85,0,0
321280,-85.5956032278047,3,1,0,85,0,0
321339,-86.0553742230333,3,1,0,85,0,0
321457,-86.9823383653757,3,1,0,85,0,0
321516,-87.4495581146323,3,1,0,85,0,0
321575,-87.9192875031812,3,1,0,85,0,0
321694,-88.8743984066717,3,1,0,85,0,0
321812,-89.8317282798964,3,1,0,85,0,0
321930,-90.7993702396454,3,1,0,85,0,0
322048,-91.7774353647971,3,1,0,85,0,0
322166,-92.7660359307399,3,1,0,85,0,0
322284,-93.7652854222612,3,1,0,85,0,0
322402,-94.7752985465743,3,1,0,85,0,0
322403,-94.7839043057738,3,1,0,85,0,0
322520,-95.7961912464861,3,1,0,85,0,0
322638,-96.8280807137066,3,1,0,85,0,0
322697,-97.3481862022717,3,1,0,85,0,0
322757,-97.8799722642424,3,1,0,85,0,0
322875,-98.9343076309944,3,1,0,85,0,0
322934,-99.4657265750341,3,1,0,85,0,0
322993,-100,3,1,0,85,0,0
323105,-106.275717681274,3,1,0,85,0,0
323223,-104.348639720816,3,1,0,85,0,0
323341,-101.139218791551,3,1,0,85,0,0
323459,-97.1784376332323,3,1,0,85,0,0
323577,-92.7823178341521,3,1,0,85,0,0
323695,-88.1743855145007,3,1,0,85,0,0
323814,-83.4762774011062,3,1,0,85,0,0
324746,-92.5544457249836,3,1,0,85,0,0
325219,-83.1293111241579,3,1,0,85,0,0
326164,-92.9847533467397,3,1,0,85,0,0
326655,-86.9565217391304,3,1,0,85,0,1
326725,-88.741821463488,3,1,0,85,0,1
326804,-90.6263200337929,3,1,0,85,0,1
326882,-92.5671700333399,3,1,0,85,0,1
326961,-86.9565217391304,3,1,0,85,0,1
327040,-88.7340137778356,3,1,0,85,0,1
327119,-90.6099315395894,3,1,0,85,0,1
327197,-92.5415799906282,3,1,0,85,0,1
327276,-86.9565217391304,3,1,0,85,0,1
327355,-88.7262074659344,3,1,0,85,0,1
327434,-90.5935489715713,3,1,0,85,0,1
327512,-92.5160040926571,3,1,0,85,0,1
327591,-86.9565217391304,3,1,0,85,0,1
327670,-88.7184025274219,3,1,0,85,0,1
327749,-90.5771723265246,3,1,0,85,0,1
327827,-92.4904423277023,3,1,0,85,0,1
327906,-86.9565217391304,3,1,0,85,0,1
327985,-88.7105989619356,3,1,0,85,0,1
328064,-90.5608016012378,3,1,0,85,0,1
328142,-92.4648946840522,3,1,0,85,0,1
328221,-86.9565217391304,3,1,0,85,0,1
328300,-88.7180245453201,3,1,0,85,0,1
328379,-90.5523694536674,3,1,0,85,0,1
328457,-92.4394658012981,3,1,0,85,0,1
328536,-86.9565217391304,3,1,0,85,0,1
328615,-88.8147513637798,3,1,0,85,0,1
328694,-90.754134610955,3,1,0,85,0,1
328772,-92.7538961344696,3,1,0,85,0,1
328851,-94.8711774620756,3,1,0,85,0,1
328930,-97.0873786407767,3,1,0,85,0,1
329016,-96.6183574879227,3,1,0,85,0,1
329095,-95.7966245700062,3,1,0,85,0,1
329174,-93.4268228035878,3,1,0,85,0,1
329253,-89.8782120847753,3,1,0,85,0,1
329331,-85.6904522993843,3,1,0,85,0,1
329410,-81.2262537505595,3,1,0,85,0,1
329490,-76.9230769230769,3,1,0,85,0,0
329541,-99.5024878498776,3,1,0,85,0,0
331142,-99.5024875621891,3,1,0,85,0,0
331260,-98.5793225488723,3,1,0,85,0,0
331379,-97.6577843011598,3,1,0,85,0,0
331497,-96.7608466778913,3,1,0,85,0,0
331615,-95.8802349512277,3,1,0,85,0,0
331674,-95.4459126358751,3,1,0,85,0,0
331733,-95.0155073997047,3,1,0,85,0,0
331851,-94.1662380946686,3,1,0,85,0,0
331969,-93.332016200731,3,1,0,85,0,0
332087,-92.5124453130814,3,1,0,85,0,0
332205,-91.7071428294099,3,1,0,85,0,0
332323,-90.915739354352,3,1,0,85,0,0
332324,-90.9090909090909,3,1,0,85,0,0
332384,-100.000000149012,3,1,0,85,0,0
333741,-100,3,1,0,85,0,0
333859,-99.2167820319258,3,1,0,85,0,0
333918,-98.6803857989563,3,1,0,85,0,0
333977,-98.0933280879368,3,1,0,85,0,0
334036,-97.4678984534582,3,1,0,85,0,0
334095,-96.8122415054057,3,1,0,85,0,0
334213,-95.4325678601416,3,1,0,85,0,0
334331,-93.9878445570645,3,1,0,85,0,0
334390,-93.2483465712945,3,1,0,85,0,0
334449,-92.5004057356784,3,1,0,85,0,0
334568,-90.9734324025226,3,1,0,85,0,0
334686,-89.4447809306007,3,1,0,85,0,0
334745,-88.6780586888736,3,1,0,85,0,0
334804,-87.9110738503063,3,1,0,85,0,0
334863,-87.1446903879054,3,1,0,85,0,0
334922,-86.3796788580547,3,1,0,85,0,0
335040,-84.8564513289527,3,1,0,85,0,0
335158,-83.3460670455711,3,1,0,85,0,0
335159,-83.3333333333333,3,1,0,85,0,0
335219,-99.5024878498776,3,1,0,85,0,0
337699,-89.2857143480796,3,1,0,85,0,0
337876,-84.3881856540085,3,1,0,85,0,0
338053,-100.000000298023,3,1,0,85,0,0
339410,-100,3,1,0,85,0,0
339411,-100,3,1,0,85,0,0
339469,-99.2559842655448,3,1,0,85,0,0
339528,-98.5048200091157,3,1,0,85,0,0
339587,-97.7593405256935,3,1,0,85,0,0
339646,-97.0195027932045,3,1,0,85,0,0
339705,-96.2852641151636,3,1,0,85,0,0
339764,-95.5565821182106,3,1,0,85,0,0
339823,-94.8334147496648,3,1,0,85,0,0
339883,-94.1036028881028,3,1,0,85,0,0
339942,-93.3914315927013,3,1,0,85,0,0
340001,-92.6846499735548,3,1,0,85,0,0
340060,-91.9832172418666,3,1,0,85,0,0
340119,-91.2870929175277,3,1,0,85,0,0
340178,-90.5962368267804,3,1,0,85,0,0
340237,-89.9106090998999,3,1,0,85,0,0
340296,-89.2301701688937,3,1,0,85,0,0
340355,-88.5548807652176,3,1,0,85,0,0
340414,-87.8847019175099,3,1,0,85,0,0
340473,-87.2195949493421,3,1,0,85,0,0
340532,-86.5595214769871,3,1,0,85,0,0
340591,-85.9044434072037,3,1,0,85,0,0
340650,-85.2543229350386,3,1,0,85,0,0
340709,-84.6091225416443,3,1,0,85,0,0
340768,-83.9688049921141,3,1,0,85,0,0
340828,236.220472440945,6,1,0,85,1,0
340828,-83.3333333333333,6,1,0,85,0,0
340887,-92.5925927458967,6,1,0,85,0,0
342227,-89.2857142857143,6,1,0,85,0,0
342305,-90.7242169228993,6,1,0,85,0,0
342383,-92.1672469779149,6,1,0,85,0,0
342462,-93.6521746497208,6,1,0,85,0,0
342541,-95.1610263320922,6,1,0,85,0,0
342620,-96.6941874702549,6,1,0,85,0,0
342698,-98.2492653743047,6,1,0,85,0,0
342699,-98.2520497194308,6,1,0,85,0,0
342777,-99.8148150484776,6,1,0,85,0,0
342856,-101.422954444864,6,1,0,85,0,0
342934,-103.036155159033,6,1,0,85,0,0
343013,-104.696194305356,6,1,0,85,0,0
343092,-106.382978723404,6,1,0,85,0,0
343175,-100,6,1,0,85,0,0
343234,-99.2047533289445,6,1,0,85,0,0
343293,-98.0643819290452,6,1,0,85,0,0
343352,-96.7644880181207,6,1,0,85,0,0
343411,-95.3651359575818,6,1,0,85,0,0
343470,-93.9004465487714,6,1,0,85,0,0
343529,-92.3931350271326,6,1,0,85,0,0
343588,-90.8595531653189,6,1,0,85,0,0
343648,-89.3120059127635,6,1,0,85,0,0
343891,-111.402668007479,6,1,0,85,0,0
344606,-106.382978723404,6,1,0,85,0,0
344607,-106.382978723404,6,1,0,85,0,0
344724,-108.186994175432,6,1,0,85,0,0
344842,-103.466690451433,6,1,0,85,0,0
344960,-105.109454199005,6,1,0,85,0,0
345078,-100,6,1,0,85,0,0
345197,-98.3868146806197,6,1,0,85,0,0
345315,-96.799653029986,6,1,0,85,0,0
345433,-95.2380952380952,6,1,0,85,0,0
345551,-86.9565217391304,6,1,0,85,0,0
345610,-88.231639120169,6,1,0,85,0,0
345669,-89.5447092949931,6,1,0,85,0,0
345787,-92.2916937475627,6,1,0,85,0,0
345846,-93.7293729372937,6,1,0,85,0,0
345905,-95.212551964597,6,1,0,85,0,0
346023,-98.0392156862745,6,1,0,85,0,0
346141,-96.2165282637901,6,1,0,85,0,0
346260,-92.6459621582324,6,1,0,85,0,0
346378,-88.214696623485,6,1,0,85,0,0
346496,-83.3333333333333,6,1,0,85,0,0
346556,-100.250626738639,6,1,0,85,0,0
346968,-99.009900990099,6,1,0,85,0,0
347047,-98.4237434738074,6,1,0,85,0,0
347126,-97.8336082114627,6,1,0,85,0,0
347204,-97.2544145729921,6,1,0,85,0,0
347283,-96.6712904463073,6,1,0,85,0,0
347362,-96.0916626518827,6,1,0,85,0,0
347441,-95.5155102261898,6,1,0,85,0,0
347519,-94.9500401703506,6,1,0,85,0,0
347598,-94.3807327564289,6,1,0,85,0,0
347677,-93.8148388316533,6,1,0,85,0,0
347756,-93.2523379292112,6,1,0,85,0,0
347834,-92.7002662854426,6,1,0,85,0,0
347913,-92.1444482070707,6,1,0,85,0,0
347992,-91.5919627376396,6,1,0,85,0,0
348071,-91.0427898952835,6,1,0,85,0,0
348149,-90.5037991977106,6,1,0,85,0,0
348228,-89.9611508346462,6,1,0,85,0,0
348307,-89.4217561167165,6,1,0,85,0,0
348386,-88.495575221239,6,1,0,85,0,0
348445,-89.0083088250011,6,1,0,85,0,0
348504,-89.5240131507205,6,1,0,85,0,0
348563,-90.0427054104325,6,1,0,85,0,0
348622,-90.5644029158973,6,1,0,85,0,0
348740,-91.6168834132183,6,1,0,85,0,0
348858,-92.6815951532967,6,1,0,85,0,0
348917,-93.2185820949214,6,1,0,85,0,0
348976,-93.7586802796684,6,1,0,85,0,0
349035,-94.3019077337371,6,1,0,85,0,0
349094,-94.8482825877689,6,1,0,85,0,0
349212,-95.9505475441307,6,1,0,85,0,0
349330,-97.0656223058033,6,1,0,85,0,0
349331,-97.0751272554138,6,1,0,85,0,0
349389,-97.6280098172902,6,1,0,85,0,0
349449,-98.2032711499433,6,1,0,85,0,0
349508,-98.7722500733761,6,1,0,85,0,0
349567,-99.3445255979457,6,1,0,85,0,0
349685,-100.499042961733,6,1,0,85,0,0
349803,-101.666977374274,6,1,0,85,0,0
349862,-102.256024629601,6,1,0,85,0,0
349921,-102.848484759768,6,1,0,85,0,0
349980,-103.444377538593,6,1,0,85,0,0
350039,-104.043722854466,6,1,0,85,0,0
350157,-105.252851227726,6,1,0,85,0,0
350275,-100,6,1,0,85,0,0
350276,-100,6,1,0,85,0,0
350334,-100.895746525546,6,1,0,85,0,0
350393,-101.815169697895,6,1,0,85,0,0
350452,-102.742971211245,6,1,0,85,0,0
350512,-103.695169473042,6,1,0,85,0,0
350571,-104.640102683384,6,1,0,85,0,0
350630,-105.593646697648,6,1,0,85,0,0
350689,-106.555879982697,6,1,0,85,0,0
350748,-107.52688172043,6,1,0,85,0,0
350866,-111.111111111111,6,1,0,85,0,0
350925,-110.581074207676,6,1,0,85,0,0
350984,-110.053565756313,6,1,0,85,0,0
351043,-109.528573695464,6,1,0,85,0,0
351102,-109.006086021112,6,1,0,85,0,0
351220,-107.968576101865,6,1,0,85,0,0
351221,-107.959825975797,6,1,0,85,0,0
351299,-107.279496461409,6,1,0,85,0,0
351378,-106.594814681591,6,1,0,85,0,0
351456,-105.923087047231,6,1,0,85,0,0
351515,-105.417798741685,6,1,0,85,0,0
351575,-104.906418181307,6,1,0,85,0,0
351634,-104.405979723918,6,1,0,85,0,0
351693,-103.907928524182,6,1,0,85,0,0
351811,-102.918942399945,6,1,0,85,0,0
351929,-101.939369354842,6,1,0,85,0,0
351988,-101.453084705804,6,1,0,85,0,0
352047,-100.969119796052,6,1,0,85,0,0
352165,-100.008104983487,6,1,0,85,0,0
352166,-100,6,1,0,85,0,0
352283,-97.7782415282642,6,1,0,85,0,0
352342,-97.2592057755419,6,1,0,85,0,0
352401,-96.7429252177218,6,1,0,85,0,0
352460,-96.2293852294165,6,1,0,85,0,0
352519,-95.7185712628745,6,1,0,85,0,0
352578,-95.2104688475681,6,1,0,85,0,0
352638,-94.6965205605864,6,1,0,85,0,0
352756,-93.693834781464,6,1,0,85,0,0
352874,-92.7017658525247,6,1,0,85,0,0
352952,-92.0517651262104,6,1,0,85,0,0
353031,-91.3980765756368,6,1,0,85,0,0
353110,-90.7490300731604,6,1,0,85,0,0
353228,-89.7881419498708,6,1,0,85,0,0
353346,-88.8374281059618,6,1,0,85,0,0
353464,-87.896780811971,6,1,0,85,0,0
353582,-86.96609347912,6,1,0,85,0,0
353641,-86.5044517980594,6,1,0,85,0,0
353701,-86.0374987900969,6,1,0,85,0,0
353760,-85.5807863636011,6,1,0,85,0,0
353819,-85.1264983014052,6,1,0,85,0,0
353878,-84.6746217342682,6,1,0,85,0,0
353937,-84.2251438612629,6,1,0,85,0,0
353996,-83.7780519494132,6,1,0,85,0,0
354055,-83.3333333333333,6,1,0,85,0,0
354134,-83.7256894284861,6,1,0,85,0,0
354212,-84.1148913468002,6,1,0,85,0,0
354291,-84.5109272305566,6,1,0,85,0,0
354370,-84.9088277594276,6,1,0,85,0,0
354449,-85.3086017126719,6,1,0,85,0,0
354527,-85.7051618564211,6,1,0,85,0,0
354606,-86.1086851681062,6,1,0,85,0,0
354685,-86.5141083777618,6,1,0,85,0,0
354764,-86.9214404306264,6,1,0,85,0,0
354882,-88.5017931629724,6,1,0,85,0,0
355000,-86.8105805807516,6,1,0,85,0,0
355059,-87.1110008819566,6,1,0,85,0,0
355118,-87.4124446811375,6,1,0,85,0,0
355177,-87.7149153532857,6,1,0,85,0,0
355236,-88.0184162837459,6,1,0,85,0,0
355354,-91.2571171376283,6,1,0,85,0,0
355472,-89.2427906594218,6,1,0,85,0,0
355531,-89.5514940258043,6,1,0,85,0,0
355590,-89.8612481814523,6,1,0,85,0,0
355649,-90.172056584919,6,1,0,85,0,0
355708,-90.4839227053219,6,1,0,85,0,0
355828,-95.2227954762432,6,1,0,85,0,0
355945,-100,6,1,0,85,0,0
356023,-99.953810283946,6,1,0,85,0,0
356102,-99.813327481562,6,1,0,85,0,0
356181,-99.5799394326318,6,1,0,85,0,0
356260,-99.2559458450751,6,1,0,85,0,0
356338,-98.8502400375536,6,1,0,85,0,0
356417,-98.356315027469,6,1,0,85,0,0
356496,-97.7834655570433,6,1,0,85,0,0
356575,-97.1369457222352,6,1,0,85,0,0
356653,-96.4319657889474,6,1,0,85,0,0
356732,-95.6565584256731,6,1,0,85,0,0
356811,-94.8258190768732,6,1,0,85,0,0
356889,-93.9578284062772,6,1,0,85,0,0
356890,-93.9464206980631,6,1,0,85,0,0
356968,-93.0370298980185,6,1,0,85,0,0
357047,-92.0810340862548,6,1,0,85,0,0
357126,-91.0965390929275,6,1,0,85,0,0
357244,-89.5870906437724,6,1,0,85,0,0
357362,-88.0494691395307,6,1,0,85,0,0
357441,-87.0140240843139,6,1,0,85,0,0
357519,-85.9931578886534,6,1,0,85,0,0
357598,-84.9656914023892,6,1,0,85,0,0
357677,-83.9494100486388,6,1,0,85,0,0
357756,-82.9486108504482,6,1,0,85,0,0
357834,-81.9794995567826,6,1,0,85,0,0
357835,-81.9672131147541,6,1,0,85,0,0
358071,-100,6,1,0,85,0,0
358189,-99.2546438537738,6,1,0,85,0,0
358307,-98.1845054358817,6,1,0,85,0,0
358386,-97.3791856945056,6,1,0,85,0,0
358464,-96.5360914421846,6,1,0,85,0,0
358543,-95.6453346910217,6,1,0,85,0,0
358622,-94.7260857693334,6,1,0,85,0,0
358701,-93.7849817979437,6,1,0,85,0,0
358779,-92.8395142215342,6,1,0,85,0,0
358780,-92.8273069022557,6,1,0,85,0,0
358897,-91.3875359620547,6,1,0,85,0,0
359015,-89.9194625543468,6,1,0,85,0,0
359095,-88.9196363537867,6,1,0,85,0,0
359173,-87.9438671747424,6,1,0,85,0,0
359252,-86.9565217391304,6,1,0,85,0,0
359488,-93.8967136150234,6,1,0,85,0,0
359724,-86.2068965517241,6,1,0,85,0,0
359725,-86.2068965517241,6,1,0,85,0,0
359803,-87.2694728733029,6,1,0,85,0,0
359882,-88.3590228086931,6,1,0,85,0,0
359960,-89.4481259917316,6,1,0,85,0,0
360040,-90.5791012498776,6,1,0,85,0,0
360118,-91.6955688652065,6,1,0,85,0,0
360197,-92.8403781306147,6,1,0,85,0,0
360276,-93.9994802159528,6,1,0,85,0,0
360355,-95.1730535655327,6,1,0,85,0,0
360433,-96.3461457103173,6,1,0,85,0,0
360512,-97.5490169249305,6,1,0,85,0,0
360591,-98.7669058566332,6,1,0,85,0,0
360670,-100,6,1,0,85,0,0
360848,-90.9090908475158,6,1,0,85,0,0
361320,-113.339290636127,6,1,0,85,0,0
361615,-117.647058823529,6,1,0,85,0,1
361673,-117.570626018404,6,1,0,85,0,1
361732,-117.342653533397,6,1,0,85,0,1
361791,-116.967072471474,6,1,0,85,0,1
361850,-116.45028215399,6,1,0,85,0,1
361909,-115.800931901653,6,1,0,85,0,1
361968,-115.029635504813,6,1,0,85,0,1
362027,-114.148635884667,6,1,0,85,0,1
362086,-113.171439324241,6,1,0,85,0,1
362145,-112.112438815578,6,1,0,85,0,1
362204,-110.986544695682,6,1,0,85,0,1
362264,-109.788517507737,6,1,0,85,0,1
362323,-108.573440947005,6,1,0,85,0,1
362382,-107.336266131617,6,1,0,85,0,1
362441,-106.090884704225,6,1,0,85,0,1
362500,-104.850387459958,6,1,0,85,0,1
362559,-103.626943005181,6,1,0,85,0,1
362618,-102.431720710515,6,1,0,85,0,1
362677,-101.274852780594,6,1,0,85,0,1
362736,-100.16542941622,6,1,0,85,0,1
362795,-99.1115207339043,6,1,0,85,0,1
362854,-98.1202192180038,6,1,0,85,0,1
362913,-97.1976968929335,6,1,0,85,0,1
362972,-96.3492720075239,6,1,0,85,0,1
363031,-95.5794807274454,6,1,0,85,0,1
363090,-94.8921500615967,6,1,0,85,0,1
363149,-94.2904689514151,6,1,0,85,0,1
363208,-93.7770550933146,6,1,0,85,0,1
363267,-93.3540156242751,6,1,0,85,0,1
363327,-93.0181906466936,6,1,0,85,0,1
363386,-92.782025449864,6,1,0,85,0,1
363445,-92.6399921894643,6,1,0,85,0,1
363497,-96.1832418539662,6,1,0,85,0,1
363504,-96.1538461538461,6,1,0,85,0,1
363505,-92.5925925925926,6,1,0,85,0,0
363557,-108.991825759116,6,1,0,85,0,0
365622,-108.695652173913,6,1,0,85,0,0
365682,-107.091307889067,6,1,0,85,0,0
365741,-105.510643673597,6,1,0,85,0,0
365800,-103.953310010449,6,1,0,85,0,0
365859,-102.418962541433,6,1,0,85,0,0
365918,-100.907261991072,6,1,0,85,0,0
365977,-99.417874091583,6,1,0,85,0,0
366036,-97.9504695089675,6,1,0,85,0,0
366095,-96.5047237701842,6,1,0,85,0,0
366154,-95.0803171914038,6,1,0,85,0,0
366213,-93.6769348073199,6,1,0,85,0,0
366272,-92.2942663015036,6,1,0,85,0,0
366331,-90.9320059377867,6,1,0,85,0,0
366332,-90.9090909090909,6,1,0,85,0,0
366510,-108.757849269184,6,1,0,85,0,0
368457,-107.52688172043,6,1,0,85,0,0
368575,-105.66692252249,6,1,0,85,0,0
368634,-104.402248413882,6,1,0,85,0,0
368693,-103.036313776878,6,1,0,85,0,0
368811,-100.121345154738,6,1,0,85,0,0
368930,-97.0541180462559,6,1,0,85,0,0
369048,-93.9738249643543,6,1,0,85,0,0
369166,-90.9090909090909,6,1,0,85,0,0
369226,-108.991826113144,6,1,0,85,0,0
370583,-108.40108401084,6,1,0,85,0,0
370584,-108.40108401084,6,1,0,85,0,0
370642,-107.521614091156,6,1,0,85,0,0
370701,-106.63498973248,6,1,0,85,0,0
370760,-105.756358822787,6,1,0,85,0,0
370819,-104.8856381113,6,1,0,85,0,0
370878,-104.022745398845,6,1,0,85,0,0
370937,-103.167599521517,6,1,0,85,0,0
370997,-102.30582189384,6,1,0,85,0,0
371056,-101.46605818252,6,1,0,85,0,0
371115,-100.633802551254,6,1,0,85,0,0
371174,-99.808977836269,6,1,0,85,0,0
371233,-98.9915078315997,6,1,0,85,0,0
371292,-98.1813172744999,6,1,0,85,0,0
371351,-97.3783318311152,6,1,0,85,0,0
371410,-96.5824780824208,6,1,0,85,0,0
371469,-95.7936835104144,6,1,0,85,0,0
371528,-95.0118764845605,6,1,0,85,0,0
371656,-95.1954580447397,6,1,0,85,0,0
371774,-95.686331523615,6,1,0,85,0,0
371892,-96.2939047476644,6,1,0,85,0,0
371951,-96.8037674751125,6,1,0,85,0,0
372220,-98.3749491067254,6,1,0,85,0,0
372364,-99.4863936100801,6,1,0,85,0,0
372482,-100.431233380171,6,1,0,85,0,0
372600,-101.45080889335,6,1,0,85,0,0
372660,-102.24251423224,6,1,0,85,0,0
372929,-104.524975871772,6,1,0,85,0,0
373073,-106.076955212545,6,1,0,85,0,0
373191,-107.383034563399,6,1,0,85,0,0
373309,-108.751953561596,6,1,0,85,0,0
373368,-109.82726972419,6,1,0,85,0,0
373637,-124.97130817646,6,1,0,85,0,0
373782,-123.668692956635,6,1,0,85,0,0
373900,-121.849488018367,6,1,0,85,0,0
374018,-118.951308300752,6,1,0,85,0,0
374116,-116.264787855189,6,1,0,85,0,0
374195,-114.059263672267,6,1,0,85,0,0
374274,-111.809677256722,6,1,0,85,0,0
374352,-109.45679060932,6,1,0,85,0,0
374431,-107.08166803233,6,1,0,85,0,0
374510,-104.642329892039,6,1,0,85,0,0
374589,-102.185431070168,6,1,0,85,0,0
374667,-99.7251224608667,6,1,0,85,0,0
374746,-97.3044019755016,6,1,0,85,0,0
374843,-94.8406676783004,6,1,0,85,0,1
374904,-100.272745138043,6,1,0,85,0,1
376261,-99.009900990099,6,1,0,85,0,0
376331,-98.8110456412619,6,1,0,85,0,0
376410,-98.4034021489572,6,1,0,85,0,0
376489,-97.8521636109708,6,1,0,85,0,0
376567,-97.1939378348962,6,1,0,85,0,0
376646,-96.4298980205253,6,1,0,85,0,0
376725,-95.5817297948326,6,1,0,85,0,0
376804,-94.6608607590593,6,1,0,85,0,0
376882,-93.6898708731668,6,1,0,85,0,0
376961,-92.6523470264372,6,1,0,85,0,0
377040,-91.5680026878272,6,1,0,85,0,0
377119,-90.4437161140011,6,1,0,85,0,0
377205,-85.1063829787234,6,1,0,85,0,1
377423,-95.6937799043062,6,1,0,85,0,1
377678,-112.359550561798,6,1,0,85,0,0
377749,-112.067756707798,6,1,0,85,0,0
377828,-111.20727232378,6,1,0,85,0,0
377906,-109.841678006171,6,1,0,85,0,0
377985,-108.001538555715,6,1,0,85,0,0
378064,-105.783980437472,6,1,0,85,0,0
378143,-103.280890750711,6,1,0,85,0,0
378221,-100.620855992525,6,1,0,85,0,0
378300,-97.8241466019637,6,1,0,85,0,0
378379,-95.0047315868078,6,1,0,85,0,0
378458,-92.232384956264,6,1,0,85,0,0
378536,-89.5977062987187,6,1,0,85,0,0
378623,-81.3008130081301,6,1,0,85,0,1
378741,-82.739203161561,6,1,0,85,0,1
378859,-84.9366070190584,6,1,0,85,0,1
378977,-87.6572041402423,6,1,0,85,0,1
379095,-90.9090909090909,6,1,0,85,0,0
379148,-94.7867299850058,6,1,0,85,0,0
379796,-104.480226652905,6,1,0,85,0,0
380513,-99.2288683136093,6,1,0,85,0,1
380563,-98.742492019154,6,1,0,85,0,1
380622,-98.2434492684383,6,1,0,85,0,1
380682,-97.7321199746563,6,1,0,85,0,1
380741,-97.2260871181152,6,1,0,85,0,1
380800,-96.7173427565381,6,1,0,85,0,1
380859,-96.2063301031889,6,1,0,85,0,1
380918,-95.6934560468088,6,1,0,85,0,1
380977,-95.1790950574429,6,1,0,85,0,1
381036,-94.6635925059313,6,1,0,85,0,1
381095,-94.1472675094969,6,1,0,85,0,1
381154,-93.630415390326,6,1,0,85,0,1
381213,-93.1133098150997,6,1,0,85,0,1
381272,-92.5962046691861,6,1,0,85,0,1
381331,-92.0793357083694,6,1,0,85,0,1
381390,-91.562922022655,6,1,0,85,0,1
381449,-91.0471673402084,6,1,0,85,0,1
381508,-90.5322611944081,6,1,0,85,0,1
381567,-90.018379972962,6,1,0,85,0,1
381626,-89.5056878648342,6,1,0,85,0,1
381685,-88.9943377181438,6,1,0,85,0,1
381745,-88.4758435976121,6,1,0,85,0,1
381804,-87.9676228745553,6,1,0,85,0,1
381863,-87.4611440897172,6,1,0,85,0,1
381930,-86.9565217391304,6,1,0,85,0,0
381982,-99.7506236600938,6,1,0,85,0,0
383347,-87.9120879120879,6,1,0,85,0,1
383457,-92.3211306259318,6,1,0,85,0,1
383575,-97.0047316837149,6,1,0,85,0,1
383693,-101.940252139161,6,1,0,85,0,1
383811,-107.142742295559,6,1,0,85,0,1
383930,-112.676056338028,6,1,0,85,0,1
384057,-91.1161731207289,6,1,0,85,0,1
384166,-95.8945035515073,6,1,0,85,0,1
384284,-100.947133659308,6,1,0,85,0,1
384402,-106.292393000758,6,1,0,85,0,1
384520,-111.950122347041,6,1,0,85,0,1
384639,-117.994100294986,6,1,0,85,0,1
384765,-113.960113960114,6,1,0,85,0,1
384835,-111.877286804712,6,1,0,85,0,1
384914,-109.810466638253,6,1,0,85,0,1
384993,-107.78561331947,6,1,0,85,0,1
385071,-105.826597120717,6,1,0,85,0,1
385150,-103.882235176592,6,1,0,85,0,1
385229,-101.976965861772,6,1,0,85,0,1
385308,-100.109881080441,6,1,0,85,0,1
385386,-98.3030305643303,6,1,0,85,0,1
385474,-95.0118764845605,6,1,0,85,0,1
385652,-87.6424815750729,6,1,0,85,0,1
385888,-78.5400635797598,6,1,0,85,0,1
386182,-68.4931506849314,6,1,0,85,0,0
386242,-154.440156812575,6,1,0,85,0,0
388072,-138.888888888889,6,1,0,85,0,1
388142,-142.013055132649,6,1,0,85,0,1
388221,-145.248913841182,6,1,0,85,0,1
388300,-148.558503669519,6,1,0,85,0,1
388378,-151.900178198711,6,1,0,85,0,1
388457,-155.361321359056,6,1,0,85,0,1
388536,-138.888888888889,6,1,0,85,0,1
388615,-142.976180333358,6,1,0,85,0,1
388694,-147.183754627562,6,1,0,85,0,1
388773,-151.515151515152,6,1,0,85,0,1
388851,-139.643513490128,6,1,0,85,0,1
388930,-142.825380669839,6,1,0,85,0,1
389008,-146.038094347734,6,1,0,85,0,1
389009,-146.079748737679,6,1,0,85,0,1
389087,-149.365666160983,6,1,0,85,0,1
389166,-152.769058836053,6,1,0,85,0,1
389245,-153.846153846154,6,1,0,85,0,1
389323,-149.277086224653,6,1,0,85,0,1
389402,-142.980454728954,6,1,0,85,0,1
389481,-136.256607871874,6,1,0,85,0,1
389559,-129.596136677697,6,1,0,85,0,1
389638,-123.026915370713,6,1,0,85,0,1
389717,-116.739364697713,6,1,0,85,0,1
389796,-110.784726506248,6,1,0,85,0,1
389874,-105.251722541883,6,1,0,85,0,1
389962,236.220472440945,4,1,0,85,1,0
389962,-100,4,1,0,85,0,0
390110,-100.854677783066,4,1,0,85,0,0
390267,-101.716660307261,4,1,0,85,0,0
390425,-102.591571010258,4,1,0,85,0,0
390582,-103.468398374981,4,1,0,85,0,0
390740,-104.358376564265,4,1,0,85,0,0
390897,-105.250304423529,4,1,0,85,0,0
390898,-105.256009855879,4,1,0,85,0,0
391055,-106.155609587459,4,1,0,85,0,0
391212,-107.062897998081,4,1,0,85,0,0
391370,-107.983794093858,4,1,0,85,0,0
391527,-108.90670759129,4,1,0,85,0,0
391685,-109.843463121918,4,1,0,85,0,0
391851,-110.788276107808,4,1,0,85,0,0
392000,-111.735158889943,4,1,0,85,0,0
392157,-112.690134468849,4,1,0,85,0,0
392315,-113.659432954183,4,1,0,85,0,0
392472,-114.630854876001,4,1,0,85,0,0
392630,-115.616846369644,4,1,0,85,0,0
392787,-116.604997869047,4,1,0,85,0,0
392788,-116.611318819192,4,1,0,85,0,0
392945,-117.60796985368,4,1,0,85,0,0
393102,-118.613139043135,4,1,0,85,0,0
393260,-119.63338395239,4,1,0,85,0,0
393417,-120.655863906161,4,1,0,85,0,0
393575,-121.693679209889,4,1,0,85,0,0
393741,-112.359550561798,4,1,0,85,0,0
393890,-113.122984812193,4,1,0,85,0,0
394047,-113.891606266095,4,1,0,85,0,0
394204,-114.665450168294,4,1,0,85,0,0
394362,-115.449531363234,4,1,0,85,0,0
394519,-116.233960688503,4,1,0,85,0,0
394677,-117.028767342604,4,1,0,85,0,0
394834,-117.823926889115,4,1,0,85,0,0
394992,-118.629605716103,4,1,0,85,0,0
395149,-119.435642262723,4,1,0,85,0,0
395307,-120.252341983226,4,1,0,85,0,0
395464,-121.069404316612,4,1,0,85,0,0
395631,-121.897275685606,4,1,0,85,0,0
395779,-122.725514627672,4,1,0,85,0,0
395937,-123.564710462316,4,1,0,85,0,0
396094,-124.404278898069,4,1,0,85,0,0
396252,-125.25495410591,4,1,0,85,0,0
396409,-126.106007011675,4,1,0,85,0,0
396567,-126.96831861924,4,1,0,85,0,0
396724,-127.831013091267,4,1,0,85,0,0
396882,-128.705120273054,4,1,0,85,0,0
397039,-129.579615556511,4,1,0,85,0,0
397197,-130.465679664368,4,1,0,85,0,0
397354,-131.352137182744,4,1,0,85,0,0
397521,-100,4,1,0,85,0,1
397669,-99.5768832835194,4,1,0,85,0,1
397827,-98.7218774329945,4,1,0,85,0,1
397984,-97.5869780182075,4,1,0,85,0,1
398299,-94.6942660953656,4,1,0,85,0,1
398457,-93.0159022722689,4,1,0,85,0,1
398614,-91.2393754934987,4,1,0,85,0,1
398771,-89.3795800692916,4,1,0,85,0,1
398929,-87.4457018305316,4,1,0,85,0,1
399086,-85.4809238495584,4,1,0,85,0,1
399244,-83.4764676619475,4,1,0,85,0,1
399410,-84.7457627118644,4,1,0,85,0,0
399567,-86.8805498705855,4,1,0,85,0,0
399724,-89.0691133606205,4,1,0,85,0,0
399882,-91.3272785346839,4,1,0,85,0,0
400197,-96.0016000931824,4,1,0,85,0,0
400513,-92.5824368018358,4,1,0,85,0,1
400669,-89.8679303559835,4,1,0,85,0,1
400827,-83.2696559633822,4,1,0,85,0,1
400984,-74.8975575838423,4,1,0,85,0,1
401142,-66.4784931325323,4,1,0,85,0,1
401291,-59.1818245434798,4,1,0,85,0,1
401300,944.88188976378,4,1,0,85,1,0
401300,-14.792899408284,4,1,0,85,0,0
401351,-100,4,1,0,35,0,0
405049,944.88188976378,4,1,0,35,1,0
416382,-75.187969924812,4,1,0,35,0,0
417327,-77.709339155845,4,1,0,35,0,0
418272,-81.7164440486742,4,1,0,35,0,0
419217,-86.9565217391304,4,1,0,35,0,0
421107,-86.9565217391304,4,1,0,35,0,0
421578,-84.880169598534,4,1,0,35,0,0
422051,-82.844894457302,4,1,0,35,0,0
422523,-80.8625706647406,4,1,0,35,0,0
422996,-78.9236303833006,4,1,0,35,0,0
423469,-77.0311824330354,4,1,0,35,0,0
423941,-75.187969924812,4,1,0,35,0,0
424885,-77.7057550249671,4,1,0,35,0,0
425831,-81.7164440486742,4,1,0,35,0,0
426776,-86.9565217391304,4,1,0,35,0,0
428429,-86.9565217391304,4,1,0,35,0,0
428547,-86.0381527513117,4,1,0,35,0,0
428665,-85.1294828818674,4,1,0,35,0,0
428902,-83.3333333333333,4,1,0,35,0,0
431500,-75.187969924812,4,1,0,35,0,0
432445,-77.709339155845,4,1,0,35,0,0
433389,-81.7115643396294,4,1,0,35,0,0
434334,-86.9502813314269,4,1,0,35,0,0
436225,-86.9489609599165,4,1,0,35,0,0
436697,-84.8696635760831,4,1,0,35,0,0
437170,-82.8358425034578,4,1,0,35,0,0
437642,-80.8549062311488,4,1,0,35,0,0
438114,-78.9213420672937,4,1,0,35,0,0
438586,-77.0340171553284,4,1,0,35,0,0
439059,-75.187969924812,4,1,0,35,0,0
440004,-77.709339155845,4,1,0,35,0,0
440949,-81.7164440486742,4,1,0,35,0,0
441894,-86.9565217391304,4,1,0,35,0,0
443547,-86.9565217391304,4,1,0,35,0,0
443665,-85.7032843670586,4,1,0,35,0,0
443783,-84.4681089399604,4,1,0,35,0,0
444020,-82.0408126282758,4,1,0,35,0,0
444729,-75.187969924812,4,1,0,35,0,0
446623,472.44094488189,4,1,0,35,1,0
446623,-152.671755725191,4,1,0,35,0,0
447106,-68.4931506849315,4,1,0,55,0,0
447126,472.44094488189,4,1,0,35,1,8
447570,-60.9756097560976,4,1,0,64,0,0
447806,-56.8181818181818,4,1,0,73,0,0
448042,-52.0833333333333,4,1,0,82,0,0
448279,-46.2962962962963,4,1,0,91,0,0
448513,-46.2962962962963,4,1,0,100,0,0
448542,472.44094488189,4,1,0,100,1,1
448542,-41.6666666666667,4,1,0,100,0,1
448589,-57.1428571428571,4,1,0,70,0,1
449455,-57.1428571428571,4,1,0,100,0,1
449475,-44.4444444444444,4,1,0,100,0,1
449534,-57.1428571428571,4,1,0,70,0,1
451345,-57.1428571428571,4,1,0,85,0,1
451376,-44.4444444444444,4,1,0,85,0,0
451424,-57.1428571428571,4,1,0,70,0,0
452290,-53.1914893617022,4,1,0,100,0,0
452321,-40,4,1,0,100,0,1
452369,-57.1428571428571,4,1,0,70,0,1
453234,-57.1428571428571,4,1,0,100,0,1
453255,-44.4444444444444,4,1,0,100,0,1
453314,-57.1428571428571,4,1,0,70,0,1
455124,-57.1428571428571,4,1,0,85,0,1
455156,-44.4444444444444,4,1,0,85,0,0
455380,-56.817520734567,4,1,0,70,0,0
455496,-55.4670906982717,4,1,0,70,0,0
455614,-52.9356109013326,4,1,0,70,0,0
455850,-46.5116279069767,4,1,0,70,0,0
456069,-47.6190476190476,4,1,0,100,0,0
456101,-36.3636363636364,4,1,0,100,0,1
456148,-57.1428571428571,4,1,0,70,0,1
457014,-57.1428571428571,4,1,0,100,0,1
457034,-44.4444444444444,4,1,0,100,0,1
457093,-57.1428571428571,4,1,0,70,0,1
458904,-57.1428571428571,4,1,0,85,0,1
458935,-44.4444444444444,4,1,0,85,0,0
458983,-57.1428571428571,4,1,0,70,0,0
459868,-56.1797752808988,4,1,0,70,0,0
460104,-55.7852018971899,4,1,0,70,0,0
460340,-55.3898968320633,4,1,0,70,0,0
460576,-54.9939088607658,4,1,0,70,0,0
460813,-54.5956052236144,4,1,0,70,0,0
461049,-54.1983967474732,4,1,0,70,0,0
461285,-53.8006538703214,4,1,0,70,0,0
461521,-53.4024265996315,4,1,0,70,0,0
461758,-53.0020750938021,4,1,0,70,0,0
461994,-52.6030285000856,4,1,0,70,0,0
462230,-52.2036491266758,4,1,0,70,0,0
462466,-51.8039878146397,4,1,0,70,0,0
462702,-51.4040955491761,4,1,0,70,0,0
462703,-51.4024006716457,4,1,0,70,0,0
462821,-51.2023835435596,4,1,0,70,0,0
462880,-51.1023601372838,4,1,0,70,0,0
462939,-51.0023279029284,4,1,0,70,0,0
462998,-50.9022876409094,4,1,0,70,0,0
463057,-50.8022401519003,4,1,0,70,0,0
463175,-50.6021266967374,4,1,0,70,0,0
463293,-50.4019939469952,4,1,0,70,0,0
463411,-50.2018483147024,4,1,0,70,0,0
463529,-50.001696213539,4,1,0,70,0,0
463631,-45.4545454545455,4,1,0,85,0,0
463661,236.220472440945,4,1,0,85,1,9
463661,-90.9090909090909,4,1,0,85,0,1
477361,-90.9090909090909,4,1,0,85,0,0
478779,-90.9090909090909,4,1,0,85,0,1
492952,-90.9090909090909,4,1,0,85,0,0
493897,-90.9090909090909,4,1,0,85,0,1
508070,-100,4,1,0,85,0,1
508424,-96.4889861394669,4,1,0,85,0,1
508778,-93.1012444622223,4,1,0,85,0,1
509015,-90.9090909090909,4,1,0,85,0,0
512785,-74.0740740740741,4,1,0,85,0,0
512794,-74.0740740740741,4,1,0,85,0,1
512845,-98.0392156862745,4,1,0,85,0,1
513563,-92.5925925925926,4,1,0,85,0,1
514684,-83.1600831600831,4,1,0,85,0,0
514733,-83.5631395734902,4,1,0,85,0,0
514792,-83.9701220455965,4,1,0,85,0,0
514851,-84.381088221096,4,1,0,85,0,0
514910,-84.7960968787302,4,1,0,85,0,0
514969,-85.2152079593146,4,1,0,85,0,0
515028,-85.6384825945982,4,1,0,85,0,0
515087,-86.0659831369899,4,1,0,85,0,0
515146,-86.4977731901782,4,1,0,85,0,0
515205,-86.9339176406772,4,1,0,85,0,0
515264,-87.3744826903324,4,1,0,85,0,0
515324,-87.8271182416349,4,1,0,85,0,0
515383,-88.2768063659582,4,1,0,85,0,0
515442,-88.7311231320003,4,1,0,85,0,0
515501,-89.1901403733954,4,1,0,85,0,0
515560,-89.6539314179251,4,1,0,85,0,0
515619,-90.122571126569,4,1,0,85,0,0
515678,-90.5961359337872,4,1,0,85,0,0
515737,-91.074703889079,4,1,0,85,0,0
515796,-91.5583546998664,4,1,0,85,0,0
515855,-92.0471697757513,4,1,0,85,0,0
515914,-92.541232274197,4,1,0,85,0,0
515973,-93.0406271476899,4,1,0,85,0,0
516032,-93.5454411924362,4,1,0,85,0,0
516091,-94.0557630986519,4,1,0,85,0,0
516150,-94.5716835025095,4,1,0,85,0,0
516209,-95.0932950398018,4,1,0,85,0,0
516268,-95.6206924013928,4,1,0,85,0,0
516327,-96.1539723905238,4,1,0,85,0,0
516387,-96.7024261429279,4,1,0,85,0,0
516446,-97.2478745284659,4,1,0,85,0,0
516505,-97.799511002445,4,1,0,85,0,0
516574,-99.7506234413965,4,1,0,100,0,1
516797,-100,4,1,0,100,0,1
516876,-99.8117676780592,4,1,0,100,0,1
516955,-99.4315599115922,4,1,0,100,0,1
517033,-98.9253283027529,4,1,0,100,0,1
517112,-98.3049543521627,4,1,0,100,0,1
517191,-97.5927531277935,4,1,0,100,0,1
517270,-96.8013384219174,4,1,0,100,0,1
517348,-95.9523112939494,4,1,0,100,0,1
517427,-95.0326275672345,4,1,0,100,0,1
517506,-94.0604938379607,4,1,0,100,0,1
517585,-93.0428098743198,4,1,0,100,0,1
517663,-91.9993971063129,4,1,0,100,0,1
517742,-90.9090909090909,4,1,0,100,0,1
517978,-94.3396226415094,4,1,0,100,0,1
518057,-94.8274695107214,4,1,0,100,0,1
518136,-95.3178391223521,4,1,0,100,0,1
518215,-95.8107445219485,4,1,0,100,0,1
518293,-96.2999112665228,4,1,0,100,0,1
518372,-96.7978951348205,4,1,0,100,0,1
518451,-97.2984541657515,4,1,0,100,0,1
518530,-97.8016016759371,4,1,0,100,0,1
518608,-98.3009328453657,4,1,0,100,0,1
518687,-98.8092643500555,4,1,0,100,0,1
518766,-99.3202245268361,4,1,0,100,0,1
518844,-99.8273091042975,4,1,0,100,0,1
518923,-100.343533770506,4,1,0,100,0,1
519002,-100.86242792574,4,1,0,100,0,1
519081,-101.384005374398,4,1,0,100,0,1
519159,-101.901626692428,4,1,0,100,0,1
519238,-102.428578021652,4,1,0,100,0,1
519317,-102.958254309373,4,1,0,100,0,1
519396,-100,4,1,0,100,0,1
519474,-99.8115719761845,4,1,0,100,0,1
519553,-99.5334692180037,4,1,0,100,0,1
519632,-99.2100801657131,4,1,0,100,0,1
519711,-98.8543782684083,4,1,0,100,0,1
519789,-98.4784261732779,4,1,0,100,0,1
519868,-98.0771993147118,4,1,0,100,0,1
519947,-97.6587391355791,4,1,0,100,0,1
520026,-97.2256255596778,4,1,0,100,0,1
520104,-96.7856309702544,4,1,0,100,0,1
520183,-96.3291511723302,4,1,0,100,0,1
520262,-95.8631792605752,4,1,0,100,0,1
520341,-95.3889378246711,4,1,0,100,0,1
520419,-94.9136236354975,4,1,0,100,0,1
520498,-94.425971935814,4,1,0,100,0,1
520577,-93.9328598634235,4,1,0,100,0,1
520656,-93.4350256704261,4,1,0,100,0,1
520734,-92.93950851941,4,1,0,100,0,1
520813,-92.4341959765047,4,1,0,100,0,1
520892,-91.9259606276182,4,1,0,100,0,1
520970,-91.4217754224238,4,1,0,100,0,1
521049,-90.9091608619913,4,1,0,100,0,1
521128,-90.3949818425641,4,1,0,100,0,1
521207,-89.879619839506,4,1,0,100,0,1
521285,-89.6057347670251,4,1,0,100,0,1
521364,-89.2141886212828,4,1,0,100,0,1
521443,-88.4292322230456,4,1,0,100,0,1
521522,-87.3815903890372,4,1,0,100,0,1
521600,-86.1487953227498,4,1,0,100,0,1
521679,-84.7412748907444,4,1,0,100,0,1
521758,-83.207146970382,4,1,0,100,0,1
521837,-81.5741582274031,4,1,0,100,0,1
521915,-79.8878590854884,4,1,0,100,0,1
521994,-78.125,4,1,0,100,0,1
522230,-83.3333333333333,4,1,0,100,0,1
522309,-84.4250233667625,4,1,0,100,0,1
522388,-85.5310148457407,4,1,0,100,0,1
522467,-86.6514951232148,4,1,0,100,0,1
522545,-87.772192386733,4,1,0,100,0,1
522624,-88.9220327184229,4,1,0,100,0,1
522703,-90.0869362808744,4,1,0,100,0,1
522782,-91.2671004066344,4,1,0,100,0,1
522860,-92.4474930764841,4,1,0,100,0,1
522939,-93.6585811581694,4,1,0,100,0,1
523018,-94.8855348333152,4,1,0,100,0,1
523096,-96.1127261135575,4,1,0,100,0,1
523175,-97.371829775764,4,1,0,100,0,1
523254,-98.6474280489995,4,1,0,100,0,1
523333,-99.9397370172937,4,1,0,100,0,1
523411,-101.232296247031,4,1,0,100,0,1
523490,-102.558467713519,4,1,0,100,0,1
523569,-103.902012398078,4,1,0,100,0,1
523648,-105.263157894737,4,1,0,100,0,1
523885,-99.7506235118244,4,1,0,100,0,1
524431,-101.010101010101,4,1,0,100,0,1
524510,-102.959900764053,4,1,0,100,0,1
524589,-104.947337536901,4,1,0,100,0,1
524667,-106.947252010626,4,1,0,100,0,1
524746,-109.011656694621,4,1,0,100,0,1
524825,-111.115910618492,4,1,0,100,0,1
524903,-113.233375654981,4,1,0,100,0,1
524982,-115.419121494094,4,1,0,100,0,1
525061,-110.803324099723,4,1,0,100,0,1
525301,-111.111111111111,4,1,0,100,0,1
525380,-110.382196143006,4,1,0,100,0,1
525459,-109.333365765832,4,1,0,100,0,1
525537,-105.263157894737,4,1,0,100,0,1
525774,-104.072027592798,4,1,0,100,0,1
525852,-102.644756287575,4,1,0,100,0,1
525931,-101.177872317967,4,1,0,100,0,1
526010,-96.1538461538461,4,1,0,100,0,1
526246,-95.2670444069048,4,1,0,100,0,1
526325,-93.7956096440002,4,1,0,100,0,1
526404,-92.3360241918094,4,1,0,100,0,1
526482,-87.719298245614,4,1,0,100,0,1
526712,-102.040816326531,4,1,0,100,0,1
526948,-99.9999309258188,4,1,0,100,0,1
527026,-99.5713718800831,4,1,0,100,0,1
527105,-98.3144182651565,4,1,0,100,0,1
527184,-96.3113586180097,4,1,0,100,0,1
527263,-93.6852882894132,4,1,0,100,0,1
527341,-90.6248706438734,4,1,0,100,0,1
527420,-87.203681773684,4,1,0,100,0,1
527499,-83.6040680858331,4,1,0,100,0,1
527578,-79.9539397063615,4,1,0,100,0,1
527656,-76.4029338878312,4,1,0,100,0,1
527735,-72.9398902793709,4,1,0,100,0,1
527814,-69.6691781688578,4,1,0,100,0,1
527912,-66.6666666666667,4,1,0,100,0,0
527972,-56.980056980057,4,1,0,68,0,0
528858,-81.7995915329808,4,1,0,68,0,0
529743,-88.0013245730886,4,1,0,65,0,0
530687,-90.907677356657,4,1,0,62,0,0
531632,-94.0159601198014,4,1,0,59,0,0
532577,-97.3443223443223,4,1,0,56,0,0
533522,-100.916995706303,4,1,0,53,0,0
534467,-104.761904761905,4,1,0,50,0,0
535412,-108.911398300151,4,1,0,48,0,0
536357,-113.403161672001,4,1,0,46,0,0
537302,-118.281364590446,4,1,0,44,0,0
538246,-123.592239679948,4,1,0,42,0,0
539191,-129.408900251226,4,1,0,40,0,0
540136,-135.800103362774,4,1,0,39,0,0
541081,-142.855397546792,4,1,0,38,0,0
542026,-150.68396059253,4,1,0,37,0,0
542971,-159.420289855072,4,1,0,36,0,0
543916,-169.231993863477,4,1,0,35,0,0
544861,-180.330649887419,4,1,0,34,0,0
545806,-192.987233761625,4,1,0,33,0,0
546750,-207.537960473186,4,1,0,32,0,0
547695,-224.481176448002,4,1,0,31,0,0
548640,-244.436779446657,4,1,0,30,0,0
549585,-268.286527165933,4,1,0,29,0,0
550530,-297.293517918208,4,1,0,25,0,0
551475,-333.333333333333,4,1,0,20,0,0

[HitObjects]
249,190,4451,5,12,0:0:0:0:
183,203,4687,1,8,0:0:0:0:
250,196,4766,1,0,0:0:0:0:
250,196,4845,1,0,0:0:0:0:
250,196,4923,1,8,0:0:0:0:
237,191,5002,1,8,0:0:0:0:
237,191,5081,1,8,0:0:0:0:
237,191,5160,1,0,0:0:0:0:
237,190,5238,1,0,0:0:0:0:
237,190,5317,1,0,0:0:0:0:
237,190,5396,1,8,0:0:0:0:
236,188,5475,1,0,0:0:0:0:
264,196,5553,1,8,0:0:0:0:
239,195,5632,1,4,0:0:0:0:
237,191,5868,1,8,0:0:0:0:
248,186,5947,1,8,0:0:0:0:
278,206,6026,1,0,0:0:0:0:
261,180,6105,1,8,0:0:0:0:
258,194,6183,1,0,0:0:0:0:
258,194,6262,1,0,0:0:0:0:
258,194,6341,1,8,0:0:0:0:
258,194,6420,1,8,0:0:0:0:
258,194,6498,1,0,0:0:0:0:
258,194,6577,1,8,0:0:0:0:
258,194,6656,1,0,0:0:0:0:
258,194,6734,1,0,0:0:0:0:
269,193,6813,1,0,0:0:0:0:
269,193,6892,1,0,0:0:0:0:
269,193,6971,1,0,0:0:0:0:
269,193,7049,1,0,0:0:0:0:
269,193,7128,1,0,0:0:0:0:
269,193,7207,1,0,0:0:0:0:
269,193,7286,1,8,0:0:0:0:
258,194,7364,1,8,0:0:0:0:
258,194,7443,1,8,0:0:0:0:
258,194,7522,1,8,0:0:0:0:
258,194,7601,1,0,0:0:0:0:
254,195,7679,1,0,0:0:0:0:
254,195,7758,1,0,0:0:0:0:
254,195,7837,1,0,0:0:0:0:
254,195,7916,1,8,0:0:0:0:
254,195,7994,1,8,0:0:0:0:
254,195,8073,1,0,0:0:0:0:
254,195,8152,1,0,0:0:0:0:
258,194,8231,1,8,0:0:0:0:
259,199,8309,1,8,0:0:0:0:
259,199,8388,1,0,0:0:0:0:
259,199,8467,1,0,0:0:0:0:
259,199,8546,1,8,0:0:0:0:
253,207,8624,1,8,0:0:0:0:
253,207,8703,1,0,0:0:0:0:
253,207,8782,1,0,0:0:0:0:
253,207,8860,1,0,0:0:0:0:
261,207,8939,1,8,0:0:0:0:
448,64,9018,1,8,0:0:0:0:
261,207,9097,1,0,0:0:0:0:
448,64,9175,1,8,0:0:0:0:
64,64,9254,1,0,0:0:0:0:
260,208,9333,1,0,0:0:0:0:
260,208,9412,1,8,0:0:0:0:
64,64,9490,1,0,0:0:0:0:
266,204,9569,1,0,0:0:0:0:
266,204,9648,1,8,0:0:0:0:
266,204,9727,1,0,0:0:0:0:
261,207,9805,1,0,0:0:0:0:
273,208,9884,1,8,0:0:0:0:
260,208,10120,1,0,0:0:0:0:
276,203,10199,1,8,0:0:0:0:
276,203,10278,1,8,0:0:0:0:
286,213,10357,1,8,0:0:0:0:
255,207,10435,1,0,0:0:0:0:
255,207,10514,1,0,0:0:0:0:
255,207,10593,1,8,0:0:0:0:
261,207,10672,1,8,0:0:0:0:
260,208,10750,1,0,0:0:0:0:
260,208,10829,1,8,0:0:0:0:
260,208,10908,1,0,0:0:0:0:
260,208,10986,1,0,0:0:0:0:
260,208,11065,1,8,0:0:0:0:
264,196,11144,1,8,0:0:0:0:
264,196,11223,1,0,0:0:0:0:
264,196,11301,1,8,0:0:0:0:
264,196,11380,1,0,0:0:0:0:
264,196,11459,1,0,0:0:0:0:
264,191,11538,1,12,0:0:0:0:
267,188,11774,1,0,0:0:0:0:
307,203,11853,1,0,0:0:0:0:
307,203,11931,1,0,0:0:0:0:
264,196,12010,1,12,0:0:0:0:
323,210,12168,1,0,0:0:0:0:
269,190,12325,1,8,0:0:0:0:
264,191,12404,1,8,0:0:0:0:
267,188,12483,1,8,0:0:0:0:
272,199,12561,1,8,0:0:0:0:
272,199,12640,1,0,0:0:0:0:
272,199,12719,1,0,0:0:0:0:
264,196,12797,1,0,0:0:0:0:
264,196,12876,1,0,0:0:0:0:
263,194,12955,1,12,0:0:0:0:
274,191,13191,1,0,0:0:0:0:
275,191,13270,1,0,0:0:0:0:
275,191,13349,1,0,0:0:0:0:
275,191,13427,1,12,0:0:0:0:
275,191,13664,1,8,0:0:0:0:
275,191,13742,1,8,0:0:0:0:
275,191,13821,1,8,0:0:0:0:
274,191,13900,1,4,0:0:0:0:
272,178,14136,1,0,0:0:0:0:
253,185,14215,1,0,0:0:0:0:
232,179,14294,1,0,0:0:0:0:
270,176,14372,1,12,0:0:0:0:
270,176,14609,1,0,0:0:0:0:
270,176,14687,1,0,0:0:0:0:
270,176,14766,1,0,0:0:0:0:
268,173,14845,1,8,0:0:0:0:
268,173,14923,1,8,0:0:0:0:
268,173,15002,1,8,0:0:0:0:
270,176,15081,1,8,0:0:0:0:
270,176,15160,1,8,0:0:0:0:
270,176,15238,1,8,0:0:0:0:
270,176,15317,1,8,0:0:0:0:
270,176,15396,1,8,0:0:0:0:
270,176,15475,1,8,0:0:0:0:
270,176,15553,1,8,0:0:0:0:
270,176,15632,1,8,0:0:0:0:
268,173,15711,1,8,0:0:0:0:
268,173,15790,1,4,0:0:0:0:
258,201,17679,1,8,0:0:0:0:
258,201,17797,1,8,0:0:0:0:
258,201,17916,1,8,0:0:0:0:
256,208,18034,1,8,0:0:0:0:
255,208,18270,1,8,0:0:0:0:
263,205,18506,1,12,0:0:0:0:
255,191,19333,1,0,0:0:0:0:
255,191,19412,1,0,0:0:0:0:
255,191,19490,1,0,0:0:0:0:
255,191,19569,1,12,0:0:0:0:
261,196,21341,1,4,0:0:0:0:
268,186,21459,1,8,0:0:0:0:
268,186,21518,1,8,0:0:0:0:
268,186,21577,1,8,0:0:0:0:
274,190,21695,1,0,0:0:0:0:
274,190,21813,1,8,0:0:0:0:
274,190,21872,1,8,0:0:0:0:
274,190,21931,1,0,0:0:0:0:
275,195,22049,1,8,0:0:0:0:
279,194,22168,1,0,0:0:0:0:
279,194,22227,1,0,0:0:0:0:
279,194,22286,1,0,0:0:0:0:
290,191,22404,1,8,0:0:0:0:
290,191,22522,1,0,0:0:0:0:
290,191,22581,1,0,0:0:0:0:
290,191,22640,1,0,0:0:0:0:
328,225,22758,1,0,0:0:0:0:
288,197,22876,1,8,0:0:0:0:
295,201,22994,1,0,0:0:0:0:
295,201,23112,1,8,0:0:0:0:
295,201,23231,1,0,0:0:0:0:
290,206,23349,1,12,0:0:0:0:
297,204,23467,1,0,0:0:0:0:
297,204,23585,1,0,0:0:0:0:
297,204,23703,1,0,0:0:0:0:
295,201,23821,1,0,0:0:0:0:
295,201,23939,1,0,0:0:0:0:
295,201,24057,1,0,0:0:0:0:
297,204,24175,1,0,0:0:0:0:
293,196,24294,1,0,0:0:0:0:
293,196,24412,1,0,0:0:0:0:
293,196,24530,1,0,0:0:0:0:
295,201,24648,1,0,0:0:0:0:
295,201,24766,1,8,0:0:0:0:
295,201,24884,1,0,0:0:0:0:
307,205,25002,1,8,0:0:0:0:
307,205,25120,1,8,0:0:0:0:
298,205,25238,1,0,0:0:0:0:
298,205,25357,1,0,0:0:0:0:
315,217,25475,1,8,0:0:0:0:
315,217,25593,1,0,0:0:0:0:
315,217,25711,1,8,0:0:0:0:
315,217,25829,1,8,0:0:0:0:
315,226,25947,1,0,0:0:0:0:
315,226,26065,1,12,0:0:0:0:
300,230,26301,1,0,0:0:0:0:
300,230,26420,1,0,0:0:0:0:
300,230,26538,1,0,0:0:0:0:
300,230,26656,1,8,0:0:0:0:
286,243,26774,1,8,0:0:0:0:
286,243,26892,1,8,0:0:0:0:
286,243,27010,1,0,0:0:0:0:
286,243,27128,1,12,0:0:0:0:
286,243,27246,1,0,0:0:0:0:
286,243,27305,1,0,0:0:0:0:
286,243,27364,1,0,0:0:0:0:
286,243,27483,1,12,0:0:0:0:
286,243,27601,1,0,0:0:0:0:
286,243,27660,1,0,0:0:0:0:
286,243,27719,1,0,0:0:0:0:
286,243,27837,1,12,0:0:0:0:
286,243,27955,1,0,0:0:0:0:
286,243,28014,1,0,0:0:0:0:
293,247,28073,1,8,0:0:0:0:
286,243,28191,1,8,0:0:0:0:
286,243,28309,1,0,0:0:0:0:
286,243,28427,1,0,0:0:0:0:
286,243,28546,1,0,0:0:0:0:
286,243,28664,1,0,0:0:0:0:
286,243,28782,1,0,0:0:0:0:
286,243,28900,1,12,0:0:0:0:
275,239,29018,1,0,0:0:0:0:
275,240,29136,1,0,0:0:0:0:
275,240,29254,1,8,0:0:0:0:
271,243,29372,1,0,0:0:0:0:
271,243,29431,1,0,0:0:0:0:
271,243,29490,1,0,0:0:0:0:
271,243,29609,1,8,0:0:0:0:
271,243,29727,1,0,0:0:0:0:
235,267,29786,1,0,0:0:0:0:
255,230,29845,1,0,0:0:0:0:
252,241,29963,1,8,0:0:0:0:
249,223,30022,1,8,0:0:0:0:
244,233,30081,1,0,0:0:0:0:
244,233,30140,1,0,0:0:0:0:
244,233,30199,1,8,0:0:0:0:
251,239,30258,1,8,0:0:0:0:
244,233,30317,1,0,0:0:0:0:
251,239,30376,1,0,0:0:0:0:
244,232,30435,1,8,0:0:0:0:
244,232,30514,1,8,0:0:0:0:
244,232,30593,1,8,0:0:0:0:
244,232,30672,1,0,0:0:0:0:
238,238,30750,1,0,0:0:0:0:
261,234,30829,1,0,0:0:0:0:
261,234,30908,1,12,0:0:0:0:
251,239,31144,1,8,0:0:0:0:
245,232,31262,1,0,0:0:0:0:
244,232,31321,1,0,0:0:0:0:
244,232,31380,1,0,0:0:0:0:
259,236,31498,1,0,0:0:0:0:
259,236,31616,1,8,0:0:0:0:
261,234,31675,1,8,0:0:0:0:
261,234,31734,1,0,0:0:0:0:
259,236,31853,1,8,0:0:0:0:
259,236,31912,1,8,0:0:0:0:
259,236,31971,1,0,0:0:0:0:
259,236,32030,1,0,0:0:0:0:
259,236,32089,1,8,0:0:0:0:
259,236,32207,1,8,0:0:0:0:
259,236,32325,1,0,0:0:0:0:
259,236,32443,1,0,0:0:0:0:
259,236,32502,1,0,0:0:0:0:
261,234,32561,1,8,0:0:0:0:
259,236,32679,1,8,0:0:0:0:
259,236,32797,1,0,0:0:0:0:
259,236,33034,1,8,0:0:0:0:
259,236,33152,1,0,0:0:0:0:
259,236,33211,1,0,0:0:0:0:
259,236,33270,1,8,0:0:0:0:
259,236,33388,1,0,0:0:0:0:
259,236,33506,1,8,0:0:0:0:
259,236,33565,1,8,0:0:0:0:
259,236,33624,1,0,0:0:0:0:
259,236,33742,1,8,0:0:0:0:
264,240,33860,1,0,0:0:0:0:
264,240,33979,1,8,0:0:0:0:
264,240,34097,1,8,0:0:0:0:
307,207,34156,1,8,0:0:0:0:
264,240,34215,1,0,0:0:0:0:
334,278,34274,1,8,0:0:0:0:
264,240,34333,1,0,0:0:0:0:
282,215,34392,1,0,0:0:0:0:
264,240,34451,1,8,0:0:0:0:
264,240,34569,1,0,0:0:0:0:
264,240,34687,1,12,0:0:0:0:
266,226,34923,1,8,0:0:0:0:
264,230,35042,1,0,0:0:0:0:
264,230,35101,1,0,0:0:0:0:
264,230,35160,1,0,0:0:0:0:
264,230,35278,1,0,0:0:0:0:
264,230,35396,1,8,0:0:0:0:
265,211,35455,1,8,0:0:0:0:
261,220,35514,1,0,0:0:0:0:
255,223,35632,1,0,0:0:0:0:
255,223,35750,1,0,0:0:0:0:
255,223,35868,1,8,0:0:0:0:
250,214,35986,1,8,0:0:0:0:
250,214,36105,1,0,0:0:0:0:
254,216,36223,1,0,0:0:0:0:
254,216,36282,1,0,0:0:0:0:
254,216,36341,1,8,0:0:0:0:
254,216,36459,1,0,0:0:0:0:
249,219,36577,1,12,0:0:0:0:
246,212,36695,1,0,0:0:0:0:
259,213,36813,1,8,0:0:0:0:
250,214,36872,1,0,0:0:0:0:
250,214,36931,1,8,0:0:0:0:
250,214,36990,1,8,0:0:0:0:
249,218,37049,1,0,0:0:0:0:
250,220,37168,1,0,0:0:0:0:
250,220,37286,1,8,0:0:0:0:
250,220,37345,1,8,0:0:0:0:
249,219,37404,1,0,0:0:0:0:
233,202,37522,1,0,0:0:0:0:
250,221,37640,1,8,0:0:0:0:
240,205,37758,1,0,0:0:0:0:
260,220,37817,1,0,0:0:0:0:
255,211,37876,1,8,0:0:0:0:
255,211,37935,1,8,0:0:0:0:
255,211,37994,1,0,0:0:0:0:
260,213,38112,1,8,0:0:0:0:
260,213,38231,1,0,0:0:0:0:
249,204,38349,1,0,0:0:0:0:
261,234,38467,1,12,0:0:0:0:
251,239,38702,1,8,0:0:0:0:
245,232,38821,1,0,0:0:0:0:
244,232,38880,1,0,0:0:0:0:
244,232,38939,1,0,0:0:0:0:
259,236,39057,1,0,0:0:0:0:
259,236,39175,1,8,0:0:0:0:
261,234,39234,1,8,0:0:0:0:
261,234,39293,1,0,0:0:0:0:
259,236,39412,1,8,0:0:0:0:
259,236,39471,1,8,0:0:0:0:
259,236,39530,1,0,0:0:0:0:
259,236,39589,1,0,0:0:0:0:
259,236,39648,1,8,0:0:0:0:
259,236,39766,1,8,0:0:0:0:
259,236,39884,1,0,0:0:0:0:
259,236,40002,1,0,0:0:0:0:
259,236,40061,1,0,0:0:0:0:
261,234,40120,1,8,0:0:0:0:
259,236,40238,1,8,0:0:0:0:
259,236,40356,1,4,0:0:0:0:
259,236,40593,1,8,0:0:0:0:
259,236,40711,1,0,0:0:0:0:
259,236,40770,1,0,0:0:0:0:
259,236,40829,1,8,0:0:0:0:
232,176,40888,1,8,0:0:0:0:
259,236,40947,1,0,0:0:0:0:
259,236,41065,1,8,0:0:0:0:
259,236,41124,1,8,0:0:0:0:
259,236,41183,1,0,0:0:0:0:
259,236,41301,1,8,0:0:0:0:
264,240,41419,1,0,0:0:0:0:
264,240,41538,1,8,0:0:0:0:
264,240,41656,1,8,0:0:0:0:
263,217,41715,1,8,0:0:0:0:
264,240,41774,1,0,0:0:0:0:
334,278,41833,1,8,0:0:0:0:
264,240,41892,1,0,0:0:0:0:
264,240,42010,1,8,0:0:0:0:
232,192,42069,1,8,0:0:0:0:
264,240,42128,1,0,0:0:0:0:
264,240,42246,1,12,0:0:0:0:
256,208,42364,1,0,0:0:0:0:
266,226,42482,1,8,0:0:0:0:
264,230,42600,1,4,0:0:0:0:
264,230,42719,1,8,0:0:0:0:
272,184,42777,1,8,0:0:0:0:
264,230,42837,1,0,0:0:0:0:
264,230,42955,1,8,0:0:0:0:
265,211,43014,1,8,0:0:0:0:
261,220,43073,1,0,0:0:0:0:
198,199,43132,1,8,0:0:0:0:
255,223,43191,1,0,0:0:0:0:
255,223,43309,1,0,0:0:0:0:
238,219,43368,1,0,0:0:0:0:
255,223,43427,1,8,0:0:0:0:
250,214,43545,1,8,0:0:0:0:
250,214,43664,1,0,0:0:0:0:
254,216,43782,1,0,0:0:0:0:
254,216,43900,1,8,0:0:0:0:
249,219,44018,1,4,0:0:0:0:
254,216,44136,1,8,0:0:0:0:
246,212,44254,1,8,0:0:0:0:
259,213,44372,1,0,0:0:0:0:
250,214,44431,1,8,0:0:0:0:
250,214,44490,1,8,0:0:0:0:
249,218,44608,1,0,0:0:0:0:
250,220,44727,1,0,0:0:0:0:
250,220,44845,1,8,0:0:0:0:
249,219,44963,1,8,0:0:0:0:
233,202,45081,1,8,0:0:0:0:
246,212,45160,1,8,0:0:0:0:
256,239,45238,1,8,0:0:0:0:
250,214,45317,1,8,0:0:0:0:
250,214,45396,1,0,0:0:0:0:
249,218,45475,1,0,0:0:0:0:
255,211,45553,1,8,0:0:0:0:
252,211,45790,1,0,0:0:0:0:
252,211,46026,1,12,0:0:0:0:
192,210,46143,1,0,0:0:0:0:
263,231,46262,1,0,0:0:0:0:
258,221,46380,1,8,0:0:0:0:
254,225,46734,1,8,0:0:0:0:
254,215,46971,1,0,0:0:0:0:
254,215,47207,1,8,0:0:0:0:
254,215,47325,1,0,0:0:0:0:
254,215,47561,1,0,0:0:0:0:
254,215,47679,1,8,0:0:0:0:
245,191,47916,1,8,0:0:0:0:
263,215,48034,1,0,0:0:0:0:
272,195,48152,1,8,0:0:0:0:
245,191,48270,1,8,0:0:0:0:
266,204,48624,1,8,0:0:0:0:
273,210,48683,1,8,0:0:0:0:
261,205,48742,1,0,0:0:0:0:
261,205,48860,1,8,0:0:0:0:
261,205,48979,1,0,0:0:0:0:
261,205,49097,1,8,0:0:0:0:
263,204,49215,1,0,0:0:0:0:
266,204,49333,1,8,0:0:0:0:
266,204,49392,1,8,0:0:0:0:
276,210,49451,1,0,0:0:0:0:
276,210,49510,1,0,0:0:0:0:
276,210,49569,1,8,0:0:0:0:
270,210,49687,1,0,0:0:0:0:
270,210,49805,1,12,0:0:0:0:
250,215,49923,1,0,0:0:0:0:
267,215,50042,1,0,0:0:0:0:
267,215,50160,1,8,0:0:0:0:
269,196,50514,1,8,0:0:0:0:
271,203,50750,1,0,0:0:0:0:
271,203,50986,1,8,0:0:0:0:
271,203,51105,1,0,0:0:0:0:
267,206,51341,1,0,0:0:0:0:
267,206,51459,1,8,0:0:0:0:
258,210,51695,1,0,0:0:0:0:
258,210,51813,1,0,0:0:0:0:
258,210,51931,1,8,0:0:0:0:
263,225,52049,1,8,0:0:0:0:
261,214,52403,1,8,0:0:0:0:
280,239,52462,1,8,0:0:0:0:
289,229,52522,1,0,0:0:0:0:
283,225,52640,1,8,0:0:0:0:
284,221,52699,1,8,0:0:0:0:
273,220,52758,1,0,0:0:0:0:
274,217,52817,1,8,0:0:0:0:
274,217,52876,1,0,0:0:0:0:
289,229,52994,1,0,0:0:0:0:
284,225,53112,1,8,0:0:0:0:
284,225,53172,1,8,0:0:0:0:
284,225,53231,1,0,0:0:0:0:
284,225,53290,1,0,0:0:0:0:
284,225,53349,1,8,0:0:0:0:
288,231,53467,1,0,0:0:0:0:
288,231,53585,1,12,0:0:0:0:
303,235,53703,1,0,0:0:0:0:
300,232,53821,1,0,0:0:0:0:
289,229,53939,1,8,0:0:0:0:
292,248,54294,1,8,0:0:0:0:
291,248,54530,1,0,0:0:0:0:
303,251,54647,1,0,0:0:0:0:
302,251,54706,1,0,0:0:0:0:
300,245,54766,1,8,0:0:0:0:
295,241,54884,1,0,0:0:0:0:
295,241,55120,1,0,0:0:0:0:
293,252,55238,1,8,0:0:0:0:
295,264,55475,1,0,0:0:0:0:
295,264,55593,1,0,0:0:0:0:
295,264,55711,1,8,0:0:0:0:
274,246,55829,1,0,0:0:0:0:
284,269,56183,1,8,0:0:0:0:
244,194,56242,1,8,0:0:0:0:
285,253,56301,1,0,0:0:0:0:
264,197,56420,1,8,0:0:0:0:
264,197,56538,1,0,0:0:0:0:
264,197,56656,1,0,0:0:0:0:
264,197,56774,1,0,0:0:0:0:
250,192,56892,1,12,0:0:0:0:
250,192,57010,1,4,0:0:0:0:
250,192,57128,1,8,0:0:0:0:
254,198,57246,1,0,0:0:0:0:
254,198,57364,1,12,0:0:0:0:
268,204,57483,1,0,0:0:0:0:
252,203,57601,1,0,0:0:0:0:
252,203,57719,1,8,0:0:0:0:
240,209,58073,1,12,0:0:0:0:
244,197,58546,1,8,0:0:0:0:
245,207,58604,1,8,0:0:0:0:
244,197,58664,1,0,0:0:0:0:
252,203,58782,1,0,0:0:0:0:
252,203,58900,1,8,0:0:0:0:
252,203,59018,1,0,0:0:0:0:
255,211,59136,1,0,0:0:0:0:
255,211,59195,1,0,0:0:0:0:
255,211,59254,1,8,0:0:0:0:
250,207,59372,1,0,0:0:0:0:
264,209,59490,1,8,0:0:0:0:
256,210,59609,1,0,0:0:0:0:
256,210,59727,1,8,0:0:0:0:
256,210,59786,1,8,0:0:0:0:
256,210,59845,1,0,0:0:0:0:
256,210,59904,1,0,0:0:0:0:
265,216,59963,1,8,0:0:0:0:
265,216,60022,1,0,0:0:0:0:
265,216,60081,1,0,0:0:0:0:
265,216,60140,1,0,0:0:0:0:
265,216,60199,1,8,0:0:0:0:
263,217,60317,1,0,0:0:0:0:
269,216,60435,1,8,0:0:0:0:
269,224,60553,1,0,0:0:0:0:
269,224,60672,1,8,0:0:0:0:
269,224,60790,1,0,0:0:0:0:
269,224,60908,1,8,0:0:0:0:
269,224,61026,1,0,0:0:0:0:
269,224,61144,1,12,0:0:0:0:
263,223,61262,1,0,0:0:0:0:
263,223,61380,1,0,0:0:0:0:
263,223,61498,1,8,0:0:0:0:
263,223,61734,1,0,0:0:0:0:
263,223,61853,1,8,0:0:0:0:
263,223,62089,1,0,0:0:0:0:
267,232,62325,1,8,0:0:0:0:
260,230,62443,1,0,0:0:0:0:
267,225,62679,1,0,0:0:0:0:
267,225,62797,1,8,0:0:0:0:
260,212,62916,1,0,0:0:0:0:
260,212,63034,1,0,0:0:0:0:
227,213,63152,1,0,0:0:0:0:
248,214,63270,1,8,0:0:0:0:
253,215,63388,1,0,0:0:0:0:
253,215,63742,1,8,0:0:0:0:
245,216,63801,1,8,0:0:0:0:
245,216,63860,1,0,0:0:0:0:
248,207,63979,1,8,0:0:0:0:
248,207,64097,1,0,0:0:0:0:
248,207,64215,1,0,0:0:0:0:
248,207,64333,1,0,0:0:0:0:
248,207,64451,1,8,0:0:0:0:
225,214,64569,1,0,0:0:0:0:
246,206,64687,1,8,0:0:0:0:
248,207,64805,1,0,0:0:0:0:
248,207,64923,1,12,0:0:0:0:
281,196,65041,1,0,0:0:0:0:
248,207,65160,1,0,0:0:0:0:
248,207,65278,1,8,0:0:0:0:
251,208,65514,1,0,0:0:0:0:
248,207,65632,1,8,0:0:0:0:
250,201,65868,1,0,0:0:0:0:
250,201,66105,1,8,0:0:0:0:
250,201,66223,1,0,0:0:0:0:
250,201,66459,1,8,0:0:0:0:
250,201,66577,1,8,0:0:0:0:
255,199,66813,1,0,0:0:0:0:
265,220,66931,1,0,0:0:0:0:
255,199,67049,1,8,0:0:0:0:
255,199,67168,1,0,0:0:0:0:
255,199,67522,1,8,0:0:0:0:
248,220,67580,1,8,0:0:0:0:
255,199,67640,1,0,0:0:0:0:
253,213,67758,1,8,0:0:0:0:
255,199,67876,1,0,0:0:0:0:
255,199,67994,1,8,0:0:0:0:
241,202,68112,1,0,0:0:0:0:
256,199,68231,1,8,0:0:0:0:
250,198,68349,1,0,0:0:0:0:
250,198,68467,1,8,0:0:0:0:
250,198,68584,1,0,0:0:0:0:
269,224,68703,1,12,0:0:0:0:
263,223,68821,1,0,0:0:0:0:
263,223,68939,1,0,0:0:0:0:
263,223,69057,1,8,0:0:0:0:
263,223,69293,1,0,0:0:0:0:
263,223,69412,1,8,0:0:0:0:
263,223,69648,1,0,0:0:0:0:
267,232,69884,1,8,0:0:0:0:
260,230,70002,1,0,0:0:0:0:
267,225,70238,1,0,0:0:0:0:
267,225,70356,1,8,0:0:0:0:
260,212,70475,1,0,0:0:0:0:
260,212,70593,1,0,0:0:0:0:
227,213,70711,1,0,0:0:0:0:
248,214,70829,1,8,0:0:0:0:
253,215,70947,1,0,0:0:0:0:
253,215,71301,1,8,0:0:0:0:
245,216,71360,1,8,0:0:0:0:
245,216,71419,1,0,0:0:0:0:
248,207,71538,1,8,0:0:0:0:
248,207,71656,1,0,0:0:0:0:
248,207,71774,1,0,0:0:0:0:
248,207,71892,1,0,0:0:0:0:
248,207,72010,1,8,0:0:0:0:
225,214,72128,1,0,0:0:0:0:
246,206,72246,1,8,0:0:0:0:
248,207,72364,1,0,0:0:0:0:
248,207,72482,1,12,0:0:0:0:
335,238,72601,1,0,0:0:0:0:
248,207,72719,1,0,0:0:0:0:
248,207,72836,1,8,0:0:0:0:
248,207,73192,1,12,0:0:0:0:
250,201,73664,1,8,0:0:0:0:
250,201,73900,1,8,0:0:0:0:
250,201,73979,1,0,0:0:0:0:
298,216,74057,1,8,0:0:0:0:
250,201,74136,1,0,0:0:0:0:
233,203,74215,1,0,0:0:0:0:
233,203,74294,1,0,0:0:0:0:
255,199,74372,1,8,0:0:0:0:
255,199,74490,1,8,0:0:0:0:
255,199,74608,1,0,0:0:0:0:
255,199,74727,1,8,0:0:0:0:
248,215,74845,1,0,0:0:0:0:
256,199,74963,1,0,0:0:0:0:
255,199,75081,1,8,0:0:0:0:
255,199,75199,1,0,0:0:0:0:
255,199,75317,1,8,0:0:0:0:
255,199,75435,1,0,0:0:0:0:
255,199,75553,1,0,0:0:0:0:
241,202,75671,1,0,0:0:0:0:
256,199,75790,1,8,0:0:0:0:
250,198,75868,1,8,0:0:0:0:
267,204,75947,1,8,0:0:0:0:
250,198,76026,1,0,0:0:0:0:
250,198,76105,1,0,0:0:0:0:
262,197,76183,1,0,0:0:0:0:
265,199,76262,1,12,0:0:0:0:
259,200,76498,1,0,0:0:0:0:
259,200,76734,1,8,0:0:0:0:
259,200,76971,1,0,0:0:0:0:
263,203,77207,1,8,0:0:0:0:
263,203,77443,1,8,0:0:0:0:
275,211,77679,1,8,0:0:0:0:
275,211,77916,1,0,0:0:0:0:
293,195,78034,1,8,0:0:0:0:
275,211,78152,1,0,0:0:0:0:
275,211,78388,1,0,0:0:0:0:
283,204,78624,1,8,0:0:0:0:
283,204,78860,1,0,0:0:0:0:
275,211,79097,1,8,0:0:0:0:
278,211,79333,1,0,0:0:0:0:
278,211,79451,1,0,0:0:0:0:
278,211,79569,1,8,0:0:0:0:
268,208,79805,1,4,0:0:0:0:
268,208,80042,1,12,0:0:0:0:
264,206,80278,1,8,0:0:0:0:
268,208,80514,1,0,0:0:0:0:
274,205,80632,1,0,0:0:0:0:
281,221,80750,1,0,0:0:0:0:
263,211,80986,1,8,0:0:0:0:
265,217,81223,1,0,0:0:0:0:
260,222,81459,1,8,0:0:0:0:
278,230,81695,1,12,0:0:0:0:
278,229,81931,1,8,0:0:0:0:
278,229,82010,1,8,0:0:0:0:
278,229,82089,1,0,0:0:0:0:
278,229,82168,1,0,0:0:0:0:
278,229,82246,1,0,0:0:0:0:
278,229,82325,1,0,0:0:0:0:
278,230,82404,1,8,0:0:0:0:
277,225,82483,1,0,0:0:0:0:
277,225,82561,1,0,0:0:0:0:
278,229,82640,1,0,0:0:0:0:
278,229,82719,1,0,0:0:0:0:
278,229,82797,1,0,0:0:0:0:
278,229,82876,1,8,0:0:0:0:
278,229,82955,1,0,0:0:0:0:
278,229,83034,1,0,0:0:0:0:
278,229,83112,1,0,0:0:0:0:
278,229,83191,1,0,0:0:0:0:
278,229,83270,1,0,0:0:0:0:
277,225,83349,1,12,0:0:0:0:
278,229,83742,1,0,0:0:0:0:
265,199,83821,1,12,0:0:0:0:
259,200,84057,1,0,0:0:0:0:
259,200,84293,1,8,0:0:0:0:
259,200,84530,1,0,0:0:0:0:
263,203,84766,1,8,0:0:0:0:
263,203,85002,1,8,0:0:0:0:
275,211,85238,1,8,0:0:0:0:
275,211,85475,1,0,0:0:0:0:
290,233,85593,1,0,0:0:0:0:
275,211,85711,1,8,0:0:0:0:
275,211,85947,1,0,0:0:0:0:
283,204,86183,1,8,0:0:0:0:
283,204,86419,1,0,0:0:0:0:
275,211,86656,1,8,0:0:0:0:
278,211,86892,1,0,0:0:0:0:
278,211,87010,1,0,0:0:0:0:
278,211,87128,1,8,0:0:0:0:
268,208,87364,1,4,0:0:0:0:
268,208,87601,1,12,0:0:0:0:
264,206,87837,1,8,0:0:0:0:
268,208,88073,1,0,0:0:0:0:
234,218,88191,1,8,0:0:0:0:
281,221,88309,1,0,0:0:0:0:
263,211,88545,1,8,0:0:0:0:
265,217,88782,1,8,0:0:0:0:
239,209,88900,1,0,0:0:0:0:
260,222,89018,1,8,0:0:0:0:
266,216,89097,1,8,0:0:0:0:
266,216,89175,1,0,0:0:0:0:
278,230,89254,1,8,0:0:0:0:
244,221,89333,1,0,0:0:0:0:
252,227,89412,1,0,0:0:0:0:
278,229,89490,1,12,0:0:0:0:
278,229,89727,1,8,0:0:0:0:
278,229,89805,1,0,0:0:0:0:
278,229,89884,1,0,0:0:0:0:
278,230,89963,1,8,0:0:0:0:
277,225,90042,1,0,0:0:0:0:
277,225,90120,1,0,0:0:0:0:
278,229,90199,1,8,0:0:0:0:
278,229,90278,1,8,0:0:0:0:
278,229,90356,1,8,0:0:0:0:
278,229,90435,1,0,0:0:0:0:
278,229,90553,1,8,0:0:0:0:
278,229,90672,1,8,0:0:0:0:
278,229,90790,1,8,0:0:0:0:
277,225,90908,1,8,0:0:0:0:
279,231,91026,1,0,0:0:0:0:
278,229,91144,1,0,0:0:0:0:
278,229,91262,1,8,0:0:0:0:
278,229,91380,1,4,0:0:0:0:
274,243,91498,1,8,0:0:0:0:
279,234,91734,1,8,0:0:0:0:
279,231,91853,1,0,0:0:0:0:
278,229,91971,1,8,0:0:0:0:
294,236,92089,1,0,0:0:0:0:
294,236,92207,1,12,0:0:0:0:
294,236,92325,1,0,0:0:0:0:
294,236,92443,1,12,0:0:0:0:
288,231,92561,1,0,0:0:0:0:
279,231,92679,1,8,0:0:0:0:
278,229,92797,1,4,0:0:0:0:
278,227,92916,1,8,0:0:0:0:
278,227,93034,1,0,0:0:0:0:
285,226,93152,1,8,0:0:0:0:
285,226,93270,1,8,0:0:0:0:
288,231,93388,1,8,0:0:0:0:
288,229,93506,1,0,0:0:0:0:
287,234,93624,1,8,0:0:0:0:
288,234,93742,1,0,0:0:0:0:
288,234,93860,1,8,0:0:0:0:
288,234,93979,1,0,0:0:0:0:
302,238,94097,1,12,0:0:0:0:
288,231,94215,1,0,0:0:0:0:
288,234,94333,1,8,0:0:0:0:
297,239,94451,1,0,0:0:0:0:
294,238,94569,1,8,0:0:0:0:
294,238,94687,1,8,0:0:0:0:
294,238,94805,1,8,0:0:0:0:
294,238,94923,1,8,0:0:0:0:
294,238,95042,1,8,0:0:0:0:
288,246,95160,1,4,0:0:0:0:
285,240,95514,1,0,0:0:0:0:
285,240,95632,1,8,0:0:0:0:
285,240,95750,1,8,0:0:0:0:
274,240,95868,1,0,0:0:0:0:
274,240,95986,1,0,0:0:0:0:
274,240,96105,1,8,0:0:0:0:
256,200,96163,1,0,0:0:0:0:
269,250,96223,1,8,0:0:0:0:
250,240,96459,1,8,0:0:0:0:
253,242,96577,1,0,0:0:0:0:
251,241,96695,1,8,0:0:0:0:
254,243,96813,1,0,0:0:0:0:
254,243,96931,1,0,0:0:0:0:
251,235,97049,1,12,0:0:0:0:
251,221,97522,1,0,0:0:0:0:
262,222,97994,1,8,0:0:0:0:
265,214,98467,1,0,0:0:0:0:
265,214,98703,1,8,0:0:0:0:
265,214,98939,1,12,0:0:0:0:
267,201,99057,1,0,0:0:0:0:
271,216,99175,1,8,0:0:0:0:
271,216,99234,1,8,0:0:0:0:
271,216,99294,1,0,0:0:0:0:
271,216,99412,1,0,0:0:0:0:
277,228,99530,1,0,0:0:0:0:
275,219,99648,1,8,0:0:0:0:
267,219,99766,1,0,0:0:0:0:
271,216,99884,1,8,0:0:0:0:
271,216,99943,1,8,0:0:0:0:
271,216,100002,1,0,0:0:0:0:
271,216,100061,1,0,0:0:0:0:
271,216,100120,1,8,0:0:0:0:
270,224,100238,1,8,0:0:0:0:
270,224,100297,1,8,0:0:0:0:
270,224,100357,1,0,0:0:0:0:
263,224,100475,1,0,0:0:0:0:
263,224,100593,1,8,0:0:0:0:
263,224,100711,1,8,0:0:0:0:
261,226,100829,1,12,0:0:0:0:
253,210,101065,1,8,0:0:0:0:
254,210,101183,1,0,0:0:0:0:
254,210,101301,1,8,0:0:0:0:
243,208,101360,1,8,0:0:0:0:
254,210,101420,1,0,0:0:0:0:
263,224,101479,1,0,0:0:0:0:
254,210,101538,1,8,0:0:0:0:
250,223,101656,1,0,0:0:0:0:
245,213,101774,1,8,0:0:0:0:
245,213,101833,1,0,0:0:0:0:
245,213,101892,1,0,0:0:0:0:
254,210,102010,1,8,0:0:0:0:
254,219,102128,1,0,0:0:0:0:
254,219,102187,1,0,0:0:0:0:
254,219,102246,1,8,0:0:0:0:
254,219,102305,1,0,0:0:0:0:
254,219,102364,1,8,0:0:0:0:
255,224,102483,1,8,0:0:0:0:
255,224,102601,1,0,0:0:0:0:
255,224,102719,1,12,0:0:0:0:
254,219,102955,1,8,0:0:0:0:
254,219,103073,1,8,0:0:0:0:
254,219,103191,1,0,0:0:0:0:
257,216,103309,1,0,0:0:0:0:
256,216,103368,1,0,0:0:0:0:
257,216,103427,1,8,0:0:0:0:
281,213,103486,1,8,0:0:0:0:
257,216,103546,1,0,0:0:0:0:
254,219,103664,1,8,0:0:0:0:
254,219,103782,1,0,0:0:0:0:
254,219,103900,1,8,0:0:0:0:
254,219,104018,1,0,0:0:0:0:
257,216,104136,1,8,0:0:0:0:
257,216,104195,1,0,0:0:0:0:
257,216,104254,1,0,0:0:0:0:
257,216,104372,1,8,0:0:0:0:
274,228,104431,1,8,0:0:0:0:
257,216,104490,1,0,0:0:0:0:
254,219,104609,1,8,0:0:0:0:
254,219,104668,1,8,0:0:0:0:
254,219,104727,1,0,0:0:0:0:
254,219,104786,1,0,0:0:0:0:
254,219,104845,1,8,0:0:0:0:
257,216,104963,1,0,0:0:0:0:
257,216,105081,1,8,0:0:0:0:
257,216,105140,1,8,0:0:0:0:
257,216,105199,1,8,0:0:0:0:
257,216,105258,1,8,0:0:0:0:
257,216,105317,1,0,0:0:0:0:
254,219,105435,1,0,0:0:0:0:
254,219,105553,1,12,0:0:0:0:
246,217,105671,1,0,0:0:0:0:
252,219,105790,1,8,0:0:0:0:
246,217,105848,1,8,0:0:0:0:
252,219,105908,1,0,0:0:0:0:
252,219,106026,1,12,0:0:0:0:
246,217,106143,1,0,0:0:0:0:
249,212,106262,1,8,0:0:0:0:
249,212,106321,1,8,0:0:0:0:
249,212,106380,1,8,0:0:0:0:
249,212,106498,1,4,0:0:0:0:
222,188,106734,1,8,0:0:0:0:
243,206,106853,1,8,0:0:0:0:
243,206,106971,1,0,0:0:0:0:
243,206,107089,1,0,0:0:0:0:
314,226,107148,1,0,0:0:0:0:
243,206,107207,1,8,0:0:0:0:
272,216,107325,1,0,0:0:0:0:
272,216,107443,1,8,0:0:0:0:
272,216,107502,1,8,0:0:0:0:
272,216,107561,1,0,0:0:0:0:
281,216,107679,1,8,0:0:0:0:
281,216,107797,1,0,0:0:0:0:
272,216,107916,1,8,0:0:0:0:
272,216,107975,1,8,0:0:0:0:
272,216,108034,1,0,0:0:0:0:
272,216,108093,1,0,0:0:0:0:
272,216,108152,1,8,0:0:0:0:
285,230,108270,1,8,0:0:0:0:
281,230,108388,1,4,0:0:0:0:
279,229,108624,1,8,0:0:0:0:
288,233,108742,1,0,0:0:0:0:
288,233,108860,1,8,0:0:0:0:
293,231,108920,1,0,0:0:0:0:
288,233,108979,1,8,0:0:0:0:
288,233,109097,1,8,0:0:0:0:
266,185,109215,1,0,0:0:0:0:
266,185,109333,1,8,0:0:0:0:
266,185,109392,1,0,0:0:0:0:
266,185,109451,1,0,0:0:0:0:
258,185,109569,1,8,0:0:0:0:
258,185,109687,1,0,0:0:0:0:
258,185,109805,1,8,0:0:0:0:
256,182,109864,1,0,0:0:0:0:
256,182,109923,1,0,0:0:0:0:
256,182,109983,1,0,0:0:0:0:
256,182,110042,1,8,0:0:0:0:
256,182,110101,1,8,0:0:0:0:
256,182,110160,1,0,0:0:0:0:
255,185,110278,1,12,0:0:0:0:
245,190,110396,1,0,0:0:0:0:
258,175,110514,1,8,0:0:0:0:
258,175,110632,1,8,0:0:0:0:
248,175,110750,1,0,0:0:0:0:
248,175,110809,1,0,0:0:0:0:
248,175,110868,1,8,0:0:0:0:
257,190,110986,1,8,0:0:0:0:
257,190,111105,1,0,0:0:0:0:
250,190,111223,1,8,0:0:0:0:
250,190,111282,1,8,0:0:0:0:
250,190,111341,1,0,0:0:0:0:
250,190,111400,1,0,0:0:0:0:
250,190,111459,1,8,0:0:0:0:
243,186,111577,1,0,0:0:0:0:
243,186,111695,1,8,0:0:0:0:
243,186,111754,1,8,0:0:0:0:
243,186,111813,1,8,0:0:0:0:
243,186,111872,1,8,0:0:0:0:
243,186,111931,1,0,0:0:0:0:
240,196,112049,1,0,0:0:0:0:
250,189,112168,1,8,0:0:0:0:
263,202,112286,1,0,0:0:0:0:
263,202,112404,1,8,0:0:0:0:
263,202,112463,1,8,0:0:0:0:
263,202,112522,1,0,0:0:0:0:
250,189,112640,1,8,0:0:0:0:
210,190,112758,1,0,0:0:0:0:
234,190,112817,1,0,0:0:0:0:
250,190,112876,1,8,0:0:0:0:
250,190,112935,1,8,0:0:0:0:
250,189,112994,1,0,0:0:0:0:
250,189,113112,1,12,0:0:0:0:
245,192,113231,1,0,0:0:0:0:
245,192,113290,1,0,0:0:0:0:
245,192,113349,1,8,0:0:0:0:
245,192,113408,1,8,0:0:0:0:
245,192,113467,1,8,0:0:0:0:
260,194,113585,1,8,0:0:0:0:
260,194,113703,1,0,0:0:0:0:
260,194,113821,1,0,0:0:0:0:
260,194,113939,1,0,0:0:0:0:
265,214,114057,1,12,0:0:0:0:
267,201,114175,1,0,0:0:0:0:
271,216,114293,1,8,0:0:0:0:
271,216,114352,1,8,0:0:0:0:
271,216,114412,1,0,0:0:0:0:
271,216,114530,1,0,0:0:0:0:
277,228,114648,1,0,0:0:0:0:
275,219,114766,1,8,0:0:0:0:
267,219,114884,1,0,0:0:0:0:
271,216,115002,1,8,0:0:0:0:
271,216,115061,1,8,0:0:0:0:
271,216,115120,1,0,0:0:0:0:
271,216,115179,1,0,0:0:0:0:
271,216,115238,1,8,0:0:0:0:
270,224,115356,1,8,0:0:0:0:
270,224,115415,1,8,0:0:0:0:
270,224,115475,1,0,0:0:0:0:
263,224,115593,1,0,0:0:0:0:
263,224,115711,1,8,0:0:0:0:
263,224,115829,1,8,0:0:0:0:
261,226,115947,1,12,0:0:0:0:
253,210,116183,1,8,0:0:0:0:
254,210,116301,1,0,0:0:0:0:
254,210,116419,1,8,0:0:0:0:
243,208,116478,1,8,0:0:0:0:
254,210,116538,1,0,0:0:0:0:
263,224,116597,1,0,0:0:0:0:
254,210,116656,1,8,0:0:0:0:
250,223,116774,1,0,0:0:0:0:
245,213,116892,1,8,0:0:0:0:
245,213,116951,1,0,0:0:0:0:
245,213,117010,1,0,0:0:0:0:
254,210,117128,1,8,0:0:0:0:
254,219,117246,1,0,0:0:0:0:
254,219,117305,1,0,0:0:0:0:
254,219,117364,1,8,0:0:0:0:
254,219,117423,1,0,0:0:0:0:
254,219,117482,1,8,0:0:0:0:
255,224,117601,1,8,0:0:0:0:
255,224,117719,1,0,0:0:0:0:
255,224,117837,1,12,0:0:0:0:
254,219,118073,1,8,0:0:0:0:
254,219,118191,1,8,0:0:0:0:
254,219,118309,1,0,0:0:0:0:
257,216,118427,1,0,0:0:0:0:
256,216,118486,1,0,0:0:0:0:
257,216,118545,1,8,0:0:0:0:
281,213,118604,1,8,0:0:0:0:
257,216,118664,1,0,0:0:0:0:
254,219,118782,1,8,0:0:0:0:
254,219,118900,1,0,0:0:0:0:
254,219,119018,1,8,0:0:0:0:
254,219,119136,1,0,0:0:0:0:
257,216,119254,1,8,0:0:0:0:
257,216,119313,1,0,0:0:0:0:
257,216,119372,1,0,0:0:0:0:
257,216,119490,1,8,0:0:0:0:
274,228,119549,1,8,0:0:0:0:
257,216,119608,1,0,0:0:0:0:
254,219,119727,1,8,0:0:0:0:
254,219,119786,1,8,0:0:0:0:
254,219,119845,1,0,0:0:0:0:
254,219,119904,1,0,0:0:0:0:
254,219,119963,1,8,0:0:0:0:
257,216,120081,1,0,0:0:0:0:
257,216,120199,1,8,0:0:0:0:
257,216,120258,1,8,0:0:0:0:
257,216,120317,1,8,0:0:0:0:
257,216,120376,1,8,0:0:0:0:
257,216,120435,1,0,0:0:0:0:
254,219,120553,1,0,0:0:0:0:
254,219,120671,1,12,0:0:0:0:
257,206,120790,1,0,0:0:0:0:
252,219,120849,1,0,0:0:0:0:
257,206,120908,1,8,0:0:0:0:
257,206,120967,1,8,0:0:0:0:
252,219,121026,1,0,0:0:0:0:
252,219,121144,1,12,0:0:0:0:
212,192,121262,1,0,0:0:0:0:
249,212,121380,1,8,0:0:0:0:
249,212,121439,1,8,0:0:0:0:
249,212,121498,1,8,0:0:0:0:
249,212,121616,1,4,0:0:0:0:
222,188,121852,1,8,0:0:0:0:
243,206,121971,1,8,0:0:0:0:
243,206,122089,1,0,0:0:0:0:
243,206,122207,1,0,0:0:0:0:
314,226,122266,1,0,0:0:0:0:
243,206,122325,1,8,0:0:0:0:
272,216,122443,1,0,0:0:0:0:
272,216,122561,1,8,0:0:0:0:
272,216,122620,1,8,0:0:0:0:
272,216,122679,1,0,0:0:0:0:
281,216,122797,1,8,0:0:0:0:
281,216,122915,1,0,0:0:0:0:
272,216,123034,1,8,0:0:0:0:
272,216,123093,1,8,0:0:0:0:
272,216,123152,1,0,0:0:0:0:
272,216,123211,1,0,0:0:0:0:
272,216,123270,1,8,0:0:0:0:
285,230,123388,1,8,0:0:0:0:
281,230,123506,1,4,0:0:0:0:
279,229,123742,1,8,0:0:0:0:
288,233,123860,1,0,0:0:0:0:
288,233,123978,1,8,0:0:0:0:
293,231,124038,1,0,0:0:0:0:
288,233,124097,1,8,0:0:0:0:
288,233,124215,1,8,0:0:0:0:
266,185,124333,1,0,0:0:0:0:
266,185,124451,1,8,0:0:0:0:
266,185,124510,1,0,0:0:0:0:
266,185,124569,1,0,0:0:0:0:
258,185,124687,1,8,0:0:0:0:
258,185,124805,1,0,0:0:0:0:
258,185,124923,1,8,0:0:0:0:
256,182,124982,1,0,0:0:0:0:
256,182,125041,1,0,0:0:0:0:
256,182,125101,1,0,0:0:0:0:
256,182,125160,1,8,0:0:0:0:
256,182,125219,1,8,0:0:0:0:
256,182,125278,1,0,0:0:0:0:
255,185,125396,1,12,0:0:0:0:
245,190,125514,1,0,0:0:0:0:
258,175,125632,1,8,0:0:0:0:
258,175,125750,1,8,0:0:0:0:
248,175,125868,1,0,0:0:0:0:
248,175,125927,1,8,0:0:0:0:
248,175,125986,1,0,0:0:0:0:
257,190,126104,1,8,0:0:0:0:
257,190,126223,1,8,0:0:0:0:
250,190,126341,1,0,0:0:0:0:
250,190,126400,1,0,0:0:0:0:
250,190,126459,1,8,0:0:0:0:
250,190,126518,1,8,0:0:0:0:
250,190,126577,1,0,0:0:0:0:
243,186,126695,1,8,0:0:0:0:
247,180,126754,1,8,0:0:0:0:
252,186,126813,1,8,0:0:0:0:
244,186,126931,1,0,0:0:0:0:
244,186,127049,1,8,0:0:0:0:
240,196,127167,1,8,0:0:0:0:
250,189,127286,1,4,0:0:0:0:
257,191,128230,1,4,0:0:0:0:
257,191,128584,1,4,0:0:0:0:
257,191,128939,1,4,0:0:0:0:
274,208,129175,1,12,0:0:0:0:
254,198,130120,1,0,0:0:0:0:
254,198,130238,1,8,0:0:0:0:
254,198,130278,1,8,0:0:0:0:
254,198,130317,1,8,0:0:0:0:
254,198,130357,1,0,0:0:0:0:
272,189,130416,1,0,0:0:0:0:
266,189,130475,1,8,0:0:0:0:
266,189,130534,1,0,0:0:0:0:
266,189,130593,1,8,0:0:0:0:
257,184,130652,1,8,0:0:0:0:
257,184,130711,1,0,0:0:0:0:
257,184,130770,1,0,0:0:0:0:
257,184,130829,1,8,0:0:0:0:
257,184,130888,1,0,0:0:0:0:
257,184,130947,1,0,0:0:0:0:
257,184,131006,1,0,0:0:0:0:
261,234,131065,1,12,0:0:0:0:
251,239,131301,1,8,0:0:0:0:
245,232,131419,1,0,0:0:0:0:
244,232,131478,1,0,0:0:0:0:
244,232,131537,1,0,0:0:0:0:
259,236,131655,1,0,0:0:0:0:
259,236,131773,1,8,0:0:0:0:
261,234,131832,1,8,0:0:0:0:
261,234,131891,1,0,0:0:0:0:
259,236,132010,1,8,0:0:0:0:
259,236,132069,1,8,0:0:0:0:
259,236,132128,1,0,0:0:0:0:
259,236,132246,1,8,0:0:0:0:
259,236,132364,1,0,0:0:0:0:
259,236,132482,1,8,0:0:0:0:
200,209,132541,1,0,0:0:0:0:
259,236,132600,1,8,0:0:0:0:
259,236,132659,1,0,0:0:0:0:
261,234,132718,1,8,0:0:0:0:
206,210,132777,1,8,0:0:0:0:
259,236,132836,1,8,0:0:0:0:
206,210,132895,1,8,0:0:0:0:
259,236,132954,1,4,0:0:0:0:
259,236,133191,1,8,0:0:0:0:
259,236,133309,1,0,0:0:0:0:
259,236,133368,1,0,0:0:0:0:
259,236,133427,1,8,0:0:0:0:
301,225,133486,1,0,0:0:0:0:
259,236,133545,1,8,0:0:0:0:
294,227,133604,1,0,0:0:0:0:
259,236,133663,1,8,0:0:0:0:
259,236,133722,1,8,0:0:0:0:
259,236,133781,1,0,0:0:0:0:
235,218,133900,1,8,0:0:0:0:
264,240,134017,1,0,0:0:0:0:
264,240,134136,1,8,0:0:0:0:
264,240,134254,1,8,0:0:0:0:
264,240,134372,1,0,0:0:0:0:
334,278,134431,1,8,0:0:0:0:
264,240,134490,1,0,0:0:0:0:
282,215,134549,1,0,0:0:0:0:
264,240,134608,1,8,0:0:0:0:
213,233,134667,1,8,0:0:0:0:
264,240,134726,1,0,0:0:0:0:
248,240,134785,1,0,0:0:0:0:
264,240,134844,1,12,0:0:0:0:
266,226,135080,1,8,0:0:0:0:
264,230,135199,1,0,0:0:0:0:
264,230,135258,1,8,0:0:0:0:
264,230,135317,1,0,0:0:0:0:
264,230,135435,1,0,0:0:0:0:
264,230,135553,1,8,0:0:0:0:
265,211,135612,1,0,0:0:0:0:
261,220,135671,1,0,0:0:0:0:
255,213,135731,1,0,0:0:0:0:
255,223,135789,1,8,0:0:0:0:
254,217,135849,1,8,0:0:0:0:
255,223,135907,1,0,0:0:0:0:
255,223,136025,1,8,0:0:0:0:
250,214,136143,1,0,0:0:0:0:
250,214,136262,1,8,0:0:0:0:
233,210,136321,1,8,0:0:0:0:
243,212,136380,1,0,0:0:0:0:
243,212,136439,1,0,0:0:0:0:
254,216,136498,1,8,0:0:0:0:
254,216,136616,1,4,0:0:0:0:
249,219,136734,1,8,0:0:0:0:
258,229,136793,1,8,0:0:0:0:
246,212,136852,1,0,0:0:0:0:
258,229,136911,1,0,0:0:0:0:
259,213,136970,1,8,0:0:0:0:
250,214,137029,1,0,0:0:0:0:
250,214,137088,1,8,0:0:0:0:
250,214,137147,1,8,0:0:0:0:
249,218,137206,1,0,0:0:0:0:
250,220,137325,1,0,0:0:0:0:
250,220,137443,1,8,0:0:0:0:
250,220,137502,1,8,0:0:0:0:
249,219,137561,1,0,0:0:0:0:
233,202,137679,1,12,0:0:0:0:
250,221,137797,1,0,0:0:0:0:
240,205,137915,1,8,0:0:0:0:
260,220,137974,1,8,0:0:0:0:
255,211,138033,1,0,0:0:0:0:
255,211,138092,1,0,0:0:0:0:
255,211,138151,1,8,0:0:0:0:
260,213,138269,1,0,0:0:0:0:
250,220,138329,1,0,0:0:0:0:
260,213,138388,1,8,0:0:0:0:
249,204,138506,1,0,0:0:0:0:
261,234,138624,1,12,0:0:0:0:
251,239,138860,1,8,0:0:0:0:
245,232,138978,1,0,0:0:0:0:
244,232,139037,1,0,0:0:0:0:
244,232,139096,1,0,0:0:0:0:
259,236,139214,1,0,0:0:0:0:
259,236,139332,1,8,0:0:0:0:
261,234,139391,1,8,0:0:0:0:
261,234,139450,1,0,0:0:0:0:
259,236,139569,1,8,0:0:0:0:
259,236,139628,1,8,0:0:0:0:
259,236,139687,1,0,0:0:0:0:
259,236,139805,1,8,0:0:0:0:
259,236,139923,1,0,0:0:0:0:
259,236,140041,1,8,0:0:0:0:
259,236,140100,1,0,0:0:0:0:
237,237,140159,1,8,0:0:0:0:
259,236,140218,1,0,0:0:0:0:
261,234,140277,1,8,0:0:0:0:
269,213,140336,1,8,0:0:0:0:
259,236,140395,1,8,0:0:0:0:
269,213,140454,1,8,0:0:0:0:
259,236,140513,1,4,0:0:0:0:
259,236,140750,1,8,0:0:0:0:
259,236,140868,1,0,0:0:0:0:
259,236,140927,1,8,0:0:0:0:
259,236,140986,1,0,0:0:0:0:
243,228,141045,1,8,0:0:0:0:
259,236,141104,1,0,0:0:0:0:
243,228,141163,1,0,0:0:0:0:
259,236,141222,1,8,0:0:0:0:
259,236,141340,1,0,0:0:0:0:
259,236,141399,1,0,0:0:0:0:
259,236,141458,1,8,0:0:0:0:
264,240,141576,1,0,0:0:0:0:
264,240,141695,1,8,0:0:0:0:
264,240,141813,1,8,0:0:0:0:
263,217,141872,1,8,0:0:0:0:
264,240,141931,1,0,0:0:0:0:
334,278,141990,1,8,0:0:0:0:
264,240,142049,1,0,0:0:0:0:
264,240,142167,1,8,0:0:0:0:
264,240,142285,1,0,0:0:0:0:
264,240,142403,1,12,0:0:0:0:
241,196,142522,1,0,0:0:0:0:
221,217,142581,1,0,0:0:0:0:
266,226,142639,1,0,0:0:0:0:
264,230,142758,1,12,0:0:0:0:
264,230,142876,1,0,0:0:0:0:
264,230,142994,1,0,0:0:0:0:
221,217,143053,1,0,0:0:0:0:
264,230,143112,1,8,0:0:0:0:
261,220,143230,1,8,0:0:0:0:
198,199,143289,1,8,0:0:0:0:
255,223,143349,1,8,0:0:0:0:
228,221,143407,1,8,0:0:0:0:
255,223,143466,1,0,0:0:0:0:
238,219,143525,1,0,0:0:0:0:
255,223,143584,1,8,0:0:0:0:
250,214,143702,1,8,0:0:0:0:
250,214,143821,1,0,0:0:0:0:
254,216,143939,1,0,0:0:0:0:
254,216,144057,1,8,0:0:0:0:
254,216,144175,1,0,0:0:0:0:
249,219,144293,1,8,0:0:0:0:
246,212,144353,1,8,0:0:0:0:
246,209,144412,1,0,0:0:0:0:
248,211,144471,1,0,0:0:0:0:
250,214,144530,1,0,0:0:0:0:
250,214,144589,1,0,0:0:0:0:
250,214,144648,1,8,0:0:0:0:
250,214,144707,1,0,0:0:0:0:
246,209,144766,1,8,0:0:0:0:
246,209,144825,1,8,0:0:0:0:
246,209,144884,1,8,0:0:0:0:
246,209,144943,1,8,0:0:0:0:
246,209,145002,1,0,0:0:0:0:
246,209,145061,1,0,0:0:0:0:
246,209,145120,1,0,0:0:0:0:
246,209,145179,1,0,0:0:0:0:
261,216,145238,1,8,0:0:0:0:
261,216,145297,1,8,0:0:0:0:
261,216,145357,1,0,0:0:0:0:
261,216,145416,1,0,0:0:0:0:
261,216,145475,1,8,0:0:0:0:
261,216,145534,1,0,0:0:0:0:
261,216,145593,1,0,0:0:0:0:
261,216,145652,1,0,0:0:0:0:
261,216,145711,1,8,0:0:0:0:
252,211,145947,1,0,0:0:0:0:
252,211,146183,1,12,0:0:0:0:
261,207,146420,1,8,0:0:0:0:
258,208,146597,1,8,0:0:0:0:
258,208,146655,1,0,0:0:0:0:
271,193,146714,1,8,0:0:0:0:
258,208,146774,1,0,0:0:0:0:
237,207,146832,1,0,0:0:0:0:
258,208,146892,1,8,0:0:0:0:
258,208,147010,1,0,0:0:0:0:
258,208,147069,1,0,0:0:0:0:
261,207,147128,1,8,0:0:0:0:
261,207,147246,1,0,0:0:0:0:
258,208,147364,1,8,0:0:0:0:
258,208,147423,1,8,0:0:0:0:
258,208,147483,1,0,0:0:0:0:
258,208,147601,1,8,0:0:0:0:
258,208,147719,1,0,0:0:0:0:
257,226,147778,1,0,0:0:0:0:
258,208,147837,1,8,0:0:0:0:
258,208,147955,1,0,0:0:0:0:
261,207,148073,1,8,0:0:0:0:
259,221,148132,1,8,0:0:0:0:
259,221,148191,1,0,0:0:0:0:
247,205,148250,1,0,0:0:0:0:
259,221,148309,1,8,0:0:0:0:
261,222,148427,1,8,0:0:0:0:
261,222,148486,1,8,0:0:0:0:
261,222,148546,1,0,0:0:0:0:
261,222,148664,1,0,0:0:0:0:
261,222,148782,1,8,0:0:0:0:
281,187,148840,1,8,0:0:0:0:
261,222,148899,1,8,0:0:0:0:
261,222,148958,1,8,0:0:0:0:
259,221,149018,1,0,0:0:0:0:
264,228,149136,1,8,0:0:0:0:
278,228,149195,1,0,0:0:0:0:
264,228,149254,1,8,0:0:0:0:
264,228,149490,1,0,0:0:0:0:
249,226,149609,1,0,0:0:0:0:
267,224,149727,1,8,0:0:0:0:
272,224,149845,1,0,0:0:0:0:
272,224,149904,1,0,0:0:0:0:
272,224,149963,1,8,0:0:0:0:
273,223,150021,1,8,0:0:0:0:
262,233,150081,1,0,0:0:0:0:
272,233,150199,1,8,0:0:0:0:
275,233,150317,1,8,0:0:0:0:
305,239,150376,1,0,0:0:0:0:
275,233,150435,1,8,0:0:0:0:
275,233,150553,1,0,0:0:0:0:
275,233,150672,1,8,0:0:0:0:
278,232,150731,1,8,0:0:0:0:
278,232,150790,1,0,0:0:0:0:
283,212,150848,1,8,0:0:0:0:
260,237,150908,1,0,0:0:0:0:
260,237,151026,1,0,0:0:0:0:
260,237,151085,1,0,0:0:0:0:
260,237,151144,1,8,0:0:0:0:
269,240,151262,1,8,0:0:0:0:
269,240,151380,1,0,0:0:0:0:
270,237,151498,1,0,0:0:0:0:
270,237,151557,1,0,0:0:0:0:
270,237,151616,1,8,0:0:0:0:
270,237,151734,1,0,0:0:0:0:
270,237,151853,1,8,0:0:0:0:
271,204,151911,1,8,0:0:0:0:
272,236,151971,1,0,0:0:0:0:
248,191,152029,1,8,0:0:0:0:
272,236,152089,1,0,0:0:0:0:
291,246,152207,1,8,0:0:0:0:
291,246,152266,1,8,0:0:0:0:
291,246,152325,1,0,0:0:0:0:
283,228,152443,1,0,0:0:0:0:
283,228,152561,1,8,0:0:0:0:
250,185,152620,1,0,0:0:0:0:
250,185,152679,1,8,0:0:0:0:
250,185,152797,1,0,0:0:0:0:
263,180,152856,1,8,0:0:0:0:
263,186,152916,1,0,0:0:0:0:
263,180,152974,1,0,0:0:0:0:
263,186,153034,1,8,0:0:0:0:
262,173,153152,1,0,0:0:0:0:
262,173,153270,1,8,0:0:0:0:
257,179,153328,1,8,0:0:0:0:
262,173,153388,1,0,0:0:0:0:
262,173,153506,1,8,0:0:0:0:
262,173,153624,1,8,0:0:0:0:
252,211,153742,1,4,0:0:0:0:
261,207,153979,1,8,0:0:0:0:
258,208,154097,1,8,0:0:0:0:
258,208,154156,1,8,0:0:0:0:
258,208,154215,1,0,0:0:0:0:
245,192,154273,1,8,0:0:0:0:
258,208,154333,1,0,0:0:0:0:
258,208,154451,1,8,0:0:0:0:
258,208,154569,1,8,0:0:0:0:
258,208,154628,1,8,0:0:0:0:
261,207,154687,1,0,0:0:0:0:
261,207,154805,1,0,0:0:0:0:
258,208,154923,1,8,0:0:0:0:
258,208,154982,1,8,0:0:0:0:
258,208,155042,1,0,0:0:0:0:
258,208,155160,1,0,0:0:0:0:
258,208,155278,1,0,0:0:0:0:
257,226,155337,1,0,0:0:0:0:
258,208,155396,1,8,0:0:0:0:
258,208,155514,1,0,0:0:0:0:
261,207,155632,1,8,0:0:0:0:
259,221,155691,1,8,0:0:0:0:
259,221,155750,1,0,0:0:0:0:
243,220,155809,1,0,0:0:0:0:
259,221,155868,1,8,0:0:0:0:
261,222,155986,1,8,0:0:0:0:
261,222,156045,1,8,0:0:0:0:
261,222,156105,1,0,0:0:0:0:
261,222,156223,1,0,0:0:0:0:
261,222,156341,1,8,0:0:0:0:
259,224,156399,1,8,0:0:0:0:
261,222,156459,1,0,0:0:0:0:
206,223,156517,1,0,0:0:0:0:
259,221,156577,1,8,0:0:0:0:
206,223,156636,1,0,0:0:0:0:
264,228,156695,1,0,0:0:0:0:
195,212,156754,1,0,0:0:0:0:
264,228,156813,1,8,0:0:0:0:
264,228,157049,1,0,0:0:0:0:
249,226,157168,1,0,0:0:0:0:
267,224,157286,1,8,0:0:0:0:
232,223,157344,1,0,0:0:0:0:
272,224,157404,1,0,0:0:0:0:
272,224,157522,1,8,0:0:0:0:
272,224,157580,1,8,0:0:0:0:
262,233,157640,1,0,0:0:0:0:
272,233,157758,1,8,0:0:0:0:
275,233,157876,1,0,0:0:0:0:
275,233,157994,1,8,0:0:0:0:
258,229,158053,1,8,0:0:0:0:
275,233,158112,1,0,0:0:0:0:
275,233,158231,1,8,0:0:0:0:
278,232,158290,1,0,0:0:0:0:
278,232,158349,1,8,0:0:0:0:
260,237,158467,1,0,0:0:0:0:
277,222,158526,1,8,0:0:0:0:
260,237,158585,1,0,0:0:0:0:
296,242,158643,1,0,0:0:0:0:
260,237,158703,1,8,0:0:0:0:
269,240,158821,1,8,0:0:0:0:
269,240,158939,1,0,0:0:0:0:
270,237,159057,1,0,0:0:0:0:
270,237,159175,1,8,0:0:0:0:
116,168,159234,1,0,0:0:0:0:
270,237,159293,1,8,0:0:0:0:
171,186,159352,1,8,0:0:0:0:
270,237,159412,1,0,0:0:0:0:
272,236,159530,1,0,0:0:0:0:
272,236,159648,1,8,0:0:0:0:
291,246,159766,1,8,0:0:0:0:
291,246,159825,1,8,0:0:0:0:
291,246,159884,1,0,0:0:0:0:
283,228,160120,1,8,0:0:0:0:
250,185,160179,1,0,0:0:0:0:
250,185,160238,1,8,0:0:0:0:
238,179,160297,1,8,0:0:0:0:
250,185,160356,1,0,0:0:0:0:
263,186,160475,1,8,0:0:0:0:
263,186,160593,1,8,0:0:0:0:
262,173,160711,1,0,0:0:0:0:
262,173,160829,1,8,0:0:0:0:
262,173,160947,1,8,0:0:0:0:
262,173,161065,1,0,0:0:0:0:
262,173,161183,1,8,0:0:0:0:
267,173,161301,1,4,0:0:0:0:
262,173,161538,1,8,0:0:0:0:
136,162,161596,1,0,0:0:0:0:
262,173,161656,1,8,0:0:0:0:
280,216,161714,1,8,0:0:0:0:
267,173,161773,1,0,0:0:0:0:
267,173,161832,1,8,0:0:0:0:
267,173,161892,1,0,0:0:0:0:
267,173,161951,1,0,0:0:0:0:
267,173,162010,1,8,0:0:0:0:
267,173,162128,1,0,0:0:0:0:
267,173,162246,1,8,0:0:0:0:
237,163,162305,1,0,0:0:0:0:
267,173,162364,1,0,0:0:0:0:
267,173,162483,1,8,0:0:0:0:
267,173,162542,1,8,0:0:0:0:
267,173,162601,1,0,0:0:0:0:
267,173,162719,1,0,0:0:0:0:
267,173,162837,1,0,0:0:0:0:
267,173,162955,1,8,0:0:0:0:
267,173,163014,1,8,0:0:0:0:
267,173,163073,1,0,0:0:0:0:
267,173,163191,1,8,0:0:0:0:
254,179,163250,1,8,0:0:0:0:
267,173,163309,1,0,0:0:0:0:
352,190,163368,1,0,0:0:0:0:
267,173,163427,1,8,0:0:0:0:
267,173,163486,1,0,0:0:0:0:
264,200,163545,1,0,0:0:0:0:
267,173,163605,1,0,0:0:0:0:
267,173,163664,1,8,0:0:0:0:
267,173,163722,1,8,0:0:0:0:
244,187,163782,1,0,0:0:0:0:
267,173,163900,1,8,0:0:0:0:
267,173,163959,1,8,0:0:0:0:
267,173,164017,1,8,0:0:0:0:
267,173,164076,1,8,0:0:0:0:
267,173,164136,1,0,0:0:0:0:
271,179,164195,1,0,0:0:0:0:
271,180,164254,1,0,0:0:0:0:
271,179,164313,1,0,0:0:0:0:
267,173,164372,1,8,0:0:0:0:
250,173,164490,1,0,0:0:0:0:
267,173,164609,1,8,0:0:0:0:
256,176,164667,1,0,0:0:0:0:
267,173,164727,1,0,0:0:0:0:
267,173,164845,1,8,0:0:0:0:
252,173,164904,1,8,0:0:0:0:
260,168,164963,1,0,0:0:0:0:
194,173,165080,1,8,0:0:0:0:
194,173,165139,1,8,0:0:0:0:
273,204,165199,1,0,0:0:0:0:
163,165,165258,1,0,0:0:0:0:
262,173,165317,1,8,0:0:0:0:
262,173,165376,1,0,0:0:0:0:
262,173,165435,1,8,0:0:0:0:
256,190,165494,1,8,0:0:0:0:
267,173,165553,1,0,0:0:0:0:
267,173,165671,1,0,0:0:0:0:
267,173,165789,1,8,0:0:0:0:
232,160,165848,1,0,0:0:0:0:
267,173,165907,1,8,0:0:0:0:
267,173,165966,1,8,0:0:0:0:
267,173,166025,1,0,0:0:0:0:
259,190,166084,1,0,0:0:0:0:
267,173,166143,1,8,0:0:0:0:
263,163,166202,1,0,0:0:0:0:
267,173,166262,1,8,0:0:0:0:
267,173,166380,1,0,0:0:0:0:
267,173,166498,1,8,0:0:0:0:
267,173,166557,1,0,0:0:0:0:
267,173,166616,1,0,0:0:0:0:
267,173,166734,1,8,0:0:0:0:
232,164,166793,1,8,0:0:0:0:
267,173,166852,1,0,0:0:0:0:
267,173,166970,1,8,0:0:0:0:
242,165,167029,1,8,0:0:0:0:
267,173,167088,1,0,0:0:0:0:
163,172,167147,1,0,0:0:0:0:
267,173,167206,1,8,0:0:0:0:
267,173,167265,1,0,0:0:0:0:
267,173,167325,1,8,0:0:0:0:
267,173,167384,1,8,0:0:0:0:
267,173,167443,1,8,0:0:0:0:
263,176,167502,1,8,0:0:0:0:
267,173,167561,1,0,0:0:0:0:
267,173,167679,1,0,0:0:0:0:
267,173,167797,1,8,0:0:0:0:
267,173,167856,1,8,0:0:0:0:
267,173,167915,1,0,0:0:0:0:
173,158,167974,1,8,0:0:0:0:
271,180,168033,1,0,0:0:0:0:
267,173,168151,1,8,0:0:0:0:
250,173,168269,1,0,0:0:0:0:
267,173,168388,1,8,0:0:0:0:
254,177,168447,1,8,0:0:0:0:
267,173,168506,1,0,0:0:0:0:
267,173,168624,1,8,0:0:0:0:
260,168,168742,1,0,0:0:0:0:
252,173,168860,1,12,0:0:0:0:
262,173,169097,1,8,0:0:0:0:
259,175,169155,1,0,0:0:0:0:
262,173,169215,1,8,0:0:0:0:
104,160,169273,1,8,0:0:0:0:
267,173,169333,1,0,0:0:0:0:
267,173,169392,1,0,0:0:0:0:
267,173,169451,1,8,0:0:0:0:
267,173,169510,1,0,0:0:0:0:
267,173,169569,1,8,0:0:0:0:
267,173,169687,1,0,0:0:0:0:
267,173,169805,1,8,0:0:0:0:
261,179,169864,1,0,0:0:0:0:
267,173,169923,1,0,0:0:0:0:
267,173,170041,1,8,0:0:0:0:
256,184,170159,1,0,0:0:0:0:
267,173,170278,1,8,0:0:0:0:
256,184,170336,1,8,0:0:0:0:
267,173,170396,1,0,0:0:0:0:
267,173,170514,1,8,0:0:0:0:
267,173,170573,1,8,0:0:0:0:
267,173,170632,1,0,0:0:0:0:
259,168,170691,1,0,0:0:0:0:
267,173,170750,1,8,0:0:0:0:
267,173,170809,1,8,0:0:0:0:
267,173,170868,1,8,0:0:0:0:
267,173,170927,1,8,0:0:0:0:
267,173,170986,1,0,0:0:0:0:
267,173,171105,1,8,0:0:0:0:
267,173,171163,1,8,0:0:0:0:
267,173,171223,1,0,0:0:0:0:
267,173,171340,1,0,0:0:0:0:
267,173,171459,1,8,0:0:0:0:
267,173,171518,1,8,0:0:0:0:
267,173,171577,1,8,0:0:0:0:
267,173,171636,1,0,0:0:0:0:
267,173,171695,1,8,0:0:0:0:
271,179,171754,1,8,0:0:0:0:
271,180,171813,1,0,0:0:0:0:
267,173,171931,1,8,0:0:0:0:
271,179,171990,1,8,0:0:0:0:
250,173,172049,1,0,0:0:0:0:
267,173,172168,1,8,0:0:0:0:
267,173,172286,1,0,0:0:0:0:
267,173,172404,1,8,0:0:0:0:
222,162,172462,1,0,0:0:0:0:
260,168,172522,1,8,0:0:0:0:
252,173,172640,1,0,0:0:0:0:
199,158,172699,1,0,0:0:0:0:
185,174,172758,1,0,0:0:0:0:
209,178,172817,1,0,0:0:0:0:
256,176,172876,1,8,0:0:0:0:
256,176,172935,1,8,0:0:0:0:
264,188,172994,1,0,0:0:0:0:
254,177,173112,1,8,0:0:0:0:
233,188,173171,1,8,0:0:0:0:
262,182,173231,1,0,0:0:0:0:
138,179,173348,1,8,0:0:0:0:
264,182,173408,1,8,0:0:0:0:
264,182,173467,1,8,0:0:0:0:
265,188,173525,1,8,0:0:0:0:
264,182,173585,1,0,0:0:0:0:
264,182,173644,1,0,0:0:0:0:
264,182,173703,1,0,0:0:0:0:
264,182,173762,1,0,0:0:0:0:
264,182,173821,1,8,0:0:0:0:
264,182,173939,1,0,0:0:0:0:
262,182,174057,1,8,0:0:0:0:
264,182,174116,1,0,0:0:0:0:
262,182,174175,1,0,0:0:0:0:
264,182,174294,1,8,0:0:0:0:
264,182,174352,1,8,0:0:0:0:
145,203,174412,1,0,0:0:0:0:
264,182,174530,1,12,0:0:0:0:
264,182,174648,1,0,0:0:0:0:
261,210,174766,1,8,0:0:0:0:
261,210,174825,1,8,0:0:0:0:
261,210,174884,1,8,0:0:0:0:
261,210,175002,1,0,0:0:0:0:
261,210,175120,1,8,0:0:0:0:
261,210,175238,1,4,0:0:0:0:
259,226,175475,1,8,0:0:0:0:
259,226,175593,1,8,0:0:0:0:
259,226,175711,1,8,0:0:0:0:
259,226,175829,1,8,0:0:0:0:
254,221,175947,1,0,0:0:0:0:
254,221,176183,1,0,0:0:0:0:
254,221,176301,1,0,0:0:0:0:
265,199,176420,1,12,0:0:0:0:
259,200,176656,1,0,0:0:0:0:
259,200,176892,1,8,0:0:0:0:
259,200,177129,1,0,0:0:0:0:
263,203,177365,1,8,0:0:0:0:
263,203,177601,1,8,0:0:0:0:
275,211,177837,1,8,0:0:0:0:
275,211,178074,1,0,0:0:0:0:
278,196,178191,1,8,0:0:0:0:
275,211,178310,1,0,0:0:0:0:
275,211,178546,1,0,0:0:0:0:
283,204,178782,1,8,0:0:0:0:
283,204,179018,1,0,0:0:0:0:
275,211,179255,1,8,0:0:0:0:
278,211,179491,1,0,0:0:0:0:
278,211,179609,1,0,0:0:0:0:
278,211,179727,1,8,0:0:0:0:
268,208,179963,1,4,0:0:0:0:
268,208,180200,1,12,0:0:0:0:
264,206,180436,1,8,0:0:0:0:
268,208,180672,1,0,0:0:0:0:
274,205,180790,1,0,0:0:0:0:
281,221,180908,1,0,0:0:0:0:
263,211,181144,1,8,0:0:0:0:
265,217,181381,1,0,0:0:0:0:
260,222,181617,1,8,0:0:0:0:
278,230,181853,1,12,0:0:0:0:
278,229,182089,1,8,0:0:0:0:
278,229,182168,1,8,0:0:0:0:
278,229,182247,1,0,0:0:0:0:
278,229,182326,1,0,0:0:0:0:
278,229,182404,1,0,0:0:0:0:
278,229,182483,1,0,0:0:0:0:
278,230,182562,1,8,0:0:0:0:
277,225,182639,1,0,0:0:0:0:
277,225,182719,1,0,0:0:0:0:
278,229,182798,1,0,0:0:0:0:
278,229,182877,1,0,0:0:0:0:
278,229,182955,1,0,0:0:0:0:
278,229,183034,1,8,0:0:0:0:
278,229,183113,1,0,0:0:0:0:
278,229,183192,1,0,0:0:0:0:
278,229,183270,1,0,0:0:0:0:
278,229,183349,1,0,0:0:0:0:
278,229,183428,1,0,0:0:0:0:
277,225,183507,1,12,0:0:0:0:
278,229,183900,1,0,0:0:0:0:
265,199,183979,1,12,0:0:0:0:
259,200,184215,1,0,0:0:0:0:
259,200,184451,1,8,0:0:0:0:
259,200,184688,1,0,0:0:0:0:
263,203,184924,1,8,0:0:0:0:
263,203,185160,1,8,0:0:0:0:
275,211,185396,1,8,0:0:0:0:
275,211,185633,1,0,0:0:0:0:
270,190,185750,1,0,0:0:0:0:
275,211,185869,1,8,0:0:0:0:
275,211,186105,1,0,0:0:0:0:
283,204,186341,1,8,0:0:0:0:
283,204,186577,1,0,0:0:0:0:
275,211,186814,1,8,0:0:0:0:
278,211,187050,1,0,0:0:0:0:
278,211,187168,1,0,0:0:0:0:
278,211,187286,1,8,0:0:0:0:
268,208,187522,1,4,0:0:0:0:
268,208,187759,1,12,0:0:0:0:
264,206,187995,1,0,0:0:0:0:
268,208,188231,1,8,0:0:0:0:
242,198,188348,1,0,0:0:0:0:
281,221,188467,1,0,0:0:0:0:
263,211,188703,1,8,0:0:0:0:
265,217,188940,1,8,0:0:0:0:
239,209,189058,1,0,0:0:0:0:
260,222,189176,1,8,0:0:0:0:
266,216,189255,1,8,0:0:0:0:
266,216,189333,1,0,0:0:0:0:
278,230,189412,1,8,0:0:0:0:
244,221,189491,1,0,0:0:0:0:
252,227,189570,1,0,0:0:0:0:
278,229,189648,1,12,0:0:0:0:
278,229,189885,1,8,0:0:0:0:
278,229,189963,1,0,0:0:0:0:
278,229,190042,1,0,0:0:0:0:
278,230,190121,1,8,0:0:0:0:
277,225,190200,1,0,0:0:0:0:
277,225,190278,1,0,0:0:0:0:
278,229,190357,1,8,0:0:0:0:
278,229,190436,1,8,0:0:0:0:
278,229,190514,1,8,0:0:0:0:
278,229,190593,1,0,0:0:0:0:
278,229,190711,1,8,0:0:0:0:
278,229,190828,1,8,0:0:0:0:
278,229,190948,1,8,0:0:0:0:
277,225,191066,1,0,0:0:0:0:
279,231,191184,1,0,0:0:0:0:
278,229,191302,1,8,0:0:0:0:
278,229,191420,1,0,0:0:0:0:
278,229,191538,1,12,0:0:0:0:
274,243,191656,1,0,0:0:0:0:
279,234,191892,1,0,0:0:0:0:
279,231,192011,1,8,0:0:0:0:
278,229,192129,1,0,0:0:0:0:
294,236,192246,1,0,0:0:0:0:
294,236,192364,1,0,0:0:0:0:
294,236,192483,1,8,0:0:0:0:
294,236,192601,1,4,0:0:0:0:
288,231,192719,1,12,0:0:0:0:
279,231,192837,1,0,0:0:0:0:
278,229,192955,1,12,0:0:0:0:
278,227,193074,1,0,0:0:0:0:
278,227,193192,1,0,0:0:0:0:
285,226,193310,1,0,0:0:0:0:
285,226,193428,1,8,0:0:0:0:
288,231,193546,1,8,0:0:0:0:
288,229,193664,1,8,0:0:0:0:
287,234,193782,1,0,0:0:0:0:
288,234,193900,1,8,0:0:0:0:
288,234,194018,1,0,0:0:0:0:
288,234,194137,1,8,0:0:0:0:
302,238,194255,1,8,0:0:0:0:
288,231,194373,1,8,0:0:0:0:
288,234,194491,1,4,0:0:0:0:
297,239,194609,1,12,0:0:0:0:
294,238,194727,1,0,0:0:0:0:
294,238,194845,1,8,0:0:0:0:
294,238,194963,1,8,0:0:0:0:
294,238,195081,1,8,0:0:0:0:
294,238,195200,1,8,0:0:0:0:
288,246,195318,1,4,0:0:0:0:
285,240,195672,1,0,0:0:0:0:
285,240,195790,1,8,0:0:0:0:
285,240,195908,1,8,0:0:0:0:
274,240,196026,1,0,0:0:0:0:
274,240,196144,1,0,0:0:0:0:
274,240,196263,1,8,0:0:0:0:
168,216,196321,1,0,0:0:0:0:
269,250,196381,1,8,0:0:0:0:
250,240,196617,1,8,0:0:0:0:
253,242,196735,1,0,0:0:0:0:
251,241,196853,1,8,0:0:0:0:
254,243,196971,1,0,0:0:0:0:
254,243,197089,1,0,0:0:0:0:
251,235,197207,1,12,0:0:0:0:
251,221,197680,1,0,0:0:0:0:
262,222,198152,1,8,0:0:0:0:
265,214,198625,1,0,0:0:0:0:
265,214,198861,1,8,0:0:0:0:
265,214,199097,1,12,0:0:0:0:
267,201,199215,1,0,0:0:0:0:
271,216,199333,1,8,0:0:0:0:
271,216,199392,1,8,0:0:0:0:
271,216,199452,1,0,0:0:0:0:
271,216,199570,1,0,0:0:0:0:
277,228,199688,1,0,0:0:0:0:
275,219,199806,1,8,0:0:0:0:
267,219,199924,1,0,0:0:0:0:
271,216,200042,1,8,0:0:0:0:
271,216,200101,1,8,0:0:0:0:
271,216,200160,1,0,0:0:0:0:
271,216,200219,1,0,0:0:0:0:
271,216,200278,1,8,0:0:0:0:
270,224,200396,1,8,0:0:0:0:
270,224,200455,1,8,0:0:0:0:
270,224,200513,1,0,0:0:0:0:
263,224,200633,1,0,0:0:0:0:
263,224,200751,1,8,0:0:0:0:
263,224,200869,1,8,0:0:0:0:
261,226,200987,1,12,0:0:0:0:
253,210,201223,1,8,0:0:0:0:
254,210,201341,1,0,0:0:0:0:
254,210,201459,1,8,0:0:0:0:
243,208,201518,1,8,0:0:0:0:
254,210,201576,1,0,0:0:0:0:
263,224,201637,1,0,0:0:0:0:
254,210,201696,1,8,0:0:0:0:
250,223,201814,1,0,0:0:0:0:
245,213,201932,1,8,0:0:0:0:
245,213,201991,1,0,0:0:0:0:
245,213,202050,1,0,0:0:0:0:
254,210,202168,1,8,0:0:0:0:
254,219,202286,1,0,0:0:0:0:
254,219,202345,1,0,0:0:0:0:
254,219,202404,1,8,0:0:0:0:
254,219,202463,1,0,0:0:0:0:
254,219,202522,1,8,0:0:0:0:
255,224,202639,1,8,0:0:0:0:
255,224,202759,1,0,0:0:0:0:
255,224,202877,1,12,0:0:0:0:
254,219,203113,1,8,0:0:0:0:
254,219,203231,1,8,0:0:0:0:
254,219,203349,1,0,0:0:0:0:
257,216,203467,1,0,0:0:0:0:
256,216,203526,1,0,0:0:0:0:
257,216,203585,1,8,0:0:0:0:
281,213,203644,1,8,0:0:0:0:
257,216,203702,1,0,0:0:0:0:
254,219,203822,1,8,0:0:0:0:
254,219,203940,1,0,0:0:0:0:
254,219,204058,1,8,0:0:0:0:
254,219,204176,1,0,0:0:0:0:
257,216,204294,1,8,0:0:0:0:
257,216,204353,1,0,0:0:0:0:
257,216,204412,1,0,0:0:0:0:
257,216,204530,1,8,0:0:0:0:
274,228,204589,1,8,0:0:0:0:
257,216,204648,1,0,0:0:0:0:
254,219,204765,1,8,0:0:0:0:
254,219,204826,1,8,0:0:0:0:
254,219,204885,1,0,0:0:0:0:
254,219,204944,1,0,0:0:0:0:
254,219,205003,1,8,0:0:0:0:
257,216,205121,1,0,0:0:0:0:
257,216,205239,1,8,0:0:0:0:
257,216,205298,1,8,0:0:0:0:
257,216,205357,1,8,0:0:0:0:
257,216,205416,1,8,0:0:0:0:
257,216,205475,1,0,0:0:0:0:
254,219,205593,1,0,0:0:0:0:
254,219,205711,1,12,0:0:0:0:
237,191,205828,1,0,0:0:0:0:
279,229,205888,1,0,0:0:0:0:
279,229,205947,1,8,0:0:0:0:
279,229,206006,1,8,0:0:0:0:
252,219,206066,1,0,0:0:0:0:
252,219,206184,1,12,0:0:0:0:
290,208,206301,1,0,0:0:0:0:
249,212,206420,1,8,0:0:0:0:
249,212,206479,1,8,0:0:0:0:
249,212,206538,1,8,0:0:0:0:
249,212,206656,1,4,0:0:0:0:
222,188,206892,1,8,0:0:0:0:
243,206,207011,1,8,0:0:0:0:
243,206,207129,1,0,0:0:0:0:
243,206,207247,1,0,0:0:0:0:
314,226,207306,1,0,0:0:0:0:
243,206,207365,1,8,0:0:0:0:
272,216,207483,1,0,0:0:0:0:
272,216,207601,1,8,0:0:0:0:
272,216,207660,1,8,0:0:0:0:
272,216,207719,1,0,0:0:0:0:
281,216,207837,1,8,0:0:0:0:
281,216,207955,1,0,0:0:0:0:
272,216,208074,1,8,0:0:0:0:
272,216,208133,1,8,0:0:0:0:
272,216,208192,1,0,0:0:0:0:
272,216,208251,1,0,0:0:0:0:
272,216,208310,1,8,0:0:0:0:
285,230,208428,1,8,0:0:0:0:
281,230,208546,1,4,0:0:0:0:
279,229,208782,1,8,0:0:0:0:
288,233,208900,1,0,0:0:0:0:
288,233,209018,1,8,0:0:0:0:
293,231,209076,1,0,0:0:0:0:
288,233,209137,1,8,0:0:0:0:
288,233,209255,1,8,0:0:0:0:
266,185,209373,1,0,0:0:0:0:
266,185,209491,1,8,0:0:0:0:
266,185,209550,1,0,0:0:0:0:
266,185,209609,1,0,0:0:0:0:
258,185,209727,1,8,0:0:0:0:
258,185,209845,1,0,0:0:0:0:
258,185,209963,1,8,0:0:0:0:
256,182,210022,1,0,0:0:0:0:
256,182,210081,1,0,0:0:0:0:
256,182,210139,1,0,0:0:0:0:
256,182,210200,1,8,0:0:0:0:
256,182,210259,1,8,0:0:0:0:
256,182,210318,1,0,0:0:0:0:
255,185,210436,1,12,0:0:0:0:
245,190,210554,1,0,0:0:0:0:
258,175,210672,1,8,0:0:0:0:
258,175,210790,1,8,0:0:0:0:
248,175,210908,1,0,0:0:0:0:
248,175,210967,1,0,0:0:0:0:
248,175,211026,1,8,0:0:0:0:
257,190,211144,1,8,0:0:0:0:
257,190,211263,1,0,0:0:0:0:
250,190,211381,1,8,0:0:0:0:
250,190,211440,1,8,0:0:0:0:
250,190,211499,1,0,0:0:0:0:
250,190,211558,1,0,0:0:0:0:
250,190,211617,1,8,0:0:0:0:
243,186,211735,1,0,0:0:0:0:
243,186,211853,1,8,0:0:0:0:
243,186,211912,1,8,0:0:0:0:
243,186,211971,1,8,0:0:0:0:
243,186,212030,1,8,0:0:0:0:
243,186,212089,1,0,0:0:0:0:
240,196,212207,1,0,0:0:0:0:
250,189,212326,1,8,0:0:0:0:
263,202,212444,1,0,0:0:0:0:
263,202,212562,1,8,0:0:0:0:
263,202,212621,1,8,0:0:0:0:
263,202,212680,1,0,0:0:0:0:
250,189,212798,1,8,0:0:0:0:
210,190,212916,1,0,0:0:0:0:
234,190,212975,1,0,0:0:0:0:
250,190,213034,1,8,0:0:0:0:
250,190,213093,1,8,0:0:0:0:
250,189,213152,1,0,0:0:0:0:
250,189,213270,1,12,0:0:0:0:
245,192,213389,1,0,0:0:0:0:
245,192,213448,1,0,0:0:0:0:
245,192,213507,1,8,0:0:0:0:
245,192,213566,1,8,0:0:0:0:
245,192,213625,1,8,0:0:0:0:
260,194,213743,1,8,0:0:0:0:
260,194,213861,1,0,0:0:0:0:
260,194,213979,1,0,0:0:0:0:
260,194,214097,1,0,0:0:0:0:
265,214,214215,1,12,0:0:0:0:
267,201,214333,1,0,0:0:0:0:
271,216,214451,1,8,0:0:0:0:
271,216,214510,1,8,0:0:0:0:
271,216,214570,1,0,0:0:0:0:
271,216,214688,1,0,0:0:0:0:
277,228,214806,1,0,0:0:0:0:
275,219,214924,1,8,0:0:0:0:
267,219,215042,1,0,0:0:0:0:
271,216,215160,1,8,0:0:0:0:
271,216,215219,1,8,0:0:0:0:
271,216,215278,1,0,0:0:0:0:
271,216,215337,1,0,0:0:0:0:
271,216,215396,1,8,0:0:0:0:
270,224,215514,1,0,0:0:0:0:
270,224,215573,1,0,0:0:0:0:
270,224,215633,1,8,0:0:0:0:
263,224,215751,1,0,0:0:0:0:
263,224,215869,1,8,0:0:0:0:
263,224,215987,1,0,0:0:0:0:
261,226,216105,1,12,0:0:0:0:
253,210,216341,1,8,0:0:0:0:
254,210,216459,1,0,0:0:0:0:
254,210,216577,1,8,0:0:0:0:
243,208,216636,1,8,0:0:0:0:
254,210,216696,1,0,0:0:0:0:
263,224,216755,1,0,0:0:0:0:
254,210,216814,1,8,0:0:0:0:
250,223,216932,1,0,0:0:0:0:
245,213,217050,1,8,0:0:0:0:
245,213,217109,1,0,0:0:0:0:
245,213,217168,1,0,0:0:0:0:
254,210,217286,1,8,0:0:0:0:
254,219,217404,1,0,0:0:0:0:
254,219,217463,1,0,0:0:0:0:
254,219,217522,1,8,0:0:0:0:
254,219,217581,1,0,0:0:0:0:
254,219,217640,1,8,0:0:0:0:
255,224,217759,1,8,0:0:0:0:
255,224,217877,1,0,0:0:0:0:
255,224,217995,1,12,0:0:0:0:
254,219,218231,1,8,0:0:0:0:
254,219,218349,1,8,0:0:0:0:
254,219,218467,1,0,0:0:0:0:
257,216,218585,1,0,0:0:0:0:
256,216,218644,1,0,0:0:0:0:
257,216,218703,1,8,0:0:0:0:
281,213,218762,1,8,0:0:0:0:
257,216,218822,1,0,0:0:0:0:
254,219,218940,1,8,0:0:0:0:
254,219,219058,1,0,0:0:0:0:
254,219,219176,1,8,0:0:0:0:
254,219,219294,1,0,0:0:0:0:
257,216,219412,1,8,0:0:0:0:
257,216,219471,1,0,0:0:0:0:
257,216,219530,1,0,0:0:0:0:
257,216,219648,1,8,0:0:0:0:
274,228,219707,1,8,0:0:0:0:
257,216,219766,1,0,0:0:0:0:
254,219,219885,1,8,0:0:0:0:
254,219,219944,1,8,0:0:0:0:
254,219,220003,1,0,0:0:0:0:
254,219,220062,1,0,0:0:0:0:
254,219,220121,1,8,0:0:0:0:
257,216,220239,1,0,0:0:0:0:
257,216,220357,1,8,0:0:0:0:
257,216,220416,1,8,0:0:0:0:
257,216,220475,1,8,0:0:0:0:
257,216,220534,1,8,0:0:0:0:
257,216,220593,1,0,0:0:0:0:
254,219,220711,1,0,0:0:0:0:
254,219,220829,1,12,0:0:0:0:
257,206,220948,1,8,0:0:0:0:
257,206,221007,1,8,0:0:0:0:
252,219,221066,1,0,0:0:0:0:
257,206,221125,1,0,0:0:0:0:
252,219,221184,1,0,0:0:0:0:
252,219,221302,1,12,0:0:0:0:
212,192,221420,1,0,0:0:0:0:
249,212,221538,1,8,0:0:0:0:
249,212,221597,1,8,0:0:0:0:
249,212,221656,1,8,0:0:0:0:
249,212,221774,1,4,0:0:0:0:
222,188,222010,1,8,0:0:0:0:
243,206,222129,1,8,0:0:0:0:
243,206,222247,1,0,0:0:0:0:
243,206,222365,1,0,0:0:0:0:
314,226,222424,1,0,0:0:0:0:
243,206,222483,1,8,0:0:0:0:
272,216,222601,1,0,0:0:0:0:
272,216,222719,1,8,0:0:0:0:
272,216,222778,1,8,0:0:0:0:
272,216,222837,1,0,0:0:0:0:
281,216,222955,1,8,0:0:0:0:
281,216,223073,1,0,0:0:0:0:
272,216,223192,1,8,0:0:0:0:
272,216,223251,1,8,0:0:0:0:
272,216,223310,1,0,0:0:0:0:
272,216,223369,1,0,0:0:0:0:
272,216,223428,1,8,0:0:0:0:
285,230,223546,1,8,0:0:0:0:
281,230,223664,1,4,0:0:0:0:
279,229,223900,1,8,0:0:0:0:
288,233,224018,1,0,0:0:0:0:
288,233,224136,1,8,0:0:0:0:
293,231,224196,1,0,0:0:0:0:
288,233,224255,1,8,0:0:0:0:
288,233,224373,1,8,0:0:0:0:
266,185,224491,1,0,0:0:0:0:
266,185,224609,1,8,0:0:0:0:
266,185,224668,1,0,0:0:0:0:
266,185,224727,1,0,0:0:0:0:
258,185,224845,1,8,0:0:0:0:
258,185,224963,1,0,0:0:0:0:
258,185,225081,1,8,0:0:0:0:
256,182,225140,1,0,0:0:0:0:
256,182,225199,1,0,0:0:0:0:
256,182,225259,1,0,0:0:0:0:
256,182,225318,1,8,0:0:0:0:
256,182,225377,1,8,0:0:0:0:
256,182,225436,1,0,0:0:0:0:
255,185,225554,1,12,0:0:0:0:
245,190,225672,1,0,0:0:0:0:
258,175,225790,1,8,0:0:0:0:
258,175,225908,1,8,0:0:0:0:
248,175,226026,1,0,0:0:0:0:
248,175,226085,1,8,0:0:0:0:
248,175,226144,1,0,0:0:0:0:
257,190,226262,1,8,0:0:0:0:
257,190,226381,1,8,0:0:0:0:
250,190,226499,1,0,0:0:0:0:
250,190,226558,1,0,0:0:0:0:
250,190,226617,1,8,0:0:0:0:
250,190,226676,1,8,0:0:0:0:
250,190,226735,1,0,0:0:0:0:
243,186,226853,1,8,0:0:0:0:
247,180,226912,1,8,0:0:0:0:
252,186,226971,1,8,0:0:0:0:
244,186,227089,1,0,0:0:0:0:
244,186,227207,1,8,0:0:0:0:
240,196,227325,1,8,0:0:0:0:
250,189,227444,1,4,0:0:0:0:
288,211,228388,1,4,0:0:0:0:
288,211,228742,1,4,0:0:0:0:
288,211,229096,1,4,0:0:0:0:
274,208,229333,1,12,0:0:0:0:
276,209,229451,1,0,0:0:0:0:
276,209,229569,1,0,0:0:0:0:
276,209,229687,1,0,0:0:0:0:
276,209,229805,1,8,0:0:0:0:
276,209,229923,1,0,0:0:0:0:
274,208,230042,1,0,0:0:0:0:
274,208,230160,1,0,0:0:0:0:
276,209,230278,1,8,0:0:0:0:
276,209,230396,1,8,0:0:0:0:
276,209,230514,1,0,0:0:0:0:
276,209,230632,1,0,0:0:0:0:
276,209,230750,1,8,0:0:0:0:
274,208,230868,1,8,0:0:0:0:
274,208,230986,1,0,0:0:0:0:
276,209,231105,1,0,0:0:0:0:
283,204,231223,1,12,0:0:0:0:
283,204,231341,1,0,0:0:0:0:
283,204,231459,1,0,0:0:0:0:
283,204,231577,1,0,0:0:0:0:
283,204,231695,1,8,0:0:0:0:
283,204,231813,1,0,0:0:0:0:
283,204,231931,1,0,0:0:0:0:
283,204,232049,1,0,0:0:0:0:
283,204,232168,1,8,0:0:0:0:
283,204,232286,1,8,0:0:0:0:
283,204,232404,1,0,0:0:0:0:
283,204,232522,1,0,0:0:0:0:
283,204,232640,1,8,0:0:0:0:
283,204,232699,1,8,0:0:0:0:
283,204,232758,1,0,0:0:0:0:
283,204,232817,1,0,0:0:0:0:
283,204,232876,1,8,0:0:0:0:
286,200,232994,1,0,0:0:0:0:
286,200,233112,1,12,0:0:0:0:
259,181,235002,1,4,0:0:0:0:
256,192,235947,12,0,236656,0:0:0:0:
261,185,236892,5,4,0:0:0:0:
261,185,237364,1,8,0:0:0:0:
261,185,237837,1,8,0:0:0:0:
266,183,238309,1,8,0:0:0:0:
280,192,238782,1,8,0:0:0:0:
280,192,239254,1,8,0:0:0:0:
290,195,239727,1,8,0:0:0:0:
268,206,240199,1,8,0:0:0:0:
274,213,240672,1,8,0:0:0:0:
282,222,241144,1,8,0:0:0:0:
290,225,241616,1,8,0:0:0:0:
290,225,241675,1,8,0:0:0:0:
290,225,241734,1,0,0:0:0:0:
290,225,241794,1,0,0:0:0:0:
290,225,241853,1,8,0:0:0:0:
282,222,241971,1,8,0:0:0:0:
285,222,242089,1,0,0:0:0:0:
285,222,242207,1,0,0:0:0:0:
285,222,242325,1,8,0:0:0:0:
285,222,242561,1,0,0:0:0:0:
301,224,242679,1,0,0:0:0:0:
292,224,242797,1,8,0:0:0:0:
292,224,242916,1,0,0:0:0:0:
292,224,243034,1,0,0:0:0:0:
292,224,243152,1,8,0:0:0:0:
285,222,243388,1,0,0:0:0:0:
286,223,243506,1,8,0:0:0:0:
286,223,243565,1,8,0:0:0:0:
286,223,243624,1,0,0:0:0:0:
286,223,243683,1,0,0:0:0:0:
286,223,243742,1,8,0:0:0:0:
292,224,243860,1,8,0:0:0:0:
292,224,243979,1,0,0:0:0:0:
285,222,244097,1,8,0:0:0:0:
286,223,244333,1,8,0:0:0:0:
293,228,244569,1,0,0:0:0:0:
293,228,244628,1,0,0:0:0:0:
292,224,244687,1,8,0:0:0:0:
286,219,244805,1,0,0:0:0:0:
286,219,244864,1,0,0:0:0:0:
285,222,244923,1,8,0:0:0:0:
285,222,244983,1,0,0:0:0:0:
286,223,245042,1,0,0:0:0:0:
286,223,245101,1,0,0:0:0:0:
286,223,245160,1,8,0:0:0:0:
281,216,245396,1,0,0:0:0:0:
281,216,245455,1,0,0:0:0:0:
281,216,245514,1,8,0:0:0:0:
255,177,245632,1,8,0:0:0:0:
255,177,245691,1,8,0:0:0:0:
255,177,245750,1,0,0:0:0:0:
255,177,245809,1,8,0:0:0:0:
255,177,245868,1,0,0:0:0:0:
250,179,245987,1,12,0:0:0:0:
250,179,246105,1,4,0:0:0:0:
250,179,246223,1,12,0:0:0:0:
250,179,246341,1,4,0:0:0:0:
255,177,246695,1,8,0:0:0:0:
255,173,246813,1,0,0:0:0:0:
256,179,246931,1,0,0:0:0:0:
256,179,247049,1,8,0:0:0:0:
256,179,247168,1,0,0:0:0:0:
255,177,247286,1,8,0:0:0:0:
229,178,247404,1,0,0:0:0:0:
242,181,247522,1,8,0:0:0:0:
246,166,247640,1,0,0:0:0:0:
250,171,247758,1,0,0:0:0:0:
249,171,247876,1,8,0:0:0:0:
249,171,247994,1,0,0:0:0:0:
255,177,248112,1,0,0:0:0:0:
253,173,248231,1,8,0:0:0:0:
257,179,248467,1,0,0:0:0:0:
257,179,248585,1,0,0:0:0:0:
257,179,248703,1,8,0:0:0:0:
260,185,248821,1,0,0:0:0:0:
258,185,248939,1,8,0:0:0:0:
258,185,249057,1,8,0:0:0:0:
263,182,249175,1,0,0:0:0:0:
263,182,249294,1,0,0:0:0:0:
262,162,249412,1,8,0:0:0:0:
263,161,249530,1,0,0:0:0:0:
262,162,249648,1,8,0:0:0:0:
261,169,249766,1,0,0:0:0:0:
261,169,249884,1,8,0:0:0:0:
261,169,250002,1,8,0:0:0:0:
261,169,250120,1,0,0:0:0:0:
268,171,250238,1,8,0:0:0:0:
268,171,250357,1,0,0:0:0:0:
260,172,250475,1,0,0:0:0:0:
255,237,250593,1,8,0:0:0:0:
255,206,250711,1,0,0:0:0:0:
255,206,250829,1,8,0:0:0:0:
255,206,250947,1,0,0:0:0:0:
255,206,251065,1,12,0:0:0:0:
245,206,251301,1,0,0:0:0:0:
245,206,251419,1,8,0:0:0:0:
240,212,251538,1,0,0:0:0:0:
240,212,251656,1,0,0:0:0:0:
240,212,251774,1,8,0:0:0:0:
236,204,251892,1,0,0:0:0:0:
236,204,252010,1,8,0:0:0:0:
239,207,252128,1,0,0:0:0:0:
230,210,252246,1,8,0:0:0:0:
230,210,252364,1,8,0:0:0:0:
240,212,252483,1,0,0:0:0:0:
308,225,252601,1,8,0:0:0:0:
308,225,252719,1,8,0:0:0:0:
258,209,252837,1,0,0:0:0:0:
258,209,252955,1,8,0:0:0:0:
256,207,253073,1,0,0:0:0:0:
256,207,253191,1,8,0:0:0:0:
261,213,253309,1,0,0:0:0:0:
261,213,253427,1,8,0:0:0:0:
261,213,253546,1,8,0:0:0:0:
261,213,253664,1,0,0:0:0:0:
258,209,253782,1,8,0:0:0:0:
256,207,253900,1,0,0:0:0:0:
256,207,254018,1,8,0:0:0:0:
241,226,254136,1,8,0:0:0:0:
241,226,254254,1,0,0:0:0:0:
241,226,254372,1,8,0:0:0:0:
241,226,254490,1,0,0:0:0:0:
241,226,254609,1,8,0:0:0:0:
241,226,254727,1,8,0:0:0:0:
241,226,254845,1,0,0:0:0:0:
241,226,254963,1,0,0:0:0:0:
241,226,255081,1,8,0:0:0:0:
241,226,255199,1,0,0:0:0:0:
241,226,255317,1,8,0:0:0:0:
241,226,255435,1,0,0:0:0:0:
241,226,255553,1,8,0:0:0:0:
241,226,255672,1,0,0:0:0:0:
241,226,255790,1,12,0:0:0:0:
259,226,255908,1,12,0:0:0:0:
259,226,256026,1,4,0:0:0:0:
254,227,256144,1,4,0:0:0:0:
251,208,256380,1,8,0:0:0:0:
265,222,256439,1,8,0:0:0:0:
249,217,256498,1,0,0:0:0:0:
250,213,256616,1,8,0:0:0:0:
251,227,256734,1,0,0:0:0:0:
262,221,256971,1,8,0:0:0:0:
262,221,257325,1,8,0:0:0:0:
256,213,257384,1,0,0:0:0:0:
266,224,257443,1,0,0:0:0:0:
259,213,257561,1,8,0:0:0:0:
259,213,257679,1,8,0:0:0:0:
182,192,257916,1,0,0:0:0:0:
255,212,258270,1,8,0:0:0:0:
259,213,258329,1,8,0:0:0:0:
259,213,258388,1,0,0:0:0:0:
259,213,258506,1,0,0:0:0:0:
257,219,258742,1,8,0:0:0:0:
257,219,258860,1,0,0:0:0:0:
224,219,259097,1,0,0:0:0:0:
261,185,259333,1,8,0:0:0:0:
261,185,259451,1,0,0:0:0:0:
263,213,259687,1,0,0:0:0:0:
268,206,259746,1,0,0:0:0:0:
266,202,259805,1,8,0:0:0:0:
266,202,259923,1,0,0:0:0:0:
266,202,260042,1,8,0:0:0:0:
287,211,260160,1,0,0:0:0:0:
260,209,260278,1,8,0:0:0:0:
261,209,260514,1,12,0:0:0:0:
261,209,260632,1,12,0:0:0:0:
261,209,260750,1,4,0:0:0:0:
261,209,260868,1,4,0:0:0:0:
251,208,261105,1,8,0:0:0:0:
265,222,261164,1,8,0:0:0:0:
249,217,261223,1,0,0:0:0:0:
250,213,261341,1,8,0:0:0:0:
251,227,261459,1,0,0:0:0:0:
262,221,261696,1,8,0:0:0:0:
262,221,262050,1,8,0:0:0:0:
256,213,262109,1,0,0:0:0:0:
266,224,262168,1,0,0:0:0:0:
259,213,262286,1,8,0:0:0:0:
259,213,262404,1,8,0:0:0:0:
182,192,262639,1,0,0:0:0:0:
255,212,262995,1,8,0:0:0:0:
259,213,263054,1,8,0:0:0:0:
259,213,263113,1,0,0:0:0:0:
259,213,263231,1,0,0:0:0:0:
255,212,263349,1,8,0:0:0:0:
257,219,263467,1,0,0:0:0:0:
257,219,263585,1,8,0:0:0:0:
224,219,263822,1,8,0:0:0:0:
306,194,263939,1,0,0:0:0:0:
261,185,264058,1,8,0:0:0:0:
261,185,264176,1,8,0:0:0:0:
261,185,264294,1,8,0:0:0:0:
263,213,264412,1,0,0:0:0:0:
268,206,264471,1,0,0:0:0:0:
266,202,264530,1,8,0:0:0:0:
266,202,264648,1,0,0:0:0:0:
266,202,264765,1,8,0:0:0:0:
287,211,264885,1,0,0:0:0:0:
260,209,265003,1,8,0:0:0:0:
279,230,265120,1,0,0:0:0:0:
261,209,265239,1,12,0:0:0:0:
261,209,265357,1,12,0:0:0:0:
261,209,265475,1,4,0:0:0:0:
261,209,265593,1,4,0:0:0:0:
251,208,265829,1,8,0:0:0:0:
265,222,265888,1,8,0:0:0:0:
249,217,265947,1,0,0:0:0:0:
250,213,266065,1,8,0:0:0:0:
251,227,266183,1,0,0:0:0:0:
262,221,266420,1,8,0:0:0:0:
262,221,266774,1,8,0:0:0:0:
256,213,266833,1,0,0:0:0:0:
266,224,266892,1,0,0:0:0:0:
259,213,267010,1,8,0:0:0:0:
64,64,267128,1,0,0:0:0:0:
182,192,267365,1,8,0:0:0:0:
255,212,267719,1,8,0:0:0:0:
259,213,267778,1,8,0:0:0:0:
259,213,267837,1,0,0:0:0:0:
259,213,267955,1,0,0:0:0:0:
255,212,268073,1,8,0:0:0:0:
257,219,268191,1,0,0:0:0:0:
257,219,268309,1,8,0:0:0:0:
224,219,268546,1,8,0:0:0:0:
266,227,268664,1,0,0:0:0:0:
261,185,268782,1,8,0:0:0:0:
261,185,268900,1,8,0:0:0:0:
206,233,269018,1,0,0:0:0:0:
263,213,269136,1,8,0:0:0:0:
268,206,269195,1,8,0:0:0:0:
266,202,269254,1,0,0:0:0:0:
266,202,269372,1,8,0:0:0:0:
266,202,269491,1,8,0:0:0:0:
287,211,269609,1,0,0:0:0:0:
260,209,269727,1,8,0:0:0:0:
261,209,269963,1,12,0:0:0:0:
261,209,270081,1,12,0:0:0:0:
261,209,270199,1,4,0:0:0:0:
261,209,270317,1,4,0:0:0:0:
251,208,270553,1,8,0:0:0:0:
265,222,270612,1,8,0:0:0:0:
249,217,270671,1,8,0:0:0:0:
250,213,270789,1,0,0:0:0:0:
251,227,270907,1,8,0:0:0:0:
262,221,271144,1,8,0:0:0:0:
260,217,271262,1,0,0:0:0:0:
279,210,271380,1,0,0:0:0:0:
262,221,271498,1,8,0:0:0:0:
256,213,271557,1,0,0:0:0:0:
266,224,271616,1,0,0:0:0:0:
259,213,271734,1,8,0:0:0:0:
259,213,271852,1,8,0:0:0:0:
182,192,272089,1,8,0:0:0:0:
244,191,272325,1,0,0:0:0:0:
388,203,272384,1,8,0:0:0:0:
255,212,272443,1,8,0:0:0:0:
259,213,272561,1,0,0:0:0:0:
259,213,272679,1,8,0:0:0:0:
255,212,272915,1,0,0:0:0:0:
257,219,273033,1,8,0:0:0:0:
448,64,273152,1,0,0:0:0:0:
224,219,273270,1,8,0:0:0:0:
244,229,273388,1,0,0:0:0:0:
261,185,273506,1,8,0:0:0:0:
261,185,273624,1,8,0:0:0:0:
276,228,273742,1,0,0:0:0:0:
263,213,273860,1,0,0:0:0:0:
266,202,273978,1,0,0:0:0:0:
266,202,274096,1,8,0:0:0:0:
250,177,274155,1,0,0:0:0:0:
266,202,274215,1,8,0:0:0:0:
287,211,274333,1,0,0:0:0:0:
260,209,274451,1,8,0:0:0:0:
236,187,274510,1,8,0:0:0:0:
236,187,274569,1,0,0:0:0:0:
448,320,274687,1,12,0:0:0:0:
64,64,274805,1,4,0:0:0:0:
64,64,275041,1,4,0:0:0:0:
257,199,275277,1,12,0:0:0:0:
258,188,275395,1,12,0:0:0:0:
261,202,275631,1,12,0:0:0:0:
262,196,275868,1,12,0:0:0:0:
262,196,275986,1,4,0:0:0:0:
258,188,276222,1,12,0:0:0:0:
250,192,276458,1,4,0:0:0:0:
250,192,276576,1,12,0:0:0:0:
250,192,276812,1,4,0:0:0:0:
448,320,277049,1,12,0:0:0:0:
64,64,277167,1,4,0:0:0:0:
448,64,277404,1,12,0:0:0:0:
280,203,277639,1,12,0:0:0:0:
280,203,277757,1,12,0:0:0:0:
269,190,277994,1,4,0:0:0:0:
270,197,278230,1,12,0:0:0:0:
270,197,278348,1,4,0:0:0:0:
270,197,278584,1,12,0:0:0:0:
275,197,278820,1,4,0:0:0:0:
275,197,278938,1,12,0:0:0:0:
64,64,279175,1,4,0:0:0:0:
448,320,279411,1,12,0:0:0:0:
298,195,279529,1,4,0:0:0:0:
296,195,279765,1,12,0:0:0:0:
295,190,280001,1,4,0:0:0:0:
295,190,280120,1,12,0:0:0:0:
448,64,280356,1,12,0:0:0:0:
293,188,280592,1,12,0:0:0:0:
295,190,280710,1,4,0:0:0:0:
290,199,280946,1,12,0:0:0:0:
292,199,281183,1,12,0:0:0:0:
292,199,281301,1,4,0:0:0:0:
286,194,281537,1,4,0:0:0:0:
448,320,281774,1,12,0:0:0:0:
278,195,281891,1,4,0:0:0:0:
271,199,282127,1,12,0:0:0:0:
267,205,282364,1,4,0:0:0:0:
448,64,282482,1,12,0:0:0:0:
271,199,282718,1,12,0:0:0:0:
64,64,282954,1,4,0:0:0:0:
274,201,283072,1,4,0:0:0:0:
271,197,283309,1,12,0:0:0:0:
267,205,283545,1,12,0:0:0:0:
267,203,283663,1,4,0:0:0:0:
267,203,283899,1,12,0:0:0:0:
278,213,284135,1,12,0:0:0:0:
278,215,284254,1,0,0:0:0:0:
278,215,284372,1,8,0:0:0:0:
278,215,284490,1,0,0:0:0:0:
278,215,284608,1,8,0:0:0:0:
278,215,284726,1,0,0:0:0:0:
278,213,284844,1,12,0:0:0:0:
243,194,285080,1,8,0:0:0:0:
243,194,285198,1,8,0:0:0:0:
243,194,285317,1,0,0:0:0:0:
243,194,285435,1,0,0:0:0:0:
278,213,285553,1,12,0:0:0:0:
278,215,285672,1,0,0:0:0:0:
278,215,285790,1,8,0:0:0:0:
278,215,285908,1,0,0:0:0:0:
278,215,286026,1,8,0:0:0:0:
278,215,286144,1,0,0:0:0:0:
278,213,286262,1,12,0:0:0:0:
243,194,286498,1,8,0:0:0:0:
243,194,286616,1,8,0:0:0:0:
243,194,286735,1,0,0:0:0:0:
243,194,286853,1,0,0:0:0:0:
278,213,286970,1,12,0:0:0:0:
278,215,287089,1,0,0:0:0:0:
278,215,287207,1,8,0:0:0:0:
278,215,287325,1,0,0:0:0:0:
278,215,287443,1,8,0:0:0:0:
278,215,287561,1,0,0:0:0:0:
278,213,287679,1,12,0:0:0:0:
243,194,287915,1,8,0:0:0:0:
243,194,288033,1,8,0:0:0:0:
243,194,288152,1,0,0:0:0:0:
243,194,288270,1,0,0:0:0:0:
278,213,288387,1,12,0:0:0:0:
278,215,288506,1,0,0:0:0:0:
278,215,288624,1,8,0:0:0:0:
278,215,288742,1,0,0:0:0:0:
278,215,288860,1,8,0:0:0:0:
278,215,288978,1,0,0:0:0:0:
278,213,289096,1,12,0:0:0:0:
357,190,289214,1,0,0:0:0:0:
243,194,289332,1,8,0:0:0:0:
243,194,289450,1,8,0:0:0:0:
243,194,289569,1,0,0:0:0:0:
243,194,289687,1,0,0:0:0:0:
278,213,289805,1,12,0:0:0:0:
278,215,289924,1,0,0:0:0:0:
278,215,290042,1,8,0:0:0:0:
278,215,290160,1,0,0:0:0:0:
278,215,290278,1,8,0:0:0:0:
278,215,290396,1,0,0:0:0:0:
278,213,290514,1,12,0:0:0:0:
243,194,290750,1,8,0:0:0:0:
243,194,290868,1,8,0:0:0:0:
243,194,290987,1,0,0:0:0:0:
243,194,291105,1,0,0:0:0:0:
278,213,291223,1,12,0:0:0:0:
278,215,291340,1,0,0:0:0:0:
278,215,291458,1,8,0:0:0:0:
278,215,291576,1,0,0:0:0:0:
278,215,291696,1,8,0:0:0:0:
278,215,291814,1,0,0:0:0:0:
278,213,291932,1,12,0:0:0:0:
243,194,292168,1,8,0:0:0:0:
243,194,292286,1,8,0:0:0:0:
243,194,292403,1,0,0:0:0:0:
243,194,292521,1,0,0:0:0:0:
278,213,292640,1,12,0:0:0:0:
278,215,292759,1,0,0:0:0:0:
278,215,292877,1,8,0:0:0:0:
278,215,292995,1,0,0:0:0:0:
278,215,293113,1,8,0:0:0:0:
278,215,293231,1,0,0:0:0:0:
278,213,293349,1,12,0:0:0:0:
243,194,293585,1,8,0:0:0:0:
243,194,293703,1,8,0:0:0:0:
243,194,293822,1,0,0:0:0:0:
243,194,293940,1,0,0:0:0:0:
278,213,294057,1,12,0:0:0:0:
278,215,294176,1,0,0:0:0:0:
278,215,294294,1,8,0:0:0:0:
278,215,294412,1,0,0:0:0:0:
278,215,294530,1,8,0:0:0:0:
278,215,294648,1,0,0:0:0:0:
278,213,294766,1,12,0:0:0:0:
357,190,294884,1,0,0:0:0:0:
243,194,295002,1,8,0:0:0:0:
243,194,295120,1,0,0:0:0:0:
243,194,295239,1,8,0:0:0:0:
316,226,295297,1,8,0:0:0:0:
243,194,295357,1,8,0:0:0:0:
278,213,295474,1,4,0:0:0:0:
278,215,295593,1,8,0:0:0:0:
278,215,295711,1,0,0:0:0:0:
278,215,295829,1,8,0:0:0:0:
278,215,295947,1,0,0:0:0:0:
278,215,296065,1,0,0:0:0:0:
278,213,296183,1,12,0:0:0:0:
243,194,296419,1,8,0:0:0:0:
243,194,296537,1,0,0:0:0:0:
243,194,296656,1,8,0:0:0:0:
243,194,296774,1,8,0:0:0:0:
278,213,296892,1,4,0:0:0:0:
278,215,297011,1,8,0:0:0:0:
278,215,297128,1,0,0:0:0:0:
278,215,297247,1,8,0:0:0:0:
278,215,297364,1,0,0:0:0:0:
278,215,297483,1,0,0:0:0:0:
278,213,297601,1,12,0:0:0:0:
243,194,297837,1,8,0:0:0:0:
243,194,297955,1,0,0:0:0:0:
243,194,298073,1,8,0:0:0:0:
243,194,298192,1,8,0:0:0:0:
278,213,298309,1,4,0:0:0:0:
278,215,298428,1,8,0:0:0:0:
278,215,298546,1,0,0:0:0:0:
278,215,298663,1,8,0:0:0:0:
278,215,298782,1,0,0:0:0:0:
278,215,298900,1,0,0:0:0:0:
278,213,299018,1,12,0:0:0:0:
243,194,299254,1,8,0:0:0:0:
243,194,299372,1,8,0:0:0:0:
243,194,299491,1,0,0:0:0:0:
243,194,299609,1,0,0:0:0:0:
244,183,299726,1,8,0:0:0:0:
244,183,299805,1,8,0:0:0:0:
244,183,299884,1,0,0:0:0:0:
244,183,299962,1,8,0:0:0:0:
244,183,300041,1,0,0:0:0:0:
244,183,300120,1,0,0:0:0:0:
244,183,300198,1,8,0:0:0:0:
253,178,300277,1,0,0:0:0:0:
253,178,300356,1,0,0:0:0:0:
253,178,300435,1,8,0:0:0:0:
253,178,300513,1,8,0:0:0:0:
253,178,300592,1,0,0:0:0:0:
253,178,300671,1,8,0:0:0:0:
265,173,300750,1,0,0:0:0:0:
265,173,300828,1,0,0:0:0:0:
265,173,300907,1,8,0:0:0:0:
265,173,300986,1,0,0:0:0:0:
265,173,301065,1,0,0:0:0:0:
278,213,301143,1,12,0:0:0:0:
278,215,301262,1,0,0:0:0:0:
278,215,301380,1,8,0:0:0:0:
278,215,301498,1,8,0:0:0:0:
278,215,301616,1,8,0:0:0:0:
278,215,301734,1,0,0:0:0:0:
278,213,301852,1,12,0:0:0:0:
243,194,302088,1,8,0:0:0:0:
243,194,302206,1,8,0:0:0:0:
243,194,302325,1,0,0:0:0:0:
243,194,302443,1,0,0:0:0:0:
278,213,302561,1,12,0:0:0:0:
278,215,302680,1,0,0:0:0:0:
278,215,302798,1,8,0:0:0:0:
278,215,302916,1,8,0:0:0:0:
278,215,303034,1,8,0:0:0:0:
278,215,303152,1,0,0:0:0:0:
278,213,303270,1,12,0:0:0:0:
243,194,303506,1,8,0:0:0:0:
243,194,303624,1,8,0:0:0:0:
243,194,303743,1,0,0:0:0:0:
243,194,303861,1,0,0:0:0:0:
278,213,303978,1,12,0:0:0:0:
278,215,304097,1,0,0:0:0:0:
278,215,304215,1,8,0:0:0:0:
278,215,304333,1,0,0:0:0:0:
278,215,304451,1,8,0:0:0:0:
278,215,304569,1,0,0:0:0:0:
278,213,304687,1,12,0:0:0:0:
243,194,304923,1,8,0:0:0:0:
243,194,305041,1,8,0:0:0:0:
243,194,305160,1,0,0:0:0:0:
243,194,305278,1,0,0:0:0:0:
244,183,305395,1,8,0:0:0:0:
244,183,305474,1,8,0:0:0:0:
244,183,305553,1,8,0:0:0:0:
244,183,305631,1,8,0:0:0:0:
244,183,305710,1,0,0:0:0:0:
244,183,305789,1,0,0:0:0:0:
244,183,305867,1,0,0:0:0:0:
253,178,305946,1,0,0:0:0:0:
253,178,306025,1,0,0:0:0:0:
253,178,306104,1,8,0:0:0:0:
253,178,306182,1,0,0:0:0:0:
253,178,306261,1,0,0:0:0:0:
253,178,306340,1,8,0:0:0:0:
265,173,306419,1,8,0:0:0:0:
265,173,306497,1,8,0:0:0:0:
265,173,306576,1,4,0:0:0:0:
278,213,306812,1,8,0:0:0:0:
269,215,306872,1,8,0:0:0:0:
313,192,306931,1,0,0:0:0:0:
265,182,306990,1,0,0:0:0:0:
274,201,307049,1,8,0:0:0:0:
274,201,307108,1,8,0:0:0:0:
273,189,307167,1,0,0:0:0:0:
273,189,307226,1,0,0:0:0:0:
273,199,307285,1,8,0:0:0:0:
273,199,307344,1,0,0:0:0:0:
273,199,307403,1,8,0:0:0:0:
273,199,307462,1,0,0:0:0:0:
273,199,307521,1,8,0:0:0:0:
277,196,307580,1,8,0:0:0:0:
277,196,307639,1,0,0:0:0:0:
277,196,307698,1,0,0:0:0:0:
277,196,307758,1,8,0:0:0:0:
283,198,307817,1,0,0:0:0:0:
283,198,307876,1,8,0:0:0:0:
283,198,307935,1,0,0:0:0:0:
283,198,307994,1,8,0:0:0:0:
283,198,308053,1,8,0:0:0:0:
283,198,308112,1,0,0:0:0:0:
448,64,308230,1,8,0:0:0:0:
448,64,308290,1,8,0:0:0:0:
291,203,308348,1,0,0:0:0:0:
277,196,308407,1,0,0:0:0:0:
313,192,308466,1,8,0:0:0:0:
265,182,308525,1,0,0:0:0:0:
274,201,308584,1,8,0:0:0:0:
274,201,308643,1,8,0:0:0:0:
273,189,308702,1,0,0:0:0:0:
273,189,308761,1,0,0:0:0:0:
273,199,308820,1,0,0:0:0:0:
273,199,308879,1,0,0:0:0:0:
448,64,308939,1,8,0:0:0:0:
247,190,309175,1,8,0:0:0:0:
247,190,309234,1,0,0:0:0:0:
247,190,309293,1,8,0:0:0:0:
247,190,309411,1,0,0:0:0:0:
247,190,309529,1,8,0:0:0:0:
272,178,309647,1,0,0:0:0:0:
272,178,309726,1,8,0:0:0:0:
272,178,309805,1,8,0:0:0:0:
140,142,309884,1,0,0:0:0:0:
272,178,310002,1,8,0:0:0:0:
272,178,310120,1,0,0:0:0:0:
272,178,310238,1,8,0:0:0:0:
272,178,310356,1,8,0:0:0:0:
235,180,310415,1,8,0:0:0:0:
235,180,310474,1,0,0:0:0:0:
246,178,310533,1,0,0:0:0:0:
244,178,310592,1,8,0:0:0:0:
279,170,310671,1,8,0:0:0:0:
282,167,310750,1,8,0:0:0:0:
279,170,310828,1,0,0:0:0:0:
203,157,310947,1,0,0:0:0:0:
279,170,311065,1,8,0:0:0:0:
239,168,311143,1,0,0:0:0:0:
239,168,311222,1,8,0:0:0:0:
276,177,311301,1,0,0:0:0:0:
276,177,311380,1,8,0:0:0:0:
258,173,311458,1,8,0:0:0:0:
241,218,311537,1,0,0:0:0:0:
276,177,311655,1,0,0:0:0:0:
274,180,311773,1,8,0:0:0:0:
258,182,311891,1,8,0:0:0:0:
253,193,311950,1,8,0:0:0:0:
266,183,312010,1,0,0:0:0:0:
266,183,312128,1,8,0:0:0:0:
266,183,312187,1,0,0:0:0:0:
256,181,312246,1,8,0:0:0:0:
266,183,312364,1,8,0:0:0:0:
266,183,312482,1,4,0:0:0:0:
257,190,312836,1,0,0:0:0:0:
243,166,313073,1,0,0:0:0:0:
248,168,313191,1,8,0:0:0:0:
247,167,313250,1,8,0:0:0:0:
247,167,313309,1,0,0:0:0:0:
247,167,313368,1,0,0:0:0:0:
252,163,313427,1,8,0:0:0:0:
243,166,313545,1,0,0:0:0:0:
243,166,313663,1,8,0:0:0:0:
243,166,313781,1,0,0:0:0:0:
250,170,313899,1,12,0:0:0:0:
251,164,314017,1,0,0:0:0:0:
189,176,314076,1,0,0:0:0:0:
255,163,314136,1,8,0:0:0:0:
255,163,314195,1,8,0:0:0:0:
252,163,314254,1,0,0:0:0:0:
255,163,314372,1,8,0:0:0:0:
255,163,314490,1,0,0:0:0:0:
255,163,314608,1,8,0:0:0:0:
255,163,314667,1,8,0:0:0:0:
255,163,314726,1,0,0:0:0:0:
251,164,314844,1,8,0:0:0:0:
266,199,314903,1,8,0:0:0:0:
256,169,314962,1,0,0:0:0:0:
256,169,315021,1,0,0:0:0:0:
256,169,315080,1,8,0:0:0:0:
256,169,315198,1,0,0:0:0:0:
256,169,315317,1,12,0:0:0:0:
256,169,315435,1,0,0:0:0:0:
256,169,315494,1,0,0:0:0:0:
256,169,315553,1,8,0:0:0:0:
279,185,315671,1,0,0:0:0:0:
257,204,315730,1,0,0:0:0:0:
267,203,315789,1,8,0:0:0:0:
267,202,315848,1,0,0:0:0:0:
267,196,315907,1,0,0:0:0:0:
267,196,316025,1,8,0:0:0:0:
196,209,316261,1,0,0:0:0:0:
64,64,316321,1,0,0:0:0:0:
223,194,316380,1,8,0:0:0:0:
276,201,316439,1,8,0:0:0:0:
263,197,316498,1,0,0:0:0:0:
273,209,316616,1,8,0:0:0:0:
273,209,316655,1,0,0:0:0:0:
273,209,316695,1,0,0:0:0:0:
273,209,316734,1,8,0:0:0:0:
208,168,316813,1,0,0:0:0:0:
249,181,316891,1,0,0:0:0:0:
208,168,316970,1,8,0:0:0:0:
265,208,317088,1,0,0:0:0:0:
234,182,317167,1,8,0:0:0:0:
234,182,317246,1,8,0:0:0:0:
234,182,317324,1,0,0:0:0:0:
234,182,317443,1,8,0:0:0:0:
246,187,317561,1,0,0:0:0:0:
246,187,317679,1,8,0:0:0:0:
246,187,317797,1,8,0:0:0:0:
246,187,317915,1,0,0:0:0:0:
246,187,318033,1,0,0:0:0:0:
253,184,318151,1,12,0:0:0:0:
248,175,318506,1,0,0:0:0:0:
246,187,318742,1,0,0:0:0:0:
246,187,318860,1,8,0:0:0:0:
243,193,318919,1,8,0:0:0:0:
249,193,318978,1,0,0:0:0:0:
249,193,319037,1,0,0:0:0:0:
249,193,319096,1,8,0:0:0:0:
249,193,319155,1,0,0:0:0:0:
249,193,319214,1,0,0:0:0:0:
249,193,319273,1,0,0:0:0:0:
249,193,319332,1,8,0:0:0:0:
249,193,319391,1,8,0:0:0:0:
249,193,319450,1,0,0:0:0:0:
249,193,319510,1,0,0:0:0:0:
249,193,319569,1,8,0:0:0:0:
249,193,319628,1,8,0:0:0:0:
249,193,319687,1,0,0:0:0:0:
249,193,319746,1,0,0:0:0:0:
249,193,319805,1,8,0:0:0:0:
249,193,319864,1,0,0:0:0:0:
249,193,319923,1,8,0:0:0:0:
249,193,319982,1,0,0:0:0:0:
239,190,320041,1,8,0:0:0:0:
249,193,320100,1,8,0:0:0:0:
249,193,320159,1,0,0:0:0:0:
249,193,320218,1,0,0:0:0:0:
249,193,320277,1,8,0:0:0:0:
249,193,320317,1,8,0:0:0:0:
249,193,320356,1,8,0:0:0:0:
249,193,320395,1,0,0:0:0:0:
228,198,320514,1,8,0:0:0:0:
231,197,320573,1,8,0:0:0:0:
249,193,320632,1,8,0:0:0:0:
249,193,320691,1,8,0:0:0:0:
229,199,320750,1,0,0:0:0:0:
264,192,320986,1,12,0:0:0:0:
220,193,321104,1,0,0:0:0:0:
225,197,321222,1,8,0:0:0:0:
252,202,321281,1,8,0:0:0:0:
252,202,321340,1,0,0:0:0:0:
251,195,321458,1,8,0:0:0:0:
249,193,321517,1,0,0:0:0:0:
252,202,321576,1,0,0:0:0:0:
248,210,321695,1,8,0:0:0:0:
250,196,321813,1,0,0:0:0:0:
257,197,321931,1,8,0:0:0:0:
225,197,322049,1,8,0:0:0:0:
257,197,322167,1,0,0:0:0:0:
229,206,322285,1,0,0:0:0:0:
257,190,322403,1,8,0:0:0:0:
257,190,322521,1,0,0:0:0:0:
257,190,322639,1,8,0:0:0:0:
261,196,322698,1,0,0:0:0:0:
257,190,322758,1,0,0:0:0:0:
257,190,322876,1,8,0:0:0:0:
257,197,322935,1,8,0:0:0:0:
257,190,322994,1,0,0:0:0:0:
257,190,323112,1,8,0:0:0:0:
257,190,323230,1,8,0:0:0:0:
257,190,323348,1,0,0:0:0:0:
257,190,323466,1,0,0:0:0:0:
257,190,323584,1,12,0:0:0:0:
257,190,323702,1,0,0:0:0:0:
257,190,323821,1,12,0:0:0:0:
246,183,324175,1,0,0:0:0:0:
246,183,324293,1,8,0:0:0:0:
246,183,324411,1,0,0:0:0:0:
246,183,324529,1,12,0:0:0:0:
246,183,324765,1,0,0:0:0:0:
246,183,325002,1,0,0:0:0:0:
246,183,325238,1,12,0:0:0:0:
246,183,325356,1,0,0:0:0:0:
448,64,325475,1,8,0:0:0:0:
236,192,325592,1,0,0:0:0:0:
233,189,325710,1,0,0:0:0:0:
247,187,325828,1,0,0:0:0:0:
239,185,325947,1,12,0:0:0:0:
64,64,326183,1,0,0:0:0:0:
64,64,326419,1,0,0:0:0:0:
246,216,326655,1,8,0:0:0:0:
247,220,326734,1,0,0:0:0:0:
247,220,326813,1,0,0:0:0:0:
247,220,326891,1,0,0:0:0:0:
247,220,326970,1,8,0:0:0:0:
250,219,327049,1,0,0:0:0:0:
250,219,327128,1,0,0:0:0:0:
250,219,327206,1,0,0:0:0:0:
250,219,327285,1,8,0:0:0:0:
250,219,327364,1,0,0:0:0:0:
250,219,327443,1,0,0:0:0:0:
247,220,327521,1,0,0:0:0:0:
247,220,327600,1,8,0:0:0:0:
247,220,327679,1,0,0:0:0:0:
247,220,327758,1,0,0:0:0:0:
250,219,327836,1,0,0:0:0:0:
250,219,327915,1,8,0:0:0:0:
250,219,327994,1,0,0:0:0:0:
250,219,328073,1,0,0:0:0:0:
250,219,328151,1,0,0:0:0:0:
250,219,328230,1,8,0:0:0:0:
247,220,328309,1,0,0:0:0:0:
247,220,328387,1,0,0:0:0:0:
247,220,328466,1,0,0:0:0:0:
247,220,328545,1,8,0:0:0:0:
250,219,328624,1,0,0:0:0:0:
250,219,328702,1,0,0:0:0:0:
250,219,328781,1,0,0:0:0:0:
250,219,328860,1,0,0:0:0:0:
250,219,328939,1,0,0:0:0:0:
250,219,329017,1,8,0:0:0:0:
252,218,329096,1,8,0:0:0:0:
256,215,329175,1,8,0:0:0:0:
256,215,329254,1,8,0:0:0:0:
256,215,329332,1,0,0:0:0:0:
256,215,329411,1,0,0:0:0:0:
266,223,329490,1,12,0:0:0:0:
259,216,329844,1,0,0:0:0:0:
222,214,329962,1,0,0:0:0:0:
256,215,330080,1,0,0:0:0:0:
256,215,330198,1,8,0:0:0:0:
254,221,330435,1,0,0:0:0:0:
254,221,330671,1,0,0:0:0:0:
254,221,330907,1,0,0:0:0:0:
254,221,331143,1,8,0:0:0:0:
266,216,331261,1,0,0:0:0:0:
254,221,331380,1,8,0:0:0:0:
266,216,331498,1,0,0:0:0:0:
254,221,331616,1,8,0:0:0:0:
265,214,331675,1,8,0:0:0:0:
265,214,331734,1,0,0:0:0:0:
266,216,331852,1,8,0:0:0:0:
266,216,331970,1,8,0:0:0:0:
266,216,332088,1,8,0:0:0:0:
266,216,332206,1,8,0:0:0:0:
266,216,332324,1,4,0:0:0:0:
265,214,332679,1,0,0:0:0:0:
262,220,332797,1,0,0:0:0:0:
251,219,332915,1,0,0:0:0:0:
250,216,333033,1,8,0:0:0:0:
246,208,333269,1,0,0:0:0:0:
229,193,333506,1,0,0:0:0:0:
239,191,333742,1,8,0:0:0:0:
239,191,333860,1,0,0:0:0:0:
239,191,333919,1,0,0:0:0:0:
239,191,333978,1,8,0:0:0:0:
251,214,334037,1,8,0:0:0:0:
239,191,334096,1,0,0:0:0:0:
239,191,334214,1,8,0:0:0:0:
239,191,334332,1,0,0:0:0:0:
164,195,334391,1,0,0:0:0:0:
239,191,334450,1,8,0:0:0:0:
239,191,334569,1,0,0:0:0:0:
239,191,334687,1,8,0:0:0:0:
200,192,334746,1,0,0:0:0:0:
200,192,334805,1,8,0:0:0:0:
227,185,334864,1,8,0:0:0:0:
186,188,334923,1,0,0:0:0:0:
239,191,335041,1,0,0:0:0:0:
239,191,335159,1,12,0:0:0:0:
151,182,335513,1,0,0:0:0:0:
262,208,335632,1,0,0:0:0:0:
225,207,335750,1,0,0:0:0:0:
228,198,335868,1,8,0:0:0:0:
241,194,336104,1,0,0:0:0:0:
241,194,336340,1,0,0:0:0:0:
241,194,336576,1,12,0:0:0:0:
235,187,336931,1,0,0:0:0:0:
226,187,337049,1,8,0:0:0:0:
235,187,337167,1,0,0:0:0:0:
235,187,337285,1,8,0:0:0:0:
235,187,337521,1,0,0:0:0:0:
235,187,337758,1,12,0:0:0:0:
235,187,337994,1,12,0:0:0:0:
247,200,338348,1,0,0:0:0:0:
250,206,338466,1,0,0:0:0:0:
241,193,338584,1,0,0:0:0:0:
241,193,338702,1,12,0:0:0:0:
247,200,338939,1,0,0:0:0:0:
247,200,339175,1,8,0:0:0:0:
262,202,339411,1,8,0:0:0:0:
262,202,339470,1,8,0:0:0:0:
262,202,339529,1,8,0:0:0:0:
263,202,339588,1,8,0:0:0:0:
263,202,339647,1,0,0:0:0:0:
263,202,339706,1,0,0:0:0:0:
64,64,339766,1,0,0:0:0:0:
263,202,339824,1,0,0:0:0:0:
263,202,339884,1,8,0:0:0:0:
263,202,339943,1,8,0:0:0:0:
263,202,340002,1,8,0:0:0:0:
262,202,340061,1,8,0:0:0:0:
262,202,340120,1,0,0:0:0:0:
262,202,340179,1,0,0:0:0:0:
262,202,340238,1,0,0:0:0:0:
262,202,340297,1,0,0:0:0:0:
262,202,340356,1,8,0:0:0:0:
263,202,340415,1,0,0:0:0:0:
263,202,340474,1,8,0:0:0:0:
263,202,340533,1,0,0:0:0:0:
263,202,340592,1,8,0:0:0:0:
265,207,340651,1,8,0:0:0:0:
265,207,340710,1,0,0:0:0:0:
265,207,340769,1,0,0:0:0:0:
265,207,340828,1,12,0:0:0:0:
258,209,341064,1,8,0:0:0:0:
277,202,341182,1,0,0:0:0:0:
264,209,341300,1,8,0:0:0:0:
265,207,341536,1,0,0:0:0:0:
246,186,341654,1,8,0:0:0:0:
264,209,341772,1,0,0:0:0:0:
264,209,342009,1,0,0:0:0:0:
264,209,342127,1,0,0:0:0:0:
265,207,342245,1,8,0:0:0:0:
261,200,342324,1,8,0:0:0:0:
278,204,342402,1,0,0:0:0:0:
263,197,342481,1,8,0:0:0:0:
263,197,342560,1,0,0:0:0:0:
263,197,342639,1,0,0:0:0:0:
263,197,342717,1,8,0:0:0:0:
263,197,342796,1,8,0:0:0:0:
263,197,342875,1,0,0:0:0:0:
263,197,342953,1,8,0:0:0:0:
263,197,343032,1,8,0:0:0:0:
261,200,343111,1,0,0:0:0:0:
263,197,343190,1,8,0:0:0:0:
263,197,343249,1,8,0:0:0:0:
287,184,343308,1,0,0:0:0:0:
263,197,343367,1,8,0:0:0:0:
263,197,343426,1,0,0:0:0:0:
254,212,343485,1,0,0:0:0:0:
254,212,343544,1,8,0:0:0:0:
240,175,343603,1,8,0:0:0:0:
262,210,343662,1,0,0:0:0:0:
285,226,343898,1,0,0:0:0:0:
279,221,344016,1,0,0:0:0:0:
253,208,344135,1,8,0:0:0:0:
253,208,344253,1,0,0:0:0:0:
253,208,344312,1,0,0:0:0:0:
253,208,344371,1,8,0:0:0:0:
247,187,344430,1,8,0:0:0:0:
253,208,344489,1,0,0:0:0:0:
258,200,344607,1,8,0:0:0:0:
258,200,344637,1,8,0:0:0:0:
258,200,344725,1,0,0:0:0:0:
258,200,344755,1,0,0:0:0:0:
258,200,344843,1,8,0:0:0:0:
258,200,344873,1,8,0:0:0:0:
258,200,344961,1,0,0:0:0:0:
258,200,344991,1,0,0:0:0:0:
226,176,345079,1,8,0:0:0:0:
241,190,345198,1,0,0:0:0:0:
241,190,345316,1,8,0:0:0:0:
241,190,345434,1,0,0:0:0:0:
241,190,345552,1,8,0:0:0:0:
233,202,345611,1,8,0:0:0:0:
234,187,345670,1,0,0:0:0:0:
241,190,345788,1,8,0:0:0:0:
249,212,345847,1,8,0:0:0:0:
241,190,345906,1,0,0:0:0:0:
241,190,346024,1,8,0:0:0:0:
240,203,346142,1,8,0:0:0:0:
248,200,346261,1,0,0:0:0:0:
248,200,346379,1,0,0:0:0:0:
256,209,346497,1,12,0:0:0:0:
263,179,346733,1,8,0:0:0:0:
260,221,346851,1,0,0:0:0:0:
257,198,346969,1,8,0:0:0:0:
257,198,347048,1,8,0:0:0:0:
257,198,347127,1,8,0:0:0:0:
248,200,347205,1,0,0:0:0:0:
248,203,347284,1,0,0:0:0:0:
248,203,347363,1,0,0:0:0:0:
248,203,347442,1,8,0:0:0:0:
248,203,347520,1,0,0:0:0:0:
248,203,347599,1,0,0:0:0:0:
248,203,347678,1,8,0:0:0:0:
248,203,347757,1,0,0:0:0:0:
248,203,347835,1,0,0:0:0:0:
248,203,347914,1,8,0:0:0:0:
248,200,347993,1,8,0:0:0:0:
248,203,348072,1,8,0:0:0:0:
251,194,348150,1,0,0:0:0:0:
251,194,348229,1,0,0:0:0:0:
251,194,348308,1,0,0:0:0:0:
248,203,348387,1,8,0:0:0:0:
248,203,348446,1,8,0:0:0:0:
248,203,348505,1,8,0:0:0:0:
247,207,348564,1,8,0:0:0:0:
247,207,348623,1,0,0:0:0:0:
253,197,348741,1,0,0:0:0:0:
247,207,348859,1,8,0:0:0:0:
247,207,348918,1,8,0:0:0:0:
247,207,348977,1,0,0:0:0:0:
247,207,349036,1,0,0:0:0:0:
247,207,349095,1,8,0:0:0:0:
242,217,349213,1,0,0:0:0:0:
251,218,349331,1,8,0:0:0:0:
251,218,349390,1,8,0:0:0:0:
251,218,349450,1,8,0:0:0:0:
251,218,349509,1,8,0:0:0:0:
251,218,349568,1,0,0:0:0:0:
242,217,349686,1,0,0:0:0:0:
251,218,349804,1,8,0:0:0:0:
251,218,349863,1,8,0:0:0:0:
251,218,349922,1,0,0:0:0:0:
251,218,349981,1,0,0:0:0:0:
251,218,350040,1,8,0:0:0:0:
189,193,350158,1,0,0:0:0:0:
260,197,350276,1,8,0:0:0:0:
260,197,350335,1,8,0:0:0:0:
260,197,350394,1,0,0:0:0:0:
260,197,350453,1,0,0:0:0:0:
260,197,350513,1,8,0:0:0:0:
260,197,350572,1,0,0:0:0:0:
263,202,350631,1,0,0:0:0:0:
263,202,350690,1,0,0:0:0:0:
256,198,350749,1,8,0:0:0:0:
271,195,350867,1,0,0:0:0:0:
271,195,350926,1,0,0:0:0:0:
272,194,350985,1,8,0:0:0:0:
225,205,351044,1,0,0:0:0:0:
278,207,351103,1,8,0:0:0:0:
278,201,351221,1,0,0:0:0:0:
296,183,351300,1,8,0:0:0:0:
296,183,351379,1,0,0:0:0:0:
273,203,351457,1,8,0:0:0:0:
257,187,351516,1,8,0:0:0:0:
273,203,351576,1,0,0:0:0:0:
273,188,351635,1,0,0:0:0:0:
273,203,351694,1,8,0:0:0:0:
289,232,351812,1,8,0:0:0:0:
269,214,351930,1,0,0:0:0:0:
279,185,351989,1,0,0:0:0:0:
269,214,352048,1,8,0:0:0:0:
269,214,352166,1,4,0:0:0:0:
264,187,352284,1,8,0:0:0:0:
267,182,352343,1,0,0:0:0:0:
264,187,352402,1,8,0:0:0:0:
133,179,352461,1,0,0:0:0:0:
264,187,352520,1,8,0:0:0:0:
269,182,352579,1,0,0:0:0:0:
262,206,352639,1,8,0:0:0:0:
248,197,352757,1,0,0:0:0:0:
256,200,352875,1,8,0:0:0:0:
256,200,352953,1,8,0:0:0:0:
256,200,353032,1,8,0:0:0:0:
250,192,353111,1,0,0:0:0:0:
229,196,353229,1,0,0:0:0:0:
243,196,353347,5,8,0:0:0:0:
272,209,353465,1,0,0:0:0:0:
250,192,353583,1,8,0:0:0:0:
256,192,353642,1,8,0:0:0:0:
256,192,353702,1,0,0:0:0:0:
256,192,353761,1,0,0:0:0:0:
256,192,353820,1,8,0:0:0:0:
256,192,353879,1,8,0:0:0:0:
256,192,353938,1,0,0:0:0:0:
256,192,353997,1,0,0:0:0:0:
250,185,354056,1,8,0:0:0:0:
250,185,354135,1,8,0:0:0:0:
250,185,354213,1,8,0:0:0:0:
250,185,354292,1,0,0:0:0:0:
250,185,354371,1,0,0:0:0:0:
250,185,354450,1,0,0:0:0:0:
250,185,354528,1,8,0:0:0:0:
250,185,354607,1,0,0:0:0:0:
250,185,354686,1,0,0:0:0:0:
250,185,354765,1,8,0:0:0:0:
250,185,354883,1,0,0:0:0:0:
256,186,355001,1,8,0:0:0:0:
256,185,355060,1,8,0:0:0:0:
256,185,355119,1,0,0:0:0:0:
240,184,355178,1,0,0:0:0:0:
256,185,355237,1,8,0:0:0:0:
256,185,355355,1,0,0:0:0:0:
256,184,355473,1,8,0:0:0:0:
256,184,355532,1,8,0:0:0:0:
256,184,355591,1,0,0:0:0:0:
240,200,355650,1,0,0:0:0:0:
250,185,355709,1,8,0:0:0:0:
256,192,355828,1,0,0:0:0:0:
256,192,355946,1,8,0:0:0:0:
256,192,356024,1,8,0:0:0:0:
256,192,356103,1,8,0:0:0:0:
256,192,356182,1,0,0:0:0:0:
256,192,356261,1,0,0:0:0:0:
256,192,356339,1,0,0:0:0:0:
256,192,356418,1,8,0:0:0:0:
256,192,356497,1,0,0:0:0:0:
256,192,356576,1,0,0:0:0:0:
256,192,356654,1,8,0:0:0:0:
256,192,356733,1,0,0:0:0:0:
256,192,356812,1,0,0:0:0:0:
256,192,356890,1,8,0:0:0:0:
237,182,356969,1,8,0:0:0:0:
221,163,357048,1,8,0:0:0:0:
256,192,357127,1,0,0:0:0:0:
240,200,357245,1,0,0:0:0:0:
256,200,357363,1,8,0:0:0:0:
238,185,357442,1,8,0:0:0:0:
174,176,357520,1,0,0:0:0:0:
248,192,357599,1,8,0:0:0:0:
248,192,357678,1,0,0:0:0:0:
265,188,357757,1,0,0:0:0:0:
248,192,357835,1,12,0:0:0:0:
248,184,358072,1,8,0:0:0:0:
248,184,358190,1,0,0:0:0:0:
248,184,358308,1,8,0:0:0:0:
248,192,358387,1,8,0:0:0:0:
276,149,358465,1,0,0:0:0:0:
248,184,358544,1,8,0:0:0:0:
248,184,358623,1,0,0:0:0:0:
248,184,358702,1,0,0:0:0:0:
248,184,358780,1,8,0:0:0:0:
248,192,358898,1,0,0:0:0:0:
256,184,359016,1,8,0:0:0:0:
248,192,359096,1,8,0:0:0:0:
448,64,359174,1,8,0:0:0:0:
248,184,359253,1,8,0:0:0:0:
264,192,359489,1,8,0:0:0:0:
252,205,359548,1,8,0:0:0:0:
268,197,359608,1,0,0:0:0:0:
264,192,359725,1,8,0:0:0:0:
448,64,359804,1,8,0:0:0:0:
64,64,359883,1,0,0:0:0:0:
256,192,359961,1,8,0:0:0:0:
264,192,360041,1,0,0:0:0:0:
64,64,360119,1,0,0:0:0:0:
264,192,360198,5,8,0:0:0:0:
64,64,360277,1,0,0:0:0:0:
64,64,360356,1,0,0:0:0:0:
264,192,360434,1,8,0:0:0:0:
448,64,360513,1,8,0:0:0:0:
448,64,360592,1,8,0:0:0:0:
64,64,360671,1,0,0:0:0:0:
264,192,360906,1,8,0:0:0:0:
264,192,360946,1,8,0:0:0:0:
264,192,360985,1,8,0:0:0:0:
264,192,361024,1,0,0:0:0:0:
264,192,361064,1,0,0:0:0:0:
264,192,361103,1,0,0:0:0:0:
264,192,361142,1,8,0:0:0:0:
256,192,361379,1,0,0:0:0:0:
264,200,361615,1,8,0:0:0:0:
264,200,361674,1,8,0:0:0:0:
264,200,361733,1,8,0:0:0:0:
264,200,361792,1,8,0:0:0:0:
264,200,361851,1,0,0:0:0:0:
264,200,361910,1,0,0:0:0:0:
264,200,361969,1,0,0:0:0:0:
264,200,362028,1,0,0:0:0:0:
264,200,362087,1,8,0:0:0:0:
264,200,362146,1,8,0:0:0:0:
264,200,362205,1,8,0:0:0:0:
264,200,362265,1,8,0:0:0:0:
264,200,362324,1,0,0:0:0:0:
264,200,362383,1,0,0:0:0:0:
264,200,362442,1,0,0:0:0:0:
264,200,362501,1,0,0:0:0:0:
264,200,362560,1,8,0:0:0:0:
264,200,362619,1,8,0:0:0:0:
264,200,362678,1,0,0:0:0:0:
264,200,362737,1,0,0:0:0:0:
264,200,362796,1,8,0:0:0:0:
264,200,362855,1,8,0:0:0:0:
264,200,362914,1,0,0:0:0:0:
264,200,362973,1,0,0:0:0:0:
264,200,363032,1,8,0:0:0:0:
264,200,363091,1,0,0:0:0:0:
264,200,363150,1,8,0:0:0:0:
264,200,363209,1,0,0:0:0:0:
264,200,363268,1,8,0:0:0:0:
264,200,363328,1,8,0:0:0:0:
264,200,363387,1,0,0:0:0:0:
264,200,363446,1,0,0:0:0:0:
264,200,363505,1,12,0:0:0:0:
301,219,363742,5,0,0:0:0:0:
304,220,363860,1,0,0:0:0:0:
301,219,363978,1,8,0:0:0:0:
297,222,364096,1,0,0:0:0:0:
301,219,364214,1,12,0:0:0:0:
301,219,364450,1,8,0:0:0:0:
301,219,364687,1,8,0:0:0:0:
297,222,364805,1,0,0:0:0:0:
297,222,364864,1,0,0:0:0:0:
301,219,364923,1,8,0:0:0:0:
282,217,365041,1,8,0:0:0:0:
301,219,365159,1,0,0:0:0:0:
347,234,365277,1,0,0:0:0:0:
269,225,365395,1,8,0:0:0:0:
270,201,365631,1,8,0:0:0:0:
270,201,365691,1,8,0:0:0:0:
270,201,365750,1,8,0:0:0:0:
270,201,365809,1,8,0:0:0:0:
270,201,365868,1,0,0:0:0:0:
270,201,365927,1,0,0:0:0:0:
270,201,365986,1,0,0:0:0:0:
270,201,366045,1,0,0:0:0:0:
270,201,366104,1,8,0:0:0:0:
270,201,366163,1,8,0:0:0:0:
270,201,366222,1,8,0:0:0:0:
270,201,366281,1,8,0:0:0:0:
270,201,366340,1,4,0:0:0:0:
255,196,366458,1,12,0:0:0:0:
255,196,366694,1,8,0:0:0:0:
304,200,366813,1,0,0:0:0:0:
281,190,366931,1,0,0:0:0:0:
281,190,367049,1,8,0:0:0:0:
281,190,367167,1,0,0:0:0:0:
281,190,367285,1,8,0:0:0:0:
267,181,367403,1,8,0:0:0:0:
267,181,367521,1,0,0:0:0:0:
267,181,367639,1,0,0:0:0:0:
267,181,367757,1,12,0:0:0:0:
261,182,367994,1,8,0:0:0:0:
261,182,368112,1,4,0:0:0:0:
232,181,368230,1,8,0:0:0:0:
232,181,368466,1,12,0:0:0:0:
242,193,368584,1,0,0:0:0:0:
242,193,368643,1,0,0:0:0:0:
242,193,368702,1,8,0:0:0:0:
237,194,368820,1,8,0:0:0:0:
237,194,368939,1,8,0:0:0:0:
237,194,369057,1,8,0:0:0:0:
234,201,369175,1,4,0:0:0:0:
247,201,369411,1,8,0:0:0:0:
247,201,369529,1,0,0:0:0:0:
225,206,369647,1,8,0:0:0:0:
225,206,369765,1,0,0:0:0:0:
225,206,369883,1,8,0:0:0:0:
247,201,370061,1,8,0:0:0:0:
247,201,370120,1,0,0:0:0:0:
243,210,370238,1,0,0:0:0:0:
243,210,370356,1,12,0:0:0:0:
243,206,370474,1,0,0:0:0:0:
239,205,370592,1,8,0:0:0:0:
242,206,370651,1,8,0:0:0:0:
236,205,370710,1,0,0:0:0:0:
236,205,370769,1,0,0:0:0:0:
236,205,370828,1,0,0:0:0:0:
234,202,370887,1,0,0:0:0:0:
232,208,370946,1,8,0:0:0:0:
232,208,371006,1,8,0:0:0:0:
234,230,371065,1,0,0:0:0:0:
234,230,371124,1,0,0:0:0:0:
234,230,371183,1,0,0:0:0:0:
234,230,371242,1,0,0:0:0:0:
234,230,371301,1,8,0:0:0:0:
234,230,371360,1,8,0:0:0:0:
233,225,371419,1,0,0:0:0:0:
233,225,371478,1,0,0:0:0:0:
233,225,371537,1,8,0:0:0:0:
246,214,371668,1,8,0:0:0:0:
247,229,371787,1,0,0:0:0:0:
246,223,371904,1,8,0:0:0:0:
246,223,371976,1,4,0:0:0:0:
254,232,372233,1,0,0:0:0:0:
254,232,372377,1,8,0:0:0:0:
273,240,372496,1,0,0:0:0:0:
272,234,372613,1,8,0:0:0:0:
260,190,372684,1,4,0:0:0:0:
303,237,372942,1,0,0:0:0:0:
283,229,373086,1,8,0:0:0:0:
295,223,373204,1,0,0:0:0:0:
286,216,373322,1,8,0:0:0:0:
274,219,373393,1,4,0:0:0:0:
303,237,373650,5,0,0:0:0:0:
283,229,373794,1,8,0:0:0:0:
295,223,373913,1,0,0:0:0:0:
286,216,374030,1,8,0:0:0:0:
274,219,374135,1,0,0:0:0:0:
64,64,374213,1,0,0:0:0:0:
222,205,374293,1,0,0:0:0:0:
240,198,374372,1,8,0:0:0:0:
267,202,374450,1,8,0:0:0:0:
149,186,374529,1,0,0:0:0:0:
262,208,374608,1,0,0:0:0:0:
233,211,374687,1,8,0:0:0:0:
475,377,374765,1,8,0:0:0:0:
248,185,374843,5,4,0:0:0:0:
248,185,374962,1,8,0:0:0:0:
248,185,375080,1,8,0:0:0:0:
248,185,375198,1,0,0:0:0:0:
250,191,375317,1,0,0:0:0:0:
250,191,375435,1,0,0:0:0:0:
250,191,375553,1,8,0:0:0:0:
244,191,375671,1,0,0:0:0:0:
247,197,375789,1,8,0:0:0:0:
247,197,375907,1,8,0:0:0:0:
247,197,376025,1,0,0:0:0:0:
256,220,376143,1,0,0:0:0:0:
260,214,376261,1,8,0:0:0:0:
260,214,376340,1,8,0:0:0:0:
260,214,376419,1,8,0:0:0:0:
255,208,376498,1,8,0:0:0:0:
260,210,376576,1,0,0:0:0:0:
260,210,376655,1,0,0:0:0:0:
258,213,376734,1,0,0:0:0:0:
258,213,376813,1,0,0:0:0:0:
258,213,376891,1,8,0:0:0:0:
258,213,376970,1,8,0:0:0:0:
260,199,377049,1,8,0:0:0:0:
260,199,377128,1,8,0:0:0:0:
260,199,377205,1,4,0:0:0:0:
260,202,377443,1,4,0:0:0:0:
260,202,377679,1,8,0:0:0:0:
265,196,377758,1,8,0:0:0:0:
265,196,377835,1,8,0:0:0:0:
255,194,377915,1,8,0:0:0:0:
255,194,377994,1,0,0:0:0:0:
255,194,378073,1,0,0:0:0:0:
265,193,378150,1,0,0:0:0:0:
265,193,378230,1,0,0:0:0:0:
265,193,378309,1,8,0:0:0:0:
265,193,378388,1,8,0:0:0:0:
265,193,378465,1,0,0:0:0:0:
265,193,378545,1,0,0:0:0:0:
264,190,378623,1,12,0:0:0:0:
264,190,378742,1,12,0:0:0:0:
264,190,378860,1,12,0:0:0:0:
264,190,378978,1,12,0:0:0:0:
265,193,379095,1,12,0:0:0:0:
275,207,379331,1,8,0:0:0:0:
306,190,379450,1,0,0:0:0:0:
275,207,379569,1,8,0:0:0:0:
260,199,379805,1,0,0:0:0:0:
272,205,379883,1,0,0:0:0:0:
272,205,379962,1,0,0:0:0:0:
269,208,380041,1,8,0:0:0:0:
216,202,380100,1,8,0:0:0:0:
216,202,380159,1,0,0:0:0:0:
216,202,380218,1,0,0:0:0:0:
216,202,380277,1,8,0:0:0:0:
282,200,380317,1,8,0:0:0:0:
282,200,380356,1,8,0:0:0:0:
282,200,380395,1,0,0:0:0:0:
278,206,380513,1,8,0:0:0:0:
274,211,380572,1,8,0:0:0:0:
274,211,380631,1,8,0:0:0:0:
274,211,380691,1,8,0:0:0:0:
274,211,380750,1,0,0:0:0:0:
266,213,380809,1,0,0:0:0:0:
276,214,380868,1,8,0:0:0:0:
276,214,380927,1,8,0:0:0:0:
269,208,380986,1,8,0:0:0:0:
269,208,381045,1,8,0:0:0:0:
269,208,381104,1,0,0:0:0:0:
269,208,381163,1,0,0:0:0:0:
269,212,381222,1,8,0:0:0:0:
273,219,381281,1,8,0:0:0:0:
273,219,381340,1,0,0:0:0:0:
273,219,381399,1,8,0:0:0:0:
273,219,381458,1,0,0:0:0:0:
274,225,381517,1,0,0:0:0:0:
266,215,381576,1,8,0:0:0:0:
266,215,381635,1,8,0:0:0:0:
266,213,381694,1,8,0:0:0:0:
266,215,381754,1,8,0:0:0:0:
266,215,381813,1,0,0:0:0:0:
266,215,381872,1,0,0:0:0:0:
266,215,381930,1,12,0:0:0:0:
273,209,382167,1,8,0:0:0:0:
273,219,382285,1,8,0:0:0:0:
270,215,382403,1,8,0:0:0:0:
266,215,382639,1,0,0:0:0:0:
260,202,382757,1,0,0:0:0:0:
260,202,382876,1,0,0:0:0:0:
260,202,382994,1,0,0:0:0:0:
260,202,383112,1,0,0:0:0:0:
260,202,383347,1,12,0:0:0:0:
254,204,383466,1,0,0:0:0:0:
254,204,383584,1,8,0:0:0:0:
254,204,383702,1,8,0:0:0:0:
254,204,383820,1,8,0:0:0:0:
254,204,383939,1,0,0:0:0:0:
260,202,384057,1,12,0:0:0:0:
254,204,384175,1,0,0:0:0:0:
254,204,384293,1,8,0:0:0:0:
254,204,384411,1,8,0:0:0:0:
254,204,384529,1,8,0:0:0:0:
254,204,384646,1,0,0:0:0:0:
251,214,384765,1,8,0:0:0:0:
254,204,384844,1,0,0:0:0:0:
260,202,384923,1,8,0:0:0:0:
254,204,385002,1,8,0:0:0:0:
254,204,385080,1,0,0:0:0:0:
254,204,385159,1,0,0:0:0:0:
254,204,385238,1,8,0:0:0:0:
252,211,385317,1,8,0:0:0:0:
252,211,385395,1,8,0:0:0:0:
252,211,385474,1,4,0:0:0:0:
252,211,385710,1,4,0:0:0:0:
252,211,385946,1,4,0:0:0:0:
252,211,386182,1,12,0:0:0:0:
250,192,388072,1,8,0:0:0:0:
250,192,388151,1,8,0:0:0:0:
250,192,388230,1,0,0:0:0:0:
250,192,388309,1,0,0:0:0:0:
257,206,388387,1,0,0:0:0:0:
257,206,388466,1,0,0:0:0:0:
250,192,388545,1,8,0:0:0:0:
250,192,388624,1,8,0:0:0:0:
250,192,388703,1,0,0:0:0:0:
250,192,388780,1,0,0:0:0:0:
257,206,388860,1,8,0:0:0:0:
257,206,388939,1,8,0:0:0:0:
250,192,389017,1,0,0:0:0:0:
250,192,389096,1,0,0:0:0:0:
250,192,389175,1,0,0:0:0:0:
250,192,389254,1,0,0:0:0:0:
257,206,389332,1,0,0:0:0:0:
257,206,389411,1,0,0:0:0:0:
255,204,389490,1,0,0:0:0:0:
255,197,389568,1,0,0:0:0:0:
254,195,389647,1,0,0:0:0:0:
253,198,389726,1,0,0:0:0:0:
250,199,389805,1,0,0:0:0:0:
249,202,389883,1,0,0:0:0:0:
249,202,389962,1,12,0:0:0:0:
256,196,390119,1,0,0:0:0:0:
256,196,390276,1,0,0:0:0:0:
254,195,390434,1,8,0:0:0:0:
247,190,390591,1,8,0:0:0:0:
247,190,390749,1,0,0:0:0:0:
240,194,390906,1,0,0:0:0:0:
240,194,391064,1,8,0:0:0:0:
247,208,391221,1,0,0:0:0:0:
247,208,391379,1,8,0:0:0:0:
247,208,391536,1,0,0:0:0:0:
247,208,391694,1,8,0:0:0:0:
249,207,391851,1,8,0:0:0:0:
261,219,392009,1,0,0:0:0:0:
261,219,392166,1,0,0:0:0:0:
261,219,392324,1,0,0:0:0:0:
261,223,392481,1,8,0:0:0:0:
255,222,392639,1,8,0:0:0:0:
255,222,392796,1,0,0:0:0:0:
272,238,392954,1,0,0:0:0:0:
272,238,393111,1,0,0:0:0:0:
275,235,393269,1,8,0:0:0:0:
275,235,393426,1,0,0:0:0:0:
275,235,393584,1,0,0:0:0:0:
265,233,393741,1,12,0:0:0:0:
265,233,393899,1,0,0:0:0:0:
275,235,394056,1,0,0:0:0:0:
275,235,394213,1,8,0:0:0:0:
268,235,394371,1,8,0:0:0:0:
255,223,394528,1,0,0:0:0:0:
255,223,394686,1,0,0:0:0:0:
255,223,394843,1,8,0:0:0:0:
254,227,395001,1,8,0:0:0:0:
254,223,395158,1,0,0:0:0:0:
255,223,395316,1,0,0:0:0:0:
255,223,395473,1,8,0:0:0:0:
242,230,395631,1,0,0:0:0:0:
246,230,395788,1,8,0:0:0:0:
271,230,395946,1,0,0:0:0:0:
251,233,396103,1,0,0:0:0:0:
251,233,396261,1,8,0:0:0:0:
255,232,396418,1,8,0:0:0:0:
270,240,396576,1,0,0:0:0:0:
268,246,396733,1,0,0:0:0:0:
268,246,396891,1,8,0:0:0:0:
272,257,397048,1,8,0:0:0:0:
269,244,397206,1,0,0:0:0:0:
269,244,397363,1,0,0:0:0:0:
273,244,397521,1,12,0:0:0:0:
260,236,397678,1,12,0:0:0:0:
294,253,397836,1,12,0:0:0:0:
294,253,397993,1,12,0:0:0:0:
291,265,398308,1,12,0:0:0:0:
313,286,398623,1,12,0:0:0:0:
313,286,398780,1,12,0:0:0:0:
306,271,398938,1,12,0:0:0:0:
328,282,399095,1,12,0:0:0:0:
249,225,399253,1,12,0:0:0:0:
297,276,399410,1,4,0:0:0:0:
296,266,399568,1,4,0:0:0:0:
257,242,399725,1,4,0:0:0:0:
297,276,399883,1,4,0:0:0:0:
278,259,400198,1,4,0:0:0:0:
289,248,400513,1,12,0:0:0:0:
285,243,400670,1,12,0:0:0:0:
284,244,400828,1,12,0:0:0:0:
284,244,400985,1,12,0:0:0:0:
284,244,401143,1,12,0:0:0:0:
289,248,401300,1,4,0:0:0:0:
242,185,405049,1,8,0:0:0:0:
210,207,408828,1,8,0:0:0:0:
253,176,412608,1,8,0:0:0:0:
262,184,416387,1,0,0:0:0:0:
277,198,417332,1,0,0:0:0:0:
270,196,418277,1,0,0:0:0:0:
245,190,419222,1,8,0:0:0:0:
243,194,419458,1,0,0:0:0:0:
220,194,420167,1,8,0:0:0:0:
255,184,421112,1,8,0:0:0:0:
327,241,421583,1,0,0:0:0:0:
243,209,422056,1,8,0:0:0:0:
253,220,422528,1,0,0:0:0:0:
241,196,423001,1,0,0:0:0:0:
291,216,423474,1,8,0:0:0:0:
250,194,423946,1,0,0:0:0:0:
250,194,424890,1,0,0:0:0:0:
250,194,425836,1,0,0:0:0:0:
259,192,426781,1,0,0:0:0:0:
258,205,427726,1,8,0:0:0:0:
286,205,428434,1,0,0:0:0:0:
300,213,428670,1,0,0:0:0:0:
290,196,428907,1,8,0:0:0:0:
286,183,429616,1,0,0:0:0:0:
292,207,430560,1,8,0:0:0:0:
266,238,431505,1,0,0:0:0:0:
258,185,432450,1,0,0:0:0:0:
175,197,433394,1,0,0:0:0:0:
260,189,434339,1,0,0:0:0:0:
271,196,435285,1,8,0:0:0:0:
257,192,436230,1,8,0:0:0:0:
262,213,436702,1,0,0:0:0:0:
262,213,437175,1,8,0:0:0:0:
244,208,437647,1,0,0:0:0:0:
246,213,438119,1,0,0:0:0:0:
229,218,438591,1,8,0:0:0:0:
246,213,439064,1,0,0:0:0:0:
252,193,440009,1,0,0:0:0:0:
260,199,440954,1,0,0:0:0:0:
259,192,441899,1,0,0:0:0:0:
247,210,442844,1,8,0:0:0:0:
286,237,443552,1,0,0:0:0:0:
282,241,443788,1,0,0:0:0:0:
277,223,444025,1,8,0:0:0:0:
280,215,444734,1,0,0:0:0:0:
256,189,447127,1,0,0:0:0:0:
254,196,447599,1,8,0:0:0:0:
247,198,447835,1,0,0:0:0:0:
254,196,448070,1,8,0:0:0:0:
254,196,448307,1,0,0:0:0:0:
251,217,448543,1,12,0:0:0:0:
244,220,449014,1,0,0:0:0:0:
246,219,449250,1,0,0:0:0:0:
246,219,449487,1,12,0:0:0:0:
251,198,449960,1,8,0:0:0:0:
251,198,450196,1,0,0:0:0:0:
243,197,450432,1,8,0:0:0:0:
243,197,450668,1,8,0:0:0:0:
244,204,450786,1,8,0:0:0:0:
244,204,450904,1,0,0:0:0:0:
256,201,451141,1,0,0:0:0:0:
256,201,451377,1,12,0:0:0:0:
261,196,451613,1,0,0:0:0:0:
257,179,451849,1,8,0:0:0:0:
257,179,452085,1,8,0:0:0:0:
257,179,452321,1,4,0:0:0:0:
259,188,452794,1,0,0:0:0:0:
255,194,453030,1,0,0:0:0:0:
259,188,453267,1,12,0:0:0:0:
248,189,453739,1,0,0:0:0:0:
248,189,453975,1,0,0:0:0:0:
248,189,454211,1,8,0:0:0:0:
250,197,454448,1,8,0:0:0:0:
284,204,454566,1,8,0:0:0:0:
271,204,454684,1,0,0:0:0:0:
271,204,454920,1,0,0:0:0:0:
271,204,455156,1,12,0:0:0:0:
267,212,455393,1,8,0:0:0:0:
267,212,455511,1,0,0:0:0:0:
271,204,455629,1,8,0:0:0:0:
271,204,455865,1,8,0:0:0:0:
271,204,456101,1,4,0:0:0:0:
244,220,456574,1,0,0:0:0:0:
246,219,456810,1,0,0:0:0:0:
246,219,457046,1,12,0:0:0:0:
251,198,457519,1,8,0:0:0:0:
251,198,457755,1,0,0:0:0:0:
243,197,457991,1,8,0:0:0:0:
243,197,458227,1,8,0:0:0:0:
239,189,458345,1,8,0:0:0:0:
244,204,458463,1,0,0:0:0:0:
256,201,458700,1,0,0:0:0:0:
256,201,458936,1,12,0:0:0:0:
252,190,459172,1,0,0:0:0:0:
257,179,459408,1,8,0:0:0:0:
262,181,459526,1,0,0:0:0:0:
257,179,459644,1,8,0:0:0:0:
257,179,459881,1,12,0:0:0:0:
247,185,460117,1,8,0:0:0:0:
247,185,460353,1,0,0:0:0:0:
247,185,460589,1,8,0:0:0:0:
247,185,460826,1,0,0:0:0:0:
251,194,461062,1,0,0:0:0:0:
251,194,461298,1,8,0:0:0:0:
251,194,461534,1,8,0:0:0:0:
251,194,461771,1,0,0:0:0:0:
256,218,462007,1,8,0:0:0:0:
256,218,462243,1,4,0:0:0:0:
255,219,462479,1,8,0:0:0:0:
273,229,462715,1,0,0:0:0:0:
281,224,462834,1,8,0:0:0:0:
281,224,462893,1,8,0:0:0:0:
281,224,462952,1,0,0:0:0:0:
280,224,463011,1,0,0:0:0:0:
280,224,463070,1,8,0:0:0:0:
262,233,463188,1,0,0:0:0:0:
269,226,463306,1,8,0:0:0:0:
269,226,463424,1,0,0:0:0:0:
273,229,463542,1,0,0:0:0:0:
265,214,463661,1,12,0:0:0:0:
267,201,463779,1,0,0:0:0:0:
271,216,463897,1,8,0:0:0:0:
271,216,463956,1,8,0:0:0:0:
271,216,464016,1,0,0:0:0:0:
271,216,464134,1,0,0:0:0:0:
277,228,464252,1,0,0:0:0:0:
275,219,464370,1,8,0:0:0:0:
267,219,464488,1,0,0:0:0:0:
271,216,464606,1,8,0:0:0:0:
271,216,464665,1,8,0:0:0:0:
271,216,464724,1,0,0:0:0:0:
271,216,464783,1,0,0:0:0:0:
271,216,464842,1,8,0:0:0:0:
270,224,464960,1,0,0:0:0:0:
270,224,465019,1,0,0:0:0:0:
270,224,465079,1,8,0:0:0:0:
263,224,465197,1,8,0:0:0:0:
263,224,465315,1,0,0:0:0:0:
263,224,465433,1,0,0:0:0:0:
261,226,465551,1,12,0:0:0:0:
253,210,465787,1,8,0:0:0:0:
254,210,465905,1,8,0:0:0:0:
254,210,466023,1,0,0:0:0:0:
243,208,466083,1,0,0:0:0:0:
254,210,466142,1,8,0:0:0:0:
263,224,466201,1,0,0:0:0:0:
254,210,466260,1,8,0:0:0:0:
250,223,466378,1,0,0:0:0:0:
245,213,466496,1,8,0:0:0:0:
245,213,466555,1,8,0:0:0:0:
245,213,466614,1,0,0:0:0:0:
254,210,466732,1,8,0:0:0:0:
254,219,466850,1,8,0:0:0:0:
254,219,466968,1,0,0:0:0:0:
254,219,467027,1,0,0:0:0:0:
254,219,467086,1,0,0:0:0:0:
255,224,467205,1,8,0:0:0:0:
255,224,467323,1,0,0:0:0:0:
255,224,467441,1,12,0:0:0:0:
254,219,467677,1,8,0:0:0:0:
254,219,467795,1,8,0:0:0:0:
254,219,467913,1,0,0:0:0:0:
257,216,468031,1,0,0:0:0:0:
256,216,468090,1,0,0:0:0:0:
257,216,468149,1,8,0:0:0:0:
257,216,468268,1,0,0:0:0:0:
254,219,468386,1,8,0:0:0:0:
254,197,468445,1,8,0:0:0:0:
254,219,468504,1,0,0:0:0:0:
254,197,468563,1,0,0:0:0:0:
254,219,468622,1,8,0:0:0:0:
254,219,468740,1,8,0:0:0:0:
257,216,468858,1,0,0:0:0:0:
257,216,468917,1,0,0:0:0:0:
257,216,468976,1,0,0:0:0:0:
257,216,469094,1,8,0:0:0:0:
274,228,469153,1,8,0:0:0:0:
257,216,469212,1,8,0:0:0:0:
254,219,469331,1,0,0:0:0:0:
254,219,469449,1,8,0:0:0:0:
254,219,469508,1,0,0:0:0:0:
254,219,469567,1,8,0:0:0:0:
257,216,469685,1,0,0:0:0:0:
257,216,469803,1,0,0:0:0:0:
257,216,469862,1,0,0:0:0:0:
257,216,469921,1,8,0:0:0:0:
257,216,469980,1,0,0:0:0:0:
257,216,470039,1,8,0:0:0:0:
254,219,470157,1,0,0:0:0:0:
254,219,470275,1,12,0:0:0:0:
204,190,470394,1,0,0:0:0:0:
252,219,470512,1,8,0:0:0:0:
263,228,470571,1,8,0:0:0:0:
252,219,470630,1,0,0:0:0:0:
252,219,470748,1,12,0:0:0:0:
240,226,470866,1,0,0:0:0:0:
249,212,470984,1,8,0:0:0:0:
249,212,471043,1,8,0:0:0:0:
249,212,471102,1,8,0:0:0:0:
249,212,471220,1,4,0:0:0:0:
222,188,471456,1,8,0:0:0:0:
243,206,471575,1,8,0:0:0:0:
243,206,471693,1,0,0:0:0:0:
243,206,471811,1,0,0:0:0:0:
314,226,471870,1,0,0:0:0:0:
243,206,471929,1,8,0:0:0:0:
272,216,472047,1,0,0:0:0:0:
272,216,472165,1,8,0:0:0:0:
272,216,472224,1,8,0:0:0:0:
272,216,472283,1,0,0:0:0:0:
281,216,472401,1,8,0:0:0:0:
281,216,472519,1,0,0:0:0:0:
272,216,472638,1,0,0:0:0:0:
272,216,472697,1,0,0:0:0:0:
272,216,472756,1,0,0:0:0:0:
272,216,472815,1,0,0:0:0:0:
272,216,472874,1,8,0:0:0:0:
285,230,472992,1,8,0:0:0:0:
281,230,473110,1,4,0:0:0:0:
279,229,473346,1,8,0:0:0:0:
288,233,473464,1,8,0:0:0:0:
288,233,473582,1,0,0:0:0:0:
293,231,473642,1,0,0:0:0:0:
288,233,473701,1,0,0:0:0:0:
288,233,473819,1,8,0:0:0:0:
266,185,473937,1,0,0:0:0:0:
266,185,474055,1,8,0:0:0:0:
266,185,474114,1,8,0:0:0:0:
266,185,474173,1,0,0:0:0:0:
258,185,474291,1,8,0:0:0:0:
258,185,474409,1,0,0:0:0:0:
258,185,474527,1,0,0:0:0:0:
256,182,474586,1,0,0:0:0:0:
256,182,474645,1,8,0:0:0:0:
256,182,474705,1,0,0:0:0:0:
256,182,474764,1,8,0:0:0:0:
256,182,474823,1,8,0:0:0:0:
256,182,474882,1,0,0:0:0:0:
255,185,475000,1,12,0:0:0:0:
245,190,475118,1,0,0:0:0:0:
258,175,475236,1,8,0:0:0:0:
258,175,475354,1,8,0:0:0:0:
248,175,475472,1,0,0:0:0:0:
248,175,475531,1,0,0:0:0:0:
248,175,475590,1,0,0:0:0:0:
257,190,475708,1,8,0:0:0:0:
257,190,475827,1,0,0:0:0:0:
258,184,475886,1,0,0:0:0:0:
250,190,475945,1,8,0:0:0:0:
250,190,476004,1,8,0:0:0:0:
250,190,476063,1,0,0:0:0:0:
250,190,476181,1,8,0:0:0:0:
243,186,476299,1,0,0:0:0:0:
243,186,476417,1,8,0:0:0:0:
262,196,476476,1,8,0:0:0:0:
243,186,476535,1,0,0:0:0:0:
243,186,476653,1,12,0:0:0:0:
240,196,476771,1,0,0:0:0:0:
250,189,476890,1,12,0:0:0:0:
263,202,477008,1,0,0:0:0:0:
263,202,477126,1,8,0:0:0:0:
263,202,477185,1,0,0:0:0:0:
263,202,477244,1,0,0:0:0:0:
250,189,477362,1,8,0:0:0:0:
265,190,477441,1,8,0:0:0:0:
265,190,477520,1,8,0:0:0:0:
265,190,477598,1,0,0:0:0:0:
265,190,477677,1,0,0:0:0:0:
265,190,477756,1,0,0:0:0:0:
250,189,477834,1,12,0:0:0:0:
245,192,477953,1,0,0:0:0:0:
245,192,478012,1,0,0:0:0:0:
245,192,478071,1,8,0:0:0:0:
245,192,478130,1,0,0:0:0:0:
245,192,478189,1,8,0:0:0:0:
260,194,478307,1,8,0:0:0:0:
260,194,478425,1,8,0:0:0:0:
260,194,478543,1,0,0:0:0:0:
260,194,478661,1,0,0:0:0:0:
265,214,478779,1,12,0:0:0:0:
267,201,478897,1,0,0:0:0:0:
271,216,479015,1,8,0:0:0:0:
271,216,479074,1,8,0:0:0:0:
271,216,479134,1,0,0:0:0:0:
271,216,479252,1,0,0:0:0:0:
277,228,479370,1,0,0:0:0:0:
275,219,479488,1,8,0:0:0:0:
267,219,479606,1,0,0:0:0:0:
271,216,479724,1,8,0:0:0:0:
271,216,479783,1,8,0:0:0:0:
271,216,479842,1,0,0:0:0:0:
271,216,479901,1,0,0:0:0:0:
271,216,479960,1,8,0:0:0:0:
270,224,480078,1,8,0:0:0:0:
270,224,480137,1,8,0:0:0:0:
270,224,480197,1,0,0:0:0:0:
263,224,480315,1,0,0:0:0:0:
263,224,480433,1,8,0:0:0:0:
263,224,480551,1,0,0:0:0:0:
261,226,480669,1,12,0:0:0:0:
253,210,480905,1,8,0:0:0:0:
254,210,481023,1,8,0:0:0:0:
254,210,481141,1,0,0:0:0:0:
243,208,481200,1,0,0:0:0:0:
254,210,481260,1,0,0:0:0:0:
254,210,481378,1,8,0:0:0:0:
250,223,481496,1,0,0:0:0:0:
245,213,481614,1,8,0:0:0:0:
245,213,481673,1,8,0:0:0:0:
245,213,481732,1,0,0:0:0:0:
254,210,481850,1,8,0:0:0:0:
254,219,481968,1,0,0:0:0:0:
254,219,482086,1,0,0:0:0:0:
254,219,482145,1,0,0:0:0:0:
254,219,482204,1,0,0:0:0:0:
255,224,482323,1,8,0:0:0:0:
255,224,482441,1,0,0:0:0:0:
255,224,482559,1,12,0:0:0:0:
254,219,482795,1,8,0:0:0:0:
254,219,482913,1,8,0:0:0:0:
254,219,483031,1,0,0:0:0:0:
257,216,483149,1,0,0:0:0:0:
256,216,483208,1,0,0:0:0:0:
257,216,483267,1,8,0:0:0:0:
281,213,483326,1,8,0:0:0:0:
257,216,483386,1,0,0:0:0:0:
254,219,483504,1,8,0:0:0:0:
254,219,483622,1,0,0:0:0:0:
254,219,483740,1,8,0:0:0:0:
254,219,483858,1,8,0:0:0:0:
257,216,483976,1,0,0:0:0:0:
257,216,484035,1,0,0:0:0:0:
257,216,484094,1,0,0:0:0:0:
257,216,484212,1,8,0:0:0:0:
274,228,484271,1,8,0:0:0:0:
257,216,484330,1,8,0:0:0:0:
254,219,484449,1,0,0:0:0:0:
254,219,484567,1,8,0:0:0:0:
254,219,484626,1,8,0:0:0:0:
254,219,484685,1,0,0:0:0:0:
257,216,484803,1,0,0:0:0:0:
257,216,484921,1,8,0:0:0:0:
257,216,485039,1,0,0:0:0:0:
257,216,485098,1,0,0:0:0:0:
257,216,485157,1,8,0:0:0:0:
254,219,485275,1,0,0:0:0:0:
254,219,485393,1,12,0:0:0:0:
257,206,485512,1,0,0:0:0:0:
257,206,485571,1,0,0:0:0:0:
252,219,485630,1,8,0:0:0:0:
257,206,485689,1,8,0:0:0:0:
252,219,485748,1,0,0:0:0:0:
252,219,485866,1,12,0:0:0:0:
212,192,485984,1,0,0:0:0:0:
249,212,486102,1,8,0:0:0:0:
249,212,486161,1,8,0:0:0:0:
249,212,486220,1,8,0:0:0:0:
249,212,486338,1,4,0:0:0:0:
222,188,486574,1,8,0:0:0:0:
243,206,486693,1,8,0:0:0:0:
243,206,486811,1,0,0:0:0:0:
346,218,486870,1,0,0:0:0:0:
243,206,486929,1,0,0:0:0:0:
243,206,487047,1,8,0:0:0:0:
272,216,487165,1,0,0:0:0:0:
272,216,487283,1,8,0:0:0:0:
272,216,487342,1,8,0:0:0:0:
272,216,487401,1,0,0:0:0:0:
281,216,487519,1,8,0:0:0:0:
281,216,487637,1,0,0:0:0:0:
272,216,487756,1,8,0:0:0:0:
272,216,487815,1,8,0:0:0:0:
272,216,487874,1,0,0:0:0:0:
272,216,487933,1,0,0:0:0:0:
272,216,487992,1,8,0:0:0:0:
285,230,488110,1,8,0:0:0:0:
281,230,488228,1,4,0:0:0:0:
279,229,488464,1,8,0:0:0:0:
288,233,488582,1,8,0:0:0:0:
288,233,488700,1,0,0:0:0:0:
293,231,488760,1,0,0:0:0:0:
288,233,488819,1,0,0:0:0:0:
288,233,488937,1,8,0:0:0:0:
266,185,489055,1,0,0:0:0:0:
266,185,489173,1,8,0:0:0:0:
266,185,489232,1,8,0:0:0:0:
266,185,489291,1,0,0:0:0:0:
258,185,489409,1,8,0:0:0:0:
258,185,489527,1,0,0:0:0:0:
258,185,489645,1,8,0:0:0:0:
256,182,489704,1,0,0:0:0:0:
256,182,489763,1,0,0:0:0:0:
256,182,489823,1,0,0:0:0:0:
256,182,489882,1,8,0:0:0:0:
256,182,489941,1,8,0:0:0:0:
256,182,490000,1,0,0:0:0:0:
255,185,490118,1,12,0:0:0:0:
245,190,490236,1,0,0:0:0:0:
258,175,490354,1,8,0:0:0:0:
258,175,490472,1,8,0:0:0:0:
248,175,490590,1,0,0:0:0:0:
248,175,490649,1,0,0:0:0:0:
248,175,490708,1,0,0:0:0:0:
257,190,490826,1,8,0:0:0:0:
257,190,490945,1,0,0:0:0:0:
251,180,491004,1,0,0:0:0:0:
250,190,491063,1,8,0:0:0:0:
250,190,491122,1,8,0:0:0:0:
250,190,491181,1,0,0:0:0:0:
250,190,491299,1,8,0:0:0:0:
243,186,491417,1,0,0:0:0:0:
247,180,491476,1,0,0:0:0:0:
252,186,491535,1,0,0:0:0:0:
244,186,491653,1,0,0:0:0:0:
244,186,491771,1,8,0:0:0:0:
240,196,491889,1,8,0:0:0:0:
250,189,492008,1,4,0:0:0:0:
218,178,492244,1,8,0:0:0:0:
184,193,492302,1,8,0:0:0:0:
233,182,492362,1,0,0:0:0:0:
270,188,492480,1,8,0:0:0:0:
215,199,492598,1,0,0:0:0:0:
232,196,492657,1,0,0:0:0:0:
270,188,492716,1,8,0:0:0:0:
318,210,492775,1,8,0:0:0:0:
250,189,492835,1,0,0:0:0:0:
251,200,492953,1,12,0:0:0:0:
255,195,493071,1,0,0:0:0:0:
255,212,493130,1,0,0:0:0:0:
255,195,493189,1,8,0:0:0:0:
237,201,493248,1,8,0:0:0:0:
255,195,493307,1,8,0:0:0:0:
263,197,493425,1,8,0:0:0:0:
263,197,493543,1,0,0:0:0:0:
263,197,493661,1,0,0:0:0:0:
261,196,493779,1,0,0:0:0:0:
265,214,493898,1,12,0:0:0:0:
267,201,494016,1,0,0:0:0:0:
271,216,494134,1,8,0:0:0:0:
271,216,494193,1,8,0:0:0:0:
271,216,494251,1,0,0:0:0:0:
271,216,494369,1,0,0:0:0:0:
277,228,494487,1,0,0:0:0:0:
275,219,494605,1,8,0:0:0:0:
267,219,494724,1,0,0:0:0:0:
271,216,494842,1,8,0:0:0:0:
271,216,494901,1,8,0:0:0:0:
271,216,494960,1,0,0:0:0:0:
271,216,495019,1,0,0:0:0:0:
271,216,495078,1,8,0:0:0:0:
270,224,495197,1,0,0:0:0:0:
270,224,495256,1,0,0:0:0:0:
270,224,495314,1,8,0:0:0:0:
263,224,495432,1,0,0:0:0:0:
263,224,495550,1,8,0:0:0:0:
263,224,495668,1,0,0:0:0:0:
261,226,495787,1,12,0:0:0:0:
253,210,496023,1,8,0:0:0:0:
254,210,496141,1,0,0:0:0:0:
254,210,496260,1,8,0:0:0:0:
243,208,496319,1,8,0:0:0:0:
254,210,496377,1,0,0:0:0:0:
263,224,496436,1,0,0:0:0:0:
254,210,496495,1,8,0:0:0:0:
250,223,496613,1,0,0:0:0:0:
245,213,496731,1,8,0:0:0:0:
245,213,496791,1,0,0:0:0:0:
245,213,496850,1,0,0:0:0:0:
254,210,496968,1,8,0:0:0:0:
254,219,497086,1,0,0:0:0:0:
254,219,497145,1,0,0:0:0:0:
254,219,497204,1,8,0:0:0:0:
254,219,497263,1,8,0:0:0:0:
254,219,497322,1,0,0:0:0:0:
255,224,497440,1,8,0:0:0:0:
255,224,497558,1,0,0:0:0:0:
255,224,497676,1,12,0:0:0:0:
254,219,497913,1,8,0:0:0:0:
254,219,498031,1,8,0:0:0:0:
254,219,498150,1,0,0:0:0:0:
332,234,498209,1,0,0:0:0:0:
257,216,498268,1,0,0:0:0:0:
257,216,498386,1,8,0:0:0:0:
257,216,498503,1,0,0:0:0:0:
254,219,498621,1,8,0:0:0:0:
271,219,498681,1,8,0:0:0:0:
254,219,498739,1,0,0:0:0:0:
254,219,498857,1,8,0:0:0:0:
254,219,498975,1,0,0:0:0:0:
257,216,499095,1,0,0:0:0:0:
257,216,499154,1,0,0:0:0:0:
257,216,499213,1,0,0:0:0:0:
257,216,499331,1,8,0:0:0:0:
274,228,499390,1,8,0:0:0:0:
257,216,499449,1,8,0:0:0:0:
254,219,499566,1,0,0:0:0:0:
254,219,499684,1,8,0:0:0:0:
248,211,499743,1,8,0:0:0:0:
254,219,499802,1,0,0:0:0:0:
257,216,499920,1,0,0:0:0:0:
257,216,500038,1,8,0:0:0:0:
257,216,500158,1,0,0:0:0:0:
257,216,500217,1,0,0:0:0:0:
257,216,500276,1,8,0:0:0:0:
254,219,500394,1,0,0:0:0:0:
254,219,500512,1,12,0:0:0:0:
229,207,500630,1,0,0:0:0:0:
229,207,500689,1,0,0:0:0:0:
252,219,500747,1,8,0:0:0:0:
254,211,500807,1,8,0:0:0:0:
252,219,500865,1,0,0:0:0:0:
252,219,500983,1,12,0:0:0:0:
295,207,501102,1,0,0:0:0:0:
249,212,501221,1,8,0:0:0:0:
249,212,501280,1,8,0:0:0:0:
249,212,501339,1,8,0:0:0:0:
249,212,501457,1,4,0:0:0:0:
222,188,501693,1,8,0:0:0:0:
243,206,501810,1,8,0:0:0:0:
243,206,501928,1,0,0:0:0:0:
343,256,501988,1,0,0:0:0:0:
243,206,502046,1,0,0:0:0:0:
243,206,502164,1,8,0:0:0:0:
272,216,502284,1,0,0:0:0:0:
272,216,502402,1,8,0:0:0:0:
272,216,502461,1,8,0:0:0:0:
272,216,502520,1,0,0:0:0:0:
281,216,502638,1,8,0:0:0:0:
281,216,502756,1,0,0:0:0:0:
272,216,502873,1,8,0:0:0:0:
272,216,502932,1,8,0:0:0:0:
272,216,502991,1,0,0:0:0:0:
272,216,503050,1,0,0:0:0:0:
272,216,503109,1,8,0:0:0:0:
285,230,503227,1,8,0:0:0:0:
281,230,503347,1,4,0:0:0:0:
279,229,503583,1,8,0:0:0:0:
288,233,503701,1,8,0:0:0:0:
288,233,503819,1,0,0:0:0:0:
293,231,503877,1,0,0:0:0:0:
288,233,503937,1,0,0:0:0:0:
288,233,504054,1,8,0:0:0:0:
266,185,504172,1,0,0:0:0:0:
266,185,504290,1,8,0:0:0:0:
266,185,504349,1,8,0:0:0:0:
266,185,504410,1,0,0:0:0:0:
258,185,504528,1,8,0:0:0:0:
258,185,504646,1,0,0:0:0:0:
258,185,504764,1,8,0:0:0:0:
256,182,504823,1,0,0:0:0:0:
256,182,504882,1,0,0:0:0:0:
256,182,504940,1,0,0:0:0:0:
256,182,504999,1,8,0:0:0:0:
256,182,505058,1,8,0:0:0:0:
256,182,505117,1,0,0:0:0:0:
255,185,505235,1,12,0:0:0:0:
245,190,505353,1,0,0:0:0:0:
258,175,505473,1,8,0:0:0:0:
258,175,505591,1,8,0:0:0:0:
248,175,505709,1,0,0:0:0:0:
248,175,505768,1,0,0:0:0:0:
248,175,505827,1,0,0:0:0:0:
257,190,505945,1,8,0:0:0:0:
257,190,506063,1,8,0:0:0:0:
250,190,506180,1,0,0:0:0:0:
250,190,506239,1,0,0:0:0:0:
250,190,506298,1,0,0:0:0:0:
250,190,506416,1,0,0:0:0:0:
243,186,506536,1,8,0:0:0:0:
156,203,506594,1,8,0:0:0:0:
243,186,506654,1,8,0:0:0:0:
243,186,506772,1,8,0:0:0:0:
243,186,506890,1,8,0:0:0:0:
240,196,507008,1,0,0:0:0:0:
250,189,507125,1,12,0:0:0:0:
280,208,508071,1,4,0:0:0:0:
228,167,508425,1,4,0:0:0:0:
267,208,508779,1,4,0:0:0:0:
274,208,509016,5,12,0:0:0:0:
276,209,509134,1,0,0:0:0:0:
276,209,509252,1,0,0:0:0:0:
276,209,509370,1,0,0:0:0:0:
276,209,509488,1,8,0:0:0:0:
276,209,509606,1,0,0:0:0:0:
274,208,509723,1,0,0:0:0:0:
274,208,509843,1,0,0:0:0:0:
276,209,509961,1,8,0:0:0:0:
276,209,510079,1,8,0:0:0:0:
276,209,510197,1,0,0:0:0:0:
276,209,510315,1,0,0:0:0:0:
276,209,510433,1,8,0:0:0:0:
274,208,510551,1,8,0:0:0:0:
274,208,510669,1,0,0:0:0:0:
276,209,510786,1,0,0:0:0:0:
283,204,510906,1,12,0:0:0:0:
283,204,511024,1,0,0:0:0:0:
283,204,511142,1,0,0:0:0:0:
283,204,511260,1,0,0:0:0:0:
283,204,511378,1,8,0:0:0:0:
283,204,511496,1,0,0:0:0:0:
283,204,511614,1,0,0:0:0:0:
283,204,511732,1,0,0:0:0:0:
283,204,511849,1,8,0:0:0:0:
283,204,511969,1,8,0:0:0:0:
283,204,512087,1,0,0:0:0:0:
283,204,512205,1,0,0:0:0:0:
283,204,512323,1,8,0:0:0:0:
283,204,512382,1,8,0:0:0:0:
283,204,512441,1,0,0:0:0:0:
283,204,512500,1,0,0:0:0:0:
283,204,512559,1,8,0:0:0:0:
286,200,512677,1,0,0:0:0:0:
286,200,512795,1,12,0:0:0:0:
64,64,513504,1,0,0:0:0:0:
207,183,514212,1,8,0:0:0:0:
250,196,514685,1,8,0:0:0:0:
250,196,514744,1,8,0:0:0:0:
250,196,514803,1,8,0:0:0:0:
250,196,514862,1,8,0:0:0:0:
250,196,514921,1,0,0:0:0:0:
250,196,514980,1,0,0:0:0:0:
250,196,515039,1,0,0:0:0:0:
250,196,515098,1,0,0:0:0:0:
250,196,515157,1,0,0:0:0:0:
250,196,515216,1,0,0:0:0:0:
250,196,515275,1,0,0:0:0:0:
250,196,515335,1,0,0:0:0:0:
250,196,515394,1,0,0:0:0:0:
250,196,515453,1,0,0:0:0:0:
250,196,515512,1,0,0:0:0:0:
250,196,515571,1,0,0:0:0:0:
256,195,515630,1,8,0:0:0:0:
256,195,515689,1,8,0:0:0:0:
256,195,515748,1,0,0:0:0:0:
256,195,515807,1,0,0:0:0:0:
256,195,515866,1,8,0:0:0:0:
256,195,515925,1,8,0:0:0:0:
256,195,515984,1,0,0:0:0:0:
256,195,516043,1,0,0:0:0:0:
257,191,516102,1,8,0:0:0:0:
257,191,516161,1,8,0:0:0:0:
257,191,516220,1,8,0:0:0:0:
257,191,516279,1,8,0:0:0:0:
257,191,516338,1,0,0:0:0:0:
257,191,516398,1,0,0:0:0:0:
256,195,516457,1,0,0:0:0:0:
256,195,516516,1,0,0:0:0:0:
249,190,516575,5,12,0:0:0:0:
183,203,516811,1,8,0:0:0:0:
250,196,516890,1,0,0:0:0:0:
250,196,516969,1,0,0:0:0:0:
250,196,517047,1,8,0:0:0:0:
237,191,517126,1,8,0:0:0:0:
237,191,517205,1,8,0:0:0:0:
237,191,517284,1,0,0:0:0:0:
237,190,517362,1,0,0:0:0:0:
237,190,517441,1,0,0:0:0:0:
237,190,517520,1,8,0:0:0:0:
236,188,517599,1,0,0:0:0:0:
264,196,517677,1,8,0:0:0:0:
239,195,517756,1,4,0:0:0:0:
237,191,517992,1,8,0:0:0:0:
248,186,518071,1,8,0:0:0:0:
278,206,518150,1,0,0:0:0:0:
261,180,518227,1,8,0:0:0:0:
258,194,518307,1,0,0:0:0:0:
258,194,518386,1,0,0:0:0:0:
258,194,518465,1,8,0:0:0:0:
258,194,518542,1,8,0:0:0:0:
258,194,518622,1,0,0:0:0:0:
258,194,518701,1,8,0:0:0:0:
258,194,518780,1,0,0:0:0:0:
258,194,518858,1,0,0:0:0:0:
269,193,518937,1,0,0:0:0:0:
269,193,519016,1,0,0:0:0:0:
269,193,519095,1,0,0:0:0:0:
269,193,519173,1,0,0:0:0:0:
269,193,519252,1,0,0:0:0:0:
269,193,519331,1,0,0:0:0:0:
269,193,519410,1,8,0:0:0:0:
258,194,519488,1,8,0:0:0:0:
258,194,519567,1,8,0:0:0:0:
258,194,519646,1,8,0:0:0:0:
258,194,519723,1,0,0:0:0:0:
254,195,519803,1,0,0:0:0:0:
254,195,519882,1,0,0:0:0:0:
254,195,519961,1,0,0:0:0:0:
254,195,520038,1,8,0:0:0:0:
254,195,520118,1,8,0:0:0:0:
254,195,520197,1,0,0:0:0:0:
254,195,520276,1,0,0:0:0:0:
258,194,520353,1,8,0:0:0:0:
259,199,520433,1,8,0:0:0:0:
259,199,520512,1,0,0:0:0:0:
259,199,520591,1,0,0:0:0:0:
259,199,520668,1,8,0:0:0:0:
253,207,520748,1,8,0:0:0:0:
253,207,520827,1,0,0:0:0:0:
253,207,520906,1,0,0:0:0:0:
253,207,520984,1,0,0:0:0:0:
261,207,521063,1,8,0:0:0:0:
448,64,521142,1,8,0:0:0:0:
64,64,521221,1,0,0:0:0:0:
448,64,521299,1,8,0:0:0:0:
64,64,521378,1,0,0:0:0:0:
260,208,521457,1,0,0:0:0:0:
260,208,521536,1,8,0:0:0:0:
64,64,521613,1,0,0:0:0:0:
266,204,521693,1,0,0:0:0:0:
266,204,521772,1,8,0:0:0:0:
266,204,521849,1,0,0:0:0:0:
261,207,521929,1,0,0:0:0:0:
273,208,522008,1,8,0:0:0:0:
260,208,522244,1,0,0:0:0:0:
276,203,522323,1,8,0:0:0:0:
276,203,522402,1,8,0:0:0:0:
286,213,522479,1,8,0:0:0:0:
255,207,522559,1,0,0:0:0:0:
255,207,522638,1,0,0:0:0:0:
255,207,522717,1,8,0:0:0:0:
261,207,522794,1,8,0:0:0:0:
260,208,522874,1,0,0:0:0:0:
260,208,522953,1,8,0:0:0:0:
260,208,523032,1,0,0:0:0:0:
260,208,523110,1,0,0:0:0:0:
260,208,523189,1,8,0:0:0:0:
264,196,523268,1,8,0:0:0:0:
264,196,523347,1,0,0:0:0:0:
264,196,523425,1,8,0:0:0:0:
264,196,523504,1,0,0:0:0:0:
264,196,523583,1,0,0:0:0:0:
264,191,523662,1,12,0:0:0:0:
267,188,523898,1,0,0:0:0:0:
307,203,523975,1,0,0:0:0:0:
307,203,524055,1,0,0:0:0:0:
264,196,524134,1,12,0:0:0:0:
323,210,524290,1,0,0:0:0:0:
269,190,524449,1,8,0:0:0:0:
264,191,524528,1,8,0:0:0:0:
267,188,524605,1,8,0:0:0:0:
272,199,524685,1,8,0:0:0:0:
272,199,524764,1,0,0:0:0:0:
272,199,524843,1,0,0:0:0:0:
264,196,524921,1,0,0:0:0:0:
264,196,525000,1,0,0:0:0:0:
263,194,525079,1,12,0:0:0:0:
274,191,525315,1,0,0:0:0:0:
275,191,525394,1,0,0:0:0:0:
275,191,525473,1,0,0:0:0:0:
275,191,525551,1,12,0:0:0:0:
275,191,525786,1,8,0:0:0:0:
275,191,525866,1,8,0:0:0:0:
275,191,525945,1,8,0:0:0:0:
274,191,526024,1,4,0:0:0:0:
272,178,526259,1,0,0:0:0:0:
253,185,526338,1,0,0:0:0:0:
232,179,526417,1,0,0:0:0:0:
270,176,526495,1,12,0:0:0:0:
270,176,526731,1,0,0:0:0:0:
270,176,526811,1,0,0:0:0:0:
270,176,526890,1,0,0:0:0:0:
268,173,526969,1,8,0:0:0:0:
268,173,527047,1,8,0:0:0:0:
268,173,527126,1,8,0:0:0:0:
270,176,527205,1,8,0:0:0:0:
270,176,527284,1,8,0:0:0:0:
270,176,527362,1,8,0:0:0:0:
270,176,527441,1,8,0:0:0:0:
270,176,527520,1,8,0:0:0:0:
270,176,527599,1,8,0:0:0:0:
270,176,527677,1,8,0:0:0:0:
270,176,527756,1,8,0:0:0:0:
268,173,527835,1,8,0:0:0:0:
268,173,527913,1,4,0:0:0:0:
256,192,527973,12,0,551536,0:0:0:0:
