osu file format v14

[General]
AudioFilename: audio.ogg
AudioLeadIn: 0
PreviewTime: 307797
Countdown: 0
SampleSet: Normal
StackLeniency: 0.7
Mode: 1
LetterboxInBreaks: 0
WidescreenStoryboard: 0

[Editor]
DistanceSpacing: 1.4
BeatDivisor: 4
GridSize: 32
TimelineZoom: 3.599999

[Metadata]
Title:I.F.
TitleUnicode:I.F.
Artist:Release Hallucination
ArtistUnicode:Release Hallucination
Creator:skolodojko
Version:Inner Oni
Source:
Tags:Imperfection of Imaginary Number Kaoru Hirato emi progressive symphonic metal japanese featured artist fa j-metal jmetal heavy ANIMA
BeatmapID:3320720
BeatmapSetID:1626585

[Difficulty]
HPDrainRate:5
CircleSize:2
OverallDifficulty:7
ApproachRate:10
SliderMultiplier:1.4
SliderTickRate:1

[Events]
//Background and Video events
0,0,"aaaa.jpg",0,60
//Break Periods
2,308961,317138
//Storyboard Layer 0 (Background)
//Storyboard Layer 1 (Fail)
//Storyboard Layer 2 (Pass)
//Storyboard Layer 3 (Foreground)
//Storyboard Layer 4 (Overlay)
//Storyboard Sound Samples

[TimingPoints]
1320,272.727272727273,4,1,0,10,1,0
1320,-125,4,1,0,10,0,0
19251,-100,4,1,0,80,0,0
19865,-95.2380952380952,4,1,0,80,0,0
20888,-100,4,1,0,90,0,0
38001,-102.040816326531,4,1,0,90,0,0
38138,-104.166666666667,4,1,0,90,0,0
38410,-106.382978723404,4,1,0,90,0,0
42229,-105.263157894737,4,1,0,90,0,0
42297,-104.166666666667,4,1,0,90,0,0
42365,-103.092783505155,4,1,0,90,0,0
42433,-102.040816326531,4,1,0,90,0,0
42501,-101.010101010101,4,1,0,90,0,0
42570,-100,4,1,0,90,0,0
42638,-99.009900990099,4,1,0,90,0,0
42706,-98.0392156862745,4,1,0,90,0,0
42774,-97.0873786407767,4,1,0,90,0,0
42910,-106.382978723404,4,1,0,90,0,0
46592,-105.263157894737,4,1,0,90,0,0
46660,-104.166666666667,4,1,0,90,0,0
46729,-103.092783505155,4,1,0,90,0,0
46797,-102.040816326531,4,1,0,90,0,0
46865,-101.010101010101,4,1,0,90,0,0
46933,-100,4,1,0,90,0,0
47001,-99.009900990099,4,1,0,90,0,0
47070,-98.0392156862745,4,1,0,90,0,0
47138,-97.0873786407767,4,1,0,90,0,0
47274,-106.382978723404,4,1,0,90,0,0
50956,-105.263157894737,4,1,0,90,0,0
51024,-104.166666666667,4,1,0,90,0,0
51092,-103.092783505155,4,1,0,90,0,0
51160,-102.040816326531,4,1,0,90,0,0
51229,-101.010101010101,4,1,0,90,0,0
51297,-100,4,1,0,90,0,0
51365,-99.009900990099,4,1,0,90,0,0
51433,-98.0392156862745,4,1,0,90,0,0
51501,-97.0873786407767,4,1,0,90,0,0
51638,-106.382978723404,4,1,0,90,0,0
54842,-105.263157894737,4,1,0,90,0,0
54910,-104.166666666667,4,1,0,90,0,0
54979,-103.092783505155,4,1,0,90,0,0
55047,-102.040816326531,4,1,0,90,0,0
55115,-101.010101010101,4,1,0,90,0,0
55183,-100,4,1,0,90,0,0
55251,-99.009900990099,4,1,0,90,0,0
55320,-98.0392156862745,4,1,0,90,0,0
55388,-97.0873786407767,4,1,0,90,0,0
55456,-96.153846153846,4,1,0,90,0,0
55524,-95.2380952380952,4,1,0,90,0,0
55592,-94.3396226415094,4,1,0,90,0,0
55797,-90.9090909090909,4,1,0,100,0,0
72865,-93.4579439252336,4,1,0,100,0,0
72956,-96.1538461538461,4,1,0,100,0,0
73047,-99.009900990099,4,1,0,100,0,0
73138,-102.040816326531,4,1,0,100,0,0
73229,-105.263157894737,4,1,0,100,0,0
73320,-107.52688172043,4,1,0,100,0,0
73502,-107.52688172043,4,1,0,80,0,0
89683,-106.100795755968,4,1,0,80,0,0
89956,-104.712041884817,4,1,0,80,0,0
90229,-103.359173126615,4,1,0,80,0,0
90501,-102.040816326531,4,1,0,80,0,0
90706,-100,4,1,0,90,0,0
94592,-99.009900990099,4,1,0,90,0,0
94660,-98.0392156862745,4,1,0,90,0,0
94729,-97.0873786407767,4,1,0,90,0,0
94797,-96.1538461538461,4,1,0,90,0,0
94865,-95.2380952380952,4,1,0,90,0,0
94933,-94.3396226415094,4,1,0,90,0,0
95001,-93.4579439252336,4,1,0,90,0,0
95070,-92.5925925925926,4,1,0,90,0,0
95138,-91.743119266055,4,1,0,90,0,0
99433,-91.743119266055,4,1,0,100,0,0
99501,-90.9090909090909,4,1,0,100,0,1
133956,-92.5925925925926,4,1,0,100,0,1
134047,-94.3396226415094,4,1,0,100,0,1
134138,-96.1538461538461,4,1,0,100,0,1
134229,-98.0392156862745,4,1,0,100,0,1
134320,-100,4,1,0,100,0,1
134410,-102.040816326531,4,1,0,100,0,0
134592,-101.892285298399,4,1,0,90,0,0
137751,-101.744186046512,4,1,0,90,0,0
137820,-101.596516690856,4,1,0,90,0,0
137888,-101.449275362319,4,1,0,90,0,0
137956,-101.302460202605,4,1,0,90,0,0
138024,-101.156069364162,4,1,0,90,0,0
138092,-101.010101010101,4,1,0,90,0,0
138160,-100.864553314121,4,1,0,90,0,0
138229,-100.719424460432,4,1,0,90,0,0
138297,-100.574712643678,4,1,0,90,0,0
138365,-100.430416068867,4,1,0,90,0,0
138433,-100.286532951289,4,1,0,90,0,0
138501,-100.143061516452,4,1,0,90,0,0
138638,-100,4,1,0,90,0,0
138774,-100,4,1,0,90,0,0
156195,-90.9090909090909,4,1,0,100,0,0
173229,-93.4579439252336,4,1,0,100,0,0
173320,-96.1538461538461,4,1,0,100,0,0
173410,-99.009900990099,4,1,0,100,0,0
173501,-102.040816326531,4,1,0,100,0,0
173592,-105.263157894737,4,1,0,100,0,0
173683,-107.52688172043,4,1,0,100,0,0
173885,-107.52688172043,4,1,0,90,0,0
190047,-106.100795755968,4,1,0,90,0,0
190320,-104.712041884817,4,1,0,90,0,0
190592,-103.359173126615,4,1,0,90,0,0
190865,-102.040816326531,4,1,0,90,0,0
191138,-100,4,1,0,90,0,0
194956,-99.009900990099,4,1,0,90,0,0
195024,-98.0392156862745,4,1,0,90,0,0
195092,-97.0873786407767,4,1,0,90,0,0
195160,-96.1538461538461,4,1,0,90,0,0
195229,-95.2380952380952,4,1,0,90,0,0
195297,-94.3396226415094,4,1,0,90,0,0
195365,-93.4579439252336,4,1,0,90,0,0
195433,-92.5925925925926,4,1,0,90,0,0
195501,-91.743119266055,4,1,0,90,0,0
199797,-91.743119266055,4,1,0,100,0,0
199865,-90.9090909090909,4,1,0,100,0,1
234774,-90.9090909090909,4,1,0,100,0,0
234910,-93.7558597412338,4,1,0,90,0,0
235320,-96.774505724212,4,1,0,90,0,0
235592,-100,4,1,0,90,0,0
238115,-99.009900990099,4,1,0,90,0,0
238183,-98.0392156862745,4,1,0,90,0,0
238251,-97.0873786407767,4,1,0,90,0,0
238320,-96.1538461538461,4,1,0,90,0,0
238388,-95.2380952380952,4,1,0,90,0,0
238456,-94.3396226415094,4,1,0,90,0,0
238524,-93.4579439252336,4,1,0,90,0,0
238592,-92.5925925925926,4,1,0,90,0,0
238660,-91.743119266055,4,1,0,90,0,0
238729,-90.9090909090909,4,1,0,90,0,0
238797,-90.0900900900901,4,1,0,90,0,0
238865,-89.2857142857143,4,1,0,90,0,0
238933,-88.4955752212389,4,1,0,90,0,0
239001,-87.719298245614,4,1,0,90,0,0
239070,-86.9565217391304,4,1,0,90,0,0
239138,-86.2068965517241,4,1,0,90,0,0
239274,-100,4,1,0,90,0,0
259865,-94.3396226415094,4,1,0,90,0,0
259956,-94.7867298578199,4,1,0,90,0,0
260047,-95.2380952380952,4,1,0,90,0,0
260138,-95.6937799043062,4,1,0,90,0,0
260229,-96.1538461538461,4,1,0,90,0,0
260320,-96.6183574879227,4,1,0,90,0,0
260410,-97.0873786407767,4,1,0,90,0,0
260501,-97.5609756097561,4,1,0,90,0,0
260592,-98.0392156862745,4,1,0,90,0,0
260683,-98.5221674876847,4,1,0,90,0,0
260774,-99.009900990099,4,1,0,90,0,0
260865,-99.502487562189,4,1,0,90,0,0
260956,-100,4,1,0,90,0,0
261956,-99.502487562189,4,1,0,90,0,0
262047,-99.009900990099,4,1,0,90,0,0
262138,-98.5221674876847,4,1,0,90,0,0
262229,-98.0392156862745,4,1,0,90,0,0
262320,-97.5609756097561,4,1,0,90,0,0
262410,-97.0873786407767,4,1,0,90,0,0
262501,-96.6183574879227,4,1,0,90,0,0
262592,-96.1538461538461,4,1,0,90,0,0
262683,-95.6937799043062,4,1,0,90,0,0
262774,-95.2380952380952,4,1,0,90,0,0
262865,-94.7867298578199,4,1,0,90,0,0
262956,-94.3396226415094,4,1,0,90,0,0
263047,-93.8967136150235,4,1,0,90,0,0
263138,-93.4579439252336,4,1,0,90,0,0
263229,-100,4,1,0,90,0,0
263342,-99.502487562189,4,1,0,90,0,0
263410,-99.009900990099,4,1,0,90,0,0
263501,-98.5221674876847,4,1,0,90,0,0
263592,-98.0392156862745,4,1,0,90,0,0
263683,-97.5609756097561,4,1,0,90,0,0
263774,-97.0873786407767,4,1,0,90,0,0
263865,-96.6183574879227,4,1,0,90,0,0
263956,-96.1538461538461,4,1,0,90,0,0
264047,-95.6937799043062,4,1,0,90,0,0
264138,-95.2380952380952,4,1,0,90,0,0
264229,-94.7867298578199,4,1,0,90,0,0
264320,-95.2380952380952,4,1,0,90,0,0
264410,-95.6937799043062,4,1,0,90,0,0
264501,-96.1538461538461,4,1,0,90,0,0
264592,-96.6183574879227,4,1,0,90,0,0
264683,-97.0873786407767,4,1,0,90,0,0
264774,-97.5609756097561,4,1,0,90,0,0
264842,-98.0392156862745,4,1,0,90,0,0
264910,-98.5221674876847,4,1,0,90,0,0
264979,-99.009900990099,4,1,0,90,0,0
265047,-99.502487562189,4,1,0,90,0,0
265183,-100,4,1,0,90,0,0
265388,-99.502487562189,4,1,0,90,0,0
265456,-99.009900990099,4,1,0,90,0,0
265524,-98.5221674876847,4,1,0,90,0,0
265592,-98.0392156862745,4,1,0,90,0,0
265660,-97.5609756097561,4,1,0,90,0,0
265729,-97.0873786407767,4,1,0,90,0,0
265797,-96.6183574879227,4,1,0,90,0,0
265865,-96.1538461538461,4,1,0,90,0,0
265933,-95.6937799043062,4,1,0,90,0,0
266001,-95.2380952380952,4,1,0,90,0,0
266070,-94.7867298578199,4,1,0,90,0,0
266138,-94.3396226415094,4,1,0,90,0,0
266206,-93.8967136150235,4,1,0,90,0,0
266274,-93.4579439252336,4,1,0,90,0,0
266342,-93.0232558139535,4,1,0,90,0,0
266410,-92.5925925925926,4,1,0,90,0,0
266479,-93.4579439252336,4,1,0,90,0,0
266501,-94.3396226415094,4,1,0,90,0,0
266592,-95.2380952380952,4,1,0,90,0,0
266683,-96.1538461538461,4,1,0,90,0,0
266774,-97.0873786407767,4,1,0,90,0,0
266865,-98.0392156862745,4,1,0,90,0,0
266956,-99.009900990099,4,1,0,90,0,0
267138,-100,4,1,0,90,0,0
270160,-99.502487562189,4,1,0,90,0,0
270229,-99.009900990099,4,1,0,90,0,0
270320,-98.5221674876847,4,1,0,90,0,0
270410,-98.0392156862745,4,1,0,90,0,0
270501,-97.5609756097561,4,1,0,90,0,0
270592,-97.0873786407767,4,1,0,90,0,0
270683,-96.6183574879227,4,1,0,90,0,0
270774,-96.1538461538461,4,1,0,90,0,0
270842,-95.6937799043062,4,1,0,90,0,0
270910,-95.2380952380952,4,1,0,90,0,0
270979,-94.7867298578199,4,1,0,90,0,0
271047,-94.3396226415094,4,1,0,90,0,0
271115,-93.8967136150235,4,1,0,90,0,0
271183,-93.4579439252336,4,1,0,90,0,0
271251,-93.0232558139535,4,1,0,90,0,0
271320,-92.5925925925926,4,1,0,90,0,0
271388,-92.1658986175115,4,1,0,90,0,0
271456,-91.743119266055,4,1,0,90,0,0
271524,-91.324200913242,4,1,0,90,0,0
271592,-91.743119266055,4,1,0,90,0,0
271683,-92.5925925925926,4,1,0,90,0,0
271774,-93.4579439252336,4,1,0,90,0,0
271865,-94.3396226415094,4,1,0,90,0,0
271956,-100,4,1,0,90,0,0
272138,-99.502487562189,4,1,0,90,0,0
272229,-99.009900990099,4,1,0,90,0,0
272320,-98.5221674876847,4,1,0,90,0,0
272410,-98.0392156862745,4,1,0,90,0,0
272479,-97.5609756097561,4,1,0,90,0,0
272547,-97.0873786407767,4,1,0,90,0,0
272615,-96.6183574879227,4,1,0,90,0,0
272683,-96.1538461538461,4,1,0,90,0,0
272751,-95.6937799043062,4,1,0,90,0,0
272820,-95.2380952380952,4,1,0,90,0,0
272888,-94.7867298578199,4,1,0,90,0,0
272956,-94.3396226415094,4,1,0,90,0,0
273024,-93.8967136150235,4,1,0,90,0,0
273092,-93.4579439252336,4,1,0,90,0,0
273160,-93.0232558139535,4,1,0,90,0,0
273229,-92.5925925925926,4,1,0,90,0,0
273297,-92.1658986175115,4,1,0,90,0,0
273365,-91.743119266055,4,1,0,90,0,0
273433,-91.324200913242,4,1,0,90,0,0
273501,-90.9090909090909,4,1,0,90,0,0
273570,-90.4977375565611,4,1,0,90,0,0
273638,-90.0900900900901,4,1,0,90,0,0
273706,-89.6860986547085,4,1,0,90,0,0
273774,-89.2857142857143,4,1,0,90,0,0
273979,-98.0392156862745,4,1,0,100,0,0
274183,-97.0873786407767,4,1,0,100,0,0
274251,-96.6183574879227,4,1,0,100,0,0
274320,-96.1538461538461,4,1,0,100,0,0
280592,-86.2068965517241,4,1,0,100,0,0
280683,-86.5800865800866,4,1,0,100,0,0
280774,-86.9565217391304,4,1,0,100,0,0
280865,-87.3362445414847,4,1,0,100,0,0
280956,-87.719298245614,4,1,0,100,0,0
281047,-88.1057268722467,4,1,0,100,0,0
281138,-88.4955752212389,4,1,0,100,0,0
281229,-88.8888888888889,4,1,0,100,0,0
281320,-89.2857142857143,4,1,0,100,0,0
281410,-89.6860986547085,4,1,0,100,0,0
281501,-90.0900900900901,4,1,0,100,0,0
281592,-90.4977375565611,4,1,0,100,0,0
281683,-90.9090909090909,4,1,0,100,0,0
281774,-91.324200913242,4,1,0,100,0,0
281865,-91.743119266055,4,1,0,100,0,0
281956,-92.1658986175115,4,1,0,100,0,0
282047,-92.5925925925926,4,1,0,100,0,0
282138,-93.0232558139535,4,1,0,100,0,0
282229,-93.4579439252336,4,1,0,100,0,0
282320,-93.8967136150235,4,1,0,100,0,0
282410,-94.3396226415094,4,1,0,100,0,0
282501,-94.7867298578199,4,1,0,100,0,0
282592,-95.2380952380952,4,1,0,100,0,0
282683,-95.6937799043062,4,1,0,100,0,0
282774,-96.1538461538461,4,1,0,100,0,0
290956,-96.6183574879227,4,1,0,100,0,0
291047,-97.0873786407767,4,1,0,100,0,0
291138,-97.5609756097561,4,1,0,100,0,0
291229,-98.0392156862745,4,1,0,100,0,0
291320,-98.5221674876847,4,1,0,100,0,0
291410,-99.009900990099,4,1,0,100,0,0
291501,-99.502487562189,4,1,0,100,0,0
291774,-100,4,1,0,100,0,0
298047,-99.009900990099,4,1,0,100,0,0
298115,-98.0392156862745,4,1,0,100,0,0
298183,-97.0873786407767,4,1,0,100,0,0
298251,-96.1538461538461,4,1,0,100,0,0
298320,-95.2380952380952,4,1,0,100,0,0
298388,-94.3396226415094,4,1,0,100,0,0
298456,-93.4579439252336,4,1,0,100,0,0
298524,-92.5925925925926,4,1,0,100,0,0
298592,-91.743119266055,4,1,0,100,0,0
298660,-90.9090909090909,4,1,0,100,0,0
298729,-90.0900900900901,4,1,0,100,0,0
298797,-89.2857142857143,4,1,0,100,0,0
298865,-88.4955752212389,4,1,0,100,0,0
298933,-87.719298245614,4,1,0,100,0,0
299001,-86.9565217391304,4,1,0,100,0,0
299070,-86.2068965517241,4,1,0,100,0,0
299138,-85.6898029134533,4,1,0,100,0,0
299183,-86.9565217391304,4,1,0,100,0,0
299229,-88.4955752212389,4,1,0,100,0,0
299274,-90.0900900900901,4,1,0,100,0,0
299410,-92.5925925925926,4,1,0,100,0,0
299547,-95.2380952380952,4,1,0,100,0,0
299820,-108.695652173913,4,1,0,100,0,0
300160,-113.636363636364,4,1,0,80,0,0
307456,-111.111111111111,4,1,0,80,0,0
307592,-108.695652173913,4,1,0,80,0,0
307797,-106.382978723404,4,1,0,80,0,0
308001,-113.636363636364,4,1,0,80,0,0
322047,-112.359550561798,4,1,0,80,0,0
322320,-111.111111111111,4,1,0,80,0,0
322592,-109.89010989011,4,1,0,80,0,0
322865,-108.695652173913,4,1,0,80,0,0
323138,-107.52688172043,4,1,0,80,0,0
323410,-106.382978723404,4,1,0,80,0,0
323683,-105.263157894737,4,1,0,80,0,0
323956,-104.166666666667,4,1,0,80,0,0
324229,-103.092783505155,4,1,0,80,0,0
325320,-102.564102564103,4,1,0,80,0,0
325388,-102.040816326531,4,1,0,80,0,0
325456,-101.522842639594,4,1,0,80,0,0
325524,-101.010101010101,4,1,0,80,0,0
325592,-100.502512562814,4,1,0,80,0,0
325660,-100,4,1,0,80,0,0
325729,-99.502487562189,4,1,0,80,0,0
325797,-99.009900990099,4,1,0,80,0,0
325865,-98.5221674876847,4,1,0,80,0,0
325933,-98.0392156862745,4,1,0,80,0,0
326001,-97.5609756097561,4,1,0,80,0,0
326070,-97.0873786407767,4,1,0,80,0,0
326138,-96.153846153846,4,1,0,80,0,0
326274,-93.4579439252339,4,1,0,80,0,0
326410,-90.9090909090909,4,1,0,100,0,1
358683,-92.5925925925926,4,1,0,100,0,1
358774,-94.3396226415094,4,1,0,100,0,1
358865,-96.1538461538461,4,1,0,100,0,1
358956,-98.0392156862745,4,1,0,100,0,1
359047,-100,4,1,0,100,0,1
359138,-102.040816326531,4,1,0,100,0,0
359410,-101.892285298399,4,1,0,80,0,0
364660,-101.744186046512,4,1,0,80,0,0
364729,-101.596516690856,4,1,0,80,0,0
364797,-101.449275362319,4,1,0,80,0,0
364865,-101.302460202605,4,1,0,80,0,0
364933,-101.156069364162,4,1,0,80,0,0
365001,-101.010101010101,4,1,0,80,0,0
365070,-100.864553314121,4,1,0,80,0,0
365138,-100.719424460432,4,1,0,80,0,0
365206,-100.574712643678,4,1,0,80,0,0
365274,-100.430416068867,4,1,0,80,0,0
365342,-100.286532951289,4,1,0,80,0,0
365410,-100.143061516452,4,1,0,80,0,0
365547,-100,4,1,0,80,0,0
365653,-100,4,1,0,90,0,0
400677,-50,4,1,0,60,0,0
400865,-125,4,1,0,60,0,0

[HitObjects]
272,240,19320,5,8,0:0:0:0:
192,234,19865,1,8,0:0:0:0:
354,222,19933,1,8,0:0:0:0:
354,222,20001,1,8,0:0:0:0:
354,222,20070,1,8,0:0:0:0:
354,222,20138,1,0,0:0:0:0:
354,222,20206,1,0,0:0:0:0:
354,222,20274,1,8,0:0:0:0:
354,222,20342,1,0,0:0:0:0:
354,222,20410,1,8,0:0:0:0:
354,222,20479,1,8,0:0:0:0:
354,222,20547,1,0,0:0:0:0:
354,222,20615,1,0,0:0:0:0:
260,194,20683,1,8,0:0:0:0:
264,183,20956,1,8,0:0:0:0:
163,210,21024,1,8,0:0:0:0:
200,216,21092,1,8,0:0:0:0:
200,216,21229,1,0,0:0:0:0:
200,216,21365,1,8,0:0:0:0:
197,224,21433,1,8,0:0:0:0:
200,216,21501,1,0,0:0:0:0:
207,216,21638,1,8,0:0:0:0:
207,216,21774,1,0,0:0:0:0:
206,223,21842,1,0,0:0:0:0:
196,224,21910,1,0,0:0:0:0:
212,215,22047,1,8,0:0:0:0:
212,215,22183,1,0,0:0:0:0:
214,180,22251,1,0,0:0:0:0:
212,215,22320,1,8,0:0:0:0:
217,215,22456,1,0,0:0:0:0:
217,215,22592,1,8,0:0:0:0:
195,214,22729,1,8,0:0:0:0:
195,214,22865,1,0,0:0:0:0:
195,214,23001,1,0,0:0:0:0:
195,214,23138,1,8,0:0:0:0:
291,98,23206,1,8,0:0:0:0:
195,214,23274,1,8,0:0:0:0:
195,214,23410,1,0,0:0:0:0:
194,214,23547,1,8,0:0:0:0:
234,164,23615,1,8,0:0:0:0:
230,178,23683,1,0,0:0:0:0:
195,214,23820,1,0,0:0:0:0:
195,214,23956,1,8,0:0:0:0:
229,171,24024,1,0,0:0:0:0:
195,214,24092,1,8,0:0:0:0:
195,214,24229,1,0,0:0:0:0:
195,214,24365,1,0,0:0:0:0:
203,178,24433,1,0,0:0:0:0:
229,176,24501,1,8,0:0:0:0:
195,214,24638,1,0,0:0:0:0:
195,214,24774,1,8,0:0:0:0:
195,214,24910,1,0,0:0:0:0:
195,214,25047,1,8,0:0:0:0:
195,214,25183,1,8,0:0:0:0:
195,214,25320,1,0,0:0:0:0:
182,92,25388,1,0,0:0:0:0:
194,214,25456,1,0,0:0:0:0:
195,214,25592,1,8,0:0:0:0:
195,214,25729,1,0,0:0:0:0:
199,183,25797,1,0,0:0:0:0:
195,214,25865,1,8,0:0:0:0:
195,214,26001,1,0,0:0:0:0:
195,214,26138,1,8,0:0:0:0:
199,183,26206,1,8,0:0:0:0:
195,214,26274,1,0,0:0:0:0:
194,214,26410,1,0,0:0:0:0:
195,214,26547,1,8,0:0:0:0:
201,183,26615,1,8,0:0:0:0:
195,214,26683,1,8,0:0:0:0:
195,214,26820,1,0,0:0:0:0:
195,214,26956,1,8,0:0:0:0:
195,214,27092,1,0,0:0:0:0:
195,214,27229,1,8,0:0:0:0:
194,214,27365,1,8,0:0:0:0:
167,175,27501,1,0,0:0:0:0:
172,169,27570,1,0,0:0:0:0:
195,214,27638,1,8,0:0:0:0:
195,214,27774,1,0,0:0:0:0:
195,214,27910,1,8,0:0:0:0:
199,185,27979,1,8,0:0:0:0:
195,214,28047,1,0,0:0:0:0:
195,214,28183,1,0,0:0:0:0:
194,214,28320,1,8,0:0:0:0:
197,186,28388,1,8,0:0:0:0:
194,214,28456,1,8,0:0:0:0:
195,214,28592,1,0,0:0:0:0:
195,214,28729,1,0,0:0:0:0:
194,190,28797,1,0,0:0:0:0:
195,214,28865,1,8,0:0:0:0:
195,214,29001,1,0,0:0:0:0:
195,214,29138,1,8,0:0:0:0:
194,214,29274,1,8,0:0:0:0:
194,214,29410,1,0,0:0:0:0:
195,214,29547,1,0,0:0:0:0:
264,183,29683,1,8,0:0:0:0:
196,183,29751,1,8,0:0:0:0:
197,183,29820,1,8,0:0:0:0:
200,216,29956,1,0,0:0:0:0:
200,216,30092,1,8,0:0:0:0:
197,224,30160,1,8,0:0:0:0:
200,216,30229,1,0,0:0:0:0:
207,216,30365,1,8,0:0:0:0:
207,216,30501,1,0,0:0:0:0:
206,223,30570,1,0,0:0:0:0:
196,224,30638,1,0,0:0:0:0:
212,215,30774,1,8,0:0:0:0:
212,215,30910,1,0,0:0:0:0:
214,180,30979,1,0,0:0:0:0:
212,215,31047,1,8,0:0:0:0:
217,215,31183,1,0,0:0:0:0:
217,215,31320,1,8,0:0:0:0:
195,214,31456,1,8,0:0:0:0:
195,214,31592,1,0,0:0:0:0:
195,214,31729,1,0,0:0:0:0:
195,214,31865,1,8,0:0:0:0:
243,137,31933,1,0,0:0:0:0:
195,214,32001,1,8,0:0:0:0:
195,214,32138,1,0,0:0:0:0:
194,214,32274,1,8,0:0:0:0:
234,164,32342,1,8,0:0:0:0:
230,178,32410,1,0,0:0:0:0:
195,214,32547,1,0,0:0:0:0:
195,214,32683,1,8,0:0:0:0:
229,171,32751,1,8,0:0:0:0:
195,214,32820,1,8,0:0:0:0:
195,214,32956,1,0,0:0:0:0:
195,214,33092,1,0,0:0:0:0:
203,178,33160,1,0,0:0:0:0:
229,176,33229,1,8,0:0:0:0:
195,214,33365,1,0,0:0:0:0:
195,214,33501,1,8,0:0:0:0:
195,214,33638,1,0,0:0:0:0:
195,214,33774,1,8,0:0:0:0:
195,214,33910,1,0,0:0:0:0:
195,214,34047,1,8,0:0:0:0:
198,134,34115,1,8,0:0:0:0:
194,214,34183,1,8,0:0:0:0:
195,214,34320,1,0,0:0:0:0:
195,214,34456,1,0,0:0:0:0:
199,183,34524,1,0,0:0:0:0:
195,214,34592,1,8,0:0:0:0:
195,214,34729,1,0,0:0:0:0:
195,214,34865,1,8,0:0:0:0:
199,183,34933,1,8,0:0:0:0:
195,214,35001,1,0,0:0:0:0:
194,214,35138,1,8,0:0:0:0:
296,167,35206,1,8,0:0:0:0:
195,214,35274,1,0,0:0:0:0:
201,183,35342,1,0,0:0:0:0:
195,214,35410,1,8,0:0:0:0:
195,214,35547,1,0,0:0:0:0:
195,214,35683,1,8,0:0:0:0:
195,214,35820,1,0,0:0:0:0:
195,214,35956,1,8,0:0:0:0:
194,214,36092,1,0,0:0:0:0:
195,214,36229,1,8,0:0:0:0:
212,172,36297,1,8,0:0:0:0:
195,214,36365,1,0,0:0:0:0:
195,214,36501,1,0,0:0:0:0:
195,214,36638,1,8,0:0:0:0:
199,185,36706,1,8,0:0:0:0:
195,214,36774,1,8,0:0:0:0:
195,214,36910,1,0,0:0:0:0:
194,214,37047,1,8,0:0:0:0:
197,186,37115,1,0,0:0:0:0:
194,214,37183,1,0,0:0:0:0:
195,214,37320,1,8,0:0:0:0:
195,214,37456,1,8,0:0:0:0:
195,214,37592,1,0,0:0:0:0:
195,214,37729,1,0,0:0:0:0:
195,214,37865,1,8,0:0:0:0:
194,214,38047,1,8,0:0:0:0:
194,214,38229,1,8,0:0:0:0:
195,214,38410,1,0,0:0:0:0:
256,198,38547,1,0,0:0:0:0:
256,198,38683,1,0,0:0:0:0:
236,247,38956,5,8,0:0:0:0:
175,255,39229,1,0,0:0:0:0:
175,255,39365,1,0,0:0:0:0:
175,255,39501,1,8,0:0:0:0:
308,238,39638,1,0,0:0:0:0:
308,238,39774,1,0,0:0:0:0:
228,177,40047,1,0,0:0:0:0:
228,177,40183,1,0,0:0:0:0:
228,177,40320,1,0,0:0:0:0:
228,177,40456,1,0,0:0:0:0:
232,104,40592,1,8,0:0:0:0:
230,183,40729,1,0,0:0:0:0:
230,183,40865,1,0,0:0:0:0:
231,186,41138,1,8,0:0:0:0:
229,197,41410,1,0,0:0:0:0:
225,203,41547,1,0,0:0:0:0:
224,203,41683,1,8,0:0:0:0:
218,211,41820,1,0,0:0:0:0:
218,211,41956,1,0,0:0:0:0:
211,218,42229,1,8,0:0:0:0:
301,192,42297,1,8,0:0:0:0:
301,192,42365,1,8,0:0:0:0:
301,192,42433,1,8,0:0:0:0:
301,192,42501,1,0,0:0:0:0:
301,192,42570,1,0,0:0:0:0:
301,192,42638,1,8,0:0:0:0:
301,192,42706,1,8,0:0:0:0:
211,216,42774,1,0,0:0:0:0:
231,204,42910,1,0,0:0:0:0:
233,204,43047,1,0,0:0:0:0:
234,207,43320,1,8,0:0:0:0:
237,215,43592,1,0,0:0:0:0:
143,243,43729,1,0,0:0:0:0:
170,241,43865,1,8,0:0:0:0:
169,244,44001,1,0,0:0:0:0:
170,243,44138,1,0,0:0:0:0:
190,193,44410,1,0,0:0:0:0:
185,227,44547,1,0,0:0:0:0:
185,227,44683,1,0,0:0:0:0:
185,227,44820,1,0,0:0:0:0:
185,227,44956,1,8,0:0:0:0:
190,232,45092,1,0,0:0:0:0:
185,227,45229,1,0,0:0:0:0:
156,211,45501,1,8,0:0:0:0:
150,224,45774,1,0,0:0:0:0:
150,224,45910,1,0,0:0:0:0:
149,229,46047,1,8,0:0:0:0:
149,229,46183,1,0,0:0:0:0:
145,237,46320,1,0,0:0:0:0:
145,237,46592,1,8,0:0:0:0:
240,292,46660,1,8,0:0:0:0:
240,292,46729,1,8,0:0:0:0:
240,292,46797,1,8,0:0:0:0:
240,292,46865,1,0,0:0:0:0:
240,292,46933,1,0,0:0:0:0:
240,292,47001,1,8,0:0:0:0:
240,292,47070,1,8,0:0:0:0:
145,237,47138,1,0,0:0:0:0:
257,217,47274,1,0,0:0:0:0:
257,217,47410,1,0,0:0:0:0:
229,220,47683,1,8,0:0:0:0:
220,229,47956,1,0,0:0:0:0:
220,229,48092,1,0,0:0:0:0:
219,232,48229,1,8,0:0:0:0:
219,232,48365,1,0,0:0:0:0:
219,232,48501,1,0,0:0:0:0:
220,229,48774,1,0,0:0:0:0:
220,229,48910,1,0,0:0:0:0:
219,232,49047,1,0,0:0:0:0:
219,232,49183,1,0,0:0:0:0:
219,232,49320,1,8,0:0:0:0:
220,229,49456,1,0,0:0:0:0:
220,229,49592,1,0,0:0:0:0:
219,232,49865,1,8,0:0:0:0:
220,239,50138,1,0,0:0:0:0:
220,239,50274,1,0,0:0:0:0:
220,239,50410,1,8,0:0:0:0:
220,239,50547,1,0,0:0:0:0:
220,239,50683,1,0,0:0:0:0:
220,239,50956,1,8,0:0:0:0:
351,191,51024,1,8,0:0:0:0:
220,239,51092,1,8,0:0:0:0:
351,191,51160,1,8,0:0:0:0:
220,239,51229,1,0,0:0:0:0:
350,201,51297,1,0,0:0:0:0:
220,239,51365,1,8,0:0:0:0:
350,203,51433,1,8,0:0:0:0:
220,239,51501,1,0,0:0:0:0:
263,184,51638,1,0,0:0:0:0:
263,184,51774,1,0,0:0:0:0:
263,184,52047,1,8,0:0:0:0:
263,184,52320,1,0,0:0:0:0:
263,184,52456,1,0,0:0:0:0:
264,191,52592,1,8,0:0:0:0:
264,191,52729,1,0,0:0:0:0:
264,191,52865,1,0,0:0:0:0:
264,191,53138,1,0,0:0:0:0:
264,194,53274,1,0,0:0:0:0:
264,191,53410,1,0,0:0:0:0:
264,191,53547,1,0,0:0:0:0:
264,191,53683,1,8,0:0:0:0:
264,191,53820,1,0,0:0:0:0:
264,191,53956,1,0,0:0:0:0:
264,191,54229,1,8,0:0:0:0:
264,191,54365,1,0,0:0:0:0:
264,191,54501,1,0,0:0:0:0:
266,197,54638,1,0,0:0:0:0:
266,197,54774,1,8,0:0:0:0:
256,147,54842,1,8,0:0:0:0:
256,147,54910,1,8,0:0:0:0:
256,147,54979,1,8,0:0:0:0:
256,147,55047,1,0,0:0:0:0:
256,147,55115,1,0,0:0:0:0:
257,161,55183,1,8,0:0:0:0:
256,147,55251,1,0,0:0:0:0:
256,147,55320,1,8,0:0:0:0:
256,147,55388,1,8,0:0:0:0:
256,147,55456,1,0,0:0:0:0:
256,147,55524,1,0,0:0:0:0:
263,142,55592,1,8,0:0:0:0:
185,275,55865,5,8,0:0:0:0:
63,77,55933,1,8,0:0:0:0:
63,77,56001,1,0,0:0:0:0:
63,77,56070,1,0,0:0:0:0:
63,77,56138,1,8,0:0:0:0:
64,77,56206,1,0,0:0:0:0:
64,77,56274,1,0,0:0:0:0:
64,77,56342,1,0,0:0:0:0:
65,78,56410,1,8,0:0:0:0:
65,78,56479,1,8,0:0:0:0:
65,78,56547,1,0,0:0:0:0:
66,78,56615,1,0,0:0:0:0:
66,78,56683,1,8,0:0:0:0:
66,78,56751,1,0,0:0:0:0:
67,78,56820,1,0,0:0:0:0:
67,79,56888,1,0,0:0:0:0:
67,79,56956,1,8,0:0:0:0:
68,79,57024,1,0,0:0:0:0:
68,79,57092,1,8,0:0:0:0:
68,79,57160,1,0,0:0:0:0:
69,79,57229,1,8,0:0:0:0:
69,79,57297,1,8,0:0:0:0:
69,80,57365,1,0,0:0:0:0:
70,80,57433,1,0,0:0:0:0:
70,80,57501,1,8,0:0:0:0:
70,80,57570,1,0,0:0:0:0:
70,80,57638,1,8,0:0:0:0:
71,80,57706,1,8,0:0:0:0:
71,80,57774,1,0,0:0:0:0:
71,81,57842,1,0,0:0:0:0:
72,81,57910,1,8,0:0:0:0:
72,81,57979,1,0,0:0:0:0:
72,81,58047,1,8,0:0:0:0:
73,81,58115,1,8,0:0:0:0:
73,81,58183,1,0,0:0:0:0:
73,81,58251,1,0,0:0:0:0:
74,82,58320,1,8,0:0:0:0:
74,82,58388,1,0,0:0:0:0:
74,82,58456,1,0,0:0:0:0:
75,82,58524,1,0,0:0:0:0:
75,82,58592,1,8,0:0:0:0:
75,82,58660,1,8,0:0:0:0:
76,82,58729,1,8,0:0:0:0:
76,83,58797,1,8,0:0:0:0:
76,83,58865,1,0,0:0:0:0:
77,83,58933,1,0,0:0:0:0:
77,83,59001,1,8,0:0:0:0:
77,83,59070,1,0,0:0:0:0:
77,83,59138,1,8,0:0:0:0:
78,83,59206,1,8,0:0:0:0:
78,84,59274,1,0,0:0:0:0:
78,84,59342,1,0,0:0:0:0:
79,84,59410,1,8,0:0:0:0:
79,84,59479,1,0,0:0:0:0:
79,84,59547,1,8,0:0:0:0:
80,84,59615,1,8,0:0:0:0:
80,84,59683,1,8,0:0:0:0:
80,85,59751,1,8,0:0:0:0:
81,85,59820,1,0,0:0:0:0:
81,85,59888,1,0,0:0:0:0:
81,85,59956,1,8,0:0:0:0:
82,85,60024,1,8,0:0:0:0:
82,85,60092,1,0,0:0:0:0:
82,85,60160,1,0,0:0:0:0:
83,86,60229,1,8,0:0:0:0:
83,86,60297,1,0,0:0:0:0:
83,86,60365,1,0,0:0:0:0:
84,86,60433,1,0,0:0:0:0:
84,86,60501,1,8,0:0:0:0:
84,86,60570,1,0,0:0:0:0:
84,86,60638,1,8,0:0:0:0:
85,87,60706,1,8,0:0:0:0:
85,87,60774,1,0,0:0:0:0:
85,87,60842,1,0,0:0:0:0:
86,87,60910,1,0,0:0:0:0:
86,87,60979,1,0,0:0:0:0:
86,87,61047,1,8,0:0:0:0:
87,87,61115,1,0,0:0:0:0:
87,88,61183,1,0,0:0:0:0:
87,88,61251,1,0,0:0:0:0:
88,88,61320,1,8,0:0:0:0:
88,88,61388,1,0,0:0:0:0:
88,88,61456,1,8,0:0:0:0:
89,88,61524,1,0,0:0:0:0:
89,88,61592,1,8,0:0:0:0:
89,89,61660,1,8,0:0:0:0:
90,89,61729,1,0,0:0:0:0:
90,89,61797,1,0,0:0:0:0:
90,89,61865,1,8,0:0:0:0:
91,89,61933,1,8,0:0:0:0:
91,89,62001,1,8,0:0:0:0:
91,90,62070,1,8,0:0:0:0:
92,90,62138,1,0,0:0:0:0:
92,90,62206,1,0,0:0:0:0:
92,90,62274,1,8,0:0:0:0:
92,90,62342,1,0,0:0:0:0:
93,90,62410,1,8,0:0:0:0:
93,90,62479,1,0,0:0:0:0:
93,91,62547,1,0,0:0:0:0:
94,91,62615,1,0,0:0:0:0:
94,91,62683,1,8,0:0:0:0:
94,91,62751,1,8,0:0:0:0:
95,91,62820,1,0,0:0:0:0:
95,91,62888,1,0,0:0:0:0:
95,91,62956,1,8,0:0:0:0:
96,92,63024,1,0,0:0:0:0:
96,92,63092,1,8,0:0:0:0:
96,92,63160,1,8,0:0:0:0:
97,92,63229,1,0,0:0:0:0:
97,92,63297,1,8,0:0:0:0:
97,92,63365,1,0,0:0:0:0:
98,92,63433,1,0,0:0:0:0:
98,93,63501,1,8,0:0:0:0:
98,93,63570,1,8,0:0:0:0:
99,93,63638,1,8,0:0:0:0:
99,93,63706,1,8,0:0:0:0:
99,93,63774,1,0,0:0:0:0:
99,93,63842,1,0,0:0:0:0:
100,93,63910,1,8,0:0:0:0:
100,94,63979,1,0,0:0:0:0:
100,94,64047,1,8,0:0:0:0:
101,94,64115,1,8,0:0:0:0:
101,94,64183,1,0,0:0:0:0:
101,94,64251,1,0,0:0:0:0:
102,94,64320,1,8,0:0:0:0:
102,94,64388,1,8,0:0:0:0:
102,95,64456,1,0,0:0:0:0:
103,95,64524,1,0,0:0:0:0:
103,95,64592,1,8,0:0:0:0:
103,95,64660,1,0,0:0:0:0:
104,95,64729,1,0,0:0:0:0:
104,95,64797,1,0,0:0:0:0:
104,95,64865,1,8,0:0:0:0:
105,96,64933,1,8,0:0:0:0:
105,96,65001,1,0,0:0:0:0:
105,96,65070,1,0,0:0:0:0:
106,96,65138,1,8,0:0:0:0:
106,96,65206,1,0,0:0:0:0:
106,96,65274,1,0,0:0:0:0:
106,96,65342,1,0,0:0:0:0:
107,97,65410,1,8,0:0:0:0:
107,97,65479,1,0,0:0:0:0:
107,97,65547,1,8,0:0:0:0:
108,97,65615,1,0,0:0:0:0:
108,97,65683,1,8,0:0:0:0:
108,97,65751,1,8,0:0:0:0:
109,97,65820,1,0,0:0:0:0:
109,98,65888,1,0,0:0:0:0:
109,98,65956,1,8,0:0:0:0:
110,98,66024,1,0,0:0:0:0:
110,98,66092,1,8,0:0:0:0:
110,98,66160,1,0,0:0:0:0:
111,98,66229,1,8,0:0:0:0:
111,98,66297,1,8,0:0:0:0:
111,99,66365,1,0,0:0:0:0:
112,99,66433,1,0,0:0:0:0:
112,99,66501,1,8,0:0:0:0:
112,99,66570,1,8,0:0:0:0:
113,99,66638,1,0,0:0:0:0:
113,99,66706,1,0,0:0:0:0:
113,99,66774,1,8,0:0:0:0:
114,100,66842,1,0,0:0:0:0:
114,100,66910,1,0,0:0:0:0:
114,100,66979,1,0,0:0:0:0:
114,100,67047,1,8,0:0:0:0:
115,100,67115,1,8,0:0:0:0:
115,100,67183,1,0,0:0:0:0:
115,100,67251,1,0,0:0:0:0:
116,101,67320,1,8,0:0:0:0:
116,101,67388,1,8,0:0:0:0:
116,101,67456,1,8,0:0:0:0:
117,101,67524,1,8,0:0:0:0:
117,101,67592,1,0,0:0:0:0:
117,101,67660,1,0,0:0:0:0:
118,102,67729,1,8,0:0:0:0:
118,102,67797,1,0,0:0:0:0:
118,102,67865,1,8,0:0:0:0:
119,102,67933,1,8,0:0:0:0:
119,102,68001,1,0,0:0:0:0:
119,102,68070,1,0,0:0:0:0:
120,102,68138,1,8,0:0:0:0:
120,103,68206,1,0,0:0:0:0:
120,103,68274,1,8,0:0:0:0:
121,103,68342,1,8,0:0:0:0:
121,103,68410,1,8,0:0:0:0:
121,103,68479,1,8,0:0:0:0:
121,103,68547,1,0,0:0:0:0:
122,103,68615,1,0,0:0:0:0:
122,104,68683,1,8,0:0:0:0:
122,104,68751,1,0,0:0:0:0:
123,104,68820,1,0,0:0:0:0:
123,104,68888,1,0,0:0:0:0:
123,104,68956,1,8,0:0:0:0:
124,104,69024,1,8,0:0:0:0:
124,104,69092,1,0,0:0:0:0:
124,105,69160,1,0,0:0:0:0:
125,105,69229,1,8,0:0:0:0:
125,105,69297,1,0,0:0:0:0:
125,105,69365,1,8,0:0:0:0:
126,105,69433,1,8,0:0:0:0:
126,105,69501,1,0,0:0:0:0:
126,105,69570,1,8,0:0:0:0:
127,106,69638,1,0,0:0:0:0:
127,106,69706,1,0,0:0:0:0:
127,106,69774,1,8,0:0:0:0:
128,106,69842,1,0,0:0:0:0:
128,106,69910,1,0,0:0:0:0:
128,106,69979,1,0,0:0:0:0:
128,106,70047,1,8,0:0:0:0:
129,107,70115,1,8,0:0:0:0:
129,107,70183,1,0,0:0:0:0:
129,107,70251,1,0,0:0:0:0:
130,107,70320,1,8,0:0:0:0:
130,107,70388,1,0,0:0:0:0:
130,107,70456,1,8,0:0:0:0:
131,107,70524,1,8,0:0:0:0:
131,108,70592,1,0,0:0:0:0:
131,108,70660,1,0,0:0:0:0:
132,108,70729,1,0,0:0:0:0:
132,108,70797,1,0,0:0:0:0:
132,108,70865,1,8,0:0:0:0:
133,108,70933,1,0,0:0:0:0:
133,108,71001,1,0,0:0:0:0:
133,109,71070,1,0,0:0:0:0:
134,109,71138,1,8,0:0:0:0:
134,109,71206,1,0,0:0:0:0:
134,109,71274,1,8,0:0:0:0:
135,109,71342,1,0,0:0:0:0:
135,109,71410,1,8,0:0:0:0:
135,109,71479,1,8,0:0:0:0:
135,110,71547,1,0,0:0:0:0:
136,110,71615,1,0,0:0:0:0:
136,110,71683,1,8,0:0:0:0:
136,110,71751,1,8,0:0:0:0:
137,110,71820,1,0,0:0:0:0:
137,110,71888,1,0,0:0:0:0:
137,110,71956,1,8,0:0:0:0:
138,111,72024,1,0,0:0:0:0:
138,111,72092,1,0,0:0:0:0:
138,111,72160,1,0,0:0:0:0:
244,232,72229,5,8,0:0:0:0:
193,203,72365,1,8,0:0:0:0:
193,203,72501,1,8,0:0:0:0:
193,203,72638,1,8,0:0:0:0:
193,203,72774,1,0,0:0:0:0:
308,174,72865,1,8,0:0:0:0:
308,174,72956,1,8,0:0:0:0:
308,174,73047,1,0,0:0:0:0:
308,174,73138,1,0,0:0:0:0:
308,174,73229,1,0,0:0:0:0:
308,174,73320,1,12,0:0:0:0:
213,224,73865,1,8,0:0:0:0:
213,224,74410,1,8,0:0:0:0:
208,234,74956,1,8,0:0:0:0:
208,234,75229,1,8,0:0:0:0:
208,234,75501,1,0,0:0:0:0:
208,234,75774,1,0,0:0:0:0:
209,240,76047,1,8,0:0:0:0:
208,234,76592,1,8,0:0:0:0:
217,230,77138,1,8,0:0:0:0:
209,240,77683,1,0,0:0:0:0:
205,245,77956,1,0,0:0:0:0:
204,247,78229,1,8,0:0:0:0:
205,245,78774,1,0,0:0:0:0:
205,245,79320,1,8,0:0:0:0:
201,254,79592,1,8,0:0:0:0:
201,253,79865,1,0,0:0:0:0:
193,232,80138,1,0,0:0:0:0:
166,142,80410,1,8,0:0:0:0:
168,226,80956,1,0,0:0:0:0:
168,226,81501,1,0,0:0:0:0:
152,247,81774,1,8,0:0:0:0:
152,247,82047,1,0,0:0:0:0:
151,247,82320,1,0,0:0:0:0:
152,247,82592,1,8,0:0:0:0:
151,247,83138,1,8,0:0:0:0:
149,254,83683,1,8,0:0:0:0:
148,256,83956,1,8,0:0:0:0:
149,254,84229,1,0,0:0:0:0:
149,254,84501,1,0,0:0:0:0:
148,256,84774,1,8,0:0:0:0:
149,254,85320,1,0,0:0:0:0:
149,254,85865,1,8,0:0:0:0:
149,254,86138,1,8,0:0:0:0:
149,254,86410,1,0,0:0:0:0:
149,254,86683,1,0,0:0:0:0:
149,254,86956,1,8,0:0:0:0:
149,254,87501,1,8,0:0:0:0:
144,261,88047,1,8,0:0:0:0:
142,263,88320,1,8,0:0:0:0:
144,261,88592,1,0,0:0:0:0:
144,261,88865,1,0,0:0:0:0:
142,263,89138,1,8,0:0:0:0:
139,267,89683,1,8,0:0:0:0:
260,192,89956,1,8,0:0:0:0:
250,206,90229,1,8,0:0:0:0:
249,209,90501,1,8,0:0:0:0:
249,209,90774,1,12,0:0:0:0:
183,232,91047,1,0,0:0:0:0:
183,232,91183,1,8,0:0:0:0:
183,232,91320,1,0,0:0:0:0:
183,232,91456,1,8,0:0:0:0:
183,232,91592,1,8,0:0:0:0:
183,232,91729,1,4,0:0:0:0:
183,232,92001,1,0,0:0:0:0:
183,232,92138,1,8,0:0:0:0:
183,232,92274,1,0,0:0:0:0:
183,232,92410,1,8,0:0:0:0:
183,232,92547,1,8,0:0:0:0:
183,232,92683,1,0,0:0:0:0:
183,232,92820,1,0,0:0:0:0:
183,232,92956,1,12,0:0:0:0:
183,232,93229,1,0,0:0:0:0:
183,232,93365,1,0,0:0:0:0:
183,232,93501,1,0,0:0:0:0:
183,232,93638,1,8,0:0:0:0:
183,232,93774,1,8,0:0:0:0:
183,232,93910,1,4,0:0:0:0:
183,232,94183,1,0,0:0:0:0:
183,232,94320,1,8,0:0:0:0:
183,232,94456,1,0,0:0:0:0:
183,232,94592,1,8,0:0:0:0:
291,193,94660,1,8,0:0:0:0:
183,232,94729,1,0,0:0:0:0:
194,251,94797,1,0,0:0:0:0:
183,232,94865,1,8,0:0:0:0:
194,250,94933,1,8,0:0:0:0:
183,232,95001,1,8,0:0:0:0:
195,250,95070,1,8,0:0:0:0:
183,232,95138,1,0,0:0:0:0:
205,172,95274,1,0,0:0:0:0:
205,172,95410,1,8,0:0:0:0:
217,169,95683,1,8,0:0:0:0:
217,169,95820,1,0,0:0:0:0:
172,237,96092,1,0,0:0:0:0:
173,223,96229,1,8,0:0:0:0:
172,237,96501,1,8,0:0:0:0:
172,237,96638,1,0,0:0:0:0:
172,237,96774,1,8,0:0:0:0:
172,237,96910,1,8,0:0:0:0:
168,233,97047,1,0,0:0:0:0:
166,154,97183,1,0,0:0:0:0:
166,154,97320,1,8,0:0:0:0:
166,154,97456,1,8,0:0:0:0:
166,154,97592,1,0,0:0:0:0:
166,154,97865,1,0,0:0:0:0:
166,154,98001,1,8,0:0:0:0:
166,154,98274,1,0,0:0:0:0:
166,154,98410,1,8,0:0:0:0:
163,161,98547,1,0,0:0:0:0:
188,203,98615,1,0,0:0:0:0:
163,161,98683,1,0,0:0:0:0:
188,203,98751,1,0,0:0:0:0:
163,162,98820,1,8,0:0:0:0:
163,163,98956,1,8,0:0:0:0:
162,163,99092,1,0,0:0:0:0:
161,163,99229,1,8,0:0:0:0:
259,158,99501,1,4,0:0:0:0:
200,167,99774,1,8,0:0:0:0:
189,161,100047,1,0,0:0:0:0:
218,165,100183,1,0,0:0:0:0:
189,161,100320,1,8,0:0:0:0:
185,165,100592,1,0,0:0:0:0:
216,176,100729,1,0,0:0:0:0:
277,130,100797,1,0,0:0:0:0:
189,161,100865,1,8,0:0:0:0:
184,167,101001,1,0,0:0:0:0:
184,167,101138,1,8,0:0:0:0:
178,147,101206,1,8,0:0:0:0:
185,165,101274,1,0,0:0:0:0:
178,148,101342,1,0,0:0:0:0:
185,151,101410,1,8,0:0:0:0:
185,197,101547,1,8,0:0:0:0:
185,171,101683,1,0,0:0:0:0:
161,184,101956,1,8,0:0:0:0:
161,184,102229,1,0,0:0:0:0:
161,186,102365,1,0,0:0:0:0:
161,186,102501,1,8,0:0:0:0:
161,184,102774,1,8,0:0:0:0:
161,184,102910,1,0,0:0:0:0:
268,140,102979,1,0,0:0:0:0:
163,190,103047,1,8,0:0:0:0:
164,192,103183,1,0,0:0:0:0:
164,192,103320,1,8,0:0:0:0:
206,156,103388,1,0,0:0:0:0:
164,192,103456,1,0,0:0:0:0:
198,159,103524,1,0,0:0:0:0:
206,156,103592,1,8,0:0:0:0:
166,193,103729,1,8,0:0:0:0:
163,190,103865,1,4,0:0:0:0:
164,192,104138,1,8,0:0:0:0:
165,192,104410,1,0,0:0:0:0:
166,193,104547,1,0,0:0:0:0:
163,190,104683,1,8,0:0:0:0:
214,175,104820,1,0,0:0:0:0:
164,192,104956,1,8,0:0:0:0:
165,192,105092,1,0,0:0:0:0:
259,148,105160,1,0,0:0:0:0:
165,192,105229,1,8,0:0:0:0:
166,193,105365,1,0,0:0:0:0:
170,193,105501,1,8,0:0:0:0:
241,143,105570,1,8,0:0:0:0:
164,192,105638,1,0,0:0:0:0:
241,143,105706,1,0,0:0:0:0:
257,171,105774,1,8,0:0:0:0:
188,142,105910,1,8,0:0:0:0:
269,165,106047,1,0,0:0:0:0:
137,181,106320,1,8,0:0:0:0:
222,157,106592,1,0,0:0:0:0:
253,148,106729,1,0,0:0:0:0:
192,90,106865,1,8,0:0:0:0:
222,157,107138,1,0,0:0:0:0:
222,157,107274,1,0,0:0:0:0:
248,157,107342,1,0,0:0:0:0:
222,157,107410,1,8,0:0:0:0:
222,157,107547,1,0,0:0:0:0:
222,164,107683,1,8,0:0:0:0:
186,200,107751,1,0,0:0:0:0:
222,164,107820,1,8,0:0:0:0:
186,200,107888,1,8,0:0:0:0:
222,167,107956,1,0,0:0:0:0:
139,155,108092,1,0,0:0:0:0:
221,167,108229,1,4,0:0:0:0:
222,164,108501,1,8,0:0:0:0:
222,167,108774,1,0,0:0:0:0:
186,203,108910,1,0,0:0:0:0:
186,203,109047,1,8,0:0:0:0:
186,203,109320,1,8,0:0:0:0:
186,203,109456,1,0,0:0:0:0:
246,165,109524,1,0,0:0:0:0:
186,203,109592,1,8,0:0:0:0:
186,203,109729,1,0,0:0:0:0:
186,203,109865,1,8,0:0:0:0:
222,176,109933,1,8,0:0:0:0:
186,203,110001,1,8,0:0:0:0:
222,176,110070,1,8,0:0:0:0:
186,203,110138,1,0,0:0:0:0:
186,203,110274,1,8,0:0:0:0:
186,203,110410,1,0,0:0:0:0:
186,203,110683,1,8,0:0:0:0:
186,203,110956,1,0,0:0:0:0:
186,203,111092,1,0,0:0:0:0:
186,203,111229,1,8,0:0:0:0:
186,203,111501,1,8,0:0:0:0:
186,203,111638,1,0,0:0:0:0:
248,163,111706,1,0,0:0:0:0:
186,203,111774,1,8,0:0:0:0:
186,203,111910,1,0,0:0:0:0:
186,203,112047,1,8,0:0:0:0:
224,179,112115,1,8,0:0:0:0:
186,203,112183,1,0,0:0:0:0:
224,179,112251,1,0,0:0:0:0:
186,203,112320,1,0,0:0:0:0:
186,203,112456,1,8,0:0:0:0:
186,203,112592,1,4,0:0:0:0:
186,203,112865,1,8,0:0:0:0:
186,203,113138,1,0,0:0:0:0:
186,203,113274,1,0,0:0:0:0:
186,203,113410,1,8,0:0:0:0:
212,184,113547,1,0,0:0:0:0:
186,203,113683,1,8,0:0:0:0:
186,203,113820,1,0,0:0:0:0:
257,161,113888,1,0,0:0:0:0:
186,203,113956,1,8,0:0:0:0:
186,203,114092,1,0,0:0:0:0:
186,203,114229,1,8,0:0:0:0:
246,128,114297,1,0,0:0:0:0:
250,120,114365,1,0,0:0:0:0:
247,128,114433,1,0,0:0:0:0:
186,203,114501,1,8,0:0:0:0:
186,203,114638,1,8,0:0:0:0:
186,203,114774,1,0,0:0:0:0:
186,203,115047,1,8,0:0:0:0:
226,218,115183,1,8,0:0:0:0:
192,217,115320,1,0,0:0:0:0:
184,217,115456,1,0,0:0:0:0:
185,217,115592,1,8,0:0:0:0:
193,234,115729,1,0,0:0:0:0:
188,218,115865,1,8,0:0:0:0:
192,217,116001,1,0,0:0:0:0:
259,166,116070,1,0,0:0:0:0:
192,217,116138,1,8,0:0:0:0:
184,217,116274,1,0,0:0:0:0:
259,166,116342,1,0,0:0:0:0:
185,217,116410,1,8,0:0:0:0:
188,218,116547,1,0,0:0:0:0:
188,218,116683,1,8,0:0:0:0:
192,217,116820,1,8,0:0:0:0:
192,217,116956,1,4,0:0:0:0:
189,203,117229,1,8,0:0:0:0:
189,203,117501,1,0,0:0:0:0:
188,204,117638,1,0,0:0:0:0:
186,205,117774,1,8,0:0:0:0:
189,203,118047,1,8,0:0:0:0:
189,203,118183,1,0,0:0:0:0:
246,153,118251,1,0,0:0:0:0:
189,203,118320,1,0,0:0:0:0:
188,204,118456,1,8,0:0:0:0:
186,205,118592,1,0,0:0:0:0:
236,159,118660,1,0,0:0:0:0:
189,203,118729,1,8,0:0:0:0:
229,163,118797,1,0,0:0:0:0:
189,203,118865,1,8,0:0:0:0:
189,203,119001,1,8,0:0:0:0:
189,203,119138,1,0,0:0:0:0:
186,205,119410,1,8,0:0:0:0:
189,203,119683,1,0,0:0:0:0:
183,207,119820,1,0,0:0:0:0:
183,207,119956,1,8,0:0:0:0:
186,205,120229,1,8,0:0:0:0:
183,207,120365,1,0,0:0:0:0:
228,165,120433,1,0,0:0:0:0:
183,207,120501,1,8,0:0:0:0:
183,207,120638,1,0,0:0:0:0:
183,207,120774,1,8,0:0:0:0:
228,165,120842,1,0,0:0:0:0:
186,205,120910,1,0,0:0:0:0:
228,165,120979,1,0,0:0:0:0:
186,205,121047,1,8,0:0:0:0:
186,205,121183,1,8,0:0:0:0:
183,207,121320,1,4,0:0:0:0:
183,207,121592,1,8,0:0:0:0:
186,205,121865,1,0,0:0:0:0:
186,205,122001,1,0,0:0:0:0:
183,207,122138,1,8,0:0:0:0:
235,240,122274,1,0,0:0:0:0:
183,207,122410,1,8,0:0:0:0:
186,205,122547,1,0,0:0:0:0:
229,167,122615,1,0,0:0:0:0:
186,205,122683,1,8,0:0:0:0:
186,205,122820,1,0,0:0:0:0:
183,207,122956,1,8,0:0:0:0:
229,167,123024,1,8,0:0:0:0:
183,207,123092,1,0,0:0:0:0:
229,167,123160,1,0,0:0:0:0:
183,207,123229,1,8,0:0:0:0:
172,200,123365,1,0,0:0:0:0:
170,201,123501,1,0,0:0:0:0:
170,200,123774,1,8,0:0:0:0:
170,200,124047,1,0,0:0:0:0:
231,176,124115,1,0,0:0:0:0:
172,200,124183,1,0,0:0:0:0:
231,176,124251,1,0,0:0:0:0:
170,201,124320,1,8,0:0:0:0:
170,200,124592,1,8,0:0:0:0:
170,200,124729,1,0,0:0:0:0:
230,175,124797,1,0,0:0:0:0:
170,200,124865,1,8,0:0:0:0:
172,200,125001,1,0,0:0:0:0:
170,201,125138,1,0,0:0:0:0:
256,136,125206,1,0,0:0:0:0:
170,200,125274,1,8,0:0:0:0:
256,136,125342,1,8,0:0:0:0:
170,200,125410,1,0,0:0:0:0:
170,200,125547,1,8,0:0:0:0:
170,200,125683,1,4,0:0:0:0:
170,201,125956,1,8,0:0:0:0:
170,200,126229,1,0,0:0:0:0:
170,200,126365,1,0,0:0:0:0:
170,200,126501,1,8,0:0:0:0:
170,201,126774,1,8,0:0:0:0:
170,200,126910,1,0,0:0:0:0:
253,135,126979,1,0,0:0:0:0:
170,200,127047,1,0,0:0:0:0:
170,200,127183,1,0,0:0:0:0:
170,200,127320,1,8,0:0:0:0:
253,135,127388,1,8,0:0:0:0:
170,201,127456,1,0,0:0:0:0:
253,135,127524,1,0,0:0:0:0:
170,201,127592,1,8,0:0:0:0:
170,200,127729,1,8,0:0:0:0:
170,200,127865,1,0,0:0:0:0:
170,200,128138,1,8,0:0:0:0:
170,201,128410,1,0,0:0:0:0:
170,200,128547,1,0,0:0:0:0:
170,200,128683,1,8,0:0:0:0:
170,200,128956,1,8,0:0:0:0:
170,201,129092,1,0,0:0:0:0:
246,144,129160,1,0,0:0:0:0:
170,201,129229,1,8,0:0:0:0:
170,200,129365,1,0,0:0:0:0:
170,200,129501,1,8,0:0:0:0:
246,144,129570,1,8,0:0:0:0:
234,151,129638,1,0,0:0:0:0:
234,152,129706,1,0,0:0:0:0:
246,144,129774,1,8,0:0:0:0:
197,164,129910,1,8,0:0:0:0:
197,164,130047,1,4,0:0:0:0:
197,164,130320,1,8,0:0:0:0:
197,164,130592,1,0,0:0:0:0:
197,164,130729,1,0,0:0:0:0:
195,170,130865,1,8,0:0:0:0:
194,174,131138,1,8,0:0:0:0:
194,174,131274,1,0,0:0:0:0:
186,147,131342,1,0,0:0:0:0:
194,174,131410,1,8,0:0:0:0:
194,174,131547,1,0,0:0:0:0:
195,170,131683,1,8,0:0:0:0:
184,151,131751,1,8,0:0:0:0:
194,174,131820,1,0,0:0:0:0:
184,151,131888,1,0,0:0:0:0:
194,174,131956,1,8,0:0:0:0:
194,174,132092,1,8,0:0:0:0:
194,174,132229,1,0,0:0:0:0:
184,174,132501,1,8,0:0:0:0:
185,174,132774,1,0,0:0:0:0:
185,174,132910,1,0,0:0:0:0:
185,174,133047,1,8,0:0:0:0:
184,174,133320,1,0,0:0:0:0:
185,174,133456,1,0,0:0:0:0:
197,157,133524,1,0,0:0:0:0:
185,174,133592,1,8,0:0:0:0:
185,174,133729,1,0,0:0:0:0:
185,174,133865,1,8,0:0:0:0:
211,189,133956,1,8,0:0:0:0:
211,189,134047,1,8,0:0:0:0:
212,188,134138,1,0,0:0:0:0:
212,188,134229,1,0,0:0:0:0:
212,188,134320,1,0,0:0:0:0:
185,174,134410,1,12,0:0:0:0:
298,216,134683,1,0,0:0:0:0:
298,216,134956,1,8,0:0:0:0:
221,230,135229,1,0,0:0:0:0:
221,230,135365,1,0,0:0:0:0:
221,230,135501,1,0,0:0:0:0:
221,230,135638,1,8,0:0:0:0:
221,230,135774,1,0,0:0:0:0:
221,230,135910,1,0,0:0:0:0:
221,230,136047,1,8,0:0:0:0:
221,230,136320,1,8,0:0:0:0:
221,230,136456,1,8,0:0:0:0:
221,230,136592,1,4,0:0:0:0:
221,230,136865,1,0,0:0:0:0:
221,230,137138,1,8,0:0:0:0:
221,230,137410,1,8,0:0:0:0:
221,230,137547,1,0,0:0:0:0:
221,230,137683,1,8,0:0:0:0:
106,178,137751,1,8,0:0:0:0:
106,178,137820,1,8,0:0:0:0:
106,178,137888,1,8,0:0:0:0:
106,178,137956,1,0,0:0:0:0:
106,178,138024,1,0,0:0:0:0:
106,178,138092,1,8,0:0:0:0:
106,178,138160,1,0,0:0:0:0:
106,178,138229,1,8,0:0:0:0:
106,178,138297,1,8,0:0:0:0:
106,178,138365,1,0,0:0:0:0:
106,178,138433,1,0,0:0:0:0:
149,203,138501,1,8,0:0:0:0:
207,104,138638,1,8,0:0:0:0:
264,183,138774,1,0,0:0:0:0:
424,124,138842,1,0,0:0:0:0:
200,216,138910,1,0,0:0:0:0:
200,216,139047,1,8,0:0:0:0:
200,216,139183,1,0,0:0:0:0:
197,224,139251,1,0,0:0:0:0:
200,216,139320,1,8,0:0:0:0:
207,216,139456,1,0,0:0:0:0:
207,216,139592,1,8,0:0:0:0:
206,223,139660,1,0,0:0:0:0:
196,224,139729,1,0,0:0:0:0:
212,215,139865,1,0,0:0:0:0:
212,215,140001,1,8,0:0:0:0:
214,180,140070,1,8,0:0:0:0:
212,215,140138,1,8,0:0:0:0:
217,215,140274,1,0,0:0:0:0:
217,215,140410,1,8,0:0:0:0:
195,214,140547,1,0,0:0:0:0:
195,214,140683,1,8,0:0:0:0:
195,214,140820,1,0,0:0:0:0:
212,130,140956,1,8,0:0:0:0:
212,130,141024,1,8,0:0:0:0:
195,214,141092,1,8,0:0:0:0:
195,214,141229,1,0,0:0:0:0:
194,214,141365,1,8,0:0:0:0:
234,164,141433,1,8,0:0:0:0:
230,178,141501,1,0,0:0:0:0:
195,214,141638,1,0,0:0:0:0:
195,214,141774,1,8,0:0:0:0:
229,171,141842,1,0,0:0:0:0:
195,214,141910,1,8,0:0:0:0:
195,214,142047,1,0,0:0:0:0:
195,214,142183,1,0,0:0:0:0:
203,178,142251,1,0,0:0:0:0:
229,176,142320,1,8,0:0:0:0:
195,214,142456,1,0,0:0:0:0:
195,214,142592,1,8,0:0:0:0:
195,214,142729,1,0,0:0:0:0:
195,214,142865,1,8,0:0:0:0:
195,214,143001,1,0,0:0:0:0:
195,214,143138,1,8,0:0:0:0:
161,195,143206,1,8,0:0:0:0:
161,195,143274,1,0,0:0:0:0:
195,214,143410,1,8,0:0:0:0:
195,214,143547,1,0,0:0:0:0:
199,183,143615,1,0,0:0:0:0:
195,214,143683,1,8,0:0:0:0:
195,214,143820,1,0,0:0:0:0:
195,214,143956,1,8,0:0:0:0:
199,183,144024,1,0,0:0:0:0:
195,214,144092,1,0,0:0:0:0:
194,214,144229,1,0,0:0:0:0:
195,214,144365,1,8,0:0:0:0:
201,183,144433,1,0,0:0:0:0:
195,214,144501,1,8,0:0:0:0:
195,214,144638,1,0,0:0:0:0:
195,214,144774,1,8,0:0:0:0:
195,214,144910,1,0,0:0:0:0:
195,214,145047,1,8,0:0:0:0:
194,214,145183,1,8,0:0:0:0:
195,214,145320,1,0,0:0:0:0:
229,172,145388,1,0,0:0:0:0:
195,214,145456,1,0,0:0:0:0:
195,214,145592,1,8,0:0:0:0:
195,214,145729,1,0,0:0:0:0:
199,185,145797,1,0,0:0:0:0:
195,214,145865,1,8,0:0:0:0:
195,214,146001,1,0,0:0:0:0:
194,214,146138,1,8,0:0:0:0:
197,186,146206,1,8,0:0:0:0:
194,214,146274,1,8,0:0:0:0:
195,214,146410,1,0,0:0:0:0:
195,214,146547,1,8,0:0:0:0:
194,190,146615,1,8,0:0:0:0:
195,214,146683,1,0,0:0:0:0:
195,214,146820,1,0,0:0:0:0:
195,214,146956,1,8,0:0:0:0:
194,214,147092,1,8,0:0:0:0:
194,214,147229,1,0,0:0:0:0:
195,214,147365,1,0,0:0:0:0:
264,183,147501,1,8,0:0:0:0:
163,195,147570,1,8,0:0:0:0:
163,195,147638,1,8,0:0:0:0:
200,216,147774,1,0,0:0:0:0:
200,216,147910,1,8,0:0:0:0:
197,224,147979,1,0,0:0:0:0:
200,216,148047,1,0,0:0:0:0:
207,216,148183,1,8,0:0:0:0:
207,216,148320,1,0,0:0:0:0:
206,223,148388,1,0,0:0:0:0:
196,224,148456,1,0,0:0:0:0:
212,215,148592,1,8,0:0:0:0:
212,215,148729,1,8,0:0:0:0:
214,180,148797,1,8,0:0:0:0:
212,215,148865,1,0,0:0:0:0:
217,215,149001,1,0,0:0:0:0:
217,215,149138,1,8,0:0:0:0:
195,214,149274,1,0,0:0:0:0:
195,214,149410,1,8,0:0:0:0:
195,214,149547,1,0,0:0:0:0:
195,214,149683,1,8,0:0:0:0:
199,164,149751,1,8,0:0:0:0:
195,214,149820,1,8,0:0:0:0:
195,214,149956,1,0,0:0:0:0:
194,214,150092,1,8,0:0:0:0:
234,164,150160,1,8,0:0:0:0:
230,178,150229,1,0,0:0:0:0:
195,214,150365,1,0,0:0:0:0:
195,214,150501,1,8,0:0:0:0:
229,171,150570,1,8,0:0:0:0:
195,214,150638,1,8,0:0:0:0:
195,214,150774,1,0,0:0:0:0:
195,214,150910,1,0,0:0:0:0:
203,178,150979,1,0,0:0:0:0:
229,176,151047,1,8,0:0:0:0:
195,214,151183,1,0,0:0:0:0:
195,214,151320,1,8,0:0:0:0:
195,214,151456,1,0,0:0:0:0:
195,214,151592,1,8,0:0:0:0:
195,214,151729,1,0,0:0:0:0:
195,214,151865,1,8,0:0:0:0:
194,123,151933,1,0,0:0:0:0:
194,214,152001,1,8,0:0:0:0:
195,214,152138,1,0,0:0:0:0:
195,214,152274,1,0,0:0:0:0:
199,183,152342,1,0,0:0:0:0:
195,214,152410,1,8,0:0:0:0:
195,214,152547,1,0,0:0:0:0:
195,214,152683,1,8,0:0:0:0:
199,183,152751,1,8,0:0:0:0:
195,214,152820,1,0,0:0:0:0:
194,214,152956,1,8,0:0:0:0:
220,142,153024,1,8,0:0:0:0:
195,214,153092,1,8,0:0:0:0:
201,183,153160,1,8,0:0:0:0:
195,214,153229,1,0,0:0:0:0:
195,214,153365,1,0,0:0:0:0:
195,214,153501,1,8,0:0:0:0:
195,214,153638,1,0,0:0:0:0:
195,214,153774,1,8,0:0:0:0:
194,214,153910,1,0,0:0:0:0:
195,214,154047,1,8,0:0:0:0:
219,220,154183,1,0,0:0:0:0:
260,186,154320,1,8,0:0:0:0:
260,186,154388,1,8,0:0:0:0:
223,217,154456,1,0,0:0:0:0:
223,217,154592,1,0,0:0:0:0:
223,217,154729,1,8,0:0:0:0:
260,186,154797,1,8,0:0:0:0:
223,217,154865,1,0,0:0:0:0:
219,220,155001,1,0,0:0:0:0:
221,219,155138,1,8,0:0:0:0:
298,212,155206,1,8,0:0:0:0:
298,212,155274,1,8,0:0:0:0:
298,212,155342,1,8,0:0:0:0:
305,211,155410,1,0,0:0:0:0:
341,198,155547,1,0,0:0:0:0:
341,198,155683,1,8,0:0:0:0:
257,187,155820,1,8,0:0:0:0:
257,187,155956,1,8,0:0:0:0:
257,187,156092,1,8,0:0:0:0:
257,187,156229,1,0,0:0:0:0:
101,76,156297,1,0,0:0:0:0:
101,76,156365,1,8,0:0:0:0:
101,76,156433,1,8,0:0:0:0:
101,76,156501,1,0,0:0:0:0:
102,76,156570,1,0,0:0:0:0:
102,77,156638,1,0,0:0:0:0:
102,77,156706,1,0,0:0:0:0:
102,77,156774,1,8,0:0:0:0:
103,77,156842,1,8,0:0:0:0:
103,77,156910,1,0,0:0:0:0:
103,78,156979,1,0,0:0:0:0:
104,78,157047,1,8,0:0:0:0:
104,78,157115,1,0,0:0:0:0:
104,78,157183,1,0,0:0:0:0:
104,78,157251,1,0,0:0:0:0:
105,79,157320,1,8,0:0:0:0:
105,79,157388,1,0,0:0:0:0:
105,79,157456,1,8,0:0:0:0:
106,79,157524,1,8,0:0:0:0:
106,79,157592,1,0,0:0:0:0:
106,80,157660,1,8,0:0:0:0:
106,80,157729,1,0,0:0:0:0:
107,80,157797,1,0,0:0:0:0:
107,80,157865,1,8,0:0:0:0:
107,80,157933,1,0,0:0:0:0:
108,81,158001,1,8,0:0:0:0:
108,81,158070,1,0,0:0:0:0:
108,81,158138,1,8,0:0:0:0:
108,81,158206,1,8,0:0:0:0:
109,81,158274,1,0,0:0:0:0:
109,82,158342,1,0,0:0:0:0:
109,82,158410,1,8,0:0:0:0:
110,82,158479,1,8,0:0:0:0:
110,82,158547,1,8,0:0:0:0:
110,82,158615,1,8,0:0:0:0:
110,83,158683,1,0,0:0:0:0:
111,83,158751,1,0,0:0:0:0:
111,83,158820,1,8,0:0:0:0:
111,83,158888,1,0,0:0:0:0:
112,83,158956,1,8,0:0:0:0:
112,84,159024,1,0,0:0:0:0:
112,84,159092,1,0,0:0:0:0:
112,84,159160,1,0,0:0:0:0:
113,84,159229,1,8,0:0:0:0:
113,84,159297,1,8,0:0:0:0:
113,85,159365,1,0,0:0:0:0:
114,85,159433,1,0,0:0:0:0:
114,85,159501,1,8,0:0:0:0:
114,85,159570,1,0,0:0:0:0:
114,85,159638,1,0,0:0:0:0:
115,86,159706,1,0,0:0:0:0:
115,86,159774,1,8,0:0:0:0:
115,86,159842,1,0,0:0:0:0:
116,86,159910,1,8,0:0:0:0:
116,87,159979,1,8,0:0:0:0:
116,87,160047,1,0,0:0:0:0:
116,87,160115,1,0,0:0:0:0:
117,87,160183,1,8,0:0:0:0:
117,87,160251,1,0,0:0:0:0:
117,88,160320,1,8,0:0:0:0:
118,88,160388,1,0,0:0:0:0:
118,88,160456,1,0,0:0:0:0:
118,88,160524,1,0,0:0:0:0:
118,88,160592,1,8,0:0:0:0:
119,89,160660,1,8,0:0:0:0:
119,89,160729,1,0,0:0:0:0:
119,89,160797,1,0,0:0:0:0:
120,89,160865,1,8,0:0:0:0:
120,89,160933,1,0,0:0:0:0:
120,90,161001,1,8,0:0:0:0:
120,90,161070,1,8,0:0:0:0:
121,90,161138,1,8,0:0:0:0:
121,90,161206,1,8,0:0:0:0:
121,90,161274,1,0,0:0:0:0:
122,91,161342,1,0,0:0:0:0:
122,91,161410,1,8,0:0:0:0:
122,91,161479,1,0,0:0:0:0:
122,91,161547,1,0,0:0:0:0:
123,91,161615,1,0,0:0:0:0:
123,92,161683,1,8,0:0:0:0:
123,92,161751,1,0,0:0:0:0:
124,92,161820,1,8,0:0:0:0:
124,92,161888,1,0,0:0:0:0:
124,92,161956,1,8,0:0:0:0:
124,93,162024,1,8,0:0:0:0:
125,93,162092,1,0,0:0:0:0:
125,93,162160,1,0,0:0:0:0:
125,93,162229,1,8,0:0:0:0:
126,93,162297,1,0,0:0:0:0:
126,94,162365,1,8,0:0:0:0:
126,94,162433,1,0,0:0:0:0:
126,94,162501,1,8,0:0:0:0:
127,94,162570,1,8,0:0:0:0:
127,94,162638,1,0,0:0:0:0:
127,95,162706,1,8,0:0:0:0:
128,95,162774,1,0,0:0:0:0:
128,95,162842,1,0,0:0:0:0:
128,95,162910,1,0,0:0:0:0:
128,95,162979,1,0,0:0:0:0:
129,96,163047,1,8,0:0:0:0:
129,96,163115,1,0,0:0:0:0:
129,96,163183,1,8,0:0:0:0:
130,96,163251,1,0,0:0:0:0:
130,96,163320,1,8,0:0:0:0:
130,97,163388,1,8,0:0:0:0:
130,97,163456,1,0,0:0:0:0:
131,97,163524,1,0,0:0:0:0:
131,97,163592,1,8,0:0:0:0:
131,98,163660,1,0,0:0:0:0:
132,98,163729,1,0,0:0:0:0:
132,98,163797,1,0,0:0:0:0:
132,98,163865,1,8,0:0:0:0:
132,98,163933,1,8,0:0:0:0:
133,99,164001,1,0,0:0:0:0:
133,99,164070,1,0,0:0:0:0:
133,99,164138,1,8,0:0:0:0:
134,99,164206,1,0,0:0:0:0:
134,99,164274,1,8,0:0:0:0:
134,100,164342,1,0,0:0:0:0:
134,100,164410,1,8,0:0:0:0:
135,100,164479,1,8,0:0:0:0:
135,100,164547,1,0,0:0:0:0:
135,100,164615,1,8,0:0:0:0:
135,101,164683,1,0,0:0:0:0:
136,101,164751,1,0,0:0:0:0:
136,101,164820,1,8,0:0:0:0:
136,101,164888,1,0,0:0:0:0:
137,101,164956,1,8,0:0:0:0:
137,102,165024,1,0,0:0:0:0:
137,102,165092,1,0,0:0:0:0:
137,102,165160,1,0,0:0:0:0:
138,102,165229,1,8,0:0:0:0:
138,102,165297,1,8,0:0:0:0:
138,103,165365,1,0,0:0:0:0:
139,103,165433,1,0,0:0:0:0:
139,103,165501,1,8,0:0:0:0:
139,103,165570,1,0,0:0:0:0:
139,103,165638,1,0,0:0:0:0:
140,104,165706,1,0,0:0:0:0:
140,104,165774,1,8,0:0:0:0:
140,104,165842,1,0,0:0:0:0:
141,104,165910,1,8,0:0:0:0:
141,104,165979,1,0,0:0:0:0:
141,105,166047,1,8,0:0:0:0:
141,105,166115,1,8,0:0:0:0:
142,105,166183,1,0,0:0:0:0:
142,105,166251,1,0,0:0:0:0:
142,105,166320,1,8,0:0:0:0:
143,106,166388,1,0,0:0:0:0:
143,106,166456,1,8,0:0:0:0:
143,106,166524,1,0,0:0:0:0:
143,106,166592,1,8,0:0:0:0:
144,106,166660,1,8,0:0:0:0:
144,107,166729,1,0,0:0:0:0:
144,107,166797,1,8,0:0:0:0:
145,107,166865,1,0,0:0:0:0:
145,107,166933,1,0,0:0:0:0:
145,108,167001,1,8,0:0:0:0:
145,108,167070,1,0,0:0:0:0:
146,108,167138,1,8,0:0:0:0:
146,108,167206,1,8,0:0:0:0:
146,108,167274,1,8,0:0:0:0:
147,109,167342,1,0,0:0:0:0:
147,109,167410,1,8,0:0:0:0:
147,109,167479,1,8,0:0:0:0:
147,109,167547,1,0,0:0:0:0:
148,109,167615,1,0,0:0:0:0:
148,110,167683,1,8,0:0:0:0:
148,110,167751,1,0,0:0:0:0:
149,110,167820,1,8,0:0:0:0:
149,110,167888,1,8,0:0:0:0:
149,110,167956,1,0,0:0:0:0:
149,111,168024,1,8,0:0:0:0:
150,111,168092,1,0,0:0:0:0:
150,111,168160,1,0,0:0:0:0:
150,111,168229,1,8,0:0:0:0:
151,111,168297,1,8,0:0:0:0:
151,112,168365,1,8,0:0:0:0:
151,112,168433,1,8,0:0:0:0:
151,112,168501,1,0,0:0:0:0:
152,112,168570,1,0,0:0:0:0:
152,112,168638,1,8,0:0:0:0:
152,113,168706,1,0,0:0:0:0:
153,113,168774,1,8,0:0:0:0:
153,113,168842,1,0,0:0:0:0:
153,113,168910,1,0,0:0:0:0:
153,113,168979,1,0,0:0:0:0:
154,114,169047,1,8,0:0:0:0:
154,114,169115,1,8,0:0:0:0:
154,114,169183,1,0,0:0:0:0:
155,114,169251,1,0,0:0:0:0:
155,114,169320,1,8,0:0:0:0:
155,115,169388,1,0,0:0:0:0:
155,115,169456,1,0,0:0:0:0:
156,115,169524,1,0,0:0:0:0:
156,115,169592,1,8,0:0:0:0:
156,115,169660,1,0,0:0:0:0:
157,116,169729,1,8,0:0:0:0:
157,116,169797,1,8,0:0:0:0:
157,116,169865,1,0,0:0:0:0:
157,116,169933,1,0,0:0:0:0:
158,116,170001,1,8,0:0:0:0:
158,117,170070,1,0,0:0:0:0:
158,117,170138,1,8,0:0:0:0:
159,117,170206,1,0,0:0:0:0:
159,117,170274,1,0,0:0:0:0:
159,117,170342,1,0,0:0:0:0:
159,118,170410,1,8,0:0:0:0:
160,118,170479,1,0,0:0:0:0:
160,118,170547,1,8,0:0:0:0:
160,118,170615,1,0,0:0:0:0:
161,119,170683,1,8,0:0:0:0:
161,119,170751,1,8,0:0:0:0:
161,119,170820,1,0,0:0:0:0:
161,119,170888,1,0,0:0:0:0:
162,119,170956,1,8,0:0:0:0:
162,120,171024,1,0,0:0:0:0:
162,120,171092,1,8,0:0:0:0:
163,120,171160,1,0,0:0:0:0:
163,120,171229,1,8,0:0:0:0:
163,120,171297,1,8,0:0:0:0:
163,121,171365,1,0,0:0:0:0:
164,121,171433,1,8,0:0:0:0:
164,121,171501,1,0,0:0:0:0:
164,121,171570,1,0,0:0:0:0:
165,121,171638,1,8,0:0:0:0:
165,122,171706,1,0,0:0:0:0:
165,122,171774,1,8,0:0:0:0:
165,122,171842,1,0,0:0:0:0:
166,122,171910,1,0,0:0:0:0:
166,122,171979,1,0,0:0:0:0:
166,123,172047,1,8,0:0:0:0:
167,123,172115,1,0,0:0:0:0:
167,123,172183,1,8,0:0:0:0:
167,123,172251,1,8,0:0:0:0:
167,123,172320,1,0,0:0:0:0:
168,124,172388,1,8,0:0:0:0:
168,124,172456,1,0,0:0:0:0:
168,124,172524,1,0,0:0:0:0:
168,124,172592,1,8,0:0:0:0:
254,236,172729,1,8,0:0:0:0:
254,236,172865,1,0,0:0:0:0:
254,236,173001,1,0,0:0:0:0:
188,239,173138,1,8,0:0:0:0:
302,184,173229,1,8,0:0:0:0:
302,184,173320,1,8,0:0:0:0:
302,184,173410,1,0,0:0:0:0:
302,184,173501,1,0,0:0:0:0:
302,184,173592,1,0,0:0:0:0:
188,239,173683,1,12,0:0:0:0:
219,217,173956,1,0,0:0:0:0:
217,191,174229,1,8,0:0:0:0:
255,194,174774,1,8,0:0:0:0:
247,239,175320,1,8,0:0:0:0:
197,210,175865,1,8,0:0:0:0:
197,210,176138,1,0,0:0:0:0:
197,210,176410,1,8,0:0:0:0:
200,216,176956,1,8,0:0:0:0:
200,216,177501,1,8,0:0:0:0:
207,219,177774,1,8,0:0:0:0:
200,216,178047,1,4,0:0:0:0:
208,219,178320,1,0,0:0:0:0:
207,219,178592,1,8,0:0:0:0:
208,219,179138,1,8,0:0:0:0:
214,225,179683,1,8,0:0:0:0:
214,225,180229,1,8,0:0:0:0:
214,225,180501,1,0,0:0:0:0:
214,225,180774,1,8,0:0:0:0:
214,225,181320,1,8,0:0:0:0:
214,225,181865,1,8,0:0:0:0:
200,180,182138,1,0,0:0:0:0:
214,225,182410,1,4,0:0:0:0:
155,221,182683,1,0,0:0:0:0:
155,221,182956,1,8,0:0:0:0:
155,221,183501,1,8,0:0:0:0:
155,221,184047,1,8,0:0:0:0:
155,221,184592,1,0,0:0:0:0:
155,221,184865,1,0,0:0:0:0:
155,221,185138,1,8,0:0:0:0:
155,221,185683,1,8,0:0:0:0:
155,221,186229,1,8,0:0:0:0:
165,221,186501,1,8,0:0:0:0:
165,221,186774,1,4,0:0:0:0:
165,221,187047,1,0,0:0:0:0:
165,221,187320,1,8,0:0:0:0:
165,221,187865,1,8,0:0:0:0:
165,221,188410,1,8,0:0:0:0:
165,221,188956,1,0,0:0:0:0:
165,221,189229,1,0,0:0:0:0:
165,221,189501,1,8,0:0:0:0:
165,221,190047,1,8,0:0:0:0:
173,223,190320,1,8,0:0:0:0:
165,221,190592,1,8,0:0:0:0:
186,226,190865,1,8,0:0:0:0:
186,226,191138,1,4,0:0:0:0:
215,229,191410,1,8,0:0:0:0:
215,229,191547,1,0,0:0:0:0:
215,229,191683,1,0,0:0:0:0:
215,229,191820,1,8,0:0:0:0:
215,229,191956,1,0,0:0:0:0:
215,229,192092,1,12,0:0:0:0:
215,229,192365,1,0,0:0:0:0:
215,229,192501,1,8,0:0:0:0:
215,229,192638,1,0,0:0:0:0:
215,229,192774,1,8,0:0:0:0:
215,229,192910,1,8,0:0:0:0:
215,229,193047,1,0,0:0:0:0:
215,229,193183,1,0,0:0:0:0:
215,229,193320,1,12,0:0:0:0:
215,229,193592,1,0,0:0:0:0:
215,229,193729,1,8,0:0:0:0:
215,229,193865,1,0,0:0:0:0:
215,229,194001,1,8,0:0:0:0:
215,229,194138,1,8,0:0:0:0:
215,229,194274,1,4,0:0:0:0:
215,229,194547,1,0,0:0:0:0:
215,229,194683,1,8,0:0:0:0:
215,229,194820,1,0,0:0:0:0:
215,229,194956,1,8,0:0:0:0:
282,207,195024,1,8,0:0:0:0:
215,229,195092,1,0,0:0:0:0:
282,207,195160,1,0,0:0:0:0:
215,229,195229,1,8,0:0:0:0:
282,207,195297,1,0,0:0:0:0:
215,229,195365,1,8,0:0:0:0:
282,207,195433,1,8,0:0:0:0:
215,229,195501,1,0,0:0:0:0:
199,172,195638,1,0,0:0:0:0:
199,172,195774,1,8,0:0:0:0:
199,172,196047,1,0,0:0:0:0:
199,172,196183,1,8,0:0:0:0:
199,172,196456,1,0,0:0:0:0:
199,172,196592,1,8,0:0:0:0:
171,198,196729,1,0,0:0:0:0:
171,198,196865,1,8,0:0:0:0:
280,187,197001,1,0,0:0:0:0:
157,209,197138,1,8,0:0:0:0:
343,237,197206,1,8,0:0:0:0:
343,237,197274,1,0,0:0:0:0:
343,237,197342,1,0,0:0:0:0:
343,237,197410,1,8,0:0:0:0:
343,237,197479,1,0,0:0:0:0:
343,237,197547,1,0,0:0:0:0:
343,237,197615,1,0,0:0:0:0:
151,212,197683,1,8,0:0:0:0:
242,190,197820,1,0,0:0:0:0:
242,190,197956,1,0,0:0:0:0:
248,189,198229,1,8,0:0:0:0:
252,189,198365,1,0,0:0:0:0:
252,189,198638,1,0,0:0:0:0:
252,205,198774,1,8,0:0:0:0:
242,218,198910,1,0,0:0:0:0:
242,218,199047,1,0,0:0:0:0:
242,218,199183,1,8,0:0:0:0:
191,200,199456,1,8,0:0:0:0:
238,229,199592,1,0,0:0:0:0:
259,158,199865,1,4,0:0:0:0:
200,167,200138,1,8,0:0:0:0:
189,161,200410,1,0,0:0:0:0:
218,165,200547,1,0,0:0:0:0:
189,161,200683,1,8,0:0:0:0:
185,165,200956,1,8,0:0:0:0:
216,176,201092,1,8,0:0:0:0:
277,130,201160,1,8,0:0:0:0:
189,161,201229,1,0,0:0:0:0:
184,167,201365,1,8,0:0:0:0:
184,167,201501,1,0,0:0:0:0:
178,147,201570,1,0,0:0:0:0:
185,165,201638,1,8,0:0:0:0:
178,148,201706,1,8,0:0:0:0:
185,151,201774,1,0,0:0:0:0:
185,197,201910,1,8,0:0:0:0:
185,171,202047,1,0,0:0:0:0:
161,184,202320,1,8,0:0:0:0:
161,184,202592,1,0,0:0:0:0:
161,186,202729,1,0,0:0:0:0:
161,186,202865,1,8,0:0:0:0:
161,184,203138,1,0,0:0:0:0:
161,184,203274,1,0,0:0:0:0:
268,140,203342,1,0,0:0:0:0:
163,190,203410,1,8,0:0:0:0:
164,192,203547,1,0,0:0:0:0:
164,192,203683,1,8,0:0:0:0:
206,156,203751,1,8,0:0:0:0:
164,192,203820,1,8,0:0:0:0:
198,159,203888,1,8,0:0:0:0:
206,156,203956,1,0,0:0:0:0:
166,193,204092,1,8,0:0:0:0:
163,190,204229,1,4,0:0:0:0:
164,192,204501,1,8,0:0:0:0:
165,192,204774,1,0,0:0:0:0:
166,193,204910,1,0,0:0:0:0:
163,190,205047,1,8,0:0:0:0:
248,191,205183,1,0,0:0:0:0:
164,192,205320,1,8,0:0:0:0:
165,192,205456,1,0,0:0:0:0:
259,148,205524,1,0,0:0:0:0:
165,192,205592,1,8,0:0:0:0:
166,193,205729,1,0,0:0:0:0:
170,193,205865,1,8,0:0:0:0:
241,143,205933,1,0,0:0:0:0:
164,192,206001,1,0,0:0:0:0:
241,143,206070,1,0,0:0:0:0:
257,171,206138,1,8,0:0:0:0:
188,142,206274,1,8,0:0:0:0:
269,165,206410,1,0,0:0:0:0:
137,181,206683,1,8,0:0:0:0:
222,157,206956,1,0,0:0:0:0:
253,148,207092,1,0,0:0:0:0:
192,90,207229,1,8,0:0:0:0:
222,157,207501,1,8,0:0:0:0:
222,157,207638,1,0,0:0:0:0:
248,157,207706,1,0,0:0:0:0:
222,157,207774,1,8,0:0:0:0:
222,157,207910,1,0,0:0:0:0:
222,164,208047,1,8,0:0:0:0:
186,200,208115,1,0,0:0:0:0:
222,164,208183,1,8,0:0:0:0:
186,200,208251,1,8,0:0:0:0:
222,167,208320,1,0,0:0:0:0:
139,155,208456,1,8,0:0:0:0:
221,167,208592,1,4,0:0:0:0:
222,164,208865,1,8,0:0:0:0:
222,167,209138,1,0,0:0:0:0:
186,203,209274,1,0,0:0:0:0:
186,203,209410,1,8,0:0:0:0:
186,203,209683,1,8,0:0:0:0:
186,203,209820,1,0,0:0:0:0:
246,165,209888,1,0,0:0:0:0:
186,203,209956,1,8,0:0:0:0:
186,203,210092,1,8,0:0:0:0:
186,203,210229,1,0,0:0:0:0:
222,176,210297,1,0,0:0:0:0:
186,203,210365,1,8,0:0:0:0:
222,176,210433,1,0,0:0:0:0:
186,203,210501,1,8,0:0:0:0:
186,203,210638,1,8,0:0:0:0:
186,203,210774,1,0,0:0:0:0:
186,203,211047,1,8,0:0:0:0:
186,203,211320,1,0,0:0:0:0:
186,203,211456,1,0,0:0:0:0:
186,203,211592,1,8,0:0:0:0:
186,203,211865,1,8,0:0:0:0:
186,203,212001,1,0,0:0:0:0:
248,163,212070,1,0,0:0:0:0:
186,203,212138,1,8,0:0:0:0:
186,203,212274,1,0,0:0:0:0:
186,203,212410,1,8,0:0:0:0:
224,179,212479,1,0,0:0:0:0:
186,203,212547,1,0,0:0:0:0:
224,179,212615,1,0,0:0:0:0:
186,203,212683,1,8,0:0:0:0:
186,203,212820,1,8,0:0:0:0:
186,203,212956,1,4,0:0:0:0:
186,203,213229,1,8,0:0:0:0:
186,203,213501,1,0,0:0:0:0:
186,203,213638,1,0,0:0:0:0:
186,203,213774,1,8,0:0:0:0:
186,203,214047,1,8,0:0:0:0:
186,203,214183,1,0,0:0:0:0:
257,161,214251,1,0,0:0:0:0:
186,203,214320,1,0,0:0:0:0:
186,203,214456,1,0,0:0:0:0:
186,203,214592,1,8,0:0:0:0:
246,128,214660,1,8,0:0:0:0:
250,120,214729,1,0,0:0:0:0:
247,128,214797,1,0,0:0:0:0:
186,203,214865,1,8,0:0:0:0:
186,203,215001,1,8,0:0:0:0:
186,203,215138,1,0,0:0:0:0:
186,203,215410,1,8,0:0:0:0:
220,182,215547,1,8,0:0:0:0:
192,217,215683,1,0,0:0:0:0:
184,217,215820,1,0,0:0:0:0:
185,217,215956,1,8,0:0:0:0:
220,182,216092,1,0,0:0:0:0:
188,218,216229,1,8,0:0:0:0:
192,217,216365,1,0,0:0:0:0:
259,166,216433,1,0,0:0:0:0:
192,217,216501,1,8,0:0:0:0:
184,217,216638,1,0,0:0:0:0:
259,166,216706,1,0,0:0:0:0:
185,217,216774,1,8,0:0:0:0:
188,218,216910,1,0,0:0:0:0:
188,218,217047,1,8,0:0:0:0:
192,217,217183,1,8,0:0:0:0:
192,217,217320,1,4,0:0:0:0:
189,203,217592,1,8,0:0:0:0:
189,203,217865,1,0,0:0:0:0:
188,204,218001,1,0,0:0:0:0:
186,205,218138,1,8,0:0:0:0:
189,203,218410,1,8,0:0:0:0:
189,203,218547,1,0,0:0:0:0:
246,153,218615,1,0,0:0:0:0:
189,203,218683,1,0,0:0:0:0:
188,204,218820,1,0,0:0:0:0:
186,205,218956,1,8,0:0:0:0:
236,159,219024,1,8,0:0:0:0:
189,203,219092,1,0,0:0:0:0:
229,163,219160,1,0,0:0:0:0:
189,203,219229,1,8,0:0:0:0:
189,203,219365,1,8,0:0:0:0:
189,203,219501,1,0,0:0:0:0:
186,205,219774,1,8,0:0:0:0:
189,203,220047,1,0,0:0:0:0:
183,207,220183,1,0,0:0:0:0:
183,207,220320,1,8,0:0:0:0:
186,205,220592,1,8,0:0:0:0:
183,207,220729,1,0,0:0:0:0:
228,165,220797,1,0,0:0:0:0:
183,207,220865,1,8,0:0:0:0:
183,207,221001,1,0,0:0:0:0:
183,207,221138,1,8,0:0:0:0:
228,165,221206,1,8,0:0:0:0:
186,205,221274,1,0,0:0:0:0:
228,165,221342,1,0,0:0:0:0:
186,205,221410,1,8,0:0:0:0:
186,205,221547,1,8,0:0:0:0:
183,207,221683,1,4,0:0:0:0:
183,207,221956,1,8,0:0:0:0:
186,205,222229,1,0,0:0:0:0:
186,205,222365,1,0,0:0:0:0:
183,207,222501,1,8,0:0:0:0:
258,180,222638,1,0,0:0:0:0:
183,207,222774,1,8,0:0:0:0:
186,205,222910,1,8,0:0:0:0:
229,167,222979,1,8,0:0:0:0:
186,205,223047,1,0,0:0:0:0:
186,205,223183,1,0,0:0:0:0:
183,207,223320,1,8,0:0:0:0:
229,167,223388,1,0,0:0:0:0:
183,207,223456,1,0,0:0:0:0:
229,167,223524,1,0,0:0:0:0:
183,207,223592,1,8,0:0:0:0:
172,200,223729,1,8,0:0:0:0:
170,201,223865,1,0,0:0:0:0:
170,200,224138,1,8,0:0:0:0:
170,200,224410,1,0,0:0:0:0:
231,176,224479,1,0,0:0:0:0:
172,200,224547,1,0,0:0:0:0:
231,176,224615,1,0,0:0:0:0:
170,201,224683,1,8,0:0:0:0:
170,200,224956,1,8,0:0:0:0:
170,200,225092,1,0,0:0:0:0:
230,175,225160,1,0,0:0:0:0:
170,200,225229,1,8,0:0:0:0:
172,200,225365,1,0,0:0:0:0:
170,201,225501,1,8,0:0:0:0:
256,136,225570,1,0,0:0:0:0:
170,200,225638,1,8,0:0:0:0:
256,136,225706,1,8,0:0:0:0:
170,200,225774,1,0,0:0:0:0:
170,200,225910,1,8,0:0:0:0:
170,200,226047,1,4,0:0:0:0:
170,201,226320,1,8,0:0:0:0:
170,200,226592,1,0,0:0:0:0:
170,200,226729,1,0,0:0:0:0:
170,200,226865,1,8,0:0:0:0:
170,201,227138,1,8,0:0:0:0:
170,200,227274,1,0,0:0:0:0:
253,135,227342,1,0,0:0:0:0:
170,200,227410,1,0,0:0:0:0:
170,200,227547,1,8,0:0:0:0:
170,200,227683,1,0,0:0:0:0:
253,135,227751,1,0,0:0:0:0:
170,201,227820,1,8,0:0:0:0:
253,135,227888,1,0,0:0:0:0:
170,201,227956,1,8,0:0:0:0:
170,200,228092,1,8,0:0:0:0:
170,200,228229,1,0,0:0:0:0:
170,200,228501,1,8,0:0:0:0:
170,201,228774,1,0,0:0:0:0:
170,200,228910,1,0,0:0:0:0:
170,200,229047,1,8,0:0:0:0:
170,200,229320,1,8,0:0:0:0:
170,201,229456,1,0,0:0:0:0:
246,144,229524,1,0,0:0:0:0:
170,201,229592,1,0,0:0:0:0:
170,200,229729,1,8,0:0:0:0:
170,200,229865,1,0,0:0:0:0:
246,144,229933,1,0,0:0:0:0:
234,151,230001,1,8,0:0:0:0:
234,152,230070,1,0,0:0:0:0:
246,144,230138,1,8,0:0:0:0:
197,164,230274,1,0,0:0:0:0:
197,164,230410,1,8,0:0:0:0:
197,164,230683,1,8,0:0:0:0:
197,164,230956,1,0,0:0:0:0:
197,164,231092,1,0,0:0:0:0:
195,170,231229,1,8,0:0:0:0:
194,174,231501,1,0,0:0:0:0:
194,174,231638,1,0,0:0:0:0:
186,147,231706,1,0,0:0:0:0:
194,174,231774,1,8,0:0:0:0:
194,174,231910,1,0,0:0:0:0:
195,170,232047,1,8,0:0:0:0:
184,151,232115,1,8,0:0:0:0:
194,174,232183,1,0,0:0:0:0:
184,151,232251,1,0,0:0:0:0:
194,174,232320,1,8,0:0:0:0:
194,174,232456,1,8,0:0:0:0:
194,174,232592,1,4,0:0:0:0:
184,174,232865,1,8,0:0:0:0:
185,174,233138,1,0,0:0:0:0:
185,174,233274,1,0,0:0:0:0:
185,174,233410,1,8,0:0:0:0:
184,174,233683,1,8,0:0:0:0:
185,174,233820,1,0,0:0:0:0:
197,157,233888,1,0,0:0:0:0:
185,174,233956,1,8,0:0:0:0:
185,174,234092,1,0,0:0:0:0:
262,220,234229,1,8,0:0:0:0:
308,258,234297,1,0,0:0:0:0:
308,258,234365,1,8,0:0:0:0:
308,258,234433,1,8,0:0:0:0:
308,258,234501,1,0,0:0:0:0:
308,258,234638,1,8,0:0:0:0:
262,220,234774,1,4,0:0:0:0:
199,219,235047,1,0,0:0:0:0:
199,219,235320,1,0,0:0:0:0:
199,219,235592,1,8,0:0:0:0:
249,186,236001,1,8,0:0:0:0:
249,186,236138,1,0,0:0:0:0:
231,197,236274,1,0,0:0:0:0:
231,198,236410,1,8,0:0:0:0:
230,198,236683,1,0,0:0:0:0:
229,200,236820,1,8,0:0:0:0:
231,197,236956,1,8,0:0:0:0:
220,207,237092,1,0,0:0:0:0:
220,207,237229,1,0,0:0:0:0:
220,207,237365,1,0,0:0:0:0:
220,207,237501,1,8,0:0:0:0:
219,207,237774,1,0,0:0:0:0:
220,207,238047,1,8,0:0:0:0:
181,255,238115,1,8,0:0:0:0:
181,255,238183,1,0,0:0:0:0:
181,255,238251,1,0,0:0:0:0:
181,255,238320,1,8,0:0:0:0:
181,255,238388,1,0,0:0:0:0:
181,255,238456,1,0,0:0:0:0:
181,255,238524,1,0,0:0:0:0:
181,255,238592,1,8,0:0:0:0:
181,255,238660,1,0,0:0:0:0:
181,255,238729,1,8,0:0:0:0:
181,255,238797,1,8,0:0:0:0:
181,255,238865,1,0,0:0:0:0:
181,255,238933,1,0,0:0:0:0:
181,255,239001,1,0,0:0:0:0:
181,255,239070,1,0,0:0:0:0:
253,170,239138,1,12,0:0:0:0:
329,203,239410,1,0,0:0:0:0:
329,203,239547,1,0,0:0:0:0:
329,203,239683,1,8,0:0:0:0:
329,203,239820,1,0,0:0:0:0:
329,203,239956,1,8,0:0:0:0:
329,203,240092,1,8,0:0:0:0:
329,203,240229,1,0,0:0:0:0:
329,203,240365,1,0,0:0:0:0:
329,203,240501,1,8,0:0:0:0:
329,203,240638,1,0,0:0:0:0:
329,203,240774,1,12,0:0:0:0:
329,203,241047,1,8,0:0:0:0:
329,203,241183,1,8,0:0:0:0:
329,203,241320,1,4,0:0:0:0:
329,203,241592,1,8,0:0:0:0:
329,203,241729,1,0,0:0:0:0:
329,203,241865,1,8,0:0:0:0:
329,203,242001,1,0,0:0:0:0:
329,203,242138,1,0,0:0:0:0:
329,203,242274,1,0,0:0:0:0:
329,203,242410,1,8,0:0:0:0:
329,203,242547,1,0,0:0:0:0:
329,203,242683,1,8,0:0:0:0:
329,203,242820,1,8,0:0:0:0:
329,203,242956,1,4,0:0:0:0:
329,203,243229,1,8,0:0:0:0:
329,203,243365,1,0,0:0:0:0:
321,203,243501,1,12,0:0:0:0:
321,203,243774,1,0,0:0:0:0:
321,203,243910,1,0,0:0:0:0:
321,203,244047,1,8,0:0:0:0:
321,203,244183,1,0,0:0:0:0:
321,203,244320,1,0,0:0:0:0:
321,203,244456,1,0,0:0:0:0:
321,203,244592,1,8,0:0:0:0:
321,203,244729,1,8,0:0:0:0:
321,203,244865,1,0,0:0:0:0:
321,203,245001,1,0,0:0:0:0:
321,203,245138,1,12,0:0:0:0:
321,203,245410,1,8,0:0:0:0:
321,203,245547,1,8,0:0:0:0:
321,203,245683,1,4,0:0:0:0:
321,203,245956,1,0,0:0:0:0:
321,203,246092,1,0,0:0:0:0:
321,203,246229,1,8,0:0:0:0:
321,203,246365,1,0,0:0:0:0:
321,203,246501,1,12,0:0:0:0:
314,201,246774,1,8,0:0:0:0:
310,205,246910,1,8,0:0:0:0:
311,205,247047,1,0,0:0:0:0:
313,205,247183,1,0,0:0:0:0:
321,203,247320,1,12,0:0:0:0:
310,205,247592,1,0,0:0:0:0:
311,205,247729,1,0,0:0:0:0:
313,205,247865,1,12,0:0:0:0:
314,201,248138,1,0,0:0:0:0:
318,205,248274,1,0,0:0:0:0:
318,205,248410,1,8,0:0:0:0:
318,205,248547,1,0,0:0:0:0:
313,205,248683,1,0,0:0:0:0:
311,203,248820,1,0,0:0:0:0:
314,201,248956,1,12,0:0:0:0:
311,203,249229,1,8,0:0:0:0:
311,203,249365,1,8,0:0:0:0:
313,205,249501,1,4,0:0:0:0:
311,203,249774,1,8,0:0:0:0:
311,203,249910,1,0,0:0:0:0:
311,203,250047,1,12,0:0:0:0:
313,205,250320,1,0,0:0:0:0:
314,201,250456,1,0,0:0:0:0:
311,203,250592,1,8,0:0:0:0:
315,180,250729,1,0,0:0:0:0:
311,203,250865,1,8,0:0:0:0:
313,205,251001,1,8,0:0:0:0:
313,205,251138,1,0,0:0:0:0:
314,201,251274,1,0,0:0:0:0:
311,203,251410,1,8,0:0:0:0:
311,203,251547,1,0,0:0:0:0:
313,205,251683,1,12,0:0:0:0:
314,201,251956,1,8,0:0:0:0:
311,203,252092,1,8,0:0:0:0:
311,203,252229,1,4,0:0:0:0:
313,205,252501,1,8,0:0:0:0:
313,205,252638,1,0,0:0:0:0:
317,184,252774,1,8,0:0:0:0:
320,190,252910,1,0,0:0:0:0:
320,191,253047,1,12,0:0:0:0:
320,193,253320,1,0,0:0:0:0:
320,193,253456,1,0,0:0:0:0:
320,193,253592,1,8,0:0:0:0:
320,191,253729,1,0,0:0:0:0:
320,193,253865,1,12,0:0:0:0:
320,193,254138,1,0,0:0:0:0:
320,193,254274,1,0,0:0:0:0:
320,193,254410,1,8,0:0:0:0:
371,197,254547,1,8,0:0:0:0:
366,213,254615,1,8,0:0:0:0:
365,214,254683,1,8,0:0:0:0:
259,228,254820,1,0,0:0:0:0:
290,220,254956,1,8,0:0:0:0:
294,220,255092,1,0,0:0:0:0:
293,220,255229,1,0,0:0:0:0:
265,234,255365,1,8,0:0:0:0:
264,233,255501,1,8,0:0:0:0:
229,138,255570,1,8,0:0:0:0:
229,138,255638,1,0,0:0:0:0:
229,138,255706,1,0,0:0:0:0:
229,138,255774,1,8,0:0:0:0:
229,138,255842,1,0,0:0:0:0:
228,132,255910,1,8,0:0:0:0:
228,132,255979,1,8,0:0:0:0:
228,132,256047,1,0,0:0:0:0:
204,100,256115,1,0,0:0:0:0:
228,132,256183,1,8,0:0:0:0:
228,132,256251,1,8,0:0:0:0:
228,132,256320,1,8,0:0:0:0:
148,191,256388,1,8,0:0:0:0:
185,179,256456,1,0,0:0:0:0:
253,226,256524,1,0,0:0:0:0:
185,179,256592,1,12,0:0:0:0:
349,240,256729,1,0,0:0:0:0:
349,240,256865,1,0,0:0:0:0:
269,252,257001,1,8,0:0:0:0:
220,170,257070,1,0,0:0:0:0:
292,149,257138,1,8,0:0:0:0:
292,149,257229,1,0,0:0:0:0:
292,149,257320,1,0,0:0:0:0:
292,149,257410,1,8,0:0:0:0:
259,264,257501,1,0,0:0:0:0:
149,155,257592,1,0,0:0:0:0:
257,268,257683,1,8,0:0:0:0:
165,35,257774,1,8,0:0:0:0:
257,268,257865,1,0,0:0:0:0:
257,268,257956,1,8,0:0:0:0:
190,123,258047,1,0,0:0:0:0:
228,247,258138,1,0,0:0:0:0:
227,253,258229,1,8,0:0:0:0:
226,254,258365,1,8,0:0:0:0:
227,255,258501,1,0,0:0:0:0:
227,255,258638,1,0,0:0:0:0:
224,260,258774,1,8,0:0:0:0:
155,244,258842,1,8,0:0:0:0:
155,244,258910,1,0,0:0:0:0:
157,251,259047,1,0,0:0:0:0:
157,253,259183,1,8,0:0:0:0:
158,253,259251,1,8,0:0:0:0:
159,254,259320,1,8,0:0:0:0:
245,187,259456,1,0,0:0:0:0:
245,188,259592,1,8,0:0:0:0:
188,186,259729,1,0,0:0:0:0:
188,186,259865,1,8,0:0:0:0:
321,151,259956,1,8,0:0:0:0:
321,151,260047,1,0,0:0:0:0:
185,202,260138,1,8,0:0:0:0:
222,136,260229,1,8,0:0:0:0:
186,201,260320,1,0,0:0:0:0:
247,150,260410,1,8,0:0:0:0:
206,153,260501,1,0,0:0:0:0:
188,217,260592,1,0,0:0:0:0:
188,218,260683,1,8,0:0:0:0:
209,109,260774,1,0,0:0:0:0:
188,219,260865,1,0,0:0:0:0:
188,219,260956,1,12,0:0:0:0:
188,220,261092,1,0,0:0:0:0:
188,217,261160,1,0,0:0:0:0:
188,217,261229,1,8,0:0:0:0:
188,217,261365,1,0,0:0:0:0:
188,218,261501,1,8,0:0:0:0:
188,219,261570,1,8,0:0:0:0:
188,219,261638,1,0,0:0:0:0:
188,219,261706,1,0,0:0:0:0:
188,219,261774,1,8,0:0:0:0:
165,177,261865,1,0,0:0:0:0:
209,164,261956,1,8,0:0:0:0:
224,191,262047,1,8,0:0:0:0:
336,115,262138,1,0,0:0:0:0:
214,212,262229,1,8,0:0:0:0:
214,212,262320,1,0,0:0:0:0:
229,200,262410,1,8,0:0:0:0:
244,174,262501,1,0,0:0:0:0:
244,174,262592,1,8,0:0:0:0:
222,163,262683,1,0,0:0:0:0:
244,174,262774,1,8,0:0:0:0:
244,174,262865,1,0,0:0:0:0:
157,227,262956,1,8,0:0:0:0:
244,174,263047,1,0,0:0:0:0:
244,174,263138,1,12,0:0:0:0:
244,174,263274,1,0,0:0:0:0:
136,227,263410,1,8,0:0:0:0:
139,230,263501,1,0,0:0:0:0:
139,230,263592,1,0,0:0:0:0:
139,230,263683,1,8,0:0:0:0:
139,230,263774,1,8,0:0:0:0:
136,227,263865,1,0,0:0:0:0:
136,227,263956,1,8,0:0:0:0:
136,227,264047,1,0,0:0:0:0:
136,227,264138,1,0,0:0:0:0:
136,227,264229,5,8,0:0:0:0:
285,217,264320,1,8,0:0:0:0:
285,217,264410,1,0,0:0:0:0:
285,217,264501,1,8,0:0:0:0:
285,217,264592,1,0,0:0:0:0:
285,217,264683,1,0,0:0:0:0:
285,217,264774,1,8,0:0:0:0:
218,110,264842,1,0,0:0:0:0:
276,202,264910,1,0,0:0:0:0:
183,272,264979,1,0,0:0:0:0:
276,202,265047,1,8,0:0:0:0:
274,203,265183,1,0,0:0:0:0:
269,203,265320,1,8,0:0:0:0:
228,147,265388,1,8,0:0:0:0:
228,147,265456,1,0,0:0:0:0:
312,110,265524,1,0,0:0:0:0:
238,146,265592,1,8,0:0:0:0:
238,146,265660,1,0,0:0:0:0:
312,110,265729,1,0,0:0:0:0:
312,110,265797,1,0,0:0:0:0:
238,146,265865,1,8,0:0:0:0:
238,146,265933,1,8,0:0:0:0:
238,146,266001,1,0,0:0:0:0:
291,100,266070,1,0,0:0:0:0:
238,146,266138,1,8,0:0:0:0:
238,146,266206,1,0,0:0:0:0:
238,146,266274,1,0,0:0:0:0:
290,100,266342,1,0,0:0:0:0:
238,146,266410,1,8,0:0:0:0:
233,229,266479,1,8,0:0:0:0:
233,229,266547,1,8,0:0:0:0:
279,79,266615,1,8,0:0:0:0:
233,229,266683,1,0,0:0:0:0:
233,229,266774,1,0,0:0:0:0:
233,229,266865,1,0,0:0:0:0:
233,229,266956,1,8,0:0:0:0:
207,206,267138,1,0,0:0:0:0:
301,195,267320,1,0,0:0:0:0:
200,222,267501,1,12,0:0:0:0:
182,194,267638,1,8,0:0:0:0:
183,194,267774,1,8,0:0:0:0:
382,109,267910,1,0,0:0:0:0:
329,188,267979,1,0,0:0:0:0:
355,154,268047,1,8,0:0:0:0:
279,188,268183,1,0,0:0:0:0:
279,188,268320,1,8,0:0:0:0:
279,188,268388,1,8,0:0:0:0:
287,189,268456,1,0,0:0:0:0:
248,194,268592,1,0,0:0:0:0:
231,198,268729,1,8,0:0:0:0:
231,198,268797,1,8,0:0:0:0:
230,198,268865,1,8,0:0:0:0:
230,198,269001,1,0,0:0:0:0:
212,172,269138,1,8,0:0:0:0:
216,189,269274,1,8,0:0:0:0:
219,189,269410,1,0,0:0:0:0:
219,189,269547,1,0,0:0:0:0:
220,189,269683,1,0,0:0:0:0:
220,189,269751,1,0,0:0:0:0:
220,189,269820,1,8,0:0:0:0:
220,189,269956,1,0,0:0:0:0:
222,183,270092,1,0,0:0:0:0:
170,135,270160,1,0,0:0:0:0:
219,189,270229,1,8,0:0:0:0:
247,164,270320,1,0,0:0:0:0:
246,164,270410,1,0,0:0:0:0:
260,173,270501,1,8,0:0:0:0:
260,173,270592,1,0,0:0:0:0:
260,173,270683,1,0,0:0:0:0:
260,173,270774,1,8,0:0:0:0:
190,266,270842,1,8,0:0:0:0:
190,266,270910,1,0,0:0:0:0:
190,266,270979,1,0,0:0:0:0:
190,266,271047,1,8,0:0:0:0:
190,266,271115,1,0,0:0:0:0:
190,266,271183,1,0,0:0:0:0:
190,266,271251,1,0,0:0:0:0:
257,174,271320,1,8,0:0:0:0:
160,201,271388,1,8,0:0:0:0:
160,201,271456,1,0,0:0:0:0:
160,201,271524,1,0,0:0:0:0:
257,174,271592,1,8,0:0:0:0:
257,174,271683,1,8,0:0:0:0:
315,175,271774,1,8,0:0:0:0:
257,174,271865,1,4,0:0:0:0:
346,296,272047,1,0,0:0:0:0:
338,314,272138,1,8,0:0:0:0:
246,258,272229,1,0,0:0:0:0:
246,258,272320,1,0,0:0:0:0:
246,258,272410,1,8,0:0:0:0:
305,231,272479,1,8,0:0:0:0:
305,231,272547,1,0,0:0:0:0:
305,231,272615,1,0,0:0:0:0:
305,231,272683,1,8,0:0:0:0:
305,231,272751,1,0,0:0:0:0:
305,231,272820,1,0,0:0:0:0:
294,229,272888,1,0,0:0:0:0:
295,230,272956,1,8,0:0:0:0:
213,199,273024,1,8,0:0:0:0:
213,199,273092,1,8,0:0:0:0:
213,199,273160,1,8,0:0:0:0:
213,199,273229,1,0,0:0:0:0:
213,199,273297,1,0,0:0:0:0:
213,199,273365,1,8,0:0:0:0:
213,199,273433,1,0,0:0:0:0:
213,199,273501,1,8,0:0:0:0:
213,199,273570,1,8,0:0:0:0:
213,199,273638,1,0,0:0:0:0:
213,199,273706,1,0,0:0:0:0:
213,199,273774,1,8,0:0:0:0:
164,159,274047,1,4,0:0:0:0:
365,278,274183,1,0,0:0:0:0:
171,161,274251,1,0,0:0:0:0:
406,188,274320,1,8,0:0:0:0:
206,231,274388,1,8,0:0:0:0:
251,244,274456,1,0,0:0:0:0:
251,244,274524,1,0,0:0:0:0:
251,244,274592,1,8,0:0:0:0:
251,244,274660,1,0,0:0:0:0:
251,244,274729,1,0,0:0:0:0:
251,244,274797,1,0,0:0:0:0:
243,245,274865,1,8,0:0:0:0:
248,212,274933,1,0,0:0:0:0:
253,217,275001,1,8,0:0:0:0:
272,249,275070,1,8,0:0:0:0:
302,215,275138,1,0,0:0:0:0:
229,246,275206,1,8,0:0:0:0:
229,246,275274,1,0,0:0:0:0:
229,246,275342,1,0,0:0:0:0:
229,246,275410,1,8,0:0:0:0:
229,246,275479,1,8,0:0:0:0:
229,246,275547,1,0,0:0:0:0:
229,246,275615,1,0,0:0:0:0:
229,246,275683,1,8,0:0:0:0:
230,245,275751,1,0,0:0:0:0:
230,245,275820,1,8,0:0:0:0:
231,243,275888,1,8,0:0:0:0:
231,243,275956,1,0,0:0:0:0:
231,243,276024,1,8,0:0:0:0:
231,243,276092,1,8,0:0:0:0:
231,243,276160,1,0,0:0:0:0:
231,243,276229,1,8,0:0:0:0:
231,243,276297,1,0,0:0:0:0:
231,243,276365,1,0,0:0:0:0:
231,243,276433,1,0,0:0:0:0:
231,243,276501,1,8,0:0:0:0:
231,243,276570,1,8,0:0:0:0:
231,243,276638,1,0,0:0:0:0:
231,243,276706,1,0,0:0:0:0:
230,237,276774,1,8,0:0:0:0:
230,237,276842,1,8,0:0:0:0:
230,237,276910,1,8,0:0:0:0:
230,237,276979,1,8,0:0:0:0:
230,237,277047,1,0,0:0:0:0:
230,237,277115,1,8,0:0:0:0:
230,237,277183,1,0,0:0:0:0:
230,237,277251,1,0,0:0:0:0:
230,237,277320,1,8,0:0:0:0:
230,237,277388,1,0,0:0:0:0:
230,237,277456,1,8,0:0:0:0:
230,237,277524,1,8,0:0:0:0:
291,178,277592,1,0,0:0:0:0:
230,237,277660,1,0,0:0:0:0:
230,237,277729,1,8,0:0:0:0:
230,237,277797,1,8,0:0:0:0:
230,237,277865,1,0,0:0:0:0:
233,229,277933,1,8,0:0:0:0:
233,229,278001,1,0,0:0:0:0:
233,229,278070,1,0,0:0:0:0:
233,229,278138,1,8,0:0:0:0:
233,229,278206,1,0,0:0:0:0:
230,221,278274,1,0,0:0:0:0:
230,221,278342,1,0,0:0:0:0:
228,199,278410,1,12,0:0:0:0:
292,211,278547,1,0,0:0:0:0:
290,189,278615,1,0,0:0:0:0:
298,212,278683,1,8,0:0:0:0:
247,212,278820,1,0,0:0:0:0:
253,215,278956,1,8,0:0:0:0:
234,215,279092,1,0,0:0:0:0:
248,211,279160,1,0,0:0:0:0:
233,215,279229,1,8,0:0:0:0:
298,134,279365,1,0,0:0:0:0:
194,209,279501,1,0,0:0:0:0:
193,210,279638,1,8,0:0:0:0:
234,144,279706,1,8,0:0:0:0:
195,211,279774,1,8,0:0:0:0:
195,211,279910,1,0,0:0:0:0:
195,211,280047,1,8,0:0:0:0:
231,155,280115,1,8,0:0:0:0:
195,211,280183,1,0,0:0:0:0:
233,157,280251,1,0,0:0:0:0:
194,209,280320,1,8,0:0:0:0:
193,210,280456,1,0,0:0:0:0:
195,211,280592,1,8,0:0:0:0:
306,240,280683,1,8,0:0:0:0:
306,240,280774,1,8,0:0:0:0:
306,240,280865,1,0,0:0:0:0:
306,240,280956,1,0,0:0:0:0:
306,240,281047,1,0,0:0:0:0:
306,240,281138,1,8,0:0:0:0:
306,240,281229,1,8,0:0:0:0:
306,240,281320,1,8,0:0:0:0:
306,240,281410,1,0,0:0:0:0:
306,240,281501,1,0,0:0:0:0:
306,240,281592,1,0,0:0:0:0:
289,225,281683,1,8,0:0:0:0:
292,224,281774,1,0,0:0:0:0:
289,224,281865,1,0,0:0:0:0:
289,224,281956,1,8,0:0:0:0:
303,226,282047,1,0,0:0:0:0:
292,224,282138,1,0,0:0:0:0:
292,224,282229,1,8,0:0:0:0:
288,226,282320,1,8,0:0:0:0:
288,225,282410,1,0,0:0:0:0:
292,224,282501,1,8,0:0:0:0:
292,224,282592,1,8,0:0:0:0:
289,224,282683,1,0,0:0:0:0:
289,224,282774,1,12,0:0:0:0:
313,198,283047,1,0,0:0:0:0:
340,174,283115,1,0,0:0:0:0:
340,174,283183,1,8,0:0:0:0:
337,173,283320,1,0,0:0:0:0:
156,152,283456,1,0,0:0:0:0:
344,144,283524,1,0,0:0:0:0:
249,180,283592,1,8,0:0:0:0:
232,151,283660,1,8,0:0:0:0:
249,180,283729,1,0,0:0:0:0:
241,186,283797,1,0,0:0:0:0:
249,180,283865,1,8,0:0:0:0:
270,268,284001,1,0,0:0:0:0:
254,180,284138,1,8,0:0:0:0:
263,167,284206,1,8,0:0:0:0:
257,124,284274,1,0,0:0:0:0:
249,180,284410,1,8,0:0:0:0:
249,180,284547,1,0,0:0:0:0:
207,184,284615,1,0,0:0:0:0:
249,180,284683,1,8,0:0:0:0:
207,184,284751,1,8,0:0:0:0:
249,180,284820,1,0,0:0:0:0:
199,91,284888,1,0,0:0:0:0:
254,180,284956,1,8,0:0:0:0:
270,185,285092,1,8,0:0:0:0:
302,195,285229,1,0,0:0:0:0:
302,195,285365,1,0,0:0:0:0:
302,195,285501,1,8,0:0:0:0:
316,243,285570,1,8,0:0:0:0:
302,195,285638,1,0,0:0:0:0:
212,141,285706,1,0,0:0:0:0:
303,195,285774,1,8,0:0:0:0:
212,141,285842,1,0,0:0:0:0:
303,195,285910,1,8,0:0:0:0:
302,117,286047,1,0,0:0:0:0:
302,195,286183,1,0,0:0:0:0:
226,217,286320,1,8,0:0:0:0:
226,217,286456,1,8,0:0:0:0:
226,217,286592,1,0,0:0:0:0:
321,251,286660,1,0,0:0:0:0:
226,217,286729,1,0,0:0:0:0:
321,251,286797,1,0,0:0:0:0:
226,217,286865,1,8,0:0:0:0:
226,217,287001,1,0,0:0:0:0:
226,217,287138,1,8,0:0:0:0:
316,237,287274,1,8,0:0:0:0:
277,192,287342,1,8,0:0:0:0:
277,192,287410,1,0,0:0:0:0:
277,192,287479,1,8,0:0:0:0:
277,192,287547,1,8,0:0:0:0:
277,192,287615,1,8,0:0:0:0:
277,192,287683,1,0,0:0:0:0:
277,192,287751,1,0,0:0:0:0:
277,192,287820,1,8,0:0:0:0:
277,192,287888,1,0,0:0:0:0:
277,192,287956,1,8,0:0:0:0:
277,192,288024,1,8,0:0:0:0:
277,192,288092,1,0,0:0:0:0:
277,192,288160,1,0,0:0:0:0:
277,192,288229,1,8,0:0:0:0:
277,192,288297,1,0,0:0:0:0:
277,192,288365,1,0,0:0:0:0:
277,192,288433,1,0,0:0:0:0:
277,192,288501,1,8,0:0:0:0:
277,192,288570,1,0,0:0:0:0:
277,192,288638,1,8,0:0:0:0:
277,192,288706,1,8,0:0:0:0:
277,192,288774,1,0,0:0:0:0:
277,192,288842,1,8,0:0:0:0:
277,192,288910,1,0,0:0:0:0:
277,192,288979,1,0,0:0:0:0:
277,192,289047,1,8,0:0:0:0:
277,192,289115,1,0,0:0:0:0:
277,192,289183,1,0,0:0:0:0:
277,192,289251,1,0,0:0:0:0:
277,192,289320,1,8,0:0:0:0:
277,192,289388,1,8,0:0:0:0:
277,192,289456,1,0,0:0:0:0:
277,192,289524,1,0,0:0:0:0:
277,192,289592,1,8,0:0:0:0:
277,192,289660,1,0,0:0:0:0:
277,192,289729,1,8,0:0:0:0:
277,192,289797,1,8,0:0:0:0:
277,192,289865,1,0,0:0:0:0:
277,192,289933,1,8,0:0:0:0:
277,192,290001,1,0,0:0:0:0:
277,192,290070,1,0,0:0:0:0:
277,192,290138,1,8,0:0:0:0:
277,192,290206,1,8,0:0:0:0:
277,192,290274,1,0,0:0:0:0:
277,192,290342,1,0,0:0:0:0:
279,184,290410,1,8,0:0:0:0:
279,184,290479,1,0,0:0:0:0:
279,184,290547,1,8,0:0:0:0:
285,145,290615,1,0,0:0:0:0:
180,197,290683,1,0,0:0:0:0:
180,197,290751,1,0,0:0:0:0:
167,116,290820,1,8,0:0:0:0:
160,117,290888,1,0,0:0:0:0:
340,115,290956,1,8,0:0:0:0:
340,115,291047,1,8,0:0:0:0:
340,115,291138,1,8,0:0:0:0:
340,115,291229,1,0,0:0:0:0:
340,115,291320,1,0,0:0:0:0:
279,184,291410,1,0,0:0:0:0:
279,184,291501,1,8,0:0:0:0:
208,138,291774,1,0,0:0:0:0:
251,213,291910,1,8,0:0:0:0:
240,144,291979,1,8,0:0:0:0:
251,213,292047,1,0,0:0:0:0:
240,145,292115,1,0,0:0:0:0:
229,156,292183,1,0,0:0:0:0:
229,156,292320,1,8,0:0:0:0:
137,155,292388,1,8,0:0:0:0:
229,156,292456,1,0,0:0:0:0:
240,147,292524,1,0,0:0:0:0:
229,156,292592,1,8,0:0:0:0:
228,153,292729,1,8,0:0:0:0:
240,144,292797,1,8,0:0:0:0:
229,154,292865,1,0,0:0:0:0:
229,156,293001,1,0,0:0:0:0:
229,156,293138,1,8,0:0:0:0:
243,126,293206,1,8,0:0:0:0:
251,147,293274,1,0,0:0:0:0:
229,156,293410,1,8,0:0:0:0:
229,154,293547,1,0,0:0:0:0:
229,156,293683,1,12,0:0:0:0:
229,156,293820,1,8,0:0:0:0:
229,156,293956,1,8,0:0:0:0:
229,156,294092,1,0,0:0:0:0:
328,142,294160,1,0,0:0:0:0:
229,154,294229,1,8,0:0:0:0:
245,178,294365,1,0,0:0:0:0:
249,178,294501,1,8,0:0:0:0:
282,239,294570,1,8,0:0:0:0:
249,178,294638,1,0,0:0:0:0:
316,197,294706,1,0,0:0:0:0:
248,178,294774,1,0,0:0:0:0:
248,178,294910,1,8,0:0:0:0:
291,244,294979,1,8,0:0:0:0:
248,178,295047,1,0,0:0:0:0:
245,178,295183,1,0,0:0:0:0:
249,178,295320,1,8,0:0:0:0:
249,178,295456,1,0,0:0:0:0:
248,178,295592,1,8,0:0:0:0:
248,178,295729,1,8,0:0:0:0:
248,178,295865,1,4,0:0:0:0:
214,199,296001,1,0,0:0:0:0:
152,133,296070,1,0,0:0:0:0:
214,199,296138,1,8,0:0:0:0:
235,212,296274,1,8,0:0:0:0:
212,128,296342,1,8,0:0:0:0:
170,214,296410,1,0,0:0:0:0:
235,211,296547,1,0,0:0:0:0:
236,211,296683,1,8,0:0:0:0:
212,128,296751,1,8,0:0:0:0:
236,211,296820,1,0,0:0:0:0:
207,134,296888,1,0,0:0:0:0:
236,211,296956,1,8,0:0:0:0:
235,212,297092,1,0,0:0:0:0:
212,128,297160,1,0,0:0:0:0:
235,211,297229,1,8,0:0:0:0:
235,211,297365,1,0,0:0:0:0:
236,211,297501,1,8,0:0:0:0:
236,211,297638,1,0,0:0:0:0:
236,211,297774,1,8,0:0:0:0:
235,212,297910,1,8,0:0:0:0:
235,211,298047,1,8,0:0:0:0:
257,243,298115,1,8,0:0:0:0:
257,257,298183,1,0,0:0:0:0:
257,243,298251,1,0,0:0:0:0:
236,211,298320,1,8,0:0:0:0:
240,245,298388,1,0,0:0:0:0:
236,211,298456,1,8,0:0:0:0:
240,245,298524,1,8,0:0:0:0:
236,211,298592,1,0,0:0:0:0:
239,245,298660,1,8,0:0:0:0:
235,211,298729,1,0,0:0:0:0:
237,247,298797,1,0,0:0:0:0:
297,189,298865,1,8,0:0:0:0:
234,247,298933,1,8,0:0:0:0:
297,189,299001,1,0,0:0:0:0:
226,255,299070,1,0,0:0:0:0:
212,191,299138,1,8,0:0:0:0:
203,11,299183,1,8,0:0:0:0:
209,196,299229,1,8,0:0:0:0:
256,235,299274,1,0,0:0:0:0:
209,196,299410,1,8,0:0:0:0:
163,129,299547,1,0,0:0:0:0:
304,218,299865,1,0,0:0:0:0:
304,218,300229,1,8,0:0:0:0:
217,203,300410,1,0,0:0:0:0:
217,203,300592,1,0,0:0:0:0:
217,203,300774,1,8,0:0:0:0:
217,203,300956,1,0,0:0:0:0:
210,235,301138,1,0,0:0:0:0:
205,235,301320,1,8,0:0:0:0:
203,235,301501,1,8,0:0:0:0:
203,235,301683,1,0,0:0:0:0:
180,207,301865,1,8,0:0:0:0:
180,207,302047,1,0,0:0:0:0:
180,207,302229,1,0,0:0:0:0:
180,207,302410,1,8,0:0:0:0:
180,207,302592,1,8,0:0:0:0:
180,207,302774,1,8,0:0:0:0:
180,207,302956,1,0,0:0:0:0:
180,207,303138,1,0,0:0:0:0:
180,207,303320,1,0,0:0:0:0:
180,207,303501,1,8,0:0:0:0:
180,207,303683,1,0,0:0:0:0:
180,207,303865,1,0,0:0:0:0:
180,207,304047,1,8,0:0:0:0:
180,207,304229,1,8,0:0:0:0:
180,207,304410,1,0,0:0:0:0:
220,194,304592,1,8,0:0:0:0:
171,175,304774,1,0,0:0:0:0:
171,175,304956,1,0,0:0:0:0:
171,175,305138,1,8,0:0:0:0:
171,175,305320,1,8,0:0:0:0:
171,175,305501,1,0,0:0:0:0:
171,175,305683,1,8,0:0:0:0:
171,175,305865,1,8,0:0:0:0:
171,175,306047,1,8,0:0:0:0:
171,175,306229,1,0,0:0:0:0:
171,175,306410,1,8,0:0:0:0:
171,175,306592,1,0,0:0:0:0:
171,175,306774,1,12,0:0:0:0:
264,165,307320,1,0,0:0:0:0:
182,223,307501,1,8,0:0:0:0:
182,223,307683,1,8,0:0:0:0:
174,223,307865,1,8,0:0:0:0:
240,244,317683,5,4,0:0:0:0:
260,231,319865,1,4,0:0:0:0:
253,261,321501,1,8,0:0:0:0:
293,208,321683,1,8,0:0:0:0:
293,208,321865,1,8,0:0:0:0:
262,251,322047,5,0,0:0:0:0:
256,208,322320,1,8,0:0:0:0:
256,208,322592,1,0,0:0:0:0:
256,208,322865,1,8,0:0:0:0:
256,208,323138,1,0,0:0:0:0:
256,208,323410,1,8,0:0:0:0:
256,208,323683,1,0,0:0:0:0:
256,208,323956,1,8,0:0:0:0:
256,208,324229,1,8,0:0:0:0:
279,192,324297,1,8,0:0:0:0:
279,192,324365,1,0,0:0:0:0:
279,192,324501,1,8,0:0:0:0:
265,194,324638,1,0,0:0:0:0:
265,194,324706,1,0,0:0:0:0:
264,196,324774,1,8,0:0:0:0:
264,196,324910,1,0,0:0:0:0:
258,195,325047,1,8,0:0:0:0:
258,195,325183,1,8,0:0:0:0:
246,217,325320,5,0,0:0:0:0:
265,194,325388,1,0,0:0:0:0:
265,194,325456,1,8,0:0:0:0:
253,192,325524,1,0,0:0:0:0:
253,192,325592,1,8,0:0:0:0:
253,192,325660,1,8,0:0:0:0:
253,192,325729,1,0,0:0:0:0:
258,195,325797,1,0,0:0:0:0:
258,195,325865,1,8,0:0:0:0:
208,223,325933,1,0,0:0:0:0:
208,223,326001,1,0,0:0:0:0:
208,223,326070,1,0,0:0:0:0:
208,223,326138,1,8,0:0:0:0:
208,223,326274,1,8,0:0:0:0:
259,158,326410,1,4,0:0:0:0:
200,167,326683,1,8,0:0:0:0:
189,161,326956,1,0,0:0:0:0:
218,165,327092,1,0,0:0:0:0:
189,161,327229,1,8,0:0:0:0:
185,165,327501,1,8,0:0:0:0:
216,176,327638,1,0,0:0:0:0:
277,130,327706,1,0,0:0:0:0:
189,161,327774,1,8,0:0:0:0:
184,167,327910,1,0,0:0:0:0:
184,167,328047,1,8,0:0:0:0:
178,147,328115,1,0,0:0:0:0:
185,165,328183,1,8,0:0:0:0:
178,148,328251,1,8,0:0:0:0:
185,151,328320,1,0,0:0:0:0:
185,197,328456,1,8,0:0:0:0:
185,171,328592,1,0,0:0:0:0:
161,184,328865,1,8,0:0:0:0:
161,184,329138,1,0,0:0:0:0:
161,186,329274,1,0,0:0:0:0:
161,186,329410,1,8,0:0:0:0:
161,184,329683,1,8,0:0:0:0:
161,184,329820,1,0,0:0:0:0:
268,140,329888,1,0,0:0:0:0:
163,190,329956,1,0,0:0:0:0:
164,192,330092,1,8,0:0:0:0:
164,192,330229,1,0,0:0:0:0:
206,156,330297,1,0,0:0:0:0:
164,192,330365,1,8,0:0:0:0:
198,159,330433,1,8,0:0:0:0:
206,156,330501,1,8,0:0:0:0:
166,193,330638,1,0,0:0:0:0:
163,190,330774,1,12,0:0:0:0:
164,192,331047,1,8,0:0:0:0:
165,192,331320,1,0,0:0:0:0:
166,193,331456,1,0,0:0:0:0:
163,190,331592,1,8,0:0:0:0:
286,161,331729,1,0,0:0:0:0:
164,192,331865,1,8,0:0:0:0:
165,192,332001,1,0,0:0:0:0:
259,148,332070,1,0,0:0:0:0:
165,192,332138,1,8,0:0:0:0:
166,193,332274,1,0,0:0:0:0:
170,193,332410,1,8,0:0:0:0:
241,143,332479,1,8,0:0:0:0:
164,192,332547,1,8,0:0:0:0:
241,143,332615,1,8,0:0:0:0:
257,171,332683,1,0,0:0:0:0:
188,142,332820,1,8,0:0:0:0:
269,165,332956,1,0,0:0:0:0:
137,181,333229,1,8,0:0:0:0:
222,157,333501,1,0,0:0:0:0:
260,246,333570,1,0,0:0:0:0:
260,246,333638,1,0,0:0:0:0:
260,246,333706,1,0,0:0:0:0:
192,90,333774,1,8,0:0:0:0:
222,157,334047,1,8,0:0:0:0:
222,157,334183,1,0,0:0:0:0:
248,157,334251,1,0,0:0:0:0:
222,157,334320,1,8,0:0:0:0:
222,157,334456,1,0,0:0:0:0:
222,164,334592,1,8,0:0:0:0:
186,200,334660,1,0,0:0:0:0:
222,164,334729,1,0,0:0:0:0:
186,200,334797,1,0,0:0:0:0:
222,167,334865,1,8,0:0:0:0:
139,155,335001,1,8,0:0:0:0:
221,167,335138,1,4,0:0:0:0:
222,164,335410,1,8,0:0:0:0:
222,167,335683,1,0,0:0:0:0:
186,203,335820,1,0,0:0:0:0:
186,203,335956,1,8,0:0:0:0:
186,203,336229,1,8,0:0:0:0:
186,203,336365,1,8,0:0:0:0:
246,165,336433,1,8,0:0:0:0:
186,203,336501,1,0,0:0:0:0:
186,203,336638,1,8,0:0:0:0:
186,203,336774,1,0,0:0:0:0:
222,176,336842,1,0,0:0:0:0:
186,203,336910,1,0,0:0:0:0:
222,176,336979,1,0,0:0:0:0:
186,203,337047,1,8,0:0:0:0:
186,203,337183,1,8,0:0:0:0:
186,203,337320,1,0,0:0:0:0:
186,203,337592,1,8,0:0:0:0:
186,203,337865,1,0,0:0:0:0:
186,203,338001,1,0,0:0:0:0:
186,203,338138,1,8,0:0:0:0:
186,203,338410,1,8,0:0:0:0:
186,203,338547,1,0,0:0:0:0:
248,163,338615,1,0,0:0:0:0:
186,203,338683,1,8,0:0:0:0:
186,203,338820,1,0,0:0:0:0:
269,172,338888,1,0,0:0:0:0:
186,203,338956,1,8,0:0:0:0:
224,179,339024,1,0,0:0:0:0:
186,203,339092,1,8,0:0:0:0:
224,179,339160,1,8,0:0:0:0:
186,203,339229,1,0,0:0:0:0:
186,203,339365,1,8,0:0:0:0:
186,203,339501,1,4,0:0:0:0:
186,203,339774,1,8,0:0:0:0:
186,203,340047,1,0,0:0:0:0:
186,203,340183,1,0,0:0:0:0:
186,203,340320,1,8,0:0:0:0:
186,203,340592,1,8,0:0:0:0:
186,203,340729,1,0,0:0:0:0:
257,161,340797,1,0,0:0:0:0:
186,203,340865,1,0,0:0:0:0:
186,203,341001,1,0,0:0:0:0:
186,203,341138,1,8,0:0:0:0:
246,128,341206,1,8,0:0:0:0:
250,120,341274,1,0,0:0:0:0:
247,128,341342,1,0,0:0:0:0:
186,203,341410,1,8,0:0:0:0:
186,203,341547,1,0,0:0:0:0:
186,203,341683,1,8,0:0:0:0:
174,156,341751,1,0,0:0:0:0:
174,156,341820,1,0,0:0:0:0:
174,156,341888,1,0,0:0:0:0:
186,203,341956,1,8,0:0:0:0:
174,156,342024,1,0,0:0:0:0:
174,156,342092,1,8,0:0:0:0:
174,156,342160,1,8,0:0:0:0:
192,217,342229,1,0,0:0:0:0:
174,156,342297,1,0,0:0:0:0:
184,217,342365,1,8,0:0:0:0:
174,156,342433,1,8,0:0:0:0:
185,217,342501,1,0,0:0:0:0:
206,136,342638,1,0,0:0:0:0:
188,218,342774,1,8,0:0:0:0:
192,217,342910,1,0,0:0:0:0:
259,166,342979,1,0,0:0:0:0:
192,217,343047,1,8,0:0:0:0:
184,217,343183,1,0,0:0:0:0:
259,166,343251,1,0,0:0:0:0:
185,217,343320,1,8,0:0:0:0:
206,136,343388,1,8,0:0:0:0:
188,218,343456,1,8,0:0:0:0:
206,136,343524,1,8,0:0:0:0:
188,218,343592,1,0,0:0:0:0:
206,136,343660,1,0,0:0:0:0:
206,136,343729,1,8,0:0:0:0:
218,129,343797,1,8,0:0:0:0:
192,217,343865,1,4,0:0:0:0:
189,203,344138,1,8,0:0:0:0:
189,203,344410,1,0,0:0:0:0:
188,204,344547,1,0,0:0:0:0:
186,205,344683,1,8,0:0:0:0:
189,203,344956,1,8,0:0:0:0:
189,203,345092,1,0,0:0:0:0:
246,153,345160,1,0,0:0:0:0:
189,203,345229,1,8,0:0:0:0:
188,204,345365,1,0,0:0:0:0:
186,205,345501,1,0,0:0:0:0:
236,159,345570,1,0,0:0:0:0:
189,203,345638,1,0,0:0:0:0:
229,163,345706,1,0,0:0:0:0:
189,203,345774,1,8,0:0:0:0:
189,203,345910,1,8,0:0:0:0:
189,203,346047,1,0,0:0:0:0:
186,205,346320,1,8,0:0:0:0:
189,203,346592,1,0,0:0:0:0:
183,207,346729,1,0,0:0:0:0:
183,207,346865,1,8,0:0:0:0:
186,205,347138,1,8,0:0:0:0:
183,207,347274,1,8,0:0:0:0:
228,165,347342,1,8,0:0:0:0:
183,207,347410,1,0,0:0:0:0:
183,207,347547,1,8,0:0:0:0:
183,207,347683,1,0,0:0:0:0:
228,165,347751,1,0,0:0:0:0:
186,205,347820,1,0,0:0:0:0:
228,165,347888,1,0,0:0:0:0:
186,205,347956,1,8,0:0:0:0:
186,205,348092,1,8,0:0:0:0:
183,207,348229,1,4,0:0:0:0:
183,207,348501,1,8,0:0:0:0:
186,205,348774,1,0,0:0:0:0:
186,205,348910,1,0,0:0:0:0:
183,207,349047,1,8,0:0:0:0:
278,170,349183,1,0,0:0:0:0:
183,207,349320,1,0,0:0:0:0:
186,205,349456,1,0,0:0:0:0:
229,167,349524,1,0,0:0:0:0:
186,205,349592,1,8,0:0:0:0:
186,205,349729,1,0,0:0:0:0:
183,207,349865,1,8,0:0:0:0:
229,167,349933,1,8,0:0:0:0:
183,207,350001,1,0,0:0:0:0:
229,167,350070,1,0,0:0:0:0:
183,207,350138,1,8,0:0:0:0:
172,200,350274,1,0,0:0:0:0:
170,201,350410,1,4,0:0:0:0:
170,200,350683,1,8,0:0:0:0:
170,200,350956,1,0,0:0:0:0:
231,176,351024,1,0,0:0:0:0:
172,200,351092,1,0,0:0:0:0:
231,176,351160,1,0,0:0:0:0:
170,201,351229,1,8,0:0:0:0:
170,200,351501,1,8,0:0:0:0:
170,200,351638,1,0,0:0:0:0:
230,175,351706,1,0,0:0:0:0:
170,200,351774,1,0,0:0:0:0:
172,200,351910,1,8,0:0:0:0:
170,201,352047,1,0,0:0:0:0:
256,136,352115,1,0,0:0:0:0:
170,200,352183,1,8,0:0:0:0:
256,136,352251,1,0,0:0:0:0:
170,200,352320,1,8,0:0:0:0:
170,200,352456,1,8,0:0:0:0:
170,200,352592,1,4,0:0:0:0:
170,201,352865,1,8,0:0:0:0:
170,200,353138,1,0,0:0:0:0:
170,200,353274,1,0,0:0:0:0:
170,200,353410,1,8,0:0:0:0:
170,201,353683,1,0,0:0:0:0:
170,200,353820,1,8,0:0:0:0:
253,135,353888,1,8,0:0:0:0:
170,200,353956,1,0,0:0:0:0:
170,200,354092,1,8,0:0:0:0:
170,200,354229,1,0,0:0:0:0:
253,135,354297,1,0,0:0:0:0:
170,201,354365,1,0,0:0:0:0:
253,135,354433,1,0,0:0:0:0:
170,201,354501,1,8,0:0:0:0:
170,200,354638,1,8,0:0:0:0:
170,200,354774,1,4,0:0:0:0:
170,200,355047,1,8,0:0:0:0:
170,201,355320,1,0,0:0:0:0:
170,200,355456,1,0,0:0:0:0:
170,200,355592,1,8,0:0:0:0:
170,200,355865,1,8,0:0:0:0:
170,201,356001,1,0,0:0:0:0:
246,144,356070,1,0,0:0:0:0:
170,201,356138,1,8,0:0:0:0:
170,200,356274,1,8,0:0:0:0:
239,144,356342,1,0,0:0:0:0:
170,200,356410,1,8,0:0:0:0:
246,144,356479,1,8,0:0:0:0:
234,151,356547,1,0,0:0:0:0:
234,152,356615,1,0,0:0:0:0:
246,144,356683,1,8,0:0:0:0:
197,164,356820,1,8,0:0:0:0:
197,164,356956,1,4,0:0:0:0:
197,164,357229,1,8,0:0:0:0:
197,164,357501,1,0,0:0:0:0:
197,164,357638,1,0,0:0:0:0:
195,170,357774,1,8,0:0:0:0:
194,174,358047,1,0,0:0:0:0:
194,174,358183,1,0,0:0:0:0:
186,147,358251,1,0,0:0:0:0:
194,174,358320,1,8,0:0:0:0:
194,174,358456,1,0,0:0:0:0:
195,170,358592,1,8,0:0:0:0:
195,251,358683,1,8,0:0:0:0:
195,251,358774,1,8,0:0:0:0:
197,242,358865,1,0,0:0:0:0:
194,174,358956,1,0,0:0:0:0:
321,149,359047,1,0,0:0:0:0:
194,174,359138,1,12,0:0:0:0:
185,134,359683,1,8,0:0:0:0:
185,134,360092,1,0,0:0:0:0:
185,134,360229,1,0,0:0:0:0:
185,134,360638,1,0,0:0:0:0:
194,227,360774,1,8,0:0:0:0:
194,227,361047,1,0,0:0:0:0:
194,227,361320,1,12,0:0:0:0:
194,227,361592,1,0,0:0:0:0:
194,227,361865,1,8,0:0:0:0:
194,227,362138,1,0,0:0:0:0:
194,227,362274,1,0,0:0:0:0:
194,227,362410,1,0,0:0:0:0:
194,227,362547,1,8,0:0:0:0:
194,227,362683,1,0,0:0:0:0:
194,227,362820,1,0,0:0:0:0:
194,227,362956,1,8,0:0:0:0:
194,227,363229,1,8,0:0:0:0:
194,227,363365,1,8,0:0:0:0:
194,227,363501,1,4,0:0:0:0:
194,227,363774,1,0,0:0:0:0:
194,227,364047,1,8,0:0:0:0:
194,227,364320,1,0,0:0:0:0:
194,227,364456,1,8,0:0:0:0:
194,227,364592,1,8,0:0:0:0:
223,166,364660,1,8,0:0:0:0:
223,166,364729,1,8,0:0:0:0:
223,166,364797,1,8,0:0:0:0:
223,166,364865,1,0,0:0:0:0:
223,166,364933,1,0,0:0:0:0:
223,166,365001,1,0,0:0:0:0:
223,166,365070,1,0,0:0:0:0:
223,166,365138,1,8,0:0:0:0:
223,166,365206,1,8,0:0:0:0:
223,166,365274,1,0,0:0:0:0:
223,166,365342,1,0,0:0:0:0:
223,166,365410,1,8,0:0:0:0:
171,209,365547,1,0,0:0:0:0:
264,183,365683,1,8,0:0:0:0:
278,195,365751,1,8,0:0:0:0:
200,216,365820,1,8,0:0:0:0:
200,216,365956,1,0,0:0:0:0:
200,216,366092,1,8,0:0:0:0:
197,224,366160,1,0,0:0:0:0:
200,216,366229,1,0,0:0:0:0:
207,216,366365,1,8,0:0:0:0:
207,216,366501,1,0,0:0:0:0:
206,223,366570,1,8,0:0:0:0:
196,224,366638,1,0,0:0:0:0:
212,215,366774,1,8,0:0:0:0:
212,215,366910,1,0,0:0:0:0:
214,180,366979,1,0,0:0:0:0:
212,215,367047,1,8,0:0:0:0:
217,215,367183,1,0,0:0:0:0:
217,215,367320,1,8,0:0:0:0:
195,214,367456,1,8,0:0:0:0:
195,214,367592,1,0,0:0:0:0:
195,214,367729,1,0,0:0:0:0:
195,214,367865,1,8,0:0:0:0:
228,105,367933,1,8,0:0:0:0:
195,214,368001,1,8,0:0:0:0:
195,214,368138,1,0,0:0:0:0:
194,214,368274,1,8,0:0:0:0:
234,164,368342,1,8,0:0:0:0:
230,178,368410,1,0,0:0:0:0:
195,214,368547,1,0,0:0:0:0:
195,214,368683,1,8,0:0:0:0:
229,171,368751,1,8,0:0:0:0:
195,214,368820,1,8,0:0:0:0:
195,214,368956,1,0,0:0:0:0:
195,214,369092,1,0,0:0:0:0:
203,178,369160,1,0,0:0:0:0:
229,176,369229,1,8,0:0:0:0:
195,214,369365,1,0,0:0:0:0:
195,214,369501,1,8,0:0:0:0:
195,214,369638,1,0,0:0:0:0:
195,214,369774,1,8,0:0:0:0:
195,214,369910,1,0,0:0:0:0:
195,214,370047,1,8,0:0:0:0:
302,64,370115,1,8,0:0:0:0:
194,214,370183,1,8,0:0:0:0:
195,214,370320,1,0,0:0:0:0:
195,214,370456,1,0,0:0:0:0:
199,183,370524,1,0,0:0:0:0:
195,214,370592,1,8,0:0:0:0:
195,214,370729,1,0,0:0:0:0:
195,214,370865,1,8,0:0:0:0:
199,183,370933,1,8,0:0:0:0:
195,214,371001,1,0,0:0:0:0:
194,214,371138,1,0,0:0:0:0:
195,214,371274,1,8,0:0:0:0:
201,183,371342,1,0,0:0:0:0:
195,214,371410,1,8,0:0:0:0:
195,214,371547,1,0,0:0:0:0:
195,214,371683,1,8,0:0:0:0:
195,214,371820,1,0,0:0:0:0:
195,214,371956,1,8,0:0:0:0:
194,214,372092,1,8,0:0:0:0:
210,194,372229,1,0,0:0:0:0:
210,194,372297,1,0,0:0:0:0:
195,214,372365,1,0,0:0:0:0:
195,214,372501,1,8,0:0:0:0:
195,214,372638,1,8,0:0:0:0:
199,185,372706,1,8,0:0:0:0:
195,214,372774,1,0,0:0:0:0:
195,214,372910,1,8,0:0:0:0:
194,214,373047,1,0,0:0:0:0:
197,186,373115,1,0,0:0:0:0:
194,214,373183,1,8,0:0:0:0:
195,214,373320,1,0,0:0:0:0:
195,214,373456,1,8,0:0:0:0:
194,190,373524,1,8,0:0:0:0:
195,214,373592,1,0,0:0:0:0:
195,214,373729,1,0,0:0:0:0:
195,214,373865,1,8,0:0:0:0:
194,214,374001,1,8,0:0:0:0:
194,214,374138,1,0,0:0:0:0:
195,214,374274,1,0,0:0:0:0:
264,183,374410,1,8,0:0:0:0:
157,160,374479,1,8,0:0:0:0:
200,216,374547,1,8,0:0:0:0:
200,216,374683,1,0,0:0:0:0:
200,216,374820,1,8,0:0:0:0:
197,224,374888,1,8,0:0:0:0:
200,216,374956,1,0,0:0:0:0:
207,216,375092,1,0,0:0:0:0:
207,216,375229,1,8,0:0:0:0:
206,223,375297,1,0,0:0:0:0:
196,224,375365,1,8,0:0:0:0:
212,215,375501,1,0,0:0:0:0:
212,215,375638,1,8,0:0:0:0:
214,180,375706,1,8,0:0:0:0:
212,215,375774,1,8,0:0:0:0:
217,215,375910,1,0,0:0:0:0:
217,215,376047,1,8,0:0:0:0:
195,214,376183,1,8,0:0:0:0:
195,214,376320,1,0,0:0:0:0:
195,214,376456,1,0,0:0:0:0:
195,214,376592,1,8,0:0:0:0:
125,151,376660,1,8,0:0:0:0:
125,151,376729,1,0,0:0:0:0:
195,214,376865,1,8,0:0:0:0:
194,214,377001,1,0,0:0:0:0:
234,164,377070,1,0,0:0:0:0:
230,178,377138,1,8,0:0:0:0:
195,214,377274,1,0,0:0:0:0:
195,214,377410,1,8,0:0:0:0:
229,171,377479,1,8,0:0:0:0:
195,214,377547,1,8,0:0:0:0:
195,214,377683,1,0,0:0:0:0:
195,214,377820,1,0,0:0:0:0:
203,178,377888,1,0,0:0:0:0:
229,176,377956,1,8,0:0:0:0:
195,214,378092,1,0,0:0:0:0:
195,214,378229,1,8,0:0:0:0:
195,214,378365,1,0,0:0:0:0:
195,214,378501,1,8,0:0:0:0:
195,214,378638,1,0,0:0:0:0:
195,214,378774,1,8,0:0:0:0:
236,154,378842,1,0,0:0:0:0:
194,214,378910,1,8,0:0:0:0:
195,214,379047,1,0,0:0:0:0:
195,214,379183,1,8,0:0:0:0:
199,183,379251,1,8,0:0:0:0:
195,214,379320,1,0,0:0:0:0:
195,214,379456,1,0,0:0:0:0:
195,214,379592,1,8,0:0:0:0:
199,183,379660,1,8,0:0:0:0:
195,214,379729,1,8,0:0:0:0:
194,214,379865,1,0,0:0:0:0:
270,151,379933,1,0,0:0:0:0:
195,214,380001,1,8,0:0:0:0:
201,183,380070,1,0,0:0:0:0:
195,214,380138,1,8,0:0:0:0:
195,214,380274,1,0,0:0:0:0:
195,214,380410,1,8,0:0:0:0:
195,214,380547,1,0,0:0:0:0:
195,214,380683,1,8,0:0:0:0:
194,214,380820,1,8,0:0:0:0:
195,214,380956,1,0,0:0:0:0:
161,138,381024,1,0,0:0:0:0:
161,138,381092,1,0,0:0:0:0:
195,214,381229,1,8,0:0:0:0:
195,214,381365,1,8,0:0:0:0:
199,185,381433,1,8,0:0:0:0:
195,214,381501,1,0,0:0:0:0:
195,214,381638,1,0,0:0:0:0:
194,214,381774,1,8,0:0:0:0:
197,186,381842,1,8,0:0:0:0:
194,214,381910,1,8,0:0:0:0:
195,214,382047,1,0,0:0:0:0:
195,214,382183,1,8,0:0:0:0:
195,214,382320,1,0,0:0:0:0:
195,214,382456,1,0,0:0:0:0:
195,214,382592,1,8,0:0:0:0:
214,209,382865,1,8,0:0:0:0:
214,209,383001,1,8,0:0:0:0:
264,183,383138,1,0,0:0:0:0:
175,120,383206,1,0,0:0:0:0:
175,120,383274,1,0,0:0:0:0:
200,216,383410,1,8,0:0:0:0:
200,216,383547,1,0,0:0:0:0:
197,224,383615,1,0,0:0:0:0:
200,216,383683,1,8,0:0:0:0:
207,216,383820,1,0,0:0:0:0:
207,216,383956,1,8,0:0:0:0:
206,223,384024,1,8,0:0:0:0:
196,224,384092,1,0,0:0:0:0:
212,215,384229,1,0,0:0:0:0:
212,215,384365,1,8,0:0:0:0:
214,180,384433,1,8,0:0:0:0:
212,215,384501,1,8,0:0:0:0:
217,215,384638,1,0,0:0:0:0:
217,215,384774,1,8,0:0:0:0:
195,214,384910,1,0,0:0:0:0:
195,214,385047,1,8,0:0:0:0:
195,214,385183,1,8,0:0:0:0:
195,214,385320,1,0,0:0:0:0:
275,104,385388,1,0,0:0:0:0:
195,214,385456,1,0,0:0:0:0:
195,214,385592,1,8,0:0:0:0:
194,214,385729,1,0,0:0:0:0:
234,164,385797,1,0,0:0:0:0:
230,178,385865,1,8,0:0:0:0:
195,214,386001,1,0,0:0:0:0:
195,214,386138,1,8,0:0:0:0:
229,171,386206,1,8,0:0:0:0:
195,214,386274,1,8,0:0:0:0:
195,214,386410,1,0,0:0:0:0:
195,214,386547,1,8,0:0:0:0:
203,178,386615,1,8,0:0:0:0:
229,176,386683,1,0,0:0:0:0:
195,214,386820,1,0,0:0:0:0:
195,214,386956,1,8,0:0:0:0:
195,214,387092,1,0,0:0:0:0:
195,214,387229,1,8,0:0:0:0:
195,214,387365,1,8,0:0:0:0:
195,214,387501,1,0,0:0:0:0:
282,91,387570,1,0,0:0:0:0:
194,214,387638,1,0,0:0:0:0:
195,214,387774,1,8,0:0:0:0:
195,214,387910,1,0,0:0:0:0:
199,183,387979,1,0,0:0:0:0:
195,214,388047,1,8,0:0:0:0:
195,214,388183,1,0,0:0:0:0:
195,214,388320,1,8,0:0:0:0:
199,183,388388,1,8,0:0:0:0:
195,214,388456,1,0,0:0:0:0:
194,214,388592,1,0,0:0:0:0:
195,214,388729,1,8,0:0:0:0:
201,183,388797,1,0,0:0:0:0:
195,214,388865,1,8,0:0:0:0:
195,214,389001,1,0,0:0:0:0:
195,214,389138,1,8,0:0:0:0:
195,214,389274,1,8,0:0:0:0:
195,214,389410,1,0,0:0:0:0:
194,214,389547,1,0,0:0:0:0:
195,214,389683,1,8,0:0:0:0:
139,170,389751,1,8,0:0:0:0:
195,214,389820,1,0,0:0:0:0:
195,214,389956,1,8,0:0:0:0:
195,214,390092,1,0,0:0:0:0:
199,185,390160,1,0,0:0:0:0:
195,214,390229,1,0,0:0:0:0:
195,214,390365,1,8,0:0:0:0:
194,214,390501,1,0,0:0:0:0:
197,186,390570,1,0,0:0:0:0:
194,214,390638,1,8,0:0:0:0:
195,214,390774,1,0,0:0:0:0:
195,214,390910,1,8,0:0:0:0:
194,190,390979,1,8,0:0:0:0:
195,214,391047,1,8,0:0:0:0:
195,214,391183,1,0,0:0:0:0:
195,214,391320,1,8,0:0:0:0:
194,214,391456,1,8,0:0:0:0:
194,214,391592,1,0,0:0:0:0:
195,214,391729,1,0,0:0:0:0:
264,183,391865,1,8,0:0:0:0:
162,183,391933,1,8,0:0:0:0:
200,216,392001,1,0,0:0:0:0:
200,216,392138,1,8,0:0:0:0:
200,216,392274,1,0,0:0:0:0:
197,224,392342,1,0,0:0:0:0:
200,216,392410,1,8,0:0:0:0:
207,216,392547,1,0,0:0:0:0:
207,216,392683,1,8,0:0:0:0:
206,223,392751,1,0,0:0:0:0:
196,224,392820,1,0,0:0:0:0:
212,215,392956,1,0,0:0:0:0:
212,215,393092,1,8,0:0:0:0:
214,180,393160,1,8,0:0:0:0:
212,215,393229,1,8,0:0:0:0:
217,215,393365,1,0,0:0:0:0:
217,215,393501,1,8,0:0:0:0:
195,214,393638,1,0,0:0:0:0:
195,214,393774,1,8,0:0:0:0:
195,214,393910,1,0,0:0:0:0:
195,214,394047,1,8,0:0:0:0:
174,146,394115,1,8,0:0:0:0:
195,214,394183,1,8,0:0:0:0:
195,214,394320,1,0,0:0:0:0:
194,214,394456,1,8,0:0:0:0:
234,164,394524,1,8,0:0:0:0:
230,178,394592,1,0,0:0:0:0:
195,214,394729,1,0,0:0:0:0:
195,214,394865,1,8,0:0:0:0:
229,171,394933,1,8,0:0:0:0:
195,214,395001,1,8,0:0:0:0:
195,214,395138,1,0,0:0:0:0:
195,214,395274,1,0,0:0:0:0:
203,178,395342,1,0,0:0:0:0:
229,176,395410,1,8,0:0:0:0:
195,214,395547,1,0,0:0:0:0:
195,214,395683,1,8,0:0:0:0:
195,214,395820,1,0,0:0:0:0:
195,214,395956,1,8,0:0:0:0:
195,214,396092,1,0,0:0:0:0:
195,214,396229,1,8,0:0:0:0:
205,108,396297,1,8,0:0:0:0:
194,214,396365,1,8,0:0:0:0:
195,214,396501,1,0,0:0:0:0:
195,214,396638,1,0,0:0:0:0:
199,183,396706,1,0,0:0:0:0:
195,214,396774,1,8,0:0:0:0:
195,214,396910,1,0,0:0:0:0:
195,214,397047,1,8,0:0:0:0:
199,183,397115,1,0,0:0:0:0:
195,214,397183,1,0,0:0:0:0:
194,214,397320,1,8,0:0:0:0:
295,151,397388,1,8,0:0:0:0:
195,214,397456,1,0,0:0:0:0:
201,183,397524,1,0,0:0:0:0:
195,214,397592,1,8,0:0:0:0:
195,214,397729,1,0,0:0:0:0:
195,214,397865,1,8,0:0:0:0:
195,214,398001,1,0,0:0:0:0:
195,214,398138,1,8,0:0:0:0:
194,214,398274,1,0,0:0:0:0:
195,214,398410,1,8,0:0:0:0:
232,239,398479,1,8,0:0:0:0:
195,214,398547,1,0,0:0:0:0:
211,235,398615,1,0,0:0:0:0:
195,214,398683,1,8,0:0:0:0:
228,137,398751,1,0,0:0:0:0:
195,214,398820,1,8,0:0:0:0:
199,185,398888,1,8,0:0:0:0:
195,214,398956,1,0,0:0:0:0:
210,234,399024,1,0,0:0:0:0:
195,214,399092,1,0,0:0:0:0:
228,137,399160,1,0,0:0:0:0:
194,214,399229,1,8,0:0:0:0:
120,191,399297,1,8,0:0:0:0:
194,214,399365,1,0,0:0:0:0:
120,191,399433,1,0,0:0:0:0:
195,214,399501,1,8,0:0:0:0:
228,137,399570,1,0,0:0:0:0:
195,214,399638,1,8,0:0:0:0:
205,242,399706,1,8,0:0:0:0:
195,214,399774,1,0,0:0:0:0:
233,209,399842,1,0,0:0:0:0:
195,214,399910,1,0,0:0:0:0:
161,198,399979,1,0,0:0:0:0:
195,214,400047,1,8,0:0:0:0:
220,226,400115,1,8,0:0:0:0:
220,226,400183,1,0,0:0:0:0:
220,226,400251,1,0,0:0:0:0:
220,226,400320,1,8,0:0:0:0:
220,226,400388,1,0,0:0:0:0:
220,226,400456,1,0,0:0:0:0:
220,226,400524,1,0,0:0:0:0:
254,150,400592,1,12,0:0:0:0:
256,192,400729,12,0,404956,0:0:0:0:
