osu file format v14

[General]
AudioFilename: audio.mp3
AudioLeadIn: 0
PreviewTime: 307870
Countdown: 0
SampleSet: Drum
StackLeniency: 0.7
Mode: 2
LetterboxInBreaks: 0
WidescreenStoryboard: 0

[Editor]
DistanceSpacing: 1.4
BeatDivisor: 4
GridSize: 8
TimelineZoom: 2.2

[Metadata]
Title:I.F.
TitleUnicode:I.F.
Artist:Release Hallucination
ArtistUnicode:Release Hallucination
Creator:bigh
Version:Arigato
Source:
Tags:japanese symphonic metal progressive heavy metal dark gothic jmetal j-metal jrock j-rock featured artist fa mappers' guild mg mpg emi kaoru hirato doujin ongaku imperfection of imaginary number female vocal vocalist livermorium bighzonda
BeatmapID:3834719
BeatmapSetID:1864538

[Difficulty]
HPDrainRate:5
CircleSize:4.4
OverallDifficulty:9.6
ApproachRate:9.6
SliderMultiplier:1.9
SliderTickRate:2

[Events]
//Background and Video events
0,0,"86141867_p0.jpg",0,0
//Break Periods
2,309159,316632
//Storyboard Layer 0 (Background)
//Storyboard Layer 1 (Fail)
//Storyboard Layer 2 (Pass)
//Storyboard Layer 3 (Foreground)
//Storyboard Layer 4 (Overlay)
//Storyboard Sound Samples

[TimingPoints]
1323,272.727272727273,4,2,99,20,1,0
2413,-100,4,2,99,5,0,0
2686,-100,4,2,99,20,0,0
4595,-100,4,2,99,5,0,0
4868,-100,4,2,99,20,0,0
6777,-100,4,2,99,5,0,0
7050,-100,4,2,99,20,0,0
8686,-100,4,2,99,5,0,0
8959,-100,4,2,99,20,0,0
11141,-100,4,2,99,5,0,0
11413,-100,4,2,99,20,0,0
13323,-100,4,2,99,5,0,0
13595,-100,4,2,99,20,0,0
14413,-100,4,2,99,20,0,0
14823,-100,4,2,99,5,0,0
14959,-100,4,2,99,20,0,0
15368,-100,4,2,99,5,0,0
15504,-100,4,2,99,20,0,0
15913,-100,4,2,99,5,0,0
16050,-100,4,2,99,20,0,0
16459,-100,4,2,99,5,0,0
16595,-100,4,2,99,20,0,0
17413,-100,4,2,99,5,0,0
17686,-100,4,2,99,20,0,0
18709,-100,4,2,99,5,0,0
18777,-100,4,2,98,65,0,0
19868,-100,4,3,1,65,0,0
20277,-100,4,3,97,65,0,0
20550,-100,4,3,1,65,0,0
20686,-100,4,3,88,75,0,0
20891,-100,4,3,88,5,0,0
20959,-100,4,3,1,75,0,0
37868,-100,4,3,88,75,0,0
38413,-100,4,3,1,65,0,0
39504,-100,4,3,88,65,0,0
39641,-100,4,3,1,65,0,0
40595,-100,4,3,88,65,0,0
40732,-100,4,3,1,65,0,0
41686,-100,4,3,88,65,0,0
41823,-100,4,3,1,65,0,0
42232,-100,4,3,1,45,0,0
42300,-100,4,3,1,47,0,0
42368,-100,4,3,1,50,0,0
42436,-100,4,3,1,52,0,0
42504,-100,4,3,1,55,0,0
42573,-100,4,3,1,57,0,0
42641,-100,4,3,1,60,0,0
42709,-100,4,3,1,62,0,0
42777,-100,4,3,1,65,0,0
43868,-100,4,3,88,65,0,0
44004,-100,4,3,1,65,0,0
44959,-100,4,3,88,65,0,0
45095,-100,4,3,1,65,0,0
46050,-100,4,3,88,65,0,0
46186,-100,4,3,1,65,0,0
46595,-100,4,3,1,80,0,0
46663,-100,4,3,1,65,0,0
46868,-100,4,3,97,65,0,0
47141,-100,4,3,1,65,0,0
48232,-100,4,3,88,65,0,0
48368,-100,4,3,1,65,0,0
49323,-100,4,3,88,65,0,0
49459,-100,4,3,1,65,0,0
50413,-100,4,3,88,65,0,0
50550,-100,4,3,1,65,0,0
50959,-100,4,3,1,44,0,0
51027,-100,4,3,1,46,0,0
51095,-100,4,3,1,48,0,0
51163,-100,4,3,1,50,0,0
51232,-100,4,3,1,53,0,0
51300,-100,4,3,1,56,0,0
51368,-100,4,3,1,59,0,0
51436,-100,4,3,1,62,0,0
51504,-100,4,3,1,65,0,0
52595,-100,4,3,88,65,0,0
52732,-100,4,3,1,65,0,0
53686,-100,4,3,88,65,0,0
53823,-100,4,3,1,65,0,0
54232,-100,4,3,88,65,0,0
54368,-100,4,3,1,65,0,0
54777,-100,4,3,1,65,0,0
55323,-100,4,3,97,65,0,0
55595,-100,4,3,1,65,0,0
55868,-100,4,3,1,80,0,0
55936,-100,4,3,2,80,0,0
60232,-100,4,3,1,80,0,0
60300,-100,4,3,2,80,0,0
64323,-100,4,3,88,80,0,0
64391,-100,4,3,2,80,0,0
64595,-100,4,3,1,80,0,0
64663,-100,4,3,2,80,0,0
68959,-100,4,3,1,80,0,0
69027,-100,4,3,2,80,0,0
71959,-100,4,3,88,80,0,0
72027,-100,4,3,1,80,0,0
72232,-100,4,3,1,80,0,0
72868,-100,4,3,97,74,0,0
73050,-100,4,3,97,68,0,0
73323,-125,4,2,89,70,0,0
73391,-125,4,2,98,52,0,0
89141,-125,4,2,98,52,0,0
89618,-125,4,2,98,5,0,0
89686,-125,4,3,3,55,0,0
89959,-125,4,3,3,60,0,0
90232,-125,4,3,3,65,0,0
90504,-125,4,3,3,70,0,0
90777,-100,4,3,1,80,0,0
90913,-100,4,3,97,80,0,0
91323,-100,4,3,1,80,0,0
91459,-100,4,3,97,80,0,0
91732,-100,4,3,1,80,0,0
91868,-100,4,3,97,80,0,0
92413,-100,4,3,88,80,0,0
92550,-100,4,3,97,80,0,0
92959,-100,4,3,1,80,0,0
93095,-100,4,3,97,80,0,0
93504,-100,4,3,1,80,0,0
93641,-100,4,3,97,80,0,0
93913,-100,4,3,1,80,0,0
94050,-100,4,3,97,80,0,0
94595,-100,4,3,1,80,0,0
95141,-100,4,3,1,80,0,0
95413,-100,4,3,88,80,0,0
95550,-100,4,3,1,80,0,0
95823,-100,4,3,88,80,0,0
95959,-100,4,3,1,80,0,0
96095,-100,4,3,1,80,0,0
96300,-100,4,3,1,5,0,0
96368,-100,4,3,1,80,0,0
96504,-100,4,3,88,80,0,0
96641,-100,4,3,1,80,0,0
96777,-100,4,3,1,88,0,0
96913,-100,4,3,1,80,0,0
97050,-100,4,3,88,80,0,0
97186,-100,4,3,1,80,0,0
97323,-100,4,3,89,80,0,0
97459,-100,4,3,1,80,0,0
97595,-100,4,3,88,80,0,0
97732,-100,4,3,1,80,0,0
98550,-100,4,3,97,80,0,0
98823,-100,4,3,88,80,0,0
99232,-100,4,3,1,80,0,0
99436,-100,4,3,1,5,0,0
99504,-90.9090909090909,4,3,89,90,0,1
99709,-90.9090909090909,4,3,89,5,0,1
99777,-90.9090909090909,4,3,3,90,0,1
103186,-90.9090909090909,4,3,3,90,0,1
103595,-90.9090909090909,4,3,3,90,0,1
103868,-90.9090909090909,4,3,1,90,0,1
104073,-90.9090909090909,4,3,1,5,0,1
104141,-90.9090909090909,4,3,3,90,0,1
106254,-90.9090909090909,4,3,3,5,0,1
106323,-90.9090909090909,4,3,3,90,0,1
107345,-90.9090909090909,4,3,3,5,0,1
107413,-90.9090909090909,4,3,3,90,0,1
107959,-90.9090909090909,4,3,88,90,0,1
108163,-90.9090909090909,4,3,88,5,0,1
108232,-90.9090909090909,4,3,1,90,0,1
108504,-90.9090909090909,4,3,3,90,0,1
110618,-90.9090909090909,4,3,3,5,0,1
110686,-90.9090909090909,4,3,3,90,0,1
111709,-90.9090909090909,4,3,3,5,0,1
111777,-90.9090909090909,4,3,3,90,0,1
112595,-90.9090909090909,4,3,1,90,0,1
112868,-90.9090909090909,4,3,3,90,0,1
113891,-90.9090909090909,4,3,3,5,0,1
113959,-90.9090909090909,4,3,3,90,0,1
114709,-90.9090909090909,4,3,3,5,0,1
114777,-90.9090909090909,4,3,3,90,0,1
115050,-90.9090909090909,4,3,88,90,0,1
115186,-90.9090909090909,4,3,3,90,0,1
115595,-90.9090909090909,4,3,88,90,0,1
115732,-90.9090909090909,4,3,3,90,0,1
116141,-90.9090909090909,4,3,88,90,0,1
116277,-90.9090909090909,4,3,3,90,0,1
116686,-90.9090909090909,4,3,97,90,0,1
116823,-90.9090909090909,4,3,97,90,0,1
116959,-90.9090909090909,4,3,89,90,0,1
117232,-90.9090909090909,4,3,3,90,0,1
119345,-90.9090909090909,4,3,3,5,0,1
119413,-90.9090909090909,4,3,3,90,0,1
121323,-90.9090909090909,4,3,1,90,0,1
121527,-90.9090909090909,4,3,1,5,0,1
121595,-90.9090909090909,4,3,3,90,0,1
123709,-90.9090909090909,4,3,3,5,0,1
123777,-90.9090909090909,4,3,3,90,0,1
125413,-90.9090909090909,4,3,88,90,0,1
125618,-90.9090909090909,4,3,88,5,0,1
125686,-90.9090909090909,4,3,1,90,0,1
125959,-90.9090909090909,4,3,3,90,0,1
128073,-90.9090909090909,4,3,3,5,0,1
128141,-90.9090909090909,4,3,3,90,0,1
128686,-90.9090909090909,4,3,88,90,0,1
128823,-90.9090909090909,4,3,3,90,0,1
128959,-90.9090909090909,4,3,1,90,0,1
129163,-90.9090909090909,4,3,1,5,0,1
129232,-90.9090909090909,4,3,88,90,0,1
129436,-90.9090909090909,4,3,88,5,0,1
129504,-90.9090909090909,4,3,1,90,0,1
129709,-90.9090909090909,4,3,1,5,0,1
129777,-90.9090909090909,4,3,88,75,0,1
129982,-90.9090909090909,4,3,3,5,0,1
130050,-90.9090909090909,4,3,1,90,0,1
130323,-90.9090909090909,4,3,3,90,0,1
131345,-90.9090909090909,4,3,3,5,0,1
131413,-90.9090909090909,4,3,3,90,0,1
133527,-90.9090909090909,4,3,3,5,0,1
133595,-90.9090909090909,4,3,88,90,0,1
133959,-90.9090909090909,4,3,97,90,0,1
134413,-90.9090909090909,4,3,1,70,0,1
134550,-90.9090909090909,4,3,1,70,0,1
137686,-90.9090909090909,4,3,1,70,0,1
138095,-90.9090909090909,4,3,97,70,0,1
138368,-90.9090909090909,4,3,1,70,0,1
138777,-100,4,3,1,75,0,0
154050,-100,4,3,1,75,0,0
154254,-100,4,3,1,5,0,0
154323,-100,4,3,88,75,0,0
154595,-100,4,3,1,75,0,0
154732,-100,4,3,88,75,0,0
154868,-100,4,3,97,75,0,0
155141,-100,4,3,1,75,0,0
155209,-100,4,3,97,75,0,0
155686,-100,4,3,3,75,0,0
156232,-100,4,3,1,80,0,0
164686,-100,4,3,88,80,0,0
164754,-100,4,3,2,80,0,0
164959,-100,4,3,1,80,0,0
165777,-100,4,3,1,80,0,0
166050,-100,4,3,1,80,0,0
167141,-100,4,3,1,80,0,0
167686,-100,4,3,1,80,0,0
172323,-100,4,3,88,80,0,0
172391,-100,4,3,1,80,0,0
172595,-100,4,3,2,80,0,0
173232,-100,4,3,97,75,0,0
173413,-100,4,3,97,70,0,0
173686,-125,4,3,89,60,0,0
173959,-125,4,3,4,54,0,0
174232,-125,4,2,4,54,0,0
190050,-125,4,3,3,55,0,0
190323,-125,4,3,3,60,0,0
190595,-125,4,3,3,65,0,0
190868,-125,4,3,3,70,0,0
191141,-100,4,3,1,80,0,0
191277,-100,4,3,97,80,0,0
191686,-100,4,3,1,80,0,0
191823,-100,4,3,97,80,0,0
192095,-100,4,3,1,80,0,0
192232,-100,4,3,97,80,0,0
192777,-100,4,3,88,80,0,0
192913,-100,4,3,97,80,0,0
193323,-100,4,3,1,80,0,0
193459,-100,4,3,97,80,0,0
193868,-100,4,3,1,80,0,0
194004,-100,4,3,97,80,0,0
194277,-100,4,3,1,80,0,0
194413,-100,4,3,97,80,0,0
194959,-100,4,3,1,80,0,0
195777,-100,4,3,88,80,0,0
195913,-100,4,3,1,80,0,0
196186,-100,4,3,88,80,0,0
196323,-100,4,3,1,80,0,0
196663,-100,4,3,1,5,0,0
196732,-100,4,3,1,80,0,0
196868,-100,4,3,88,80,0,0
197004,-100,4,3,1,80,0,0
197277,-100,4,3,1,80,0,0
197686,-100,4,3,89,80,0,0
197959,-100,4,3,88,80,0,0
198095,-100,4,3,1,80,0,0
198913,-100,4,3,97,80,0,0
199186,-100,4,3,88,80,0,0
199595,-100,4,3,89,80,0,0
199800,-100,4,3,89,5,0,0
199868,-90.9090909090909,4,3,89,90,0,1
200073,-90.9090909090909,4,3,89,5,0,1
200141,-90.9090909090909,4,3,3,90,0,1
202254,-90.9090909090909,4,3,3,5,0,1
202323,-90.9090909090909,4,3,3,90,0,1
204163,-90.9090909090909,4,3,3,5,0,1
204232,-90.9090909090909,4,3,1,90,0,1
204436,-90.9090909090909,4,3,1,5,0,1
204504,-90.9090909090909,4,3,3,90,0,1
207709,-90.9090909090909,4,3,3,5,0,1
207777,-90.9090909090909,4,3,3,90,0,1
208323,-90.9090909090909,4,3,88,90,0,1
208527,-90.9090909090909,4,3,88,5,0,1
208595,-90.9090909090909,4,3,1,90,0,1
208868,-90.9090909090909,4,3,3,90,0,1
210982,-90.9090909090909,4,3,3,5,0,1
211050,-90.9090909090909,4,3,3,90,0,1
212073,-90.9090909090909,4,3,3,5,0,1
212141,-90.9090909090909,4,3,3,90,0,1
212891,-90.9090909090909,4,3,3,5,0,1
212959,-90.9090909090909,4,3,1,90,0,1
213232,-90.9090909090909,4,3,3,90,0,1
214254,-90.9090909090909,4,3,3,5,0,1
214323,-90.9090909090909,4,3,3,90,0,1
215345,-90.9090909090909,4,3,3,5,0,1
215413,-90.9090909090909,4,3,88,90,0,1
215550,-90.9090909090909,4,3,3,90,0,1
215959,-90.9090909090909,4,3,88,90,0,1
216095,-90.9090909090909,4,3,3,90,0,1
216504,-90.9090909090909,4,3,88,90,0,1
216641,-90.9090909090909,4,3,3,90,0,1
217050,-90.9090909090909,4,3,97,90,0,1
217323,-90.9090909090909,4,3,89,90,0,1
217527,-90.9090909090909,4,3,89,5,0,1
217595,-90.9090909090909,4,3,3,90,0,1
221618,-90.9090909090909,4,3,3,5,0,1
221686,-90.9090909090909,4,3,1,90,0,1
221891,-90.9090909090909,4,3,1,5,0,1
221959,-90.9090909090909,4,3,3,90,0,1
224073,-90.9090909090909,4,3,3,5,0,1
224141,-90.9090909090909,4,3,3,90,0,1
225163,-90.9090909090909,4,3,3,5,0,1
225232,-90.9090909090909,4,3,3,90,0,1
225777,-90.9090909090909,4,3,88,90,0,1
225982,-90.9090909090909,4,3,3,5,0,1
226050,-90.9090909090909,4,3,1,90,0,1
226323,-90.9090909090909,4,3,3,90,0,1
229050,-90.9090909090909,4,3,88,90,0,1
229254,-90.9090909090909,4,3,88,5,0,1
229323,-90.9090909090909,4,3,1,90,0,1
229527,-90.9090909090909,4,3,1,5,0,1
229595,-90.9090909090909,4,3,88,90,0,1
229800,-90.9090909090909,4,3,88,5,0,1
229868,-90.9090909090909,4,3,1,90,0,1
230073,-90.9090909090909,4,3,3,5,0,1
230141,-90.9090909090909,4,3,88,90,0,1
230345,-90.9090909090909,4,3,88,5,0,1
230413,-90.9090909090909,4,3,1,90,0,1
230686,-90.9090909090909,4,3,3,90,0,1
232595,-90.9090909090909,4,3,1,90,0,1
232868,-90.9090909090909,4,3,3,90,0,1
234504,-90.9090909090909,4,3,88,90,0,1
234709,-90.9090909090909,4,3,4,5,0,1
234777,-90.9090909090909,4,3,1,70,0,1
235527,-90.9090909090909,4,3,1,5,0,1
235595,-90.9090909090909,4,3,1,70,0,1
236004,-90.9090909090909,4,3,1,70,0,1
237095,-90.9090909090909,4,3,97,70,0,1
237504,-90.9090909090909,4,3,1,70,0,1
237709,-90.9090909090909,4,3,1,5,0,1
237777,-90.9090909090909,4,3,1,70,0,1
237982,-90.9090909090909,4,3,1,5,0,1
238050,-90.9090909090909,4,3,1,70,0,1
238595,-90.9090909090909,4,3,97,70,0,1
239141,-100,4,3,1,70,0,0
239277,-100,4,3,5,70,0,0
240777,-100,4,3,88,70,0,0
240913,-100,4,3,5,70,0,0
241323,-100,4,3,1,70,0,0
241459,-100,4,3,5,70,0,0
242959,-100,4,3,88,70,0,0
243095,-100,4,3,5,70,0,0
243504,-100,4,3,1,70,0,0
243641,-100,4,3,5,70,0,0
245141,-100,4,3,88,70,0,0
245277,-100,4,3,5,70,0,0
245413,-100,4,3,89,70,0,0
245550,-100,4,3,5,70,0,0
245686,-100,4,3,1,70,0,0
245891,-100,4,3,5,5,0,0
245959,-100,4,3,5,70,0,0
246504,-100,4,3,1,70,0,0
246709,-100,4,3,5,5,0,0
246777,-100,4,3,5,70,0,0
247323,-100,4,3,1,70,0,0
247527,-100,4,3,5,5,0,0
247595,-100,4,3,5,70,0,0
247868,-100,4,3,88,70,0,0
248141,-100,4,3,5,70,0,0
248959,-100,4,3,88,60,0,0
249095,-100,4,3,5,70,0,0
249504,-100,4,3,88,70,0,0
249641,-100,4,3,5,70,0,0
249777,-100,4,3,5,70,0,0
249845,-100,4,3,5,5,0,0
249913,-100,4,3,5,70,0,0
249982,-100,4,3,5,5,0,0
250050,-100,4,3,1,70,0,0
250186,-100,4,3,5,70,0,0
251686,-100,4,3,88,70,0,0
251823,-100,4,3,5,70,0,0
252232,-100,4,3,1,70,0,0
252368,-100,4,3,5,70,0,0
252504,-100,4,3,97,70,0,0
253050,-100,4,3,88,70,0,0
253459,-100,4,3,1,70,0,0
255095,-100,4,3,97,70,0,0
255504,-100,4,3,1,70,0,0
255573,-100,4,3,97,70,0,0
255913,-100,4,3,1,70,0,0
255982,-100,4,3,97,70,0,0
256323,-100,4,3,1,70,0,0
256595,-100,4,3,6,75,0,0
256732,-100,4,2,6,75,0,0
260141,-100,4,2,6,68,0,0
260413,-100,4,2,6,63,0,0
260686,-100,4,2,6,58,0,0
260959,-100,4,2,6,75,0,0
261141,-100,4,2,6,5,0,0
261232,-100,4,2,6,50,0,0
261504,-100,4,2,6,58,0,0
261777,-100,4,2,6,66,0,0
261959,-100,4,2,6,66,0,0
262050,-100,4,2,6,80,0,0
262141,-100,4,2,6,52,0,0
262232,-100,4,2,6,75,0,0
262323,-100,4,2,6,52,0,0
262413,-100,4,2,6,70,0,0
262504,-100,4,2,6,52,0,0
262595,-100,4,2,6,65,0,0
262686,-100,4,2,6,52,0,0
262777,-100,4,2,6,60,0,0
262868,-100,4,2,6,52,0,0
262959,-100,4,2,6,55,0,0
263050,-100,4,2,6,52,0,0
263141,-100,4,2,6,70,0,0
263413,-100,4,2,6,60,0,0
263686,-100,4,2,6,40,0,0
263868,-100,4,2,6,60,0,0
263959,-100,4,2,6,75,0,0
264050,-100,4,2,6,68,0,0
264141,-100,4,2,6,60,0,0
264232,-100,4,2,6,80,0,0
264323,-100,4,2,6,70,0,0
264413,-100,4,2,6,60,0,0
264504,-100,4,2,6,45,0,0
264595,-100,4,2,6,60,0,0
264913,-100,4,2,6,40,0,0
264982,-100,4,2,6,42,0,0
265050,-100,4,2,6,46,0,0
265118,-100,4,2,6,52,0,0
265186,-100,4,2,6,60,0,0
265254,-100,4,2,6,70,0,0
265323,-100,4,2,6,70,0,0
265391,-100,4,2,6,45,0,0
265595,-100,4,2,6,70,0,0
265663,-100,4,2,6,45,0,0
265868,-100,4,2,6,70,0,0
265936,-100,4,2,6,45,0,0
266141,-100,4,2,6,70,0,0
266209,-100,4,2,6,45,0,0
266413,-100,4,2,6,70,0,0
266482,-100,4,2,6,66,0,0
266550,-100,4,2,6,62,0,0
266618,-100,4,2,6,58,0,0
266686,-100,4,2,6,55,0,0
266754,-100,4,2,6,52,0,0
266823,-100,4,2,6,49,0,0
266891,-100,4,2,6,46,0,0
266959,-100,4,2,6,64,0,0
267504,-100,4,2,6,60,0,0
268868,-100,4,2,6,50,0,0
269777,-100,4,2,6,45,0,0
269959,-100,4,2,6,55,0,0
270232,-100,4,2,6,65,0,0
270504,-100,4,2,6,75,0,0
270777,-100,4,2,6,75,0,0
270845,-100,4,2,6,70,0,0
271050,-100,4,2,6,55,0,0
271163,-100,4,2,6,20,0,0
271186,-100,4,2,6,55,0,0
271323,-100,4,2,6,65,0,0
271595,-100,4,2,6,54,0,0
271663,-100,4,2,6,61,0,0
271732,-100,4,2,6,68,0,0
271800,-100,4,2,6,75,0,0
271868,-100,4,2,6,75,0,0
271936,-100,4,2,6,40,0,0
272141,-100,4,2,6,50,0,0
272413,-100,4,2,6,65,0,0
272686,-100,4,2,6,80,0,0
272959,-100,4,3,1,74,0,0
273504,-100,4,3,97,74,0,0
273777,-100,4,3,88,74,0,0
274050,-100,4,3,1,70,0,0
278413,-83.3333333333333,4,3,1,70,0,0
278823,-83.3333333333333,4,3,1,70,0,0
279777,-83.3333333333333,4,3,66,70,0,0
279868,-83.3333333333333,4,3,1,70,0,0
280595,-100,4,3,1,70,0,0
282504,-83.3333333333333,4,3,97,70,0,0
282777,-100,4,3,1,70,0,0
282982,-100,4,3,1,5,0,0
283050,-100,4,3,1,70,0,0
284073,-100,4,3,1,5,0,0
284141,-100,4,3,1,70,0,0
287141,-100,4,3,1,70,0,0
290141,-100,4,3,88,70,0,0
290345,-100,4,3,1,5,0,0
290413,-100,4,3,1,70,0,0
291141,-100,4,3,97,70,0,0
291504,-100,4,3,1,70,0,0
298050,-100,4,3,1,75,0,0
299004,-100,4,3,97,75,0,0
299141,-100,4,3,1,70,0,0
299504,-100,4,3,97,70,0,0
300232,-100,4,3,1,60,0,0
306777,-100,4,3,1,60,0,0
307232,-100,4,3,1,5,0,0
307323,-100,4,3,1,60,0,0
307868,-100,4,3,4,80,0,0
317618,-100,4,3,4,5,0,0
317686,-125,4,3,1,65,0,0
319800,-125,4,3,1,5,0,0
319868,-125,4,3,1,65,0,0
321232,-125,4,3,1,5,0,0
321504,-125,4,3,1,50,0,0
322050,-100,4,3,1,60,0,0
324232,-100,4,3,1,70,0,0
325323,-100,4,3,1,70,0,0
325459,-100,4,3,97,70,0,0
325595,-100,4,3,1,70,0,0
326141,-100,4,3,88,70,0,0
326345,-100,4,3,88,5,0,0
326413,-90.9090909090909,4,3,89,90,0,1
326618,-90.9090909090909,4,3,89,5,0,1
326686,-90.9090909090909,4,3,3,90,0,1
330709,-90.9090909090909,4,3,3,5,0,1
330777,-90.9090909090909,4,3,1,90,0,1
330982,-90.9090909090909,4,3,3,5,0,1
331050,-90.9090909090909,4,3,3,90,0,1
331459,-90.9090909090909,4,3,3,90,0,1
331852,-90.9090909090909,4,3,3,90,0,1
332245,-90.9090909090909,4,3,3,90,0,1
332548,-90.9090909090909,4,3,3,90,0,1
332549,-90.9090909090909,4,3,3,90,0,1
332685,-90.9090909090909,4,3,3,90,0,1
332958,-90.9090909090909,4,3,3,90,0,1
333162,-90.9090909090909,4,3,3,5,0,1
333230,-90.9090909090909,4,3,3,90,0,1
334253,-90.9090909090909,4,3,3,5,0,1
334321,-90.9090909090909,4,3,3,90,0,1
334866,-90.9090909090909,4,3,88,90,0,1
335071,-90.9090909090909,4,3,3,5,0,1
335139,-90.9090909090909,4,3,1,90,0,1
335276,-90.9090909090909,4,3,3,90,0,1
337526,-90.9090909090909,4,3,3,6,0,1
337594,-90.9090909090909,4,3,3,90,0,1
338139,-90.9090909090909,4,3,88,90,0,1
338344,-90.9090909090909,4,3,3,5,0,1
338412,-90.9090909090909,4,3,1,90,0,1
338617,-90.9090909090909,4,3,1,5,0,1
338685,-90.9090909090909,4,3,88,90,0,1
338889,-90.9090909090909,4,3,88,5,0,1
338958,-90.9090909090909,4,3,1,90,0,1
339162,-90.9090909090909,4,3,1,5,0,1
339230,-90.9090909090909,4,3,88,90,0,1
339435,-90.9090909090909,4,3,88,5,0,1
339503,-90.9090909090909,4,3,1,90,0,1
339776,-90.9090909090909,4,3,3,90,0,1
340048,-90.9090909090909,4,3,3,90,0,1
340321,-90.9090909090909,4,3,3,90,0,1
340594,-90.9090909090909,4,3,3,90,0,1
340798,-90.9090909090909,4,3,3,5,0,1
340867,-90.9090909090909,4,3,3,90,0,1
341412,-90.9090909090909,4,3,88,90,0,1
341548,-90.9090909090909,4,3,3,5,0,1
341685,-90.9090909090909,4,3,3,90,0,1
342094,-90.9090909090909,4,3,97,90,0,1
342367,-90.9090909090909,4,3,3,90,0,1
342503,-90.9090909090909,4,3,88,90,0,1
342708,-90.9090909090909,4,3,3,5,0,1
342776,-90.9090909090909,4,3,1,90,0,1
343048,-90.9090909090909,4,3,88,90,0,1
343185,-90.9090909090909,4,3,3,90,0,1
343254,-90.9090909090909,4,3,3,5,0,1
343323,-90.9090909090909,4,3,3,90,0,1
343867,-90.9090909090909,4,3,89,90,0,1
344139,-90.9090909090909,4,3,3,90,0,1
346253,-90.9090909090909,4,3,3,5,0,1
346321,-90.9090909090909,4,3,3,90,0,1
348163,-90.9090909090909,4,3,3,5,0,1
348230,-90.9090909090909,4,3,1,90,0,1
348435,-90.9090909090909,4,3,3,5,0,1
348503,-90.9090909090909,4,3,3,90,0,1
350412,-90.9090909090909,4,3,1,90,0,1
350617,-90.9090909090909,4,3,3,5,0,1
350685,-90.9090909090909,4,3,3,90,0,1
350958,-90.9090909090909,4,3,1,90,0,1
351026,-90.9090909090909,4,3,3,90,0,1
351503,-90.9090909090909,4,3,1,90,0,1
351708,-90.9090909090909,4,3,3,5,0,1
351776,-90.9090909090909,4,3,3,90,0,1
352527,-90.9090909090909,4,3,3,5,0,1
352594,-90.9090909090909,4,3,1,90,0,1
352867,-90.9090909090909,4,3,3,90,0,1
354709,-90.9090909090909,4,3,3,5,0,1
354776,-90.9090909090909,4,3,1,90,0,1
354982,-90.9090909090909,4,3,1,5,0,1
355048,-90.9090909090909,4,3,3,90,0,1
355594,-90.9090909090909,4,3,88,90,0,1
355867,-90.9090909090909,4,3,1,90,0,1
356071,-90.9090909090909,4,3,1,5,0,1
356139,-90.9090909090909,4,3,88,90,0,1
356344,-90.9090909090909,4,3,88,5,0,1
356412,-90.9090909090909,4,3,1,90,0,1
356617,-90.9090909090909,4,3,1,5,0,1
356685,-90.9090909090909,4,3,88,90,0,1
356889,-90.9090909090909,4,3,88,5,0,1
356958,-90.9090909090909,4,3,1,90,0,1
357230,-90.9090909090909,4,3,3,90,0,1
358253,-90.9090909090909,4,3,3,5,0,1
358321,-90.9090909090909,4,3,88,90,0,1
358594,-90.9090909090909,4,3,3,90,0,1
358685,-90.9090909090909,4,3,97,90,0,1
359139,-90.9090909090909,4,3,1,75,0,1
359548,-90.9090909090909,4,3,3,75,0,1
361321,-90.9090909090909,4,3,1,75,0,1
364253,-90.9090909090909,4,3,1,5,0,1
364321,-90.9090909090909,4,3,1,75,0,1
364594,-90.9090909090909,4,3,1,75,0,1
365003,-90.9090909090909,4,3,97,75,0,1
365276,-90.9090909090909,4,3,1,75,0,1
365686,-100,4,3,1,75,0,0
367595,-100,4,3,89,75,0,0
367730,-100,4,3,1,75,0,0
369776,-100,4,3,89,75,0,0
369912,-100,4,3,1,75,0,0
371958,-100,4,3,89,75,0,0
372094,-100,4,3,1,75,0,0
376321,-100,4,3,89,75,0,0
376458,-100,4,3,1,75,0,0
378503,-100,4,3,89,75,0,0
378639,-100,4,3,1,75,0,0
382458,-100,4,3,97,75,0,0
382594,-100,4,3,1,75,0,0
383139,-100,4,3,1,75,0,0
383412,-100,4,3,7,75,0,0
385048,-100,4,3,89,75,0,0
385185,-100,4,3,7,75,0,0
385321,-100,4,3,1,75,0,0
385458,-100,4,3,7,75,0,0
387230,-100,4,3,89,75,0,0
387367,-100,4,3,7,75,0,0
387503,-100,4,3,1,75,0,0
387639,-100,4,3,7,75,0,0
389412,-100,4,3,89,75,0,0
389548,-100,4,3,7,75,0,0
389685,-100,4,3,1,75,0,0
389821,-100,4,3,7,75,0,0
391867,-100,4,3,1,75,0,0
392003,-100,4,3,7,75,0,0
393776,-100,4,3,89,75,0,0
393912,-100,4,3,7,75,0,0
394048,-100,4,3,1,75,0,0
394185,-100,4,3,7,75,0,0
395958,-100,4,3,89,75,0,0
396094,-100,4,3,7,75,0,0
396230,-100,4,3,1,75,0,0
396367,-100,4,3,7,75,0,0
397321,-100,4,3,1,75,0,0
397458,-100,4,3,7,75,0,0
398412,-100,4,3,1,75,0,0
399094,-100,4,3,97,75,0,0
399503,-100,4,3,1,75,0,0
399776,-100,4,3,97,75,0,0
400595,-90.9090909090909,4,3,89,100,0,1
401685,-90.9090909090909,4,3,1,90,0,1
402776,-90.9090909090909,4,3,1,80,0,1
403867,-90.9090909090909,4,3,1,70,0,1
404959,-100,4,3,1,60,0,0
406050,-100,4,3,1,54,0,0
407141,-100,4,3,1,48,0,0
408232,-100,4,3,1,42,0,0
409323,-100,4,3,1,36,0,0
410413,-100,4,3,1,30,0,0
411504,-100,4,3,1,24,0,0
412050,-100,4,3,1,18,0,0
412595,-100,4,3,1,12,0,0
413141,-100,4,3,1,6,0,0
413685,-100,4,3,99,5,0,0

[Colours]
Combo1 : 122,113,149
Combo2 : 220,219,194
Combo3 : 175,158,146
Combo4 : 136,170,128

[HitObjects]
48,240,18777,5,8,0:2:0:0:
464,240,19323,1,8,0:1:0:0:
144,120,19868,6,0,L|93:120,1,47.5,8|8,0:2|0:2,0:0:0:0:
242,72,20004,2,0,L|290:72,1,47.5,8|8,0:2|0:2,0:0:0:0:
234,104,20141,1,8,0:3:0:0:
197,109,20209,1,8,0:3:0:0:
170,130,20277,1,12,0:3:0:0:
197,109,20345,1,12,0:3:0:0:
259,121,20413,1,12,0:3:0:0:
323,129,20482,1,12,0:3:0:0:
259,121,20550,1,8,0:3:0:0:
197,109,20618,1,8,0:3:0:0:
354,184,20686,2,0,B|449:176|449:176|374:168,1,142.5,12|0,0:2|0:0,0:0:0:0:
184,64,20959,6,0,L|80:64,1,95,12|8,0:1|0:3,0:0:0:0:
232,32,21232,2,0,L|344:32,1,95,10|8,0:3|0:3,0:0:0:0:
128,192,21504,1,10,0:2:0:0:
104,136,21573,1,0,0:0:0:0:
136,104,21641,1,8,0:3:0:0:
200,104,21709,1,0,0:0:0:0:
272,104,21777,2,0,L|176:112,1,95,10|8,0:3|0:3,0:0:0:0:
320,216,22050,6,0,L|352:80,1,95,10|8,0:0|0:3,0:0:0:0:
280,120,22254,1,8,0:3:0:0:
216,128,22323,2,0,L|184:-8,1,95,10|8,0:3|0:3,0:0:0:0:
392,32,22595,2,0,L|488:32,1,95,10|8,0:2|0:3,0:0:0:0:
368,88,22868,2,0,L|480:88,1,95,10|8,0:3|0:3,0:0:0:0:
256,160,23141,5,12,0:3:0:0:
208,160,23209,1,0,0:0:0:0:
184,120,23277,1,8,0:3:0:0:
312,120,23413,2,0,L|440:120,1,95,10|8,0:3|0:3,0:0:0:0:
360,120,23618,1,8,0:3:0:0:
200,48,23686,2,0,L|88:56,1,95,10|8,0:2|0:3,0:0:0:0:
248,168,23959,1,10,0:3:0:0:
264,136,24027,1,8,0:3:0:0:
280,104,24095,1,8,0:3:0:0:
128,168,24232,6,0,L|24:168,1,95,10|8,0:0|0:3,0:0:0:0:
92,140,24436,1,8,0:3:0:0:
152,104,24504,2,0,L|48:104,1,95,10|8,0:3|0:3,0:0:0:0:
264,48,24777,2,0,L|376:48,1,95,10|8,0:2|0:3,0:0:0:0:
248,120,25050,2,0,L|360:120,1,95,10|8,0:3|0:3,0:0:0:0:
136,184,25323,5,12,0:3:0:0:
88,184,25391,1,0,0:0:0:0:
64,136,25459,1,8,0:3:0:0:
200,80,25595,2,0,L|96:80,1,95,10|8,0:3|0:3,0:0:0:0:
304,160,25868,1,10,0:2:0:0:
320,112,25936,1,0,0:0:0:0:
336,64,26004,1,8,0:3:0:0:
216,48,26141,1,10,0:3:0:0:
168,40,26209,1,8,0:3:0:0:
216,48,26277,1,8,0:3:0:0:
360,64,26413,5,10,0:0:0:0:
216,160,26550,1,8,0:3:0:0:
264,160,26618,1,8,0:3:0:0:
312,160,26686,1,10,0:3:0:0:
408,128,26823,1,8,0:3:0:0:
216,96,26959,2,0,L|120:96,1,95,10|8,0:2|0:3,0:0:0:0:
240,40,27232,2,0,L|128:40,1,95,10|8,0:3|0:3,0:0:0:0:
344,120,27504,5,12,0:3:0:0:
392,112,27573,1,0,0:0:0:0:
416,64,27641,1,8,0:3:0:0:
288,40,27777,2,0,L|400:32,1,95,10|8,0:3|0:3,0:0:0:0:
336,40,27982,1,8,0:3:0:0:
176,96,28050,2,0,L|72:96,1,95,10|8,0:2|0:3,0:0:0:0:
224,184,28323,1,10,0:3:0:0:
200,128,28391,1,8,0:3:0:0:
144,128,28459,1,8,0:3:0:0:
288,120,28595,6,0,L|408:120,1,95,10|8,0:0|0:3,0:0:0:0:
432,120,28800,1,8,0:3:0:0:
478,120,28868,2,0,L|358:120,1,95,10|8,0:3|0:3,0:0:0:0:
184,96,29141,2,0,L|280:96,1,95,10|8,0:2|0:3,0:0:0:0:
160,40,29414,2,0,L|272:40,1,95,10|8,0:3|0:3,0:0:0:0:
448,104,29686,5,12,0:1:0:0:
432,48,29754,1,0,0:0:0:0:
384,40,29823,2,0,L|280:40,1,95,8|10,0:3|0:3,0:0:0:0:
384,40,30095,1,8,0:3:0:0:
184,152,30232,2,0,L|64:152,1,95,10|8,0:2|0:3,0:0:0:0:
232,152,30504,1,10,0:3:0:0:
248,120,30573,1,8,0:3:0:0:
264,88,30641,1,8,0:3:0:0:
120,208,30777,6,0,L|96:96,1,95,10|8,0:0|0:3,0:0:0:0:
150,95,30982,1,8,0:3:0:0:
197,88,31050,2,0,L|74:80,1,95,10|8,0:3|0:3,0:0:0:0:
296,56,31323,2,0,L|408:48,1,95,10|8,0:2|0:3,0:0:0:0:
272,128,31595,2,0,L|384:120,1,95,10|8,0:3|0:3,0:0:0:0:
168,168,31868,5,12,0:3:0:0:
120,168,31936,1,0,0:0:0:0:
72,168,32004,1,8,0:3:0:0:
168,104,32141,2,0,L|280:104,1,95,10|8,0:3|0:3,0:0:0:0:
216,104,32345,1,8,0:3:0:0:
56,216,32413,2,0,L|40:112,1,95,10|8,0:2|0:3,0:0:0:0:
184,96,32686,1,10,0:3:0:0:
136,88,32754,1,8,0:3:0:0:
88,80,32823,1,8,0:3:0:0:
232,40,32959,6,0,L|368:40,1,95,10|8,0:0|0:3,0:0:0:0:
376,40,33163,1,8,0:3:0:0:
327,40,33232,2,0,L|191:40,1,95,10|8,0:3|0:3,0:0:0:0:
432,136,33504,2,0,L|312:136,1,95,10|8,0:2|0:3,0:0:0:0:
456,80,33777,2,0,L|336:80,1,95,10|8,0:3|0:3,0:0:0:0:
152,120,34050,5,12,0:3:0:0:
208,120,34118,1,0,0:0:0:0:
232,64,34186,1,8,0:3:0:0:
96,184,34323,2,0,L|80:64,1,95,10|8,0:3|0:3,0:0:0:0:
280,72,34595,2,0,L|392:64,1,95,10|8,0:2|0:3,0:0:0:0:
232,168,34868,1,10,0:3:0:0:
208,120,34936,1,8,0:3:0:0:
264,112,35004,1,8,0:3:0:0:
408,112,35141,5,10,0:0:0:0:
264,112,35277,1,8,0:3:0:0:
216,112,35345,1,8,0:3:0:0:
264,112,35413,1,10,0:3:0:0:
408,112,35550,1,8,0:3:0:0:
216,208,35686,2,0,L|112:208,1,95,10|8,0:2|0:3,0:0:0:0:
240,144,35959,2,0,L|136:144,1,95,10|8,0:3|0:3,0:0:0:0:
352,144,36232,5,12,0:3:0:0:
376,88,36300,1,0,0:0:0:0:
328,144,36368,1,8,0:3:0:0:
232,80,36504,2,0,L|344:80,1,95,10|8,0:3|0:3,0:0:0:0:
280,80,36709,1,8,0:3:0:0:
120,80,36777,2,0,L|8:80,1,95,10|8,0:2|0:3,0:0:0:0:
120,176,37050,1,10,0:3:0:0:
72,176,37118,1,8,0:3:0:0:
24,176,37186,1,8,0:3:0:0:
232,176,37323,6,0,L|336:176,1,95,10|0,0:2|0:0,0:0:0:0:
280,176,37527,1,0,0:0:0:0:
136,104,37595,2,0,L|32:104,1,95,8|8,0:2|0:3,0:0:0:0:
88,104,37799,1,0,0:0:0:0:
248,104,37868,1,10,0:2:0:0:
80,32,38050,1,10,0:2:0:0:
248,104,38232,1,10,0:2:0:0:
488,112,38413,5,12,0:1:0:0:
368,112,38550,1,8,0:3:0:0:
488,112,38686,1,10,0:0:0:0:
248,176,38959,1,10,0:3:0:0:
488,112,39232,1,10,0:3:0:0:
368,112,39368,1,8,0:3:0:0:
160,40,39504,5,12,0:3:0:0:
280,40,39641,1,8,0:3:0:0:
160,40,39777,1,10,0:3:0:0:
400,112,40050,1,10,0:3:0:0:
280,112,40186,1,8,0:3:0:0:
160,112,40323,1,10,0:3:0:0:
40,112,40459,1,8,0:3:0:0:
240,184,40595,5,14,0:3:0:0:
120,160,40732,1,8,0:3:0:0:
240,184,40868,1,10,0:3:0:0:
472,160,41141,1,10,0:3:0:0:
232,128,41413,1,10,0:3:0:0:
352,112,41550,1,8,0:3:0:0:
144,80,41686,5,12,0:3:0:0:
264,64,41823,1,8,0:3:0:0:
144,80,41959,1,10,0:3:0:0:
392,56,42232,2,0,L|336:56,1,47.5,8|8,0:2|0:2,0:0:0:0:
184,56,42368,2,0,L|168:104,1,47.5,8|8,0:2|0:2,0:0:0:0:
240,120,42504,2,0,L|272:160,1,47.5,8|8,0:2|0:2,0:0:0:0:
176,176,42641,2,0,L|128:184,1,47.5,8|8,0:2|0:2,0:0:0:0:
312,176,42777,5,12,0:1:0:0:
432,168,42913,1,8,0:3:0:0:
312,176,43050,1,10,0:3:0:0:
72,128,43323,1,10,0:3:0:0:
312,104,43595,1,10,0:3:0:0:
192,96,43732,1,8,0:3:0:0:
400,48,43868,5,12,0:3:0:0:
280,32,44004,1,8,0:3:0:0:
160,24,44141,1,10,0:3:0:0:
400,152,44413,1,10,0:3:0:0:
280,144,44550,1,8,0:3:0:0:
400,152,44686,1,10,0:3:0:0:
280,144,44823,1,8,0:3:0:0:
488,160,44959,5,14,0:3:0:0:
368,96,45095,1,8,0:3:0:0:
488,160,45232,1,10,0:3:0:0:
248,88,45504,1,10,0:3:0:0:
480,80,45777,1,10,0:3:0:0:
360,64,45913,1,8,0:3:0:0:
160,96,46050,5,12,0:3:0:0:
280,96,46186,1,8,0:3:0:0:
400,96,46323,1,8,0:3:0:0:
160,168,46595,2,0,L|216:168,1,47.5,8|8,0:2|0:2,0:0:0:0:
368,168,46731,2,0,L|384:120,1,47.5,8|8,0:3|0:3,0:0:0:0:
312,104,46867,2,0,L|280:64,1,47.5,10|12,0:1|0:3,0:0:0:0:
376,48,47004,2,0,L|424:40,1,47.5,12|12,0:3|0:3,0:0:0:0:
264,112,47141,5,12,0:3:0:0:
144,112,47278,1,8,0:3:0:0:
24,112,47414,1,10,0:3:0:0:
264,176,47687,1,10,0:3:0:0:
24,112,47960,1,10,0:3:0:0:
144,112,48096,1,8,0:3:0:0:
352,40,48232,5,12,0:3:0:0:
232,40,48369,1,8,0:3:0:0:
352,40,48505,1,10,0:3:0:0:
112,112,48778,1,10,0:3:0:0:
232,112,48914,1,8,0:3:0:0:
352,112,49051,1,10,0:3:0:0:
472,112,49187,1,8,0:3:0:0:
272,184,49323,5,14,0:3:0:0:
392,160,49460,1,8,0:3:0:0:
272,184,49596,1,10,0:3:0:0:
40,160,49869,1,10,0:3:0:0:
280,128,50141,1,10,0:3:0:0:
160,112,50278,1,8,0:3:0:0:
368,80,50414,5,12,0:3:0:0:
248,64,50551,1,8,0:3:0:0:
368,80,50687,1,8,0:3:0:0:
120,56,50960,2,0,L|176:56,1,47.5,8|8,0:2|0:2,0:0:0:0:
328,56,51096,2,0,L|344:104,1,47.5,8|8,0:2|0:2,0:0:0:0:
272,120,51232,2,0,L|264:168,1,47.5,8|8,0:2|0:2,0:0:0:0:
360,176,51369,2,0,L|408:184,1,47.5,8|8,0:2|0:2,0:0:0:0:
240,176,51505,5,12,0:1:0:0:
120,168,51641,1,8,0:3:0:0:
240,176,51778,1,10,0:3:0:0:
480,128,52051,1,10,0:3:0:0:
240,104,52323,1,10,0:3:0:0:
360,96,52460,1,8,0:3:0:0:
152,48,52596,5,12,0:3:0:0:
272,32,52732,1,8,0:3:0:0:
392,24,52869,1,10,0:3:0:0:
152,152,53141,1,10,0:3:0:0:
272,144,53278,1,8,0:3:0:0:
152,152,53414,1,10,0:3:0:0:
272,144,53551,1,8,0:3:0:0:
64,160,53687,5,14,0:3:0:0:
184,96,53823,1,8,0:3:0:0:
64,160,53960,1,10,0:3:0:0:
400,88,54232,1,12,0:3:0:0:
168,80,54505,1,8,0:3:0:0:
288,64,54641,1,8,0:3:0:0:
48,256,54777,5,8,0:2:0:0:
24,200,54845,1,8,0:2:0:0:
56,152,54913,1,8,0:2:0:0:
112,136,54982,1,8,0:2:0:0:
184,136,55050,2,0,L|200:80,1,47.5,8|8,0:3|0:3,0:0:0:0:
128,104,55186,2,0,L|112:48,1,47.5,8|8,0:3|0:3,0:0:0:0:
192,40,55323,1,12,0:3:0:0:
248,40,55391,1,12,0:3:0:0:
304,40,55459,1,12,0:3:0:0:
248,40,55527,1,12,0:3:0:0:
192,40,55595,2,0,P|144:64|208:120,1,142.5,10|0,0:3|0:0,0:0:0:0:
344,168,55868,6,0,L|400:160,1,47.5,12|8,1:1|0:3,0:0:0:0:
320,128,56004,2,0,L|248:136,1,47.5,8|8,0:3|0:3,0:0:0:0:
432,152,56141,1,8,0:2:0:0:
480,104,56209,1,8,0:3:0:0:
504,48,56277,1,8,0:3:0:0:
480,104,56345,1,8,0:3:0:0:
432,152,56413,5,10,0:3:0:0:
368,152,56482,1,8,0:3:0:0:
304,152,56550,1,8,0:3:0:0:
240,152,56618,1,8,0:3:0:0:
400,240,56686,1,8,1:2:0:0:
448,216,56754,1,8,0:3:0:0:
472,160,56823,1,8,0:3:0:0:
448,216,56891,1,8,0:3:0:0:
280,232,56959,6,0,L|272:184,1,47.5,10|8,1:3|0:3,0:0:0:0:
344,176,57095,2,0,L|352:128,1,47.5,8|8,0:3|0:3,0:0:0:0:
176,136,57232,2,0,L|120:136,1,47.5,8|8,0:2|0:3,0:0:0:0:
200,96,57368,2,0,L|256:96,1,47.5,8|8,0:3|0:3,0:0:0:0:
176,72,57504,6,0,L|168:16,1,47.5,10|8,0:3|0:3,0:0:0:0:
247,96,57641,2,0,L|253:48,1,47.5,8|8,0:3|0:3,0:0:0:0:
88,160,57777,2,0,L|72:104,1,47.5,8|8,0:2|0:3,0:0:0:0:
144,80,57913,2,0,L|200:72,1,47.5,8|8,0:3|0:3,0:0:0:0:
121,121,58050,6,0,L|65:113,1,47.5,10|8,0:3|0:3,0:0:0:0:
152,160,58186,2,0,L|208:152,1,47.5,8|8,0:3|0:3,0:0:0:0:
360,136,58323,2,0,L|376:80,1,47.5,8|8,0:2|0:3,0:0:0:0:
296,184,58459,2,0,L|280:128,1,47.5,8|8,0:3|0:3,0:0:0:0:
360,96,58595,5,10,1:3:0:0:
408,96,58663,1,8,0:3:0:0:
432,72,58732,1,8,0:3:0:0:
408,96,58800,1,8,0:3:0:0:
240,72,58868,2,0,L|184:72,1,47.5,8|8,0:2|0:3,0:0:0:0:
168,72,59004,1,8,0:3:0:0:
192,72,59073,1,8,0:3:0:0:
272,72,59141,6,0,L|288:24,3,47.5,10|8|8|8,1:3|0:3|0:3|0:3,0:0:0:0:
128,16,59413,2,0,L|72:16,1,47.5,8|8,0:2|0:3,0:0:0:0:
240,168,59550,1,8,1:3:0:0:
272,136,59618,1,8,0:3:0:0:
240,96,59686,5,10,0:3:0:0:
184,88,59754,1,8,0:3:0:0:
120,88,59823,1,8,0:3:0:0:
184,88,59891,1,8,0:3:0:0:
344,88,59959,2,0,P|400:128|344:160,1,142.5,8|8,1:2|0:3,0:0:0:0:
184,160,60232,5,12,1:3:0:0:
136,144,60300,1,8,0:3:0:0:
112,96,60368,1,8,0:3:0:0:
136,144,60436,1,8,0:3:0:0:
304,160,60504,2,0,L|352:160,1,47.5,8|8,0:2|0:3,0:0:0:0:
280,128,60641,1,8,1:3:0:0:
256,88,60709,1,8,0:3:0:0:
280,48,60777,5,10,0:3:0:0:
336,40,60845,1,8,0:3:0:0:
400,40,60913,1,8,0:3:0:0:
336,40,60982,1,8,0:3:0:0:
168,40,61050,1,8,1:2:0:0:
120,40,61118,1,8,0:3:0:0:
104,80,61186,1,8,0:3:0:0:
88,112,61254,1,8,0:3:0:0:
256,200,61323,6,0,L|271:146,1,47.5,10|8,0:3|0:3,0:0:0:0:
192,160,61459,2,0,L|177:106,1,47.5,8|8,0:3|0:3,0:0:0:0:
344,136,61595,2,0,L|400:136,1,47.5,8|8,0:2|0:3,0:0:0:0:
320,96,61731,2,0,L|272:96,1,47.5,8|8,0:3|0:3,0:0:0:0:
344,80,61868,6,0,L|352:32,1,47.5,10|8,0:3|0:3,0:0:0:0:
272,112,62004,2,0,L|264:64,1,47.5,8|8,0:3|0:3,0:0:0:0:
424,160,62141,2,0,L|440:104,1,47.5,8|8,1:2|0:3,0:0:0:0:
368,80,62277,2,0,L|312:72,1,47.5,8|8,1:3|0:3,0:0:0:0:
392,120,62413,5,10,1:3:0:0:
416,72,62481,1,8,0:3:0:0:
392,120,62549,1,8,0:3:0:0:
344,144,62618,1,8,0:3:0:0:
176,144,62686,2,0,L|160:88,1,47.5,8|8,0:2|0:3,0:0:0:0:
232,104,62823,2,0,L|248:48,1,47.5,8|8,0:3|0:3,0:0:0:0:
176,192,62959,6,0,L|224:152,1,47.5,10|8,1:3|0:3,0:0:0:0:
296,192,63096,2,0,L|352:152,1,47.5,8|8,0:3|0:3,0:0:0:0:
168,96,63232,2,0,L|120:96,1,47.5,8|8,0:2|0:3,0:0:0:0:
200,48,63369,2,0,L|264:48,1,47.5,8|8,0:3|0:3,0:0:0:0:
168,96,63504,6,0,L|120:96,1,47.5,10|8,1:3|0:3,0:0:0:0:
260,97,63641,1,8,0:3:0:0:
398,97,63709,1,8,0:3:0:0:
260,97,63777,2,0,L|212:97,1,47.5,8|8,0:2|0:3,0:0:0:0:
136,88,63913,2,0,L|160:40,1,47.5,8|8,0:3|0:3,0:0:0:0:
240,96,64050,6,0,L|256:48,1,47.5,10|8,1:3|0:3,0:0:0:0:
192,96,64186,2,0,L|176:48,1,47.5,8|8,0:3|0:3,0:0:0:0:
344,168,64323,2,0,L|456:168,1,95,12|8,0:3|0:3,0:0:0:0:
392,152,64527,1,8,0:3:0:0:
208,168,64595,6,0,P|160:144|208:80,1,142.5,12|8,1:1|0:3,0:0:0:0:
376,208,64868,2,0,L|400:144,1,47.5,8|8,0:2|0:3,0:0:0:0:
320,160,65004,2,0,L|296:96,1,47.5,8|8,0:3|0:3,0:0:0:0:
376,160,65141,5,10,0:3:0:0:
400,120,65209,1,8,0:3:0:0:
376,88,65277,1,8,0:3:0:0:
328,88,65345,1,8,0:3:0:0:
160,88,65413,1,8,1:2:0:0:
112,88,65482,1,8,0:3:0:0:
88,88,65550,1,8,0:3:0:0:
112,88,65618,1,8,0:3:0:0:
200,176,65686,5,10,1:3:0:0:
224,136,65754,1,8,0:3:0:0:
200,88,65823,1,8,0:3:0:0:
152,88,65891,1,8,0:3:0:0:
312,136,65959,1,8,0:2:0:0:
360,136,66027,1,8,0:3:0:0:
384,96,66095,1,8,0:3:0:0:
360,136,66163,1,8,0:3:0:0:
280,192,66232,6,0,L|264:136,1,47.5,10|8,0:3|0:3,0:0:0:0:
328,168,66368,2,0,L|344:112,1,47.5,8|8,0:3|0:3,0:0:0:0:
176,136,66504,1,8,0:2:0:0:
128,136,66572,1,8,0:3:0:0:
104,96,66640,1,8,0:3:0:0:
128,136,66708,1,8,0:3:0:0:
208,192,66777,6,0,L|224:136,1,47.5,10|8,0:3|0:3,0:0:0:0:
160,168,66913,2,0,L|144:112,1,47.5,8|8,0:3|0:3,0:0:0:0:
304,96,67050,2,0,L|384:96,1,47.5,8|8,0:2|0:3,0:0:0:0:
280,48,67186,2,0,L|216:48,1,47.5,8|8,0:3|0:3,0:0:0:0:
304,152,67323,6,0,L|320:96,1,47.5,10|8,1:3|0:3,0:0:0:0:
248,112,67459,2,0,L|232:56,1,47.5,8|8,0:3|0:3,0:0:0:0:
392,40,67595,2,0,L|408:88,1,47.5,8|8,0:2|0:3,0:0:0:0:
328,112,67732,2,0,L|256:120,1,47.5,8|8,0:3|0:3,0:0:0:0:
352,192,67868,5,10,1:3:0:0:
400,189,67936,1,8,0:3:0:0:
432,160,68004,1,8,0:3:0:0:
424,120,68073,1,8,0:3:0:0:
264,184,68141,2,0,L|216:184,1,47.5,8|8,0:2|0:3,0:0:0:0:
288,152,68278,1,8,1:3:0:0:
312,112,68346,1,8,0:3:0:0:
288,72,68414,5,10,0:3:0:0:
232,64,68482,1,8,0:3:0:0:
168,64,68550,1,8,0:3:0:0:
232,64,68619,1,8,0:3:0:0:
392,192,68686,2,0,P|412:141|320:80,1,142.5,8|8,1:2|0:3,0:0:0:0:
192,160,68959,6,0,L|176:112,3,47.5,12|8|8|8,1:3|0:3|0:3|0:3,0:0:0:0:
336,160,69232,2,0,L|384:160,1,47.5,8|8,0:2|0:3,0:0:0:0:
312,128,69369,1,8,1:3:0:0:
288,88,69437,1,8,0:3:0:0:
312,48,69505,5,10,0:3:0:0:
368,40,69573,1,8,0:3:0:0:
432,40,69641,1,8,0:3:0:0:
368,40,69710,1,8,0:3:0:0:
208,128,69777,1,8,1:2:0:0:
184,88,69845,1,8,0:3:0:0:
208,48,69913,1,8,0:3:0:0:
256,40,69982,1,8,0:3:0:0:
168,128,70050,6,0,L|152:72,3,47.5,10|8|8|8,1:3|0:3|0:3|0:3,0:0:0:0:
328,184,70323,1,8,0:2:0:0:
370,166,70391,1,8,0:3:0:0:
387,123,70459,1,8,1:3:0:0:
367,81,70527,1,8,0:3:0:0:
321,72,70595,6,0,L|305:18,1,47.5,10|8,0:3|0:3,0:0:0:0:
368,120,70732,2,0,L|384:66,1,47.5,8|8,0:3|0:3,0:0:0:0:
232,136,70868,2,0,L|216:82,1,47.5,8|8,0:2|0:3,0:0:0:0:
279,184,71005,2,0,L|295:130,1,47.5,8|8,0:3|0:3,0:0:0:0:
136,104,71141,5,10,0:3:0:0:
112,56,71209,1,8,0:3:0:0:
136,104,71277,1,8,0:3:0:0:
184,128,71346,1,8,0:3:0:0:
352,128,71414,2,0,L|368:72,1,47.5,8|8,0:2|0:3,0:0:0:0:
296,88,71551,2,0,L|280:32,1,47.5,8|8,0:3|0:3,0:0:0:0:
352,176,71687,6,0,L|304:136,1,47.5,10|8,1:3|0:3,0:0:0:0:
232,176,71824,2,0,L|176:136,1,47.5,8|8,0:3|0:3,0:0:0:0:
360,80,71960,2,0,L|408:80,1,47.5,12|8,1:1|0:3,0:0:0:0:
328,32,72095,2,0,L|264:32,1,47.5,8|8,0:3|0:3,0:0:0:0:
104,32,72232,6,0,L|152:32,1,47.5,8|0,1:2|0:0,0:0:0:0:
291,32,72369,1,8,0:2:0:0:
428,34,72437,1,0,0:0:0:0:
288,80,72505,2,0,L|240:80,1,47.5,8|0,1:3|0:0,0:0:0:0:
363,145,72641,2,0,L|315:145,1,47.5,8|0,0:2|0:0,0:0:0:0:
192,152,72777,5,8,1:2:0:0:
104,144,72868,1,12,0:3:0:0:
192,152,72959,1,12,0:3:0:0:
288,80,73050,1,10,1:3:0:0:
200,72,73141,1,10,0:3:0:0:
288,80,73232,1,10,0:3:0:0:
112,272,73323,6,0,B|-1:272|-4:157|-7:51|100:28|220:20|328:20|373:126|373:126|217:122|201:249|201:249|280:254|286:132|286:132|255:104|188:105|150:112|125:123|106:138|97:154|96:171,1,1216,12|12,0:3|0:3,0:0:0:0:
328,248,75777,6,0,B|464:128|328:16|192:16|192:16|112:16|112:16|216:16|216:144|104:144|104:144|320:224|320:224|144:224|144:224,1,1064,12|12,0:3|0:3,0:0:0:0:
400,192,77959,6,0,B|424:160|424:160|424:120|368:80|280:96|208:96|208:96|128:96|128:192|200:192|200:192|352:200|352:200|200:224|200:224|352:224|352:224|376:64,1,1064,12|12,0:3|0:3,0:0:0:0:
144,208,80141,6,0,B|-32:208|-32:32|152:32|152:208|152:208|152:272|152:272|104:264|40:200|104:120|160:104|160:104|224:104|224:104|251:163|256:272|256:272|104:272,1,1064,12|12,0:3|0:3,0:0:0:0:
352,264,82323,6,0,B|472:264|472:8|344:8|344:8|240:8|240:8|472:40|472:40|248:48|248:48|208:208,1,1064,12|12,0:3|0:3,0:0:0:0:
448,192,84504,6,0,B|432:96|432:96|328:64|328:64|152:64|152:200|152:200|152:64|304:64|304:64|88:64|88:64|248:64,1,1064,12|12,0:3|0:3,0:0:0:0:
16,224,86686,6,0,B|16:152|56:80|112:48|168:40|216:40|216:40|64:32|64:32|232:48|240:240|240:240|136:184|16:224|16:224|13:187|33:149,1,1064,12|12,0:3|0:3,0:0:0:0:
264,192,88868,6,0,B|288:40|288:40|128:21|98:153|268:185,1,456,12|12,0:3|0:2,0:0:0:0:
504,176,89959,1,12,0:2:0:0:
256,160,90232,2,0,L|424:152,1,152,12|12,0:2|0:2,0:0:0:0:
80,104,90777,6,0,L|216:96,2,95,12|10|12,0:1|0:1|0:3,0:0:0:0:
224,192,91186,2,0,L|240:80,1,95,10|8,0:3|0:2,0:0:0:0:
136,192,91459,2,0,L|120:80,1,95,10|12,0:1|0:3,0:0:0:0:
320,88,91732,1,12,0:3:0:0:
416,88,91868,5,10,0:1:0:0:
464,88,92004,1,12,0:3:0:0:
416,88,92141,1,10,0:3:0:0:
320,88,92277,1,10,0:3:0:0:
128,160,92413,1,12,0:1:0:0:
224,160,92550,1,10,0:1:0:0:
320,160,92686,1,12,0:3:0:0:
416,160,92823,1,10,0:3:0:0:
208,80,92959,6,0,L|72:72,2,95,12|10|12,0:1|0:1|0:3,0:0:0:0:
352,208,93368,2,0,L|368:96,1,95,10|8,0:3|0:2,0:0:0:0:
264,208,93641,2,0,L|248:96,1,95,10|12,0:1|0:3,0:0:0:0:
448,192,93914,1,12,0:3:0:0:
472,120,94050,5,10,0:1:0:0:
432,56,94186,1,12,0:3:0:0:
360,40,94323,1,10,0:3:0:0:
264,40,94459,1,10,0:3:0:0:
56,176,94595,1,8,0:2:0:0:
40,128,94663,1,8,0:2:0:0:
64,88,94732,1,8,0:2:0:0:
112,72,94800,1,0,0:0:0:0:
256,152,94868,2,0,L|272:88,1,47.5,8|8,0:2|0:2,0:0:0:0:
123,118,95004,2,0,L|107:54,1,47.5,8|8,0:2|0:2,0:0:0:0:
192,56,95141,6,0,L|80:56,1,95,8|8,0:3|0:3,0:0:0:0:
304,176,95413,2,0,P|352:168|296:64,1,190,12|8,0:1|0:3,0:0:0:0:
128,56,95823,2,0,L|336:56,1,190,12|12,0:3|0:3,0:0:0:0:
224,184,96232,6,0,L|208:72,1,95,0|8,0:0|0:3,0:0:0:0:
408,184,96504,2,0,P|448:160|368:56,1,190,12|12,0:1|0:2,0:0:0:0:
312,48,96913,1,8,0:3:0:0:
168,48,97050,1,8,0:3:0:0:
312,48,97186,1,8,0:2:0:0:
456,160,97323,6,0,L|472:56,1,95,12|8,0:1|0:3,0:0:0:0:
264,176,97595,2,0,P|216:168|272:64,1,190,10|8,0:1|0:3,0:0:0:0:
440,56,98005,2,0,L|232:56,1,190,12|8,0:2|0:3,0:0:0:0:
448,136,98413,5,8,0:2:0:0:
352,96,98550,1,12,0:3:0:0:
376,64,98618,1,0,0:0:0:0:
424,64,98686,1,10,0:3:0:0:
224,56,98823,2,0,L|24:56,1,190,12|0,0:3|0:0,0:0:0:0:
128,64,99232,1,8,0:3:0:0:
472,56,99504,6,0,L|256:56,1,209.000006378174,10|10,1:3|0:2,0:0:0:0:
168,56,99913,1,0,0:0:0:0:
264,184,100050,2,0,L|280:67,1,104.500003189087,10|8,0:3|0:3,0:0:0:0:
176,232,100323,2,0,L|160:115,1,104.500003189087,10|0,0:2|0:0,0:0:0:0:
371,116,100595,5,10,1:3:0:0:
417,56,100732,1,0,1:2:0:0:
272,64,100868,1,10,1:2:0:0:
408,192,101004,1,0,1:2:0:0:
302,135,101141,1,0,0:0:0:0:
336,104,101209,1,0,0:0:0:0:
389,96,101277,1,8,0:3:0:0:
252,184,101413,2,0,L|121:184,1,104.500003189087,10|0,1:2|0:0,0:0:0:0:
392,80,101686,6,0,L|172:69,1,209.000006378174,10|10,1:3|0:2,0:0:0:0:
183,69,102095,1,0,0:0:0:0:
287,173,102232,2,0,L|294:48,1,104.500003189087,10|8,0:3|0:3,0:0:0:0:
197,249,102504,2,0,L|187:129,1,104.500003189087,10|0,0:2|0:0,0:0:0:0:
398,99,102777,5,10,1:3:0:0:
503,85,102913,1,0,1:2:0:0:
359,101,103050,1,10,1:2:0:0:
503,85,103186,1,0,1:2:0:0:
343,221,103323,2,0,L|335:157,1,52.2500015945435,0|0,0:0|0:0,0:0:0:0:
391,197,103459,2,0,L|399:133,1,52.2500015945435,8|8,0:3|0:3,0:0:0:0:
335,101,103595,1,10,1:2:0:0:
4,160,103868,6,0,L|228:160,1,209.000006378174,12|10,1:3|0:2,0:0:0:0:
320,160,104277,1,0,0:0:0:0:
216,248,104413,2,0,L|200:128,1,104.500003189087,10|8,0:3|0:3,0:0:0:0:
344,152,104686,2,0,L|458:152,1,104.500003189087,10|0,1:2|1:2,0:0:0:0:
198,32,104958,5,10,1:3:0:0:
328,32,105095,1,0,1:2:0:0:
456,32,105231,1,10,1:2:0:0:
328,32,105367,1,0,1:2:0:0:
192,128,105504,1,0,0:0:0:0:
224,160,105572,1,0,0:0:0:0:
280,168,105640,1,8,0:3:0:0:
144,40,105777,2,0,L|16:40,1,104.500003189087,10|0,1:2|0:0,0:0:0:0:
296,216,106050,6,0,P|376:160|311:68,1,209.000006378174,10|10,1:3|0:2,0:0:0:0:
231,74,106459,1,0,0:0:0:0:
128,64,106595,1,10,1:3:0:0:
216,64,106732,1,8,0:3:0:0:
360,184,106868,2,0,L|376:64,1,104.500003189087,10|0,0:2|0:0,0:0:0:0:
216,192,107141,6,0,P|152:160|232:56,1,209.000006378174,10|10,1:3|0:2,0:0:0:0:
304,64,107550,1,0,0:0:0:0:
195,54,107686,1,10,1:3:0:0:
304,64,107823,1,8,0:3:0:0:
416,80,107959,1,12,0:1:0:0:
63,145,108232,6,0,L|279:145,1,209.000006378174,12|10,1:1|0:2,0:0:0:0:
367,145,108641,1,0,0:0:0:0:
271,273,108778,2,0,L|255:156,1,104.500003189087,10|8,0:3|0:3,0:0:0:0:
359,321,109051,2,0,L|375:204,1,104.500003189087,10|0,0:2|0:0,0:0:0:0:
164,213,109323,5,10,1:3:0:0:
118,145,109460,1,0,1:2:0:0:
263,153,109596,1,10,1:2:0:0:
127,281,109732,1,0,1:2:0:0:
233,224,109869,1,0,0:0:0:0:
199,193,109937,1,0,0:0:0:0:
146,185,110005,1,8,0:3:0:0:
272,272,110141,2,0,L|403:272,1,104.500003189087,10|0,1:2|0:0,0:0:0:0:
152,248,110413,6,0,P|88:200|182:110,1,209.000006378174,10|10,1:3|0:2,0:0:0:0:
249,100,110823,1,0,0:0:0:0:
353,100,110959,1,10,0:3:0:0:
249,100,111095,1,8,0:3:0:0:
105,188,111232,2,0,L|99:72,1,104.500003189087,10|0,0:2|0:0,0:0:0:0:
304,176,111504,6,0,L|520:168,1,209.000006378174,10|10,1:3|1:2,0:0:0:0:
408,136,111913,1,0,0:0:0:0:
296,104,112050,2,0,L|240:104,1,52.2500015945435,10|8,1:3|0:3,0:0:0:0:
320,104,112186,1,8,0:3:0:0:
352,64,112254,1,8,0:3:0:0:
320,104,112323,1,10,1:2:0:0:
216,104,112459,1,0,0:0:0:0:
440,192,112595,6,0,P|409:122|282:72,1,209.000006378174,12|10,1:3|0:2,0:0:0:0:
184,72,113004,1,0,0:0:0:0:
80,72,113141,1,10,1:3:0:0:
184,72,113277,1,8,0:3:0:0:
40,232,113413,2,0,L|24:112,1,104.500003189087,10|0,1:2|0:0,0:0:0:0:
236,284,113686,6,0,L|260:164,1,104.500003189087,10|0,0:3|0:0,0:0:0:0:
104,82,113959,2,0,L|248:66,1,104.500003189087,10|0,1:2|0:0,0:0:0:0:
312,146,114232,1,10,1:3:0:0:
280,104,114300,1,0,0:0:0:0:
224,88,114368,1,8,0:3:0:0:
168,80,114436,1,0,0:0:0:0:
224,88,114504,1,10,1:2:0:0:
464,200,114777,6,0,L|496:80,1,104.500003189087,10|0,1:3|0:0,0:0:0:0:
272,72,115050,2,0,L|152:64,1,104.500003189087,12|8,0:1|0:3,0:0:0:0:
304,160,115323,1,8,1:3:0:0:
352,160,115391,1,0,0:0:0:0:
304,160,115459,1,8,0:3:0:0:
104,152,115595,2,0,L|-8:152,1,104.500003189087,12|8,1:3|0:3,0:0:0:0:
136,80,115868,6,0,L|24:80,1,104.500003189087,8|8,0:3|0:3,0:0:0:0:
256,200,116141,2,0,L|280:80,1,104.500003189087,12|8,1:1|0:3,0:0:0:0:
56,88,116413,1,8,1:2:0:0:
184,72,116550,1,8,0:2:0:0:
312,72,116686,2,0,L|368:184,1,104.500003189087,12|10,1:3|0:3,0:0:0:0:
40,56,116959,6,0,L|256:56,1,209.000006378174,10|10,1:3|0:2,0:0:0:0:
344,56,117368,1,0,0:0:0:0:
248,184,117505,2,0,L|232:67,1,104.500003189087,10|8,0:3|0:3,0:0:0:0:
336,232,117778,2,0,L|352:115,1,104.500003189087,10|0,0:2|0:0,0:0:0:0:
142,133,118050,5,10,1:3:0:0:
95,56,118187,1,0,1:2:0:0:
240,64,118323,1,10,1:2:0:0:
104,192,118459,1,0,1:2:0:0:
210,135,118596,1,0,0:0:0:0:
176,104,118664,1,0,0:0:0:0:
123,96,118732,1,8,0:3:0:0:
260,184,118868,2,0,L|391:184,1,104.500003189087,10|0,1:2|0:0,0:0:0:0:
120,80,119141,6,0,L|340:69,1,209.000006378174,10|10,1:3|0:2,0:0:0:0:
328,69,119550,1,0,0:0:0:0:
224,173,119687,2,0,L|217:48,1,104.500003189087,10|8,0:3|0:3,0:0:0:0:
328,248,119959,2,0,L|338:128,1,104.500003189087,10|0,0:2|0:0,0:0:0:0:
114,99,120232,5,10,1:3:0:0:
9,85,120368,1,0,1:2:0:0:
153,101,120505,1,10,1:2:0:0:
9,85,120641,1,0,1:2:0:0:
169,221,120778,2,0,L|177:157,1,52.2500015945435,0|0,0:0|0:0,0:0:0:0:
112,192,120914,2,0,L|63:155,1,52.2500015945435,8|8,0:3|0:3,0:0:0:0:
135,107,121050,1,10,1:2:0:0:
480,112,121323,6,0,L|240:96,1,209.000006378174,12|10,1:3|0:2,0:0:0:0:
376,125,121732,1,0,0:0:0:0:
480,133,121868,2,0,L|490:18,1,104.500003189087,10|8,0:3|0:3,0:0:0:0:
385,42,122141,2,0,L|505:26,1,104.500003189087,10|0,1:2|1:2,0:0:0:0:
280,224,122413,5,10,1:3:0:0:
144,224,122550,1,0,1:2:0:0:
280,224,122686,1,10,1:2:0:0:
144,296,122823,2,0,P|160:208|280:144,1,209.000006378174,0|8,1:2|0:3,0:0:0:0:
304,144,123163,1,8,0:3:0:0:
376,144,123232,2,0,L|424:32,1,104.500003189087,10|0,1:2|0:0,0:0:0:0:
216,216,123504,6,0,P|102:169|140:78,1,209.000006378174,10|10,1:3|0:2,0:0:0:0:
216,102,123913,1,0,0:0:0:0:
319,92,124050,2,0,L|255:92,1,52.2500015945435,10|8,1:3|0:3,0:0:0:0:
199,92,124186,2,0,L|191:36,1,52.2500015945435,8|8,0:3|0:3,0:0:0:0:
255,36,124323,2,0,L|367:36,1,104.500003189087,10|0,0:2|0:0,0:0:0:0:
149,199,124595,6,0,P|114:163|221:63,1,209.000006378174,10|10,1:3|0:2,0:0:0:0:
296,64,125004,1,0,0:0:0:0:
187,54,125140,1,10,1:3:0:0:
72,56,125277,2,0,L|56:112,1,52.2500015945435,8|8,0:3|0:3,0:0:0:0:
120,112,125413,1,12,0:1:0:0:
457,145,125686,6,0,L|241:145,1,209.000006378174,12|10,1:3|0:2,0:0:0:0:
144,137,126095,1,0,0:0:0:0:
240,265,126232,2,0,L|256:148,1,104.500003189087,10|8,0:3|0:3,0:0:0:0:
152,313,126505,2,0,L|136:196,1,104.500003189087,10|0,0:2|0:0,0:0:0:0:
347,201,126777,5,10,1:3:0:0:
393,137,126914,1,0,1:2:0:0:
248,145,127050,1,10,1:2:0:0:
384,273,127186,1,0,1:2:0:0:
278,216,127323,1,0,0:0:0:0:
224,192,127391,1,0,0:0:0:0:
192,136,127459,1,8,0:3:0:0:
328,72,127595,2,0,L|197:72,1,104.500003189087,10|0,1:2|0:0,0:0:0:0:
440,208,127868,6,0,P|456:136|336:40,1,209.000006378174,10|10,1:3|0:2,0:0:0:0:
268,42,128277,1,0,0:0:0:0:
372,42,128413,1,10,0:3:0:0:
268,42,128550,1,8,0:3:0:0:
124,42,128686,1,12,0:1:0:0:
480,200,128959,6,0,P|496:120|376:64,1,209.000006378174,12|12,1:1|1:3,0:0:0:0:
264,88,129368,1,0,0:0:0:0:
400,224,129504,2,0,L|296:184,2,104.500003189087,12|0|12,1:3|0:0|1:3,0:0:0:0:
48,176,130050,6,0,L|280:160,2,209.000006378174,12|10|10,1:3|0:2|1:3,0:0:0:0:
16,112,130732,1,8,0:3:0:0:
160,176,130868,2,0,P|256:168|296:48,1,209.000006378174,10|10,1:2|0:3,0:0:0:0:
248,40,131277,5,0,0:0:0:0:
104,144,131413,2,0,L|80:32,1,104.500003189087,10|0,1:2|0:0,0:0:0:0:
224,144,131686,1,10,0:3:0:0:
248,104,131754,1,8,0:3:0:0:
216,64,131823,1,8,0:3:0:0:
168,56,131891,1,8,0:3:0:0:
96,56,131959,1,10,1:2:0:0:
438,257,132232,6,0,P|474:219|385:114,1,209.000006378174,10|10,1:3|0:2,0:0:0:0:
296,104,132641,1,0,1:2:0:0:
400,112,132777,2,0,L|416:0,1,104.500003189087,10|8,0:3|0:3,0:0:0:0:
272,8,133050,2,0,L|384:8,1,104.500003189087,10|0,1:2|0:0,0:0:0:0:
144,16,133323,5,10,1:3:0:0:
488,136,133595,1,12,0:3:0:0:
104,144,133868,1,8,0:2:0:0:
256,144,133959,1,10,0:1:0:0:
328,144,134050,1,10,0:1:0:0:
224,144,134141,1,10,0:1:0:0:
208,72,134232,1,12,0:3:0:0:
280,56,134323,1,10,0:3:0:0:
440,272,134413,6,0,P|503:172|464:48,1,209.000006378174,12|10,0:0|0:3,0:0:0:0:
248,96,134959,2,0,L|472:80,1,209.000006378174,10|10,0:2|0:3,0:0:0:0:
352,88,135368,1,8,0:3:0:0:
448,80,135504,5,10,0:3:0:0:
304,176,135641,2,0,L|152:176,1,104.500003189087,8|10,0:2|0:3,0:0:0:0:
160,112,135913,1,8,0:3:0:0:
304,248,136050,2,0,P|368:232|328:112,1,209.000006378174,10|10,0:2|0:3,0:0:0:0:
208,104,136459,1,8,0:2:0:0:
432,176,136595,6,0,P|464:112|368:24,1,209.000006378174,12|10,0:1|0:3,0:0:0:0:
136,96,137141,1,10,0:2:0:0:
376,88,137413,1,14,0:3:0:0:
232,64,137550,1,8,0:2:0:0:
456,104,137686,6,0,L|392:104,1,52.2500015945435,8|8,0:2|0:2,0:0:0:0:
224,192,137823,1,8,0:2:0:0:
168,168,137891,1,8,0:2:0:0:
224,136,137959,1,8,0:3:0:0:
256,96,138027,1,8,0:3:0:0:
224,136,138095,1,12,0:3:0:0:
168,136,138163,1,12,0:3:0:0:
240,136,138232,6,0,L|256:72,1,52.2500015945435,12|12,0:3|0:3,0:0:0:0:
184,176,138368,2,0,L|168:112,1,52.2500015945435,8|8,0:3|0:3,0:0:0:0:
344,96,138504,1,8,0:2:0:0:
120,80,138641,1,8,0:2:0:0:
344,64,138777,6,0,L|448:64,1,95,12|8,0:1|0:3,0:0:0:0:
296,32,139050,2,0,L|184:32,1,95,10|8,0:3|0:3,0:0:0:0:
400,192,139322,1,10,0:2:0:0:
424,136,139391,1,0,0:0:0:0:
392,104,139459,1,8,0:3:0:0:
328,104,139527,1,0,0:0:0:0:
256,104,139595,2,0,L|352:112,1,95,10|8,0:3|0:3,0:0:0:0:
208,216,139868,6,0,L|176:80,1,95,10|8,0:0|0:3,0:0:0:0:
248,120,140072,1,8,0:3:0:0:
312,128,140141,2,0,L|344:-8,1,95,10|8,0:3|0:3,0:0:0:0:
136,32,140413,2,0,L|40:32,1,95,10|8,0:2|0:3,0:0:0:0:
160,88,140686,2,0,L|48:88,1,95,10|8,0:3|0:3,0:0:0:0:
272,160,140959,5,12,0:3:0:0:
320,160,141027,1,0,0:0:0:0:
344,120,141095,1,8,0:3:0:0:
216,120,141231,2,0,L|88:120,1,95,10|8,0:3|0:3,0:0:0:0:
168,120,141436,1,8,0:3:0:0:
328,48,141504,2,0,L|440:56,1,95,10|8,0:2|0:3,0:0:0:0:
280,168,141777,1,10,0:3:0:0:
264,136,141845,1,8,0:3:0:0:
248,104,141913,1,8,0:3:0:0:
400,168,142050,6,0,L|504:168,1,95,10|8,0:0|0:3,0:0:0:0:
436,140,142254,1,8,0:3:0:0:
376,104,142322,2,0,L|480:104,1,95,10|8,0:3|0:3,0:0:0:0:
264,48,142595,2,0,L|152:48,1,95,10|8,0:2|0:3,0:0:0:0:
280,120,142868,2,0,L|168:120,1,95,10|8,0:3|0:3,0:0:0:0:
392,184,143141,5,12,0:3:0:0:
440,184,143209,1,0,0:0:0:0:
464,136,143277,1,8,0:3:0:0:
328,80,143413,2,0,L|432:80,1,95,10|8,0:3|0:3,0:0:0:0:
224,160,143686,1,10,0:2:0:0:
208,112,143754,1,0,0:0:0:0:
192,64,143822,1,8,0:3:0:0:
312,48,143959,1,10,0:3:0:0:
360,40,144027,1,8,0:3:0:0:
312,48,144095,1,8,0:3:0:0:
168,64,144231,5,10,0:0:0:0:
312,160,144368,1,8,0:3:0:0:
264,160,144436,1,8,0:3:0:0:
216,160,144504,1,10,0:3:0:0:
120,128,144641,1,8,0:3:0:0:
312,96,144777,2,0,L|408:96,1,95,10|8,0:2|0:3,0:0:0:0:
288,40,145050,2,0,L|400:40,1,95,10|8,0:3|0:3,0:0:0:0:
184,120,145322,5,12,0:3:0:0:
136,112,145391,1,0,0:0:0:0:
112,64,145459,1,8,0:3:0:0:
240,40,145595,2,0,L|128:32,1,95,10|8,0:3|0:3,0:0:0:0:
192,40,145800,1,8,0:3:0:0:
352,96,145868,2,0,L|456:96,1,95,10|8,0:2|0:3,0:0:0:0:
304,184,146141,1,10,0:3:0:0:
328,128,146209,1,8,0:3:0:0:
384,128,146277,1,8,0:3:0:0:
240,120,146413,6,0,L|120:120,1,95,10|8,0:0|0:3,0:0:0:0:
96,120,146618,1,8,0:3:0:0:
50,120,146686,2,0,L|170:120,1,95,10|8,0:3|0:3,0:0:0:0:
344,96,146959,2,0,L|248:96,1,95,10|8,0:2|0:3,0:0:0:0:
368,40,147232,2,0,L|256:40,1,95,10|8,0:3|0:3,0:0:0:0:
80,104,147504,5,12,0:1:0:0:
96,48,147572,1,0,0:0:0:0:
144,40,147641,2,0,L|248:40,1,95,8|10,0:3|0:3,0:0:0:0:
144,40,147913,1,8,0:3:0:0:
344,152,148050,2,0,L|464:152,1,95,10|8,0:2|0:3,0:0:0:0:
296,152,148322,1,10,0:3:0:0:
280,120,148391,1,8,0:3:0:0:
264,88,148459,1,8,0:3:0:0:
408,208,148595,6,0,L|432:96,1,95,10|8,0:0|0:3,0:0:0:0:
378,95,148800,1,8,0:3:0:0:
331,88,148868,2,0,L|454:80,1,95,10|8,0:3|0:3,0:0:0:0:
232,56,149141,2,0,L|120:48,1,95,10|8,0:2|0:3,0:0:0:0:
256,128,149413,2,0,L|144:120,1,95,10|8,0:3|0:3,0:0:0:0:
360,168,149686,5,12,0:3:0:0:
408,168,149754,1,0,0:0:0:0:
456,168,149822,1,8,0:3:0:0:
360,104,149959,2,0,L|248:104,1,95,10|8,0:3|0:3,0:0:0:0:
312,104,150163,1,8,0:3:0:0:
472,216,150231,2,0,L|488:112,1,95,10|8,0:2|0:3,0:0:0:0:
344,96,150504,1,10,0:3:0:0:
392,88,150572,1,8,0:3:0:0:
440,80,150641,1,8,0:3:0:0:
296,40,150777,6,0,L|160:40,1,95,10|8,0:0|0:3,0:0:0:0:
152,40,150981,1,8,0:3:0:0:
201,40,151050,2,0,L|337:40,1,95,10|8,0:3|0:3,0:0:0:0:
96,136,151322,2,0,L|216:136,1,95,10|8,0:2|0:3,0:0:0:0:
72,80,151595,2,0,L|192:80,1,95,10|8,0:3|0:3,0:0:0:0:
376,120,151868,5,12,0:3:0:0:
320,120,151936,1,0,0:0:0:0:
288,64,152004,1,8,0:3:0:0:
432,184,152141,2,0,L|448:64,1,95,10|8,0:3|0:3,0:0:0:0:
248,72,152413,2,0,L|136:64,1,95,10|8,0:2|0:3,0:0:0:0:
296,168,152686,1,10,0:3:0:0:
320,120,152754,1,8,0:3:0:0:
264,112,152822,1,8,0:3:0:0:
128,112,152959,5,10,0:0:0:0:
264,112,153095,1,8,0:3:0:0:
312,112,153163,1,8,0:3:0:0:
264,112,153231,1,10,0:3:0:0:
128,112,153368,1,8,0:3:0:0:
320,208,153504,2,0,L|424:208,1,95,10|8,0:2|0:3,0:0:0:0:
208,144,153777,2,0,L|312:144,1,95,10|8,0:2|0:3,0:0:0:0:
96,144,154050,5,8,0:3:0:0:
72,88,154118,1,0,0:0:0:0:
120,144,154186,1,0,0:0:0:0:
312,80,154323,1,12,0:3:0:0:
217,80,154459,1,0,0:0:0:0:
264,80,154527,1,0,0:0:0:0:
312,80,154595,1,8,0:3:0:0:
120,80,154732,1,12,0:3:0:0:
217,80,154868,1,10,0:3:0:0:
169,80,154936,1,0,0:0:0:0:
122,80,155004,1,10,0:3:0:0:
320,184,155141,6,0,L|272:184,1,47.5,8|10,0:2|0:1,0:0:0:0:
112,192,155277,1,10,0:1:0:0:
64,184,155345,1,10,0:1:0:0:
136,160,155413,1,12,0:3:0:0:
160,128,155482,1,12,0:3:0:0:
136,80,155550,1,10,0:3:0:0:
88,72,155618,1,10,0:3:0:0:
256,64,155686,1,12,0:2:0:0:
464,72,155823,1,12,0:2:0:0:
256,64,155959,1,12,0:2:0:0:
464,72,156095,1,12,0:2:0:0:
256,160,156232,6,0,L|176:160,1,47.5,12|8,1:1|0:3,0:0:0:0:
184,104,156368,1,8,0:3:0:0:
208,160,156436,1,8,0:3:0:0:
376,160,156504,1,10,0:2:0:0:
424,144,156573,1,8,0:3:0:0:
448,96,156641,1,8,0:3:0:0:
424,56,156709,1,8,0:3:0:0:
376,40,156777,5,10,0:3:0:0:
328,40,156845,1,8,0:3:0:0:
376,40,156913,1,8,0:3:0:0:
424,40,156982,1,8,0:3:0:0:
256,128,157050,1,10,1:2:0:0:
232,88,157118,1,8,0:3:0:0:
256,48,157186,1,8,0:3:0:0:
304,48,157254,1,8,0:3:0:0:
384,176,157323,5,10,1:3:0:0:
408,136,157391,1,8,0:3:0:0:
384,96,157459,1,8,0:3:0:0:
336,96,157527,1,8,0:3:0:0:
168,184,157595,2,0,L|160:120,3,47.5,10|8|8|8,0:2|0:3|0:3|0:3,0:0:0:0:
248,128,157868,6,0,L|256:72,1,47.5,10|8,0:3|0:3,0:0:0:0:
168,112,158004,2,0,L|160:56,1,47.5,8|8,0:3|0:3,0:0:0:0:
336,264,158141,2,0,L|344:200,3,47.5,10|8|8|8,0:2|0:3|0:3|0:3,0:0:0:0:
256,208,158414,6,0,L|248:152,1,47.5,10|8,0:3|0:3,0:0:0:0:
336,192,158550,2,0,L|344:136,1,47.5,8|8,0:3|0:3,0:0:0:0:
176,136,158686,2,0,L|168:80,1,47.5,10|8,0:2|0:3,0:0:0:0:
256,120,158822,2,0,L|264:64,1,47.5,8|8,0:3|0:3,0:0:0:0:
176,96,158959,5,10,1:3:0:0:
152,56,159027,1,8,0:3:0:0:
192,32,159095,1,8,0:3:0:0:
248,32,159163,1,8,0:3:0:0:
424,216,159232,2,0,L|432:160,3,47.5,10|8|8|8,0:2|0:3|0:3|0:3,0:0:0:0:
344,152,159504,5,10,1:3:0:0:
320,96,159573,1,8,0:3:0:0:
344,152,159641,1,8,0:3:0:0:
392,152,159709,1,8,0:3:0:0:
224,224,159777,2,0,L|176:224,1,47.5,10|8,0:2|0:3,0:0:0:0:
248,192,159914,1,8,1:3:0:0:
272,152,159982,1,8,0:3:0:0:
248,112,160050,5,10,0:3:0:0:
192,104,160118,1,8,0:3:0:0:
128,104,160186,1,8,0:3:0:0:
192,104,160255,1,8,0:3:0:0:
360,80,160323,2,0,P|408:112|336:168,1,142.5,10|8,1:2|0:3,0:0:0:0:
200,184,160595,5,12,1:3:0:0:
152,176,160663,1,8,0:3:0:0:
104,168,160732,1,8,0:3:0:0:
56,160,160800,1,8,0:3:0:0:
224,104,160868,2,0,L|272:104,1,47.5,10|8,0:2|0:3,0:0:0:0:
200,104,161004,1,8,1:3:0:0:
152,104,161073,1,8,0:3:0:0:
128,56,161141,5,10,0:3:0:0:
152,104,161209,1,8,0:3:0:0:
200,104,161277,1,8,0:3:0:0:
272,104,161345,1,8,0:3:0:0:
440,160,161413,1,10,1:2:0:0:
464,120,161482,1,8,0:3:0:0:
440,80,161550,1,8,0:3:0:0:
392,72,161618,1,8,0:3:0:0:
320,136,161686,6,0,L|309:78,1,47.5,10|8,0:3|0:3,0:0:0:0:
392,72,161823,2,0,L|403:14,1,47.5,8|8,0:3|0:3,0:0:0:0:
239,246,161959,2,0,L|228:188,1,47.5,10|8,0:2|0:3,0:0:0:0:
311,182,162096,2,0,L|322:124,1,47.5,8|8,0:3|0:3,0:0:0:0:
239,153,162232,6,0,L|228:95,1,47.5,10|8,0:3|0:3,0:0:0:0:
311,89,162369,2,0,L|322:31,1,47.5,8|8,0:3|0:3,0:0:0:0:
152,160,162504,2,0,L|88:160,1,47.5,10|8,1:2|0:3,0:0:0:0:
184,104,162641,2,0,L|232:104,1,47.5,8|8,1:3|0:3,0:0:0:0:
48,160,162777,5,10,1:3:0:0:
24,112,162845,1,8,0:3:0:0:
72,80,162913,1,8,0:3:0:0:
144,72,162982,1,8,0:3:0:0:
320,240,163050,1,10,0:2:0:0:
344,192,163118,1,8,0:3:0:0:
296,160,163186,1,8,0:3:0:0:
224,152,163255,1,8,0:3:0:0:
136,152,163323,6,0,L|120:96,1,47.5,10|8,1:3|0:3,0:0:0:0:
224,88,163459,2,0,L|240:40,1,47.5,8|8,0:3|0:3,0:0:0:0:
64,88,163595,2,0,L|16:88,1,47.5,10|8,0:2|0:3,0:0:0:0:
96,40,163732,2,0,L|160:40,1,47.5,8|8,0:3|0:3,0:0:0:0:
64,88,163867,6,0,L|16:88,1,47.5,10|8,1:3|0:3,0:0:0:0:
156,88,164004,1,8,0:3:0:0:
294,88,164072,1,8,0:3:0:0:
156,88,164140,2,0,L|108:88,1,47.5,10|8,0:2|0:3,0:0:0:0:
176,40,164276,2,0,L|224:40,1,47.5,8|8,0:3|0:3,0:0:0:0:
304,184,164413,6,0,L|320:128,1,47.5,10|8,1:3|0:3,0:0:0:0:
232,120,164550,2,0,L|216:64,1,47.5,8|8,0:3|0:3,0:0:0:0:
400,160,164686,2,0,L|496:160,1,95,12|8,0:3|0:3,0:0:0:0:
448,160,164891,1,8,0:3:0:0:
256,160,164959,6,0,P|185:128|198:62,1,142.5,12|8,1:1|0:3,0:0:0:0:
384,96,165232,1,10,0:2:0:0:
432,144,165300,1,8,0:3:0:0:
456,200,165368,1,8,0:3:0:0:
432,144,165436,1,8,0:3:0:0:
384,96,165504,5,10,0:3:0:0:
320,96,165573,1,8,0:3:0:0:
256,96,165641,1,8,0:3:0:0:
192,96,165709,1,8,0:3:0:0:
352,8,165777,1,10,1:2:0:0:
400,32,165845,1,8,0:3:0:0:
424,88,165914,1,8,0:3:0:0:
400,32,165982,1,8,0:3:0:0:
312,64,166050,5,10,1:3:0:0:
288,48,166118,1,8,0:3:0:0:
264,32,166186,1,8,0:3:0:0:
240,16,166254,1,8,0:3:0:0:
424,232,166323,2,0,L|432:168,3,47.5,10|8|8|8,0:2|0:3|0:3|0:3,0:0:0:0:
344,176,166596,6,0,L|336:120,1,47.5,10|8,0:3|0:3,0:0:0:0:
424,160,166732,2,0,L|432:104,1,47.5,8|8,0:3|0:3,0:0:0:0:
256,312,166869,2,0,L|248:248,3,47.5,10|8|8|8,0:2|0:3|0:3|0:3,0:0:0:0:
336,256,167142,6,0,L|344:200,1,47.5,10|8,0:3|0:3,0:0:0:0:
256,240,167278,2,0,L|248:184,1,47.5,8|8,0:3|0:3,0:0:0:0:
416,184,167414,2,0,L|424:128,1,47.5,10|8,0:2|0:3,0:0:0:0:
336,168,167550,2,0,L|328:112,1,47.5,8|8,0:3|0:3,0:0:0:0:
408,120,167686,5,10,1:3:0:0:
456,104,167754,1,8,0:3:0:0:
408,88,167823,1,8,0:3:0:0:
360,80,167891,1,8,0:3:0:0:
176,152,167959,1,10,0:2:0:0:
200,104,168027,1,8,0:3:0:0:
248,88,168095,1,8,0:3:0:0:
312,88,168163,1,8,0:3:0:0:
248,160,168232,5,10,1:3:0:0:
224,176,168300,1,8,0:3:0:0:
200,192,168368,1,8,0:3:0:0:
176,208,168436,1,8,0:3:0:0:
352,280,168504,2,0,L|400:280,1,47.5,10|8,0:2|0:3,0:0:0:0:
328,248,168641,1,8,1:3:0:0:
304,208,168709,1,8,0:3:0:0:
328,168,168777,5,10,0:3:0:0:
384,160,168845,1,8,0:3:0:0:
448,160,168913,1,8,0:3:0:0:
384,160,168982,1,8,0:3:0:0:
208,96,169050,2,0,L|152:96,1,47.5,10|8,1:2|0:3,0:0:0:0:
240,72,169186,2,0,L|296:72,1,47.5,8|8,0:3|0:3,0:0:0:0:
104,64,169323,5,12,1:3:0:0:
56,112,169391,1,8,0:3:0:0:
32,168,169459,1,8,0:3:0:0:
56,112,169527,1,8,0:3:0:0:
240,152,169595,2,0,L|304:152,1,47.5,10|8,0:2|0:3,0:0:0:0:
208,152,169732,1,8,1:3:0:0:
144,144,169800,1,8,0:3:0:0:
208,152,169868,5,10,0:3:0:0:
232,136,169936,1,8,0:3:0:0:
256,120,170004,1,8,0:3:0:0:
280,104,170073,1,8,0:3:0:0:
96,208,170141,1,10,1:2:0:0:
72,176,170209,1,8,0:3:0:0:
96,144,170277,1,8,0:3:0:0:
152,136,170345,1,8,0:3:0:0:
224,136,170413,6,0,L|232:80,3,47.5,10|8|8|8,1:3|0:3|0:3|0:3,0:0:0:0:
56,80,170686,2,0,L|8:72,1,47.5,10|8,0:2|0:3,0:0:0:0:
88,88,170823,1,8,1:3:0:0:
136,88,170891,1,8,0:3:0:0:
160,80,170959,5,10,0:3:0:0:
136,88,171027,1,8,0:3:0:0:
69,88,171095,1,8,0:3:0:0:
136,88,171163,1,8,0:3:0:0:
320,200,171232,1,10,0:2:0:0:
368,192,171300,1,8,0:3:0:0:
392,160,171368,1,8,0:3:0:0:
416,128,171436,1,8,0:3:0:0:
368,120,171504,5,10,0:3:0:0:
296,112,171573,1,8,0:3:0:0:
216,112,171641,1,8,0:3:0:0:
296,112,171709,1,8,0:3:0:0:
472,176,171777,2,0,L|448:128,1,47.5,10|8,0:2|0:3,0:0:0:0:
368,152,171913,2,0,L|344:104,1,47.5,8|8,0:3|0:3,0:0:0:0:
424,64,172050,6,0,L|480:64,1,47.5,10|8,1:3|0:3,0:0:0:0:
392,32,172186,2,0,L|336:32,1,47.5,8|8,0:3|0:3,0:0:0:0:
160,32,172323,2,0,L|216:32,1,47.5,12|0,1:1|0:0,0:0:0:0:
360,104,172459,1,8,0:3:0:0:
312,112,172527,1,8,0:3:0:0:
128,120,172595,6,0,L|80:112,1,47.5,8|0,1:2|0:0,0:0:0:0:
216,72,172732,1,8,0:2:0:0:
352,64,172800,1,0,0:0:0:0:
480,120,172868,1,8,0:3:0:0:
496,72,172936,1,0,0:0:0:0:
456,56,173004,1,8,0:2:0:0:
392,56,173073,1,0,0:0:0:0:
208,176,173141,5,8,0:2:0:0:
32,184,173232,1,12,0:3:0:0:
208,176,173323,1,12,0:3:0:0:
304,176,173413,1,10,0:3:0:0:
208,176,173504,1,10,0:3:0:0:
160,112,173595,1,10,0:3:0:0:
352,96,173686,5,12,0:3:0:0:
136,64,173959,1,8,0:3:0:0:
352,288,174232,2,0,L|374:105,1,152,10|2,0:3|0:2,0:0:0:0:
165,246,174777,6,0,L|143:63,1,152,10|2,0:3|0:2,0:0:0:0:
350,201,175323,2,0,L|372:18,1,152,10|2,0:3|0:2,0:0:0:0:
104,96,175868,5,14,0:3:0:0:
328,64,176141,1,4,0:3:0:0:
104,288,176414,2,0,L|82:105,1,152,10|2,0:3|0:2,0:0:0:0:
286,252,176959,6,0,L|308:69,1,152,10|2,0:3|0:2,0:0:0:0:
106,201,177505,2,0,L|84:18,1,152,10|4,0:3|0:3,0:0:0:0:
448,96,178050,5,14,0:1:0:0:
224,64,178323,1,4,0:3:0:0:
448,288,178596,2,0,L|410:113,1,152,10|2,0:3|0:2,0:0:0:0:
211,238,179141,6,0,L|68:117,1,152,10|2,0:3|0:2,0:0:0:0:
304,112,179687,2,0,L|459:68,1,152,10|2,0:3|0:2,0:0:0:0:
183,88,180232,5,14,0:3:0:0:
410,60,180505,1,4,0:3:0:0:
168,232,180778,2,0,L|32:104,1,152,10|2,0:3|0:2,0:0:0:0:
256,243,181323,6,0,L|278:60,1,152,10|2,0:3|0:2,0:0:0:0:
474,216,181869,2,0,L|490:33,1,152,10|4,0:3|0:3,0:0:0:0:
160,96,182413,5,14,0:1:0:0:
384,64,182686,1,4,0:3:0:0:
160,288,182959,2,0,L|138:105,1,152,10|2,0:3|0:2,0:0:0:0:
341,247,183504,6,0,L|363:64,1,152,10|2,0:3|0:2,0:0:0:0:
162,201,184050,2,0,L|140:18,1,152,10|2,0:3|0:2,0:0:0:0:
408,96,184595,5,14,0:3:0:0:
184,64,184868,1,4,0:3:0:0:
408,288,185141,2,0,L|430:105,1,152,10|2,0:3|0:2,0:0:0:0:
221,247,185686,6,0,L|199:64,1,152,10|2,0:3|0:2,0:0:0:0:
406,201,186232,2,0,L|428:18,1,152,10|4,0:3|0:3,0:0:0:0:
64,96,186777,5,14,0:1:0:0:
288,64,187050,1,4,0:3:0:0:
64,288,187323,2,0,L|60:101,1,152,10|2,0:3|0:2,0:0:0:0:
259,250,187868,6,0,L|393:120,1,152,10|2,0:3|0:2,0:0:0:0:
178,201,188414,2,0,L|15:198,1,152,10|2,0:3|0:2,0:0:0:0:
296,96,188959,5,10,0:3:0:0:
72,64,189232,1,4,0:3:0:0:
288,264,189505,2,0,L|432:152,1,152,10|2,0:3|0:2,0:0:0:0:
56,96,190050,5,12,0:2:0:0:
399,96,190323,1,12,0:2:0:0:
56,96,190595,2,0,P|17:171|8:248,1,152,12|12,0:2|0:2,0:0:0:0:
432,104,191141,6,0,L|296:96,2,95,12|10|12,0:1|0:1|0:3,0:0:0:0:
288,192,191550,2,0,L|272:80,1,95,10|8,0:3|0:2,0:0:0:0:
376,192,191823,2,0,L|392:80,1,95,10|12,0:1|0:3,0:0:0:0:
192,88,192096,1,12,0:3:0:0:
96,88,192232,5,10,0:1:0:0:
48,88,192368,1,12,0:3:0:0:
96,88,192505,1,10,0:3:0:0:
192,88,192641,1,10,0:3:0:0:
384,160,192777,1,12,0:1:0:0:
288,160,192914,1,10,0:1:0:0:
192,160,193050,1,12,0:3:0:0:
96,160,193187,1,10,0:3:0:0:
304,80,193323,6,0,L|440:72,2,95,12|10|12,0:1|0:1|0:3,0:0:0:0:
160,208,193732,2,0,L|144:96,1,95,10|8,0:3|0:2,0:0:0:0:
248,208,194005,2,0,L|264:96,1,95,10|12,0:1|0:3,0:0:0:0:
64,192,194278,1,12,0:3:0:0:
40,120,194414,5,10,0:1:0:0:
80,56,194550,1,12,0:3:0:0:
152,40,194687,1,10,0:3:0:0:
248,40,194823,1,10,0:3:0:0:
456,176,194959,1,8,0:2:0:0:
472,128,195027,1,8,0:2:0:0:
448,88,195096,1,8,0:2:0:0:
400,72,195164,1,0,0:0:0:0:
256,152,195232,2,0,L|240:88,1,47.5,8|8,0:2|0:2,0:0:0:0:
389,118,195368,2,0,L|405:54,1,47.5,8|8,0:2|0:2,0:0:0:0:
320,56,195505,6,0,L|432:56,1,95,8|8,0:3|0:3,0:0:0:0:
208,176,195777,2,0,P|160:168|216:64,1,190,12|8,0:1|0:3,0:0:0:0:
384,56,196187,2,0,L|176:56,1,190,12|12,0:3|0:3,0:0:0:0:
288,184,196596,6,0,L|304:72,1,95,0|8,0:0|0:3,0:0:0:0:
104,184,196868,2,0,P|64:160|144:56,1,190,12|12,0:1|0:2,0:0:0:0:
200,48,197277,1,8,0:3:0:0:
344,48,197414,1,8,0:2:0:0:
200,48,197550,1,8,0:2:0:0:
56,160,197687,6,0,L|40:56,1,95,12|8,0:1|0:3,0:0:0:0:
248,176,197959,2,0,P|296:168|240:64,1,190,10|8,0:1|0:3,0:0:0:0:
72,56,198369,2,0,L|280:56,1,190,12|8,0:2|0:3,0:0:0:0:
64,136,198777,5,8,0:2:0:0:
160,96,198914,1,12,0:3:0:0:
136,64,198982,1,0,0:0:0:0:
88,64,199050,1,10,0:3:0:0:
288,56,199187,2,0,L|488:56,1,190,12|0,0:3|0:0,0:0:0:0:
384,64,199596,1,8,0:3:0:0:
40,56,199868,6,0,L|256:56,1,209.000006378174,10|10,1:3|0:2,0:0:0:0:
344,56,200277,1,0,0:0:0:0:
248,184,200414,2,0,L|232:67,1,104.500003189087,10|8,0:3|0:3,0:0:0:0:
336,232,200687,2,0,L|352:115,1,104.500003189087,10|0,0:2|0:0,0:0:0:0:
141,127,200959,5,10,1:3:0:0:
79,70,201095,1,0,1:2:0:0:
204,64,201232,1,10,1:2:0:0:
80,216,201368,2,0,P|33:172|115:75,1,209.000006378174,0|8,1:2|0:3,0:0:0:0:
154,71,201709,1,8,0:3:0:0:
207,70,201777,1,10,1:2:0:0:
100,30,201913,1,0,0:0:0:0:
319,222,202050,6,0,P|408:203|378:78,1,209.000006378174,10|10,1:3|0:2,0:0:0:0:
304,67,202459,1,0,0:0:0:0:
408,67,202595,1,10,0:3:0:0:
512,67,202732,1,8,0:3:0:0:
392,139,202868,1,10,0:2:0:0:
56,152,203141,5,10,1:3:0:0:
176,128,203277,1,0,1:2:0:0:
56,152,203413,1,10,1:2:0:0:
176,128,203550,1,0,1:2:0:0:
72,281,203686,2,0,L|24:249,1,52.2500015945435,0|0,0:0|0:0,0:0:0:0:
105,238,203823,2,0,L|113:182,1,52.2500015945435,8|8,0:3|0:3,0:0:0:0:
36,177,203959,2,0,P|38:125|138:83,1,156.750004783631,10|0,1:2|0:0,0:0:0:0:
333,237,204232,6,0,B|322:162|322:162|168:144,2,209.000006378174,12|10|10,1:3|0:2|0:3,0:0:0:0:
226,243,204913,1,8,0:3:0:0:
341,243,205050,2,0,L|405:159,1,104.500003189087,10|0,1:2|1:2,0:0:0:0:
195,114,205323,5,10,1:3:0:0:
320,106,205459,1,0,1:2:0:0:
195,114,205595,1,10,1:2:0:0:
320,106,205732,2,0,L|344:-3,1,104.500003189087,0|0,1:2|0:0,0:0:0:0:
236,2,206004,1,8,0:3:0:0:
384,179,206141,2,0,L|500:164,1,104.500003189087,10|0,1:2|0:0,0:0:0:0:
242,212,206413,6,0,P|136:160|184:72,1,209.000006378174,10|10,1:3|0:2,0:0:0:0:
256,72,206822,1,0,0:0:0:0:
359,62,206958,1,10,1:3:0:0:
271,62,207095,1,8,0:3:0:0:
127,182,207231,2,0,L|111:62,1,104.500003189087,10|0,0:2|0:0,0:0:0:0:
322,188,207504,6,0,P|324:137|192:53,1,209.000006378174,10|10,1:3|0:2,0:0:0:0:
135,53,207913,1,0,0:0:0:0:
244,43,208049,1,10,1:3:0:0:
308,50,208118,1,8,0:3:0:0:
334,88,208186,1,8,0:3:0:0:
308,50,208254,1,8,0:3:0:0:
244,43,208323,2,0,P|163:80|184:160,1,156.750004783631,12|0,0:1|0:0,0:0:0:0:
376,240,208595,6,0,L|138:231,1,209.000006378174,12|10,1:1|0:2,0:0:0:0:
62,231,209004,1,0,0:0:0:0:
167,232,209141,2,0,L|173:104,1,104.500003189087,10|8,0:3|0:3,0:0:0:0:
68,148,209413,2,0,L|62:20,1,104.500003189087,10|0,0:2|0:0,0:0:0:0:
280,216,209686,5,10,1:3:0:0:
407,192,209823,1,0,1:2:0:0:
280,216,209959,1,10,1:2:0:0:
154,174,210095,1,0,1:2:0:0:
25,140,210232,2,0,L|77:130,1,52.2500015945435,0|0,0:0|0:0,0:0:0:0:
148,114,210368,2,0,L|125:61,1,52.2500015945435,8|8,0:3|0:3,0:0:0:0:
53,58,210504,2,0,L|158:42,1,104.500003189087,10|0,1:2|0:0,0:0:0:0:
420,247,210777,6,0,P|366:192|215:149,2,209.000006378174,10|10|10,1:3|0:2|0:3,0:0:0:0:
316,253,211459,1,8,0:3:0:0:
442,193,211595,1,10,0:2:0:0:
200,264,211868,6,0,P|108:223|144:120,1,209.000006378174,10|10,1:3|1:2,0:0:0:0:
336,136,212413,2,0,L|321:72,1,52.2500015945435,10|8,1:3|0:3,0:0:0:0:
246,125,212550,2,0,L|208:64,1,52.2500015945435,8|8,0:3|0:3,0:0:0:0:
143,77,212686,2,0,P|143:156|240:189,1,156.750004783631,10|0,1:2|0:0,0:0:0:0:
416,256,212959,6,0,P|416:168|296:104,1,209.000006378174,12|10,1:3|0:2,0:0:0:0:
224,96,213368,1,0,0:0:0:0:
120,96,213504,1,10,1:3:0:0:
224,96,213641,1,8,0:3:0:0:
92,241,213777,6,0,P|44:209|131:115,1,209.000006378174,10|10,1:2|0:3,0:0:0:0:
343,205,214323,2,0,L|350:79,1,104.500003189087,10|0,1:2|0:0,0:0:0:0:
217,82,214595,2,0,L|150:78,1,52.2500015945435,10|8,1:3|0:3,0:0:0:0:
242,35,214732,2,0,L|316:33,1,52.2500015945435,8|8,0:3|0:3,0:0:0:0:
368,33,214868,1,10,1:2:0:0:
23,253,215141,6,0,L|29:134,1,104.500003189087,10|0,1:3|0:0,0:0:0:0:
249,113,215413,2,0,L|374:106,1,104.500003189087,12|8,0:1|0:3,0:0:0:0:
227,195,215686,1,8,1:3:0:0:
357,183,215823,1,8,0:3:0:0:
149,72,215959,2,0,L|24:59,1,104.500003189087,12|8,1:3|0:3,0:0:0:0:
174,212,216232,6,0,L|189:82,1,104.500003189087,8|8,0:3|0:3,0:0:0:0:
402,125,216504,2,0,L|418:13,1,104.500003189087,12|8,1:1|0:3,0:0:0:0:
200,34,216777,1,8,0:2:0:0:
415,25,216913,1,8,0:2:0:0:
309,25,217050,1,12,1:3:0:0:
204,26,217186,1,10,0:3:0:0:
472,56,217323,6,0,L|256:56,1,209.000006378174,10|10,1:3|0:2,0:0:0:0:
168,56,217732,1,0,0:0:0:0:
264,184,217869,2,0,L|280:67,1,104.500003189087,10|8,0:3|0:3,0:0:0:0:
176,232,218142,2,0,L|160:115,1,104.500003189087,10|0,0:2|0:0,0:0:0:0:
376,160,218413,5,10,1:3:0:0:
247,139,218550,1,0,1:2:0:0:
122,119,218686,1,10,1:2:0:0:
247,139,218823,1,0,1:2:0:0:
143,126,218959,2,0,L|80:120,1,52.2500015945435
160,80,219095,2,0,L|220:75,1,52.2500015945435,8|8,0:3|0:3,0:0:0:0:
135,46,219232,1,10,1:2:0:0:
472,264,219504,6,0,B|409:268|383:239|370:196|370:196|262:178,2,209.000006378174,10|10|10,1:3|0:2|0:3,0:0:0:0:
368,258,220186,1,8,0:3:0:0:
490,207,220323,1,10,0:2:0:0:
152,192,220595,5,10,1:3:0:0:
280,176,220732,1,0,1:2:0:0:
152,192,220868,1,10,1:2:0:0:
280,176,221004,1,0,1:2:0:0:
152,128,221141,1,0,0:0:0:0:
88,128,221209,1,0,0:0:0:0:
64,80,221277,1,8,0:3:0:0:
208,128,221413,2,0,P|264:112|368:84,1,156.750004783631,10|0,1:2|0:0,0:0:0:0:
160,168,221686,6,0,L|416:160,1,209.000006378174,12|10,1:3|0:2,0:0:0:0:
472,160,222095,1,0,0:0:0:0:
368,161,222232,2,0,L|352:32,1,104.500003189087,10|8,0:3|0:3,0:0:0:0:
488,32,222504,2,0,L|360:24,1,104.500003189087,10|0,1:2|1:2,0:0:0:0:
176,24,222777,5,10,1:3:0:0:
56,40,222913,1,0,1:2:0:0:
176,24,223050,1,10,1:2:0:0:
296,48,223186,1,0,1:2:0:0:
160,176,223323,2,0,L|152:112,1,52.2500015945435,0|0,0:0|0:0,0:0:0:0:
232,224,223459,2,0,L|240:160,1,52.2500015945435,8|8,0:3|0:3,0:0:0:0:
160,176,223595,2,0,L|148:60,1,104.500003189087,10|0,1:2|0:0,0:0:0:0:
400,216,223868,6,0,P|504:168|448:72,1,209.000006378174,10|10,1:3|0:2,0:0:0:0:
376,80,224277,1,0,0:0:0:0:
487,74,224413,1,10,1:3:0:0:
376,80,224550,1,8,0:3:0:0:
487,74,224686,2,0,L|503:194,1,104.500003189087,10|0,0:2|0:0,0:0:0:0:
296,192,224959,6,0,L|70:188,1,209.000006378174,10|10,1:3|0:2,0:0:0:0:
220,90,225368,1,0,0:0:0:0:
100,42,225504,1,10,1:3:0:0:
36,49,225573,1,8,0:3:0:0:
10,87,225641,1,8,0:3:0:0:
36,49,225709,1,8,0:3:0:0:
100,42,225778,2,0,L|281:42,1,156.750004783631,12|0,0:1|0:0,0:0:0:0:
460,210,226050,6,0,L|221:187,1,209.000006378174,12|10,1:3|0:2,0:0:0:0:
144,120,226459,1,0,0:0:0:0:
248,208,226595,2,0,L|256:96,1,104.500003189087,10|8,0:3|0:3,0:0:0:0:
152,56,226868,2,0,L|32:40,1,104.500003189087,10|0,0:2|0:0,0:0:0:0:
256,152,227141,5,10,1:3:0:0:
384,136,227277,1,0,1:2:0:0:
256,152,227413,1,10,1:2:0:0:
384,136,227550,1,0,1:2:0:0:
280,96,227686,1,0,0:0:0:0:
228,85,227754,1,0,0:0:0:0:
208,40,227823,1,8,0:3:0:0:
344,32,227959,2,0,L|464:32,1,104.500003189087,10|0,1:2|0:0,0:0:0:0:
192,144,228232,6,0,B|126:161|126:161|117:156|117:156|40:176|40:176|0:224,2,209.000006378174,10|10|10,1:3|0:2|0:3,0:0:0:0:
80,240,228913,1,8,0:3:0:0:
290,208,229050,2,0,P|337:167|282:112,1,156.750004783631,12|0,0:1|0:0,0:0:0:0:
64,192,229323,6,0,P|19:143|136:56,1,209.000006378174,12|12,1:1|1:3,0:0:0:0:
240,98,229732,2,0,L|16:122,1,209.000006378174,0|0,0:0|0:0,0:0:0:0:
144,186,230141,1,12,1:3:0:0:
480,176,230413,6,0,L|248:160,2,209.000006378174,12|10|10,1:3|0:2|1:3,0:0:0:0:
376,120,231095,1,8,0:3:0:0:
232,184,231231,6,0,P|136:176|96:56,2,209.000006378174,10|10|10,1:2|0:3|1:2,0:0:0:0:
440,184,232050,2,0,L|446:123,1,52.2500015945435,10|8,0:3|0:3,0:0:0:0:
368,120,232186,2,0,L|352:64,1,52.2500015945435,8|8,0:3|0:3,0:0:0:0:
272,56,232323,1,10,1:2:0:0:
400,40,232459,1,0,0:0:0:0:
152,200,232595,6,0,P|120:160|224:64,1,209.000006378174,12|10,1:3|0:2,0:0:0:0:
352,256,233004,2,0,P|440:248|424:152,1,209.000006378174,0|8,1:2|0:3,0:0:0:0:
296,136,233413,2,0,L|184:120,1,104.500003189087,10|0,1:2|0:0,0:0:0:0:
344,24,233686,5,10,1:3:0:0:
432,24,233823,1,0,0:0:0:0:
280,24,233959,1,10,0:2:0:0:
176,24,234095,1,0,0:2:0:0:
72,24,234232,1,8,0:3:0:0:
32,64,234300,1,8,0:3:0:0:
72,104,234368,1,8,0:3:0:0:
136,112,234436,1,8,0:3:0:0:
224,112,234504,2,0,L|416:128,1,156.750004783631,12|0,0:3|2:0,0:0:0:0:
168,296,234777,6,0,P|105:196|144:72,1,209.000006378174,12|8,0:3|0:3,0:0:0:0:
360,120,235323,1,8,0:2:0:0:
16,88,235595,6,0,L|360:80,1,313.500009567261,12|8,0:1|0:2,0:0:0:0:
224,88,236141,1,8,0:3:0:0:
176,168,236277,1,8,0:3:0:0:
328,224,236413,2,0,P|392:200|336:80,1,209.000006378174,8|8,0:2|0:3,0:0:0:0:
208,64,236823,1,8,0:2:0:0:
440,192,236959,5,12,0:1:0:0:
336,168,237095,1,10,0:1:0:0:
280,80,237232,1,12,0:3:0:0:
336,168,237368,1,10,0:3:0:0:
488,192,237504,2,0,P|488:128|408:80,1,156.750004783631,8|0,0:2|0:0,0:0:0:0:
200,208,237777,2,0,P|134:170|128:95,1,156.750004783631,12|0,0:1|0:0,0:0:0:0:
344,64,238050,6,0,L|416:64,1,52.2500015945435,8|8,0:2|0:2,0:0:0:0:
184,128,238186,2,0,L|112:128,1,52.2500015945435,8|8,0:2|0:2,0:0:0:0:
213,128,238323,1,8,0:2:0:0:
261,112,238391,1,8,0:2:0:0:
285,56,238459,1,8,0:3:0:0:
261,112,238527,1,8,0:3:0:0:
180,128,238595,1,10,1:1:0:0:
124,128,238663,1,10,0:1:0:0:
68,128,238732,1,10,0:1:0:0:
44,80,238800,1,10,0:1:0:0:
120,64,238868,1,12,1:3:0:0:
144,64,238936,1,12,0:3:0:0:
120,64,239004,1,12,0:3:0:0:
64,64,239073,1,12,0:3:0:0:
256,64,239141,6,0,L|464:80,1,190,12|8,1:2|0:3,0:0:0:0:
352,152,239550,1,8,0:3:0:0:
128,168,239686,2,0,L|-8:184,3,95,10|8|8|8,0:2|0:3|0:3|0:3,0:0:0:0:
264,56,240232,6,8,L|400:72,3,95,10|8|8|8,0:2|0:3|1:3|0:3,0:0:0:0:
128,144,240777,1,12,1:3:0:0:
224,152,240913,1,8,0:3:0:0:
320,160,241050,1,8,1:3:0:0:
416,168,241186,1,8,0:3:0:0:
192,64,241323,6,0,L|-16:80,1,190,12|8,1:2|0:3,0:0:0:0:
96,152,241732,1,8,0:3:0:0:
320,168,241868,2,0,L|456:184,3,95,10|8|8|8,0:2|0:3|0:3|0:3,0:0:0:0:
184,56,242414,6,8,L|48:72,3,95,10|8|8|8,0:2|0:3|1:3|0:3,0:0:0:0:
320,144,242959,2,8,L|192:136,1,95,12|8,1:3|0:3,0:0:0:0:
320,144,243232,2,8,L|448:136,1,95,8|8,1:3|0:3,0:0:0:0:
160,64,243504,6,0,L|48:56,3,95,12|8|8|8,1:2|0:3|0:3|0:3,0:0:0:0:
288,192,244050,2,0,L|400:184,3,95,10|8|8|8,0:2|0:3|0:3|0:3,0:0:0:0:
160,64,244595,6,0,L|48:56,3,95,10|8|8|8,0:2|0:3|0:3|0:3,0:0:0:0:
296,208,245141,2,8,L|344:112,1,95,12|8,1:3|0:3,0:0:0:0:
224,96,245413,2,8,L|104:96,1,95,12|8,1:1|0:3,0:0:0:0:
368,64,245686,6,8,L|480:56,3,95,12|0|8|8,1:2|0:0|0:3|0:3,0:0:0:0:
224,144,246232,1,10,0:2:0:0:
344,160,246368,1,8,0:3:0:0:
104,152,246504,2,8,P|93:110|201:61,1,142.5,12|8,1:1|0:3,0:0:0:0:
248,48,246777,6,0,L|360:40,3,95,8|8|8|8,0:2|0:3|0:3|0:3,0:0:0:0:
112,144,247323,1,12,1:2:0:0:
208,152,247459,1,0,0:0:0:0:
304,160,247596,1,8,0:3:0:0:
400,168,247732,1,8,0:3:0:0:
168,64,247868,6,8,L|376:64,1,190,10|8,1:1|0:3,0:0:0:0:
264,168,248277,1,8,0:3:0:0:
32,72,248413,2,0,L|144:64,3,95,10|8|8|8,0:2|0:3|0:3|0:3,0:0:0:0:
360,176,248959,6,8,L|265:169,3,95,14|8|8|8,1:3|0:3|0:3|1:3,0:0:0:0:
496,64,249504,2,8,L|401:57,3,95,12|8|8|8,0:3|0:3|1:3|1:3,0:0:0:0:
176,176,250050,5,12,1:2:0:0:
272,168,250186,1,8,0:3:0:0:
368,160,250323,1,8,0:3:0:0:
464,144,250459,1,8,0:3:0:0:
232,72,250595,2,0,L|137:65,3,95,10|8|8|8,0:2|0:3|0:3|0:3,0:0:0:0:
376,32,251141,6,0,L|471:25,1,95,10|8,0:2|0:3,0:0:0:0:
368,104,251413,2,8,L|273:97,1,95,8|8,1:3|0:3,0:0:0:0:
40,168,251686,2,8,L|48:272,1,95,12|8,1:3|0:3,0:0:0:0:
128,96,251958,2,8,L|33:103,1,95,8|8,1:3|0:3,0:0:0:0:
280,216,252232,5,12,0:2:0:0:
376,208,252368,1,8,0:3:0:0:
424,128,252504,1,10,0:3:0:0:
376,208,252641,1,8,0:3:0:0:
280,216,252777,1,10,0:3:0:0:
376,208,252913,1,8,0:3:0:0:
144,216,253050,6,0,P|49:186|121:60,1,285,10|8,0:1|0:3,0:0:0:0:
214,75,253595,1,8,0:3:0:0:
118,59,253732,1,8,0:3:0:0:
318,160,253868,2,0,B|413:156|413:156|448:64,1,190,12|8,0:2|0:3,0:0:0:0:
352,72,254277,1,8,0:3:0:0:
120,120,254413,6,0,L|40:128,1,47.5,8|8,0:2|0:2,0:0:0:0:
209,195,254550,1,8,0:2:0:0:
345,182,254618,1,8,0:2:0:0:
209,195,254686,1,8,0:2:0:0:
145,196,254754,1,8,0:2:0:0:
120,192,254823,1,8,0:3:0:0:
145,196,254891,1,0,0:0:0:0:
272,184,254959,1,8,1:2:0:0:
328,160,255027,1,0,0:0:0:0:
344,112,255095,1,10,1:1:0:0:
328,160,255163,1,0,0:0:0:0:
272,184,255232,1,12,1:3:0:0:
152,144,255368,1,10,1:3:0:0:
376,64,255504,6,0,L|304:64,1,47.5,8|10,0:2|0:1,0:0:0:0:
136,64,255641,1,10,0:1:0:0:
104,96,255709,1,10,0:1:0:0:
136,128,255777,1,10,0:1:0:0:
200,144,255845,1,10,0:1:0:0:
376,128,255913,2,0,L|304:128,1,47.5,8|12,0:2|0:0,0:0:0:0:
136,128,256050,1,12,0:0:0:0:
104,160,256118,1,12,0:0:0:0:
136,192,256186,1,12,0:0:0:0:
200,208,256254,1,12,0:0:0:0:
360,208,256323,1,8,0:2:0:0:
128,160,256459,1,8,0:2:0:0:
416,208,256595,6,0,P|461:139|305:34,1,285,14|0,0:3|0:0,0:0:0:0:
200,64,257141,1,2,0:0:0:0:
136,88,257232,1,2,0:0:0:0:
200,64,257323,1,2,0:0:0:0:
296,104,257413,1,2,0:0:0:0:
328,160,257504,1,2,0:0:0:0:
296,104,257595,1,2,0:0:0:0:
200,152,257686,5,2,0:0:0:0:
87,144,257823,1,2,0:0:0:0:
41,132,257891,1,0,0:0:0:0:
88,118,257959,1,0,0:0:0:0:
200,112,258095,1,0,0:0:0:0:
344,136,258232,2,0,L|361:17,1,95,0|0,0:0|0:0,0:0:0:0:
244,72,258504,2,0,L|148:72,1,95,2|0,0:0|0:0,0:0:0:0:
388,216,258777,5,14,0:0:0:0:
412,192,258845,1,0,0:0:0:0:
388,216,258913,2,0,L|172:208,1,190
68,96,259323,2,0,L|180:80,2,95,0|2|0,0:0|0:0|0:0,0:0:0:0:
44,104,259686,1,2,0:0:0:0:
124,88,259777,1,0,0:0:0:0:
228,168,259868,5,2,0:0:0:0:
316,184,259959,1,2,0:0:0:0:
228,168,260050,1,2,0:0:0:0:
140,128,260141,1,2,0:0:0:0:
92,192,260232,1,2,0:0:0:0:
140,128,260323,1,2,0:0:0:0:
240,64,260413,1,2,0:0:0:0:
328,56,260504,1,2,0:0:0:0:
416,48,260595,1,2,0:0:0:0:
320,128,260686,1,2,0:0:0:0:
256,144,260777,1,2,0:0:0:0:
224,200,260868,1,2,0:0:0:0:
400,240,260959,6,0,P|456:208|384:128,1,190,14|2,0:3|0:0,0:0:0:0:
304,120,261368,1,0,0:0:0:0:
240,120,261436,1,0,0:0:0:0:
176,120,261504,2,0,L|64:112,1,95,10|0,0:0|0:0,0:0:0:0:
56,64,261709,1,0,0:0:0:0:
81,113,261777,1,2,0:0:0:0:
176,120,261868,1,0,0:0:0:0:
264,136,261959,1,0,0:0:0:0:
200,200,262050,6,0,L|112:200,1,63.3333333333333,2|0,0:0|0:0,0:0:0:0:
232,248,262232,2,0,L|320:248,1,63.3333333333333,2|0,0:0|0:0,0:0:0:0:
200,200,262413,2,0,L|112:200,1,63.3333333333333,2|0,0:0|0:0,0:0:0:0:
288,200,262595,2,0,L|376:200,1,63.3333333333333,2|0,0:0|0:0,0:0:0:0:
256,144,262777,2,0,L|168:144,1,63.3333333333333,2|0,0:0|0:0,0:0:0:0:
288,200,262959,2,0,L|376:200,1,63.3333333333333,2|0,0:0|0:0,0:0:0:0:
144,192,263141,6,0,P|80:152|152:64,1,190,14|2,0:3|0:0,0:0:0:0:
200,56,263504,1,2,0:0:0:0:
122,65,263595,1,2,0:0:0:0:
232,128,263686,1,10,0:0:0:0:
288,192,263777,1,0,0:0:0:0:
232,128,263868,1,0,0:0:0:0:
120,136,263959,1,2,0:0:0:0:
32,152,264050,1,2,0:0:0:0:
120,136,264141,1,2,0:0:0:0:
224,56,264232,5,2,0:0:0:0:
136,48,264323,1,2,0:0:0:0:
191,46,264368,1,10,0:0:0:0:
288,192,264413,2,0,P|341:158|330:82,1,126.666666666667,2|2,0:0|0:2,0:0:0:0:
280,80,264686,1,2,0:2:0:0:
120,184,264777,2,0,L|112:64,1,95,10|2,0:0|0:0,0:0:0:0:
328,72,265050,1,10,0:0:0:0:
120,80,265186,1,10,0:0:0:0:
344,184,265323,5,14,0:3:0:0:
416,176,265391,1,2,0:0:0:0:
344,184,265459,1,2,0:0:0:0:
320,128,265527,1,2,0:0:0:0:
344,184,265595,1,2,0:2:0:0:
416,176,265663,1,2,0:0:0:0:
440,128,265732,1,2,0:0:0:0:
416,176,265800,1,2,0:0:0:0:
240,200,265868,5,10,0:2:0:0:
168,192,265936,1,2,0:0:0:0:
144,152,266004,1,2,0:0:0:0:
168,192,266073,1,2,0:0:0:0:
240,200,266141,1,2,0:2:0:0:
312,208,266209,1,2,0:0:0:0:
336,248,266277,1,2,0:0:0:0:
312,208,266346,1,2,0:0:0:0:
168,112,266413,5,2,0:0:0:0:
96,104,266482,1,2,0:0:0:0:
24,96,266550,1,2,0:0:0:0:
96,104,266618,1,2,0:0:0:0:
168,112,266686,1,2,0:0:0:0:
236,118,266754,1,2,0:0:0:0:
302,124,266823,1,2,0:0:0:0:
242,118,266891,1,2,0:0:0:0:
185,107,266959,1,10,0:0:0:0:
62,67,267095,1,2,0:0:0:0:
186,38,267232,1,2,0:0:0:0:
245,52,267323,1,2,0:0:0:0:
274,59,267368,1,2,0:0:0:0:
496,224,267504,6,0,L|432:224,1,47.5,14|0,0:3|0:0,0:0:0:0:
256,224,267641,2,0,L|176:224,1,47.5,2|0,0:0|0:0,0:0:0:0:
136,224,267777,2,0,L|120:104,1,95,0|2,0:0|0:0,0:0:0:0:
264,96,268050,2,0,L|376:96,1,95,8|0,0:0|0:0,0:0:0:0:
232,176,268323,2,0,L|216:112,1,47.5,2|0,0:0|0:0,0:0:0:0:
296,216,268459,2,0,L|312:152,1,47.5,2|0,0:0|0:0,0:0:0:0:
232,176,268595,6,0,L|104:176,1,95,2|0,0:0|0:0,0:0:0:0:
112,136,268800,1,0,0:0:0:0:
160,136,268868,2,0,L|264:136,1,95,0|2,0:0|0:0,0:0:0:0:
304,136,269073,1,2,0:0:0:0:
464,224,269141,2,0,L|456:104,1,95,8|0,0:0|0:0,0:0:0:0:
344,96,269413,1,2,0:0:0:0:
392,88,269523,1,0,0:0:0:0:
344,96,269608,1,0,0:0:0:0:
200,56,269686,6,0,P|152:64|85:191,1,190,14|2,0:3|0:0,0:0:0:0:
156,193,270050,1,2,0:0:0:0:
82,176,270141,1,2,0:0:0:0:
276,153,270232,1,10,0:0:0:0:
196,129,270323,1,2,0:0:0:0:
172,57,270413,1,2,0:0:0:0:
268,33,270504,1,2,0:2:0:0:
356,57,270595,1,2,0:2:0:0:
268,33,270685,1,2,0:2:0:0:
172,25,270777,5,2,0:0:0:0:
99,29,270845,1,2,0:0:0:0:
172,25,270913,1,2,0:0:0:0:
245,29,270981,1,2,0:0:0:0:
172,88,271050,1,2,0:0:0:0:
140,136,271141,1,0,0:0:0:0:
121,115,271163,1,0,0:0:0:0:
140,136,271186,1,0,0:0:0:0:
196,143,271262,1,0,0:0:0:0:
356,161,271323,1,10,0:0:0:0:
427,157,271391,1,2,0:0:0:0:
499,154,271459,1,2,0:0:0:0:
427,157,271527,1,2,0:0:0:0:
356,161,271595,1,2,0:0:0:0:
307,158,271663,1,2,0:0:0:0:
259,157,271732,1,2,0:0:0:0:
228,157,271800,1,2,0:0:0:0:
444,217,271868,5,14,0:3:0:0:
459,175,271936,1,2,0:0:0:0:
439,129,272004,1,2,0:0:0:0:
405,108,272073,1,2,0:0:0:0:
351,99,272141,1,2,0:0:0:0:
288,94,272209,1,2,0:0:0:0:
351,99,272277,1,2,0:0:0:0:
405,108,272345,1,2,0:0:0:0:
213,161,272413,1,10,0:0:0:0:
143,168,272482,1,2,0:0:0:0:
213,161,272550,1,2,0:0:0:0:
282,156,272618,1,2,0:0:0:0:
91,108,272686,1,14,0:2:0:0:
20,121,272754,1,2,0:0:0:0:
91,108,272823,1,2,0:0:0:0:
162,95,272891,1,2,0:0:0:0:
352,72,272959,5,8,0:2:0:0:
224,64,273027,1,8,0:2:0:0:
96,56,273095,1,8,0:2:0:0:
224,64,273163,1,8,0:2:0:0:
352,72,273232,2,0,L|416:72,1,47.5,8|8,0:2|0:2,0:0:0:0:
328,72,273368,1,8,0:3:0:0:
288,80,273436,1,8,0:3:0:0:
272,128,273504,1,12,0:3:0:0:
288,80,273573,1,12,0:3:0:0:
328,72,273641,1,12,0:3:0:0:
392,72,273709,1,12,0:3:0:0:
200,208,273777,2,0,P|136:192|136:112,1,142.5,12|0,0:2|0:0,0:0:0:0:
320,208,274050,6,0,L|456:200,1,95,12|8,3:3|0:3,0:0:0:0:
384,184,274254,1,8,0:3:0:0:
336,176,274323,1,10,0:2:0:0:
272,168,274391,1,8,0:3:0:0:
200,160,274459,1,8,0:3:0:0:
272,168,274527,1,8,0:3:0:0:
336,176,274595,5,10,0:3:0:0:
392,168,274663,1,8,0:3:0:0:
424,136,274732,1,8,0:3:0:0:
392,168,274800,1,8,0:3:0:0:
232,120,274868,2,0,L|216:56,1,47.5,10|8,3:2|0:3,0:0:0:0:
288,72,275004,2,0,L|304:8,1,47.5,8|8,0:3|0:3,0:0:0:0:
224,24,275141,6,0,L|160:24,1,47.5,10|8,0:3|0:3,0:0:0:0:
272,112,275277,2,0,L|328:112,1,47.5,8|8,0:3|0:3,0:0:0:0:
160,160,275413,1,10,0:2:0:0:
88,152,275482,1,8,0:3:0:0:
16,144,275550,1,8,0:3:0:0:
88,152,275618,1,8,0:3:0:0:
120,112,275686,5,10,3:3:0:0:
88,152,275754,1,8,0:3:0:0:
16,144,275823,1,8,0:3:0:0:
88,152,275891,1,8,0:3:0:0:
256,208,275959,1,10,0:2:0:0:
351,199,276050,1,0,0:0:0:0:
256,208,276141,1,2,0:0:0:0:
112,216,276232,5,10,0:3:0:0:
64,208,276277,1,2,0:0:0:0:
40,168,276323,1,2,0:0:0:0:
120,112,276413,1,0,0:0:0:0:
312,104,276504,1,10,0:2:0:0:
360,96,276573,1,8,0:3:0:0:
384,72,276641,1,8,0:3:0:0:
360,96,276709,1,8,0:3:0:0:
312,104,276778,5,10,0:3:0:0:
240,112,276845,1,8,0:3:0:0:
168,120,276913,1,8,0:3:0:0:
240,112,276982,1,8,0:3:0:0:
400,216,277050,1,10,0:2:0:0:
448,192,277118,1,8,0:3:0:0:
472,144,277186,1,8,0:3:0:0:
480,96,277254,1,8,0:3:0:0:
472,144,277323,5,10,0:3:0:0:
448,192,277391,1,8,0:3:0:0:
400,216,277459,1,8,0:3:0:0:
344,216,277527,1,8,0:3:0:0:
184,216,277595,1,10,0:2:0:0:
88,208,277686,1,0,0:0:0:0:
184,216,277777,1,0,0:0:0:0:
240,216,277823,1,0,0:0:0:0:
368,216,277868,5,10,0:3:0:0:
424,216,277936,1,8,0:3:0:0:
448,160,278004,1,8,0:3:0:0:
424,216,278073,1,8,0:3:0:0:
264,112,278141,2,0,L|192:120,1,47.5,10|8,0:2|0:3,0:0:0:0:
376,40,278277,2,0,L|448:48,1,47.5,8|8,0:3|0:3,0:0:0:0:
232,40,278413,6,0,P|146:54|144:189,1,227.999993041992,12|10,0:3|0:2,0:0:0:0:
272,184,278823,2,0,L|45:226,1,227.999993041992,0|8,0:0|0:3,0:0:0:0:
328,264,279232,6,0,B|440:264|455:164|455:164|440:80|328:80|328:80|219:80|219:80|283:78|329:104|329:104|282:78|219:80|219:80|283:78|329:104|329:104|282:78|219:80|219:80,1,911.99997216797,10|10,0:2|0:2,0:0:0:0:
104,72,280459,1,8,0:3:0:0:
336,200,280595,5,10,0:3:0:0:
392,192,280663,1,8,0:3:0:0:
416,144,280732,1,8,0:3:0:0:
392,192,280800,1,8,0:3:0:0:
232,200,280868,1,10,0:2:0:0:
136,184,281004,1,8,0:3:0:0:
160,136,281050,1,0,0:0:0:0:
208,128,281095,1,0,0:0:0:0:
272,120,281141,5,10,0:3:0:0:
336,104,281209,1,8,0:3:0:0:
360,56,281277,1,8,0:3:0:0:
336,104,281345,1,8,0:3:0:0:
176,48,281413,1,10,0:2:0:0:
120,56,281481,1,8,0:3:0:0:
96,104,281550,1,8,0:3:0:0:
120,56,281618,1,8,0:3:0:0:
200,64,281686,6,0,L|192:112,1,47.5,10|8,0:3|0:3,0:0:0:0:
112,120,281823,2,0,L|104:168,1,47.5,8|8,0:3|0:3,0:0:0:0:
264,192,281959,2,0,L|328:192,1,47.5,10|8,0:2|0:3,0:0:0:0:
232,136,282095,2,0,L|168:136,1,47.5,8|8,0:3|0:3,0:0:0:0:
352,72,282232,6,0,L|408:72,1,47.5,8|8,0:2|0:2,0:0:0:0:
236,26,282368,1,8,0:2:0:0:
189,26,282436,1,8,0:2:0:0:
385,37,282504,1,12,0:3:0:0:
428,67,282573,1,12,0:3:0:0:
434,118,282641,1,12,0:3:0:0:
370,117,282709,1,12,0:3:0:0:
208,216,282777,6,0,L|11:198,1,190,12|10,0:3|0:2,0:0:0:0:
152,152,283186,1,0,0:0:0:0:
16,160,283323,1,10,0:3:0:0:
32,112,283391,1,0,0:0:0:0:
80,80,283459,1,8,0:3:0:0:
144,80,283527,1,0,0:0:0:0:
72,144,283595,2,0,L|8:72,1,95,10|0,0:2|0:0,0:0:0:0:
232,216,283868,6,0,L|448:208,1,190,10|10,0:3|0:2,0:0:0:0:
288,152,284277,2,0,L|152:144,1,95,0|10,0:0|0:3,0:0:0:0:
168,96,284482,1,0,0:0:0:0:
193,146,284550,1,8,0:3:0:0:
240,152,284618,1,0,0:0:0:0:
312,160,284686,1,10,0:2:0:0:
176,192,284823,1,0,0:0:0:0:
368,240,284959,6,0,L|368:120,1,95,10|0,0:3|0:3,0:0:0:0:
240,88,285232,2,0,L|112:80,1,95,10|0,0:2|0:0,0:0:0:0:
280,32,285504,1,10,0:3:0:0:
327,29,285572,1,0,0:0:0:0:
353,27,285640,1,8,0:3:0:0:
327,29,285709,1,0,0:0:0:0:
240,160,285777,1,10,0:2:0:0:
464,264,285913,6,0,B|392:208|392:208|272:200,1,190,0|0,0:0|0:0,0:0:0:0:
152,192,286323,1,10,0:2:0:0:
288,128,286459,1,0,0:0:0:0:
192,112,286595,2,0,L|136:112,1,47.5,0|0,0:0|0:0,0:0:0:0:
216,112,286732,2,0,L|232:48,1,47.5,8|8,0:3|0:3,0:0:0:0:
160,56,286868,1,10,0:2:0:0:
296,48,287004,1,8,0:0:0:0:
32,168,287141,6,0,L|152:168,1,95,12|8,0:3|0:3,0:0:0:0:
176,168,287345,1,8,0:3:0:0:
352,168,287413,1,10,0:2:0:0:
416,160,287482,1,8,0:3:0:0:
352,136,287550,1,8,0:3:0:0:
288,128,287618,1,8,0:3:0:0:
352,104,287686,1,10,0:3:0:0:
416,96,287755,1,8,0:3:0:0:
352,72,287823,1,8,0:3:0:0:
288,56,287891,1,8,0:3:0:0:
112,104,287959,1,10,0:2:0:0:
48,80,288028,1,8,0:3:0:0:
112,64,288096,1,8,0:3:0:0:
176,48,288164,1,8,0:3:0:0:
352,168,288232,5,10,0:3:0:0:
416,160,288301,1,8,0:3:0:0:
352,136,288369,1,8,0:3:0:0:
288,128,288437,1,8,0:3:0:0:
112,104,288505,1,10,0:2:0:0:
48,96,288574,1,8,0:3:0:0:
112,72,288642,1,8,0:3:0:0:
176,64,288710,1,8,0:3:0:0:
112,40,288778,1,10,0:3:0:0:
48,32,288845,1,8,0:3:0:0:
112,8,288913,1,8,0:3:0:0:
176,0,288982,1,8,0:3:0:0:
352,208,289050,2,0,P|368:175|288:112,1,142.5,10|0,0:2|0:0,0:0:0:0:
112,176,289323,5,10,0:3:0:0:
48,168,289392,1,8,0:3:0:0:
112,144,289460,1,8,0:3:0:0:
176,136,289528,1,8,0:3:0:0:
352,112,289596,1,10,0:2:0:0:
416,104,289663,1,8,0:3:0:0:
352,80,289733,1,8,0:3:0:0:
288,72,289801,1,8,0:3:0:0:
352,48,289869,1,10,0:3:0:0:
416,40,289936,1,8,0:3:0:0:
352,16,290004,1,8,0:3:0:0:
288,8,290073,1,8,0:3:0:0:
112,72,290141,1,12,1:1:0:0:
232,128,290277,1,0,0:0:0:0:
8,192,290413,6,0,L|80:192,1,47.5,12|0,0:2|0:0,0:0:0:0:
224,192,290550,1,8,0:2:0:0:
296,192,290618,1,0,0:0:0:0:
368,184,290686,1,8,0:3:0:0:
397,142,290754,1,0,0:0:0:0:
368,184,290823,1,8,0:2:0:0:
296,192,290891,1,0,0:0:0:0:
112,144,290959,5,8,0:2:0:0:
16,128,291050,1,8,0:2:0:0:
112,144,291141,1,10,0:1:0:0:
208,88,291232,1,10,0:1:0:0:
272,32,291323,1,12,0:3:0:0:
208,88,291414,1,10,0:3:0:0:
32,208,291504,6,0,P|32:144|160:72,1,190,12|8,0:1|0:3,0:0:0:0:
216,72,291913,1,8,0:3:0:0:
360,208,292050,2,0,P|360:144|232:72,1,190,10|8,0:2|0:3,0:0:0:0:
136,72,292459,1,8,0:3:0:0:
272,64,292595,5,10,0:3:0:0:
136,72,292732,1,8,0:3:0:0:
88,96,292800,1,8,0:3:0:0:
136,72,292868,1,8,0:3:0:0:
232,136,293004,1,8,0:3:0:0:
376,184,293141,2,0,L|264:200,1,95,10|8,0:2|0:3,0:0:0:0:
184,208,293413,2,0,L|168:104,1,95,8|8,0:3|0:3,0:0:0:0:
376,248,293686,6,0,P|448:210|352:56,1,285,12|8,0:3|0:3,0:0:0:0:
304,48,294163,1,8,0:3:0:0:
224,48,294232,6,0,B|120:48|99:110|129:147|224:176|280:200|331:244|331:244|280:232|200:224|152:233|130:288|130:288|154:254|196:251,1,665,10|8,0:2|0:3,0:0:0:0:
320,264,295323,2,0,L|296:160,1,95,10|8,0:2|0:3,0:0:0:0:
168,144,295595,1,8,0:3:0:0:
304,120,295732,1,0,0:0:0:0:
80,192,295868,5,12,0:3:0:0:
56,144,295936,1,0,0:0:0:0:
80,192,296004,1,0,0:0:0:0:
168,216,296141,1,8,0:3:0:0:
80,192,296277,1,8,0:3:0:0:
152,184,296345,1,8,0:3:0:0:
224,176,296413,6,0,B|320:168|400:112|400:112|296:88|269:42|256:8|256:8|248:48|195:70|160:72|160:72|209:76|245:137,1,570,10|8,0:2|0:3,0:0:0:0:
296,232,297368,1,8,0:3:0:0:
152,232,297504,2,0,L|112:128,1,95,10|8,0:2|0:3,0:0:0:0:
264,96,297777,1,8,0:3:0:0:
120,112,297913,1,8,0:3:0:0:
368,160,298050,5,8,0:2:0:0:
496,152,298118,1,8,0:2:0:0:
368,160,298186,1,8,0:2:0:0:
240,160,298254,1,8,0:2:0:0:
368,160,298323,1,8,0:3:0:0:
432,152,298391,1,8,0:3:0:0:
304,112,298459,1,8,0:2:0:0:
176,104,298527,1,8,0:2:0:0:
304,112,298595,5,8,0:2:0:0:
432,88,298663,1,8,0:2:0:0:
472,136,298731,1,8,0:3:0:0:
408,144,298799,1,8,0:3:0:0:
280,184,298867,1,8,0:2:0:0:
224,192,298935,1,8,0:3:0:0:
352,240,299004,1,12,0:3:0:0:
480,255,299072,1,12,0:3:0:0:
352,240,299141,5,8,0:2:0:0:
256,224,299232,1,2,0:0:0:0:
184,208,299311,1,2,0:0:0:0:
136,176,299379,1,0,0:0:0:0:
104,128,299448,1,0,0:0:0:0:
96,72,299504,2,0,B|252:80|252:80|327:161,1,253.333333333333,8|8,0:3|0:3,0:0:0:0:
97,240,300232,5,12,0:1:0:0:
249,216,300413,1,8,0:0:0:0:
97,240,300595,1,8,0:0:0:0:
344,160,300777,1,10,1:2:0:0:
345,64,300959,1,8,0:0:0:0:
176,48,301141,1,8,0:0:0:0:
345,64,301323,5,10,0:3:0:0:
497,88,301504,1,8,0:3:0:0:
345,64,301686,1,8,0:3:0:0:
97,184,301868,1,10,1:2:0:0:
249,160,302050,1,8,0:3:0:0:
97,184,302232,1,8,0:3:0:0:
345,144,302413,5,10,0:3:0:0:
497,120,302595,1,8,0:3:0:0:
345,144,302777,1,8,0:3:0:0:
97,137,302959,1,10,1:2:0:0:
225,119,303141,1,8,0:3:0:0:
288,36,303323,1,8,0:3:0:0:
137,29,303504,5,10,0:3:0:0:
47,95,303686,1,8,0:3:0:0:
111,168,303868,1,8,0:3:0:0:
360,200,304050,1,10,1:2:0:0:
208,224,304232,1,8,0:3:0:0:
56,248,304413,1,8,0:3:0:0:
304,120,304595,5,10,0:3:0:0:
152,144,304777,1,8,0:3:0:0:
88,80,304958,1,8,0:3:0:0:
336,56,305141,1,10,1:2:0:0:
488,96,305323,1,8,0:3:0:0:
336,56,305504,1,8,0:3:0:0:
184,112,305686,5,10,0:3:0:0:
336,152,305868,1,8,0:3:0:0:
184,112,306049,1,8,0:3:0:0:
432,224,306232,1,10,1:2:0:0:
280,216,306413,1,8,0:3:0:0:
464,224,306595,1,8,0:3:0:0:
200,272,306777,6,0,P|128:272|192:96,1,316.666666666667,12|0,0:1|0:0,0:0:0:0:
344,200,307323,2,0,L|480:184,2,126.666666666667,8|8|8,1:2|1:2|1:2,0:0:0:0:
96,216,307868,6,0,P|86:104|359:203,1,570,12|0,0:2|0:0,0:0:0:0:
193,148,308959,5,4,0:0:0:0:
328,304,317141,6,0,P|365:271|237:83,1,332.5
51,201,317686,6,0,B|-13:193|-13:57|43:1|131:1|243:1|355:1|435:1|433:90|433:90|365:99|304:124|294:193|297:246|297:246|437:247|436:105|436:105,1,1064,12|0,0:1|0:0,0:0:0:0:
99,145,319868,6,0,B|125:105|147:73|193:54|245:37|301:52|332:66|364:97|382:133|391:179|383:225|359:266|316:297|257:302|194:286|194:286|273:270|291:219|275:180|249:158|192:169|145:185|132:236|128:278,1,912,12|8,0:1|1:2,0:0:0:0:
283,289,321686,1,8,1:2:0:0:
129,263,321868,1,8,1:2:0:0:
315,241,322050,6,0,P|385:229|379:120,1,190,8|8,1:2|1:2,0:0:0:0:
163,233,322595,1,8,1:2:0:0:
388,129,322868,1,8,1:2:0:0:
163,233,323141,6,0,L|119:40,1,190,8|8,1:2|1:2,0:0:0:0:
347,289,323686,1,8,1:2:0:0:
123,289,323959,1,8,1:2:0:0:
456,128,324232,6,0,L|384:128,1,47.5,8|8,0:2|0:2,0:0:0:0:
240,184,324368,2,0,P|184:168|256:104,1,190,8|8,0:2|0:2,0:0:0:0:
312,96,324709,1,8,0:2:0:0:
384,96,324777,2,0,L|392:0,1,95,8|8,0:2|0:2,0:0:0:0:
256,40,325050,1,8,0:2:0:0:
384,8,325186,1,8,0:2:0:0:
176,168,325323,5,8,0:2:0:0:
112,160,325391,1,8,0:2:0:0:
88,112,325459,1,12,0:3:0:0:
240,96,325595,1,8,0:2:0:0:
264,128,325663,1,8,0:2:0:0:
240,96,325731,1,8,0:2:0:0:
176,96,325800,1,8,0:2:0:0:
336,200,325868,1,8,0:2:0:0:
400,192,325936,1,8,0:2:0:0:
464,184,326004,1,8,0:2:0:0:
488,128,326073,1,8,0:2:0:0:
328,248,326141,2,0,B|232:246|232:246|284:237,1,142.5,12|0,0:3|2:0,0:0:0:0:
472,56,326413,6,0,L|256:56,1,209.000006378174,10|10,1:3|0:2,0:0:0:0:
168,56,326822,1,0,0:0:0:0:
264,184,326959,2,0,L|280:67,1,104.500003189087,10|8,0:3|0:3,0:0:0:0:
152,232,327232,2,0,L|136:115,1,104.500003189087,10|0,0:2|0:0,0:0:0:0:
336,80,327504,5,10,1:3:0:0:
464,72,327641,1,0,1:2:0:0:
336,80,327777,1,10,1:2:0:0:
464,72,327913,1,0,1:2:0:0:
336,80,328050,2,0,L|328:16,1,52.2500015945435
395,136,328186,2,0,L|411:80,1,52.2500015945435,8|8,0:3|0:3,0:0:0:0:
476,160,328323,1,10,1:2:0:0:
395,136,328459,1,0,0:0:0:0:
176,240,328595,6,0,P|192:160|304:96,1,209.000006378174,10|10,1:3|0:2,0:0:0:0:
400,96,329004,1,0,0:2:0:0:
296,192,329141,2,0,L|272:56,1,104.500003189087,10|8,0:3|0:3,0:0:0:0:
408,264,329413,2,0,L|432:128,1,104.500003189087,10|0,0:2|0:0,0:0:0:0:
216,80,329686,5,10,1:3:0:0:
88,72,329823,1,0,1:2:0:0:
216,80,329959,1,10,1:2:0:0:
88,72,330095,1,0,1:2:0:0:
216,80,330232,2,0,L|224:16,1,52.2500015945435,0|0,0:0|0:0,0:0:0:0:
144,128,330368,2,0,L|128:72,1,52.2500015945435,8|8,0:3|0:3,0:0:0:0:
216,176,330504,2,0,L|400:168,1,156.750004783631,10|0,1:2|0:0,0:0:0:0:
160,248,330777,6,0,P|96:208|126:123,1,156.750004783631,12|0,1:3|0:0,0:0:0:0:
168,120,331050,2,0,L|392:112,1,209.000006378174,10|10,0:2|0:3,0:0:0:0:
488,64,331459,1,8,0:3:0:0:
360,56,331595,1,10,0:2:0:0:
488,64,331732,1,0,0:3:0:0:
280,48,331868,5,0,0:3:0:0:
152,72,332004,1,0,0:3:0:0:
24,96,332141,1,10,0:2:0:0:
152,72,332277,1,0,0:3:0:0:
48,176,332413,1,0,0:0:0:0:
32,128,332482,1,0,0:0:0:0:
64,88,332550,1,8,0:3:0:0:
120,80,332618,1,8,0:3:0:0:
40,64,332686,1,10,1:2:0:0:
464,152,332959,6,0,L|232:136,2,209.000006378174,10|10|10,1:3|0:2|1:3,0:0:0:0:
488,104,333573,1,8,0:3:0:0:
464,152,333641,1,8,0:3:0:0:
392,152,333709,1,8,0:3:0:0:
464,152,333777,1,10,0:2:0:0:
136,240,334050,6,0,P|128:176|264:80,1,209.000006378174,10|10,1:3|0:2,0:0:0:0:
442,252,334595,2,0,L|418:188,1,52.2500015945435,10|8,1:3|0:3,0:0:0:0:
346,220,334732,2,0,L|322:156,1,52.2500015945435,8|8,0:3|0:3,0:0:0:0:
250,164,334868,2,0,L|191:12,1,156.750004783631,12|0,0:1|0:2,0:0:0:0:
408,192,335141,6,0,B|392:128|392:128|232:80,2,209.000006378174,12|10|10,1:1|0:2|0:3,0:0:0:0:
304,208,335823,1,8,0:3:0:0:
448,256,335959,2,0,L|456:144,1,104.500003189087,10|0,0:2|0:0,0:0:0:0:
245,105,336232,6,0,L|117:89,1,104.500003189087,10|0,1:3|1:2,0:0:0:0:
149,94,336436,1,0,0:0:0:0:
201,99,336504,1,10,1:2:0:0:
344,200,336641,2,0,L|216:184,1,104.500003189087,0|0,1:2|0:0,0:0:0:0:
192,184,336845,1,0,0:0:0:0:
168,144,336913,1,8,0:3:0:0:
192,184,336982,1,8,0:3:0:0:
272,112,337050,2,0,L|152:96,1,104.500003189087,10|0,1:2|0:0,0:0:0:0:
400,248,337323,6,0,P|474:216|434:123,1,156.750004783631,10|0,1:3|0:0,0:0:0:0:
416,120,337596,2,0,L|192:112,1,209.000006378174,10|10,0:2|0:3,0:0:0:0:
152,56,338005,1,8,0:3:0:0:
360,48,338141,2,0,P|384:80|304:152,1,156.750004783631,12|0,0:1|0:0,0:0:0:0:
104,256,338413,6,0,L|336:240,1,209.000006378174,12|12,1:1|1:3,0:0:0:0:
168,184,338823,2,0,P|96:160|160:56,1,209.000006378174,0|0,0:0|0:0,0:0:0:0:
272,64,339232,1,12,1:3:0:0:
136,48,339368,1,0,0:0:0:0:
360,160,339504,6,0,B|480:184|480:184|484:199|484:199|505:203|505:203|509:256,2,209.000006378174,12|10|8,1:3|0:2|0:3,0:0:0:0:
216,152,340186,1,8,0:3:0:0:
360,248,340323,2,0,P|416:204|321:92,1,209.000006378174,10|10,1:2|0:3,0:0:0:0:
120,64,340868,6,0,L|360:56,1,209.000006378174,10|10,1:2|1:3,0:0:0:0:
384,48,341209,1,8,0:3:0:0:
408,24,341277,1,8,0:3:0:0:
384,48,341345,1,8,0:3:0:0:
304,112,341413,2,0,L|108:103,1,156.750004783631,12|0,1:3|0:0,0:0:0:0:
296,56,341686,5,8,1:2:0:0:
440,48,341754,1,8,0:2:0:0:
296,56,341823,1,8,0:2:0:0:
152,64,341891,1,8,0:2:0:0:
296,56,341959,1,8,0:3:0:0:
360,80,342027,1,8,0:3:0:0:
400,128,342095,1,10,0:1:0:0:
416,192,342163,1,10,0:1:0:0:
400,128,342232,1,10,1:1:0:0:
360,80,342300,1,10,0:1:0:0:
296,56,342368,1,8,0:3:0:0:
216,56,342436,1,8,0:3:0:0:
40,224,342504,2,0,P|44:157|128:104,1,156.750004783631,10|0,1:1|0:0,0:0:0:0:
184,168,342777,5,12,0:3:0:0:
32,104,342913,1,8,3:1:0:0:
184,168,343050,2,0,L|384:144,1,156.750004783631,10|0,1:1|0:0,0:0:0:0:
160,88,343323,2,0,L|40:88,1,104.500003189087,8|8,0:2|0:2,0:0:0:0:
180,88,343527,1,8,0:2:0:0:
304,86,343595,1,8,1:2:0:0:
432,86,343732,1,8,0:2:0:0:
292,85,343800,1,8,0:2:0:0:
152,176,343868,6,0,L|400:168,1,209.000006378174,10|10,1:3|0:2,0:0:0:0:
320,144,344277,1,0,0:0:0:0:
216,128,344413,2,0,L|192:24,1,104.500003189087,10|8,0:3|0:3,0:0:0:0:
320,32,344686,2,0,L|448:32,1,104.500003189087,10|0,0:2|0:0,0:0:0:0:
216,200,344959,5,10,1:3:0:0:
88,184,345095,1,0,1:2:0:0:
216,200,345232,1,10,1:2:0:0:
344,208,345368,1,0,1:2:0:0:
448,176,345504,1,0,0:0:0:0:
480,128,345573,1,0,0:0:0:0:
448,176,345641,1,8,0:3:0:0:
384,184,345709,1,8,0:3:0:0:
304,184,345777,1,10,1:2:0:0:
408,117,345913,1,0,0:0:0:0:
168,239,346050,6,0,P|87:171|155:99,1,209.000006378174,10|10,1:3|0:2,0:0:0:0:
240,88,346459,1,0,0:0:0:0:
344,184,346595,2,0,L|352:56,1,104.500003189087,10|8,0:3|0:3,0:0:0:0:
216,56,346868,2,0,L|88:48,1,104.500003189087,10|0,0:2|0:0,0:0:0:0:
328,168,347141,5,10,1:3:0:0:
200,152,347277,1,0,1:2:0:0:
328,168,347413,1,10,1:2:0:0:
200,152,347550,1,0,1:2:0:0:
304,120,347686,2,0,L|368:112,1,52.2500015945435,0|0,0:0|0:0,0:0:0:0:
424,104,347823,2,0,L|440:48,1,52.2500015945435,8|8,0:3|0:3,0:0:0:0:
368,40,347959,2,0,L|200:40,1,156.750004783631,10|0,1:2|0:0,0:0:0:0:
408,248,348232,6,0,P|482:216|424:144,1,156.750004783631,12|0,1:3|0:0,0:0:0:0:
400,128,348505,2,0,L|176:120,1,209.000006378174,10|10,0:2|0:3,0:0:0:0:
80,64,348914,1,8,0:3:0:0:
208,56,349050,1,10,1:2:0:0:
80,64,349187,1,0,1:2:0:0:
288,48,349323,5,10,1:3:0:0:
416,72,349459,1,0,1:2:0:0:
288,48,349595,1,10,1:2:0:0:
416,72,349732,1,0,1:2:0:0:
312,176,349868,1,0,0:0:0:0:
336,128,349936,1,0,0:0:0:0:
392,112,350004,1,8,0:3:0:0:
448,96,350073,1,8,0:3:0:0:
376,64,350141,1,10,1:2:0:0:
16,144,350413,6,0,L|240:128,2,209.000006378174,12|10|12,1:3|0:2|1:1,0:0:0:0:
128,136,351095,1,8,0:3:0:0:
16,144,351232,1,10,0:2:0:0:
376,64,351504,6,0,L|152:48,2,209.000006378174,12|10|10,1:3|0:2|1:3,0:0:0:0:
320,64,352118,1,8,0:3:0:0:
264,64,352186,1,8,0:3:0:0:
208,64,352254,1,8,0:3:0:0:
280,120,352323,2,0,P|344:102|303:33,1,156.750004783631,10|0,0:2|0:2,0:0:0:0:
104,56,352595,6,0,L|320:56,1,209.000006378174,12|10,1:1|0:2,0:0:0:0:
408,56,353004,1,0,0:0:0:0:
312,184,353141,2,0,L|296:67,1,104.500003189087,10|8,0:3|0:3,0:0:0:0:
424,232,353414,2,0,L|440:115,1,104.500003189087,10|0,0:2|0:0,0:0:0:0:
232,72,353686,5,10,1:3:0:0:
104,64,353823,1,0,1:2:0:0:
232,72,353959,1,10,1:2:0:0:
104,64,354095,1,0,1:2:0:0:
208,176,354232,2,0,L|264:168,1,52.2500015945435,0|0,0:0|0:0,0:0:0:0:
328,152,354368,2,0,L|336:96,1,52.2500015945435,8|8,0:3|0:3,0:0:0:0:
264,80,354504,2,0,B|159:76|159:76|177:126,1,156.750004783631,10|0,1:2|0:0,0:0:0:0:
384,232,354777,6,0,P|424:192|360:120,1,156.750004783631,12|0,1:3|0:0,0:0:0:0:
312,112,355050,2,0,L|96:104,1,209.000006378174,10|10,0:2|0:3,0:0:0:0:
208,104,355459,1,8,0:3:0:0:
104,96,355595,1,12,0:1:0:0:
440,224,355868,6,0,P|472:176|360:80,1,209.000006378174,12|12,0:1|0:3,0:0:0:0:
240,304,356277,2,0,P|208:256|320:160,1,209.000006378174,0|0,0:0|0:0,0:0:0:0:
440,144,356686,1,12,0:3:0:0:
104,176,356959,6,0,L|336:160,2,209.000006378174,12|10|10,1:3|0:2|1:3,0:0:0:0:
208,168,357641,1,8,0:3:0:0:
352,208,357777,2,0,P|448:176|384:72,1,209.000006378174,10|10,1:2|0:3,0:0:0:0:
96,56,358323,5,12,1:3:0:0:
424,56,358595,1,8,0:2:0:0:
272,56,358686,1,10,0:1:0:0:
200,56,358777,1,10,0:1:0:0:
304,56,358868,1,12,1:3:0:0:
320,128,358959,1,12,0:3:0:0:
248,144,359050,1,12,0:3:0:0:
56,240,359141,6,0,P|24:192|192:56,1,313.500009567261,12|0,1:3|1:0,0:0:0:0:
320,160,359686,2,0,L|104:152,1,209.000006378174,10|2,0:2|1:2,0:0:0:0:
216,160,360095,1,8,0:3:0:0:
368,232,360232,6,0,P|424:208|302:87,1,313.500009567261,10|0,1:3|1:0,0:0:0:0:
168,144,360777,2,0,L|392:144,1,209.000006378174,10|10,0:2|1:3,0:0:0:0:
16,80,361323,5,12,0:3:0:0:
352,112,361595,1,10,0:3:0:0:
16,80,361868,2,0,L|240:80,1,209.000006378174,10|10,0:2|0:0,0:0:0:0:
280,80,362277,1,8,0:0:0:0:
224,80,362413,5,10,0:3:0:0:
72,120,362550,1,8,0:2:0:0:
176,128,362686,1,10,0:3:0:0:
72,120,362823,1,8,0:3:0:0:
224,176,362959,2,0,L|448:160,1,209.000006378174,10|10,0:2|0:3,0:0:0:0:
328,88,363368,1,8,0:2:0:0:
104,72,363504,6,0,L|352:56,2,209.000006378174,12|10|10,0:3|0:3|0:2,0:0:0:0:
336,168,364323,1,12,0:0:0:0:
208,152,364459,1,8,0:2:0:0:
440,120,364595,6,0,L|493:120,1,52.2500015945435,8|8,0:2|0:2,0:0:0:0:
342,72,364731,2,0,L|289:72,1,52.2500015945435,8|8,0:2|0:2,0:0:0:0:
368,208,364868,1,8,0:3:0:0:
392,160,364936,1,8,0:3:0:0:
368,208,365004,1,12,0:3:0:0:
312,208,365073,1,12,0:3:0:0:
248,208,365141,1,12,0:3:0:0:
176,208,365209,1,12,0:3:0:0:
144,152,365277,1,8,0:3:0:0:
176,208,365345,1,8,0:3:0:0:
336,152,365413,1,8,0:2:0:0:
96,72,365550,1,8,0:3:0:0:
336,152,365686,6,0,L|440:152,1,95,12|8,0:1|0:3,0:0:0:0:
288,184,365959,2,0,L|176:184,1,95,10|8,0:3|0:3,0:0:0:0:
392,24,366231,1,10,0:2:0:0:
416,80,366300,1,0,0:0:0:0:
384,112,366368,1,8,0:3:0:0:
320,112,366436,1,0,0:0:0:0:
248,112,366504,2,0,L|344:104,1,95,10|8,0:3|0:3,0:0:0:0:
200,0,366777,6,0,L|168:136,1,95,10|8,0:0|0:3,0:0:0:0:
240,96,366981,1,8,0:3:0:0:
304,88,367050,2,0,L|336:224,1,95,10|8,0:3|0:3,0:0:0:0:
128,184,367322,2,0,L|32:184,1,95,10|8,0:2|0:3,0:0:0:0:
152,128,367595,2,0,L|40:128,1,95,14|8,0:2|0:3,0:0:0:0:
264,56,367868,5,12,0:3:0:0:
312,56,367936,1,0,0:0:0:0:
336,96,368004,1,8,0:3:0:0:
208,96,368140,2,0,L|80:96,1,95,10|8,0:3|0:3,0:0:0:0:
160,96,368345,1,8,0:3:0:0:
320,168,368413,2,0,L|432:160,1,95,10|8,0:2|0:3,0:0:0:0:
272,48,368686,1,10,0:3:0:0:
256,80,368754,1,8,0:3:0:0:
240,112,368822,1,8,0:3:0:0:
392,48,368959,6,0,L|496:48,1,95,10|8,0:0|0:3,0:0:0:0:
428,76,369163,1,8,0:3:0:0:
368,112,369231,2,0,L|472:112,1,95,10|8,0:3|0:3,0:0:0:0:
256,168,369504,2,0,L|144:168,1,95,10|8,0:2|0:3,0:0:0:0:
272,96,369777,2,0,L|160:96,1,95,14|8,0:2|0:3,0:0:0:0:
384,32,370050,5,12,0:3:0:0:
432,32,370118,1,0,0:0:0:0:
456,80,370186,1,8,0:3:0:0:
320,136,370322,2,0,L|424:136,1,95,10|8,0:3|0:3,0:0:0:0:
216,56,370595,1,10,0:2:0:0:
200,104,370663,1,0,0:0:0:0:
184,152,370731,1,8,0:3:0:0:
304,168,370868,1,10,0:3:0:0:
352,176,370936,1,8,0:3:0:0:
304,168,371004,1,8,0:3:0:0:
160,152,371140,5,10,0:0:0:0:
304,56,371277,1,8,0:3:0:0:
256,56,371345,1,8,0:3:0:0:
208,56,371413,1,10,0:3:0:0:
112,88,371550,1,8,0:3:0:0:
304,120,371686,2,0,L|400:120,1,95,10|8,0:2|0:3,0:0:0:0:
280,176,371959,2,0,L|392:176,1,95,14|8,0:2|0:3,0:0:0:0:
176,96,372231,5,12,0:3:0:0:
128,104,372300,1,0,0:0:0:0:
104,152,372368,1,8,0:3:0:0:
232,176,372504,2,0,L|120:184,1,95,10|8,0:3|0:3,0:0:0:0:
184,176,372709,1,8,0:3:0:0:
344,120,372777,2,0,L|448:120,1,95,10|8,0:2|0:3,0:0:0:0:
296,32,373050,1,10,0:3:0:0:
320,88,373118,1,8,0:3:0:0:
376,88,373186,1,8,0:3:0:0:
232,96,373322,6,0,L|112:96,1,95,10|8,0:0|0:3,0:0:0:0:
88,96,373527,1,8,0:3:0:0:
42,96,373595,2,0,L|162:96,1,95,10|8,0:3|0:3,0:0:0:0:
336,120,373868,2,0,L|240:120,1,95,10|8,0:2|0:3,0:0:0:0:
360,176,374141,2,0,L|248:176,1,95,10|8,0:3|0:3,0:0:0:0:
72,112,374413,5,12,0:1:0:0:
88,168,374481,1,0,0:0:0:0:
136,176,374550,2,0,L|240:176,1,95,8|10,0:3|0:3,0:0:0:0:
136,176,374822,1,8,0:3:0:0:
336,64,374959,2,0,L|456:64,1,95,10|8,0:2|0:3,0:0:0:0:
288,64,375231,1,10,0:3:0:0:
272,96,375300,1,8,0:3:0:0:
256,128,375368,1,8,0:3:0:0:
400,8,375504,6,0,L|424:120,1,95,10|8,0:0|0:3,0:0:0:0:
370,121,375709,1,8,0:3:0:0:
323,128,375777,2,0,L|446:136,1,95,10|8,0:3|0:3,0:0:0:0:
224,160,376050,2,0,L|112:168,1,95,10|8,0:2|0:3,0:0:0:0:
248,88,376322,2,0,L|136:96,1,95,14|8,0:2|0:3,0:0:0:0:
352,48,376595,5,12,0:3:0:0:
400,48,376663,1,0,0:0:0:0:
448,48,376731,1,8,0:3:0:0:
352,112,376868,2,0,L|240:112,1,95,10|8,0:3|0:3,0:0:0:0:
304,112,377072,1,8,0:3:0:0:
464,0,377140,2,0,L|480:104,1,95,10|8,0:2|0:3,0:0:0:0:
336,120,377413,1,10,0:3:0:0:
384,128,377481,1,8,0:3:0:0:
432,136,377550,1,8,0:3:0:0:
288,176,377686,6,0,L|152:176,1,95,10|8,0:0|0:3,0:0:0:0:
144,176,377890,1,8,0:3:0:0:
193,176,377959,2,0,L|329:176,1,95,10|8,0:3|0:3,0:0:0:0:
88,80,378231,2,0,L|208:80,1,95,10|8,0:2|0:3,0:0:0:0:
64,136,378504,2,0,L|184:136,1,95,14|8,0:2|0:3,0:0:0:0:
368,96,378777,5,12,0:3:0:0:
312,96,378845,1,0,0:0:0:0:
280,152,378913,1,8,0:3:0:0:
424,32,379050,2,0,L|440:152,1,95,10|8,0:3|0:3,0:0:0:0:
240,144,379322,2,0,L|128:152,1,95,10|8,0:2|0:3,0:0:0:0:
288,48,379595,1,10,0:3:0:0:
312,96,379663,1,8,0:3:0:0:
256,104,379731,1,8,0:3:0:0:
112,104,379868,5,10,0:0:0:0:
256,104,380004,1,8,0:3:0:0:
304,104,380072,1,8,0:3:0:0:
256,104,380140,1,10,0:3:0:0:
112,104,380277,1,8,0:3:0:0:
304,8,380413,2,0,L|408:8,1,95,12|8,0:2|0:3,0:0:0:0:
280,72,380686,2,0,L|384:72,1,95,10|8,0:3|0:3,0:0:0:0:
168,72,380959,5,12,0:3:0:0:
144,128,381027,1,0,0:0:0:0:
192,72,381095,1,8,0:3:0:0:
288,136,381231,2,0,L|176:136,1,95,10|8,0:0|0:0,0:0:0:0:
240,136,381436,1,8,0:0:0:0:
400,136,381504,2,0,L|512:136,1,95,10|8,0:2|0:0,0:0:0:0:
400,40,381777,1,10,0:0:0:0:
448,40,381845,1,8,0:0:0:0:
496,40,381913,1,8,0:0:0:0:
288,40,382050,5,8,0:0:0:0:
496,208,382186,2,0,L|504:104,1,95,8|8,0:2|0:0,0:0:0:0:
408,96,382459,1,12,0:3:0:0:
200,88,382595,2,0,L|96:88,1,95,8|8,0:2|0:0,0:0:0:0:
312,176,382868,1,8,0:2:0:0:
104,88,383004,1,8,0:2:0:0:
344,176,383141,5,12,0:1:0:0:
400,168,383209,1,0,0:0:0:0:
432,128,383277,1,8,0:3:0:0:
344,72,383413,1,8,0:3:0:0:
240,56,383550,2,0,L|296:56,1,47.5,8|8,0:3|0:3,0:0:0:0:
440,176,383686,2,0,L|456:72,1,95,10|8,0:2|0:3,0:0:0:0:
312,56,383959,1,8,0:3:0:0:
376,48,384027,1,8,0:3:0:0:
440,40,384095,1,8,0:3:0:0:
232,144,384232,6,0,L|96:144,1,95,10|8,0:3|0:3,0:0:0:0:
88,144,384436,1,8,0:3:0:0:
137,144,384504,1,8,0:3:0:0:
232,144,384641,1,8,0:3:0:0:
432,176,384777,2,0,L|392:80,1,95,10|8,0:2|0:3,0:0:0:0:
256,48,385050,2,0,L|368:24,1,95,12|8,0:2|0:3,0:0:0:0:
304,16,385254,1,0,0:0:0:0:
152,176,385323,5,12,0:3:0:0:
96,168,385391,1,0,0:0:0:0:
64,128,385459,1,8,0:3:0:0:
152,72,385595,1,8,0:3:0:0:
256,56,385732,2,0,L|200:56,1,47.5,8|8,0:3|0:3,0:0:0:0:
56,176,385868,2,0,L|40:72,1,95,10|8,0:2|0:3,0:0:0:0:
184,56,386141,1,8,0:3:0:0:
120,48,386209,1,8,0:3:0:0:
56,40,386277,1,8,0:3:0:0:
264,144,386414,6,0,L|400:144,1,95,10|8,0:3|0:3,0:0:0:0:
408,144,386618,1,8,0:3:0:0:
359,144,386686,1,8,0:3:0:0:
264,144,386823,1,8,0:3:0:0:
64,176,386959,2,0,L|104:80,1,95,10|8,0:2|0:3,0:0:0:0:
240,48,387232,2,0,L|128:24,1,95,12|8,0:2|0:3,0:0:0:0:
192,16,387436,1,0,0:0:0:0:
336,16,387504,6,0,L|464:24,2,95,12|8|8,0:3|0:3|0:3,0:0:0:0:
240,136,387913,2,0,L|184:128,1,47.5,8|8,0:3|0:3,0:0:0:0:
344,88,388050,2,0,L|464:88,1,95,10|8,0:2|0:3,0:0:0:0:
304,184,388323,2,0,L|416:184,1,95,8|8,0:3|0:3,0:0:0:0:
192,232,388595,6,0,L|144:128,1,95,10|8,0:3|0:3,0:0:0:0:
200,128,388800,1,8,0:3:0:0:
248,120,388868,1,8,0:3:0:0:
344,112,389004,1,8,0:3:0:0:
144,136,389141,2,0,L|184:40,1,95,10|8,0:2|0:3,0:0:0:0:
320,112,389413,2,0,L|360:16,1,95,12|8,0:2|0:3,0:0:0:0:
312,16,389618,1,0,0:0:0:0:
168,16,389686,6,0,L|40:24,2,95,12|8|8,0:3|0:3|0:3,0:0:0:0:
264,136,390095,2,0,L|320:128,1,47.5,8|8,0:3|0:3,0:0:0:0:
160,88,390232,2,0,L|40:88,1,95,10|8,0:2|0:3,0:0:0:0:
200,184,390505,2,0,L|88:184,1,95,8|8,0:3|0:3,0:0:0:0:
312,232,390777,6,0,L|360:128,1,95,10|8,0:3|0:3,0:0:0:0:
304,128,390982,1,8,0:3:0:0:
256,120,391050,1,8,0:3:0:0:
160,112,391186,1,8,0:3:0:0:
360,136,391323,2,0,L|320:40,1,95,10|8,0:2|0:3,0:0:0:0:
184,112,391595,2,0,L|144:16,1,95,8|8,0:3|0:3,0:0:0:0:
376,232,391868,5,12,0:1:0:0:
432,216,391936,1,0,0:0:0:0:
376,232,392004,1,8,0:3:0:0:
240,176,392141,2,0,L|352:168,1,95,8|8,0:3|0:3,0:0:0:0:
288,136,392345,1,8,0:3:0:0:
144,112,392413,1,10,0:2:0:0:
88,96,392481,1,0,0:0:0:0:
144,112,392549,1,8,0:3:0:0:
240,128,392686,2,0,L|264:32,1,95,8|8,0:3|0:3,0:0:0:0:
56,192,392959,6,0,L|168:184,2,95,10|8|8,0:3|0:3|0:3,0:0:0:0:
24,120,393368,1,8,0:3:0:0:
224,96,393504,2,0,L|360:96,1,95,10|8,0:2|0:3,0:0:0:0:
184,184,393777,2,0,L|320:184,1,95,12|8,0:2|0:3,0:0:0:0:
31,216,394050,5,12,0:3:0:0:
31,216,394118,1,0,0:0:0:0:
87,232,394186,1,8,0:3:0:0:
223,176,394323,2,0,L|111:168,1,95,8|8,0:3|0:3,0:0:0:0:
175,136,394527,1,8,0:3:0:0:
319,112,394595,1,10,0:2:0:0:
375,96,394663,1,0,0:0:0:0:
319,112,394731,1,8,0:3:0:0:
223,128,394868,2,0,L|199:32,1,95,8|8,0:3|0:3,0:0:0:0:
407,192,395141,6,0,L|295:184,2,95,10|8|8,0:3|0:3|0:3,0:0:0:0:
439,120,395550,1,8,0:3:0:0:
239,96,395686,2,0,L|103:96,1,95,10|8,0:2|0:3,0:0:0:0:
279,184,395959,2,0,L|143:184,1,95,12|8,0:2|0:3,0:0:0:0:
400,56,396232,6,0,L|510:50,2,95,12|8|8,0:3|0:3|0:3,0:0:0:0:
267,56,396641,1,8,0:3:0:0:
208,56,396709,1,8,0:3:0:0:
52,247,396777,2,0,L|0:136,2,95,10|8|8,0:2|0:3|0:3,0:0:0:0:
184,128,397186,1,8,0:3:0:0:
240,128,397254,1,0,0:0:0:0:
408,216,397323,6,0,L|200:208,1,190,12|8,0:1|0:3,0:0:0:0:
128,200,397732,1,8,0:3:0:0:
176,192,397800,1,0,0:0:0:0:
320,152,397868,2,0,L|432:144,1,95,10|8,0:2|0:3,0:0:0:0:
304,96,398141,2,0,L|192:88,1,95,8|8,0:3|0:3,0:0:0:0:
464,64,398413,5,8,0:2:0:0:
320,48,398482,1,8,0:2:0:0:
272,40,398550,1,8,0:3:0:0:
320,48,398618,1,8,0:3:0:0:
464,136,398686,2,0,L|408:136,1,47.5,8|8,0:2|0:2,0:0:0:0:
288,136,398823,1,8,0:2:0:0:
160,137,398891,1,8,0:2:0:0:
296,136,398959,5,8,0:3:0:0:
320,176,399027,1,8,0:3:0:0:
296,136,399095,1,10,0:1:0:0:
232,136,399163,1,10,0:1:0:0:
168,136,399232,2,0,L|176:88,1,47.5,12|12,0:3|0:3,0:0:0:0:
256,96,399368,2,0,L|264:48,1,47.5,10|10,0:3|0:3,0:0:0:0:
136,40,399504,5,8,0:2:0:0:
8,32,399573,1,8,3:2:0:0:
136,40,399641,1,8,3:2:0:0:
264,48,399709,2,0,L|336:56,1,47.5,8|10,3:2|3:1,0:0:0:0:
334,56,399845,1,10,3:1:0:0:
312,53,399913,1,10,3:1:0:0:
264,48,399982,1,10,3:1:0:0:
195,47,400050,5,12,3:0:0:0:
126,54,400118,1,12,3:0:0:0:
79,64,400186,1,12,3:0:0:0:
58,117,400254,1,12,3:0:0:0:
79,64,400323,1,10,3:0:0:0:
126,54,400391,1,10,3:0:0:0:
195,47,400459,1,10,3:0:0:0:
280,40,400527,1,10,3:0:0:0:
504,208,400595,5,12,0:3:0:0:
256,192,400732,12,0,413686,3:3:0:0:
