osu file format v14

[General]
AudioFilename: audio.mp3
AudioLeadIn: 0
PreviewTime: 129106
Countdown: 0
SampleSet: Soft
StackLeniency: 0.4
Mode: 0
LetterboxInBreaks: 0
WidescreenStoryboard: 0

[Editor]
Bookmarks: 22524,304521,314854,338523,340523,342356,344856,420353,430186
DistanceSpacing: 3.3
BeatDivisor: 4
GridSize: 8
TimelineZoom: 2.599999

[Metadata]
Title:Dystopia
TitleUnicode:Dystopia
Artist:Release Hallucination
ArtistUnicode:Release Hallucination
Creator:gazimal
Version:Liberation
Source:
Tags:FA featured artist japanese metal Emi Kaoru
BeatmapID:3344801
BeatmapSetID:1638732

[Difficulty]
HPDrainRate:6
CircleSize:4.4
OverallDifficulty:9
ApproachRate:9.4
SliderMultiplier:1.8
SliderTickRate:1

[Events]
//Background and Video events
0,0,"bg.png",0,0
//Break Periods
2,288721,290481
2,291555,292648
//Storyboard Layer 0 (Background)
//Storyboard Layer 1 (Fail)
//Storyboard Layer 2 (Pass)
//Storyboard Layer 3 (Foreground)
//Storyboard Layer 4 (Overlay)
//Storyboard Sound Samples

[TimingPoints]
1191,333.333333333333,4,2,1,60,1,0
22524,-100,4,2,1,60,0,0
22774,-100,4,2,1,5,0,0
22857,-100,4,2,1,60,0,0
23607,-100,4,2,1,5,0,0
23690,-100,4,2,1,60,0,0
24440,-100,4,2,1,5,0,0
24524,-100,4,2,1,60,0,0
25440,-100,4,2,1,5,0,0
25524,-100,4,2,1,60,0,0
25857,-66.6666666666667,4,2,1,60,0,0
26357,-100,4,2,1,60,0,0
27690,-100,4,2,2,60,0,0
27857,-100,4,2,1,60,0,0
28107,-100,4,2,1,5,0,0
28190,-100,4,2,1,60,0,0
28524,-66.6666666666667,4,2,1,60,0,0
29024,-100,4,2,1,60,0,0
29524,-83.3333333333333,4,2,1,60,0,0
29774,-83.3333333333333,4,2,1,5,0,0
29857,-100,4,2,1,60,0,0
30774,-100,4,2,1,5,0,0
30857,-100,4,2,1,60,0,0
34024,-83.3333333333333,4,2,1,60,0,0
34357,-100,4,2,1,60,0,0
35857,-83.3333333333333,4,2,1,60,0,0
36107,-83.3333333333333,4,2,1,5,0,0
36190,-100,4,2,1,60,0,0
40190,-83.3333333333333,4,2,1,60,0,0
40524,-100,4,2,1,60,0,0
41190,-83.3333333333333,4,2,1,60,0,0
41524,-100,4,2,1,60,0,0
42524,-83.3333333333333,4,2,1,60,0,0
42857,-100,4,2,1,60,0,0
43024,-83.3333333333333,4,2,1,60,0,0
43357,-100,4,2,1,60,0,0
43857,-100,4,2,1,70,0,0
45190,-200,4,2,1,70,0,0
46190,-83.3333333333333,4,2,1,70,0,0
46524,-100,4,2,1,70,0,0
51524,-83.3333333333333,4,2,1,70,0,0
52524,-166.666666666667,4,2,2,70,0,0
53190,-83.3333333333333,4,2,1,70,0,0
54524,-83.3333333333333,4,2,1,60,0,0
59690,-83.3333333333333,4,2,2,60,0,0
59857,-83.3333333333333,4,2,1,60,0,0
65190,-100,4,2,1,60,0,0
69274,-100,4,2,1,5,0,0
69357,-100,4,2,1,60,0,0
74107,-100,4,2,1,5,0,0
74190,-100,4,2,1,60,0,0
79940,-100,4,2,1,5,0,0
80024,-100,4,2,1,60,0,0
84524,-83.3333333333333,4,2,1,60,0,0
84774,-83.3333333333333,4,2,1,5,0,0
84857,-83.3333333333333,4,2,1,60,0,0
87524,-100,4,2,1,60,0,0
87690,-83.3333333333333,4,2,1,60,0,0
101357,-83.3333333333333,4,2,1,5,0,0
101413,-83.3333333333333,4,2,1,60,0,0
107524,-83.3333333333333,4,2,2,60,0,0
107857,-83.3333333333333,4,2,1,65,0,0
117274,-83.3333333333333,4,2,1,5,0,0
117357,-83.3333333333333,4,2,1,65,0,0
125607,-83.3333333333333,4,2,1,5,0,0
125690,-83.3333333333333,4,2,1,65,0,0
129190,333.333333333333,3,2,1,60,1,0
129190,-71.4285714285714,3,2,1,75,0,0
129440,-83.3333333333333,4,2,1,5,0,0
129523,-71.4285714285714,3,2,1,75,0,0
130440,-83.3333333333333,4,2,1,5,0,0
130523,-71.4285714285714,3,2,1,75,0,0
132440,-83.3333333333333,4,2,1,5,0,0
132523,-71.4285714285714,3,2,1,75,0,0
134190,-62.5,3,2,1,75,0,0
134856,-71.4285714285714,3,2,1,75,0,0
136606,-71.4285714285714,3,2,1,5,0,0
136690,-71.4285714285714,3,2,1,75,0,0
136940,-71.4285714285714,3,2,1,5,0,0
137023,-71.4285714285714,3,2,1,75,0,0
137440,-71.4285714285714,3,2,1,5,0,0
137523,-71.4285714285714,3,2,1,75,0,0
138440,-71.4285714285714,3,2,1,5,0,0
138523,-71.4285714285714,3,2,1,75,0,0
140440,-71.4285714285714,3,2,1,5,0,0
140523,-71.4285714285714,3,2,1,75,0,0
142190,-62.5,3,2,1,75,0,0
142606,-71.4285714285714,3,2,1,5,0,0
142690,-142.857142857143,3,2,1,75,0,0
143190,-71.4285714285714,3,2,1,75,0,0
145439,-71.4285714285714,3,2,1,5,0,0
145523,-71.4285714285714,3,2,1,75,0,0
146439,-71.4285714285714,3,2,1,5,0,0
146523,-71.4285714285714,3,2,1,75,0,0
148439,-71.4285714285714,3,2,1,5,0,0
148523,-71.4285714285714,3,2,1,75,0,0
150189,-55.5555555555556,3,2,1,75,0,0
150856,-142.857142857143,3,2,1,75,0,0
151189,-71.4285714285714,3,2,1,75,0,0
152606,-71.4285714285714,3,2,1,5,0,0
152689,-71.4285714285714,3,2,1,75,0,0
152939,-71.4285714285714,3,2,1,5,0,0
153023,-71.4285714285714,3,2,1,75,0,0
153439,-71.4285714285714,3,2,1,5,0,0
153523,-71.4285714285714,3,2,1,75,0,0
154439,-71.4285714285714,3,2,1,5,0,0
154523,-71.4285714285714,3,2,1,75,0,0
156439,-71.4285714285714,3,2,1,5,0,0
156523,-71.4285714285714,3,2,1,75,0,0
158189,-62.5,3,2,1,75,0,0
158856,-71.4285714285714,3,2,1,75,0,0
161189,333.333333333333,4,2,1,75,1,0
161189,-71.4285714285714,4,2,1,75,0,0
161439,-71.4285714285714,4,2,1,5,0,0
161522,-83.3333333333333,4,2,1,75,0,0
162022,-71.4285714285714,4,2,1,75,0,0
162522,-83.3333333333333,4,2,1,75,0,0
163855,-125,4,2,1,75,0,0
166190,333.333333333333,4,2,1,60,1,0
166190,-100,4,2,1,60,0,0
168856,-71.4285714285714,4,2,1,60,0,0
169106,-83.3333333333333,4,2,1,5,0,0
169190,-100,4,2,1,60,0,0
170523,-76.9230769230769,4,2,1,60,0,0
171856,-100,4,2,1,60,0,0
174190,-71.4285714285714,4,2,1,60,0,0
174440,-83.3333333333333,4,2,1,5,0,0
174523,-100,4,2,1,60,0,0
175523,-83.3333333333333,4,2,1,60,0,0
175773,-83.3333333333333,4,2,1,5,0,0
175856,-100,4,2,1,60,0,0
176856,-125,4,2,1,55,0,0
181564,-125,4,2,1,5,0,0
181689,-125,4,2,1,55,0,0
181731,-125,4,2,1,5,0,0
181856,-125,4,2,1,55,0,0
182064,-125,4,2,1,5,0,0
182189,-100,4,2,1,60,0,0
184189,-83.3333333333333,4,2,1,60,0,0
185773,-83.3333333333333,4,2,1,5,0,0
185856,-83.3333333333333,4,2,1,60,0,0
191606,-83.3333333333333,4,2,1,5,0,0
191689,-83.3333333333333,4,2,1,60,0,0
196439,-83.3333333333333,4,2,1,5,0,0
196523,-83.3333333333333,4,2,1,60,0,0
217523,-71.4285714285714,4,2,1,60,0,0
217773,-71.4285714285714,4,2,1,5,0,0
217856,-83.3333333333333,4,2,1,60,0,0
219439,-83.3333333333333,4,2,2,60,0,0
219523,-83.3333333333333,4,2,1,65,0,0
228939,-83.3333333333333,4,2,1,5,0,0
229023,-83.3333333333333,4,2,1,65,0,0
229523,-60.6060606060606,4,2,1,65,0,0
229856,-83.3333333333333,4,2,1,65,0,0
237273,-83.3333333333333,4,2,1,5,0,0
237356,-83.3333333333333,4,2,1,65,0,0
240856,333.333333333333,3,2,1,60,1,0
240856,-71.4285714285714,3,2,1,75,0,0
242106,-71.4285714285714,3,2,1,5,0,0
242189,-71.4285714285714,3,2,1,75,0,0
244106,-71.4285714285714,3,2,1,5,0,0
244189,-71.4285714285714,3,2,1,75,0,0
245856,-62.5,3,2,1,75,0,0
246522,-71.4285714285714,3,2,1,75,0,0
248272,-71.4285714285714,3,2,1,5,0,0
248356,-71.4285714285714,3,2,1,75,0,0
249106,-71.4285714285714,3,2,1,5,0,0
249189,-71.4285714285714,3,2,1,75,0,0
250106,-71.4285714285714,3,2,1,5,0,0
250189,-71.4285714285714,3,2,1,75,0,0
252106,-71.4285714285714,3,2,1,5,0,0
252189,-71.4285714285714,3,2,1,75,0,0
253856,-62.5,3,2,1,75,0,0
254272,-71.4285714285714,3,2,1,5,0,0
254356,-142.857142857143,3,2,1,75,0,0
254856,-71.4285714285714,3,2,1,75,0,0
257105,-71.4285714285714,3,2,1,5,0,0
257189,-71.4285714285714,3,2,1,75,0,0
258105,-71.4285714285714,3,2,1,5,0,0
258189,-71.4285714285714,3,2,1,75,0,0
260105,-71.4285714285714,3,2,1,5,0,0
260189,-71.4285714285714,3,2,1,75,0,0
261855,-55.5555555555556,3,2,1,75,0,0
262522,-142.857142857143,3,2,1,75,0,0
262855,-71.4285714285714,3,2,1,75,0,0
264272,-71.4285714285714,3,2,1,5,0,0
264356,-71.4285714285714,3,2,1,75,0,0
265106,-71.4285714285714,3,2,1,5,0,0
265189,-71.4285714285714,3,2,1,75,0,0
266106,-71.4285714285714,3,2,1,5,0,0
266189,-71.4285714285714,3,2,1,75,0,0
268106,-71.4285714285714,3,2,1,5,0,0
268189,-71.4285714285714,3,2,1,75,0,0
269855,-62.5,3,2,1,75,0,0
270522,-71.4285714285714,3,2,1,75,0,0
272855,333.333333333333,4,2,1,75,1,0
272855,-100,4,2,1,75,0,0
275521,-500,4,2,1,75,0,0
276521,-71.4285714285714,4,2,1,75,0,0
276771,-71.4285714285714,4,2,1,5,0,0
276855,-71.4285714285714,4,2,1,60,0,0
277021,-71.4285714285714,4,2,1,65,0,0
277188,-71.4285714285714,4,2,1,70,0,0
277521,-71.4285714285714,4,2,1,75,0,0
277855,333.333333333333,4,2,1,60,1,0
278438,-100,4,2,1,5,0,0
278521,-100,4,2,1,60,0,0
278938,-100,4,2,1,5,0,0
279021,-100,4,2,1,60,0,0
279771,-100,4,2,1,5,0,0
279855,-100,4,2,1,60,0,0
281105,-100,4,2,1,5,0,0
281188,-100,4,2,1,60,0,0
282438,-100,4,2,1,5,0,0
282521,-100,4,2,1,60,0,0
283771,-100,4,2,1,5,0,0
283855,-100,4,2,1,60,0,0
285105,-100,4,2,1,5,0,0
285188,-100,4,2,1,60,0,0
293355,-100,4,2,2,60,0,0
293521,-100,4,2,1,60,0,0
293855,-142.857142857143,4,2,1,60,0,0
293938,-142.857142857143,4,2,1,50,0,0
296521,-111.111111111111,4,2,1,60,0,0
297855,-111.111111111111,4,2,1,50,0,0
298188,-111.111111111111,4,2,1,55,0,0
298355,-111.111111111111,4,2,1,60,0,0
298521,-111.111111111111,4,2,1,65,0,0
298855,-111.111111111111,4,2,1,70,0,0
299188,-90.9090909090908,4,2,1,70,0,0
299688,-83.3333333333333,4,2,1,70,0,0
300521,-90.9090909090909,4,2,1,70,0,0
300855,-83.3333333333333,4,2,1,70,0,0
301855,-90.9090909090909,4,2,1,70,0,0
302188,-83.3333333333333,4,2,1,70,0,0
303188,-90.9090909090909,4,2,1,70,0,0
303521,-83.3333333333333,4,2,1,70,0,0
309854,-83.3333333333333,4,3,1,70,0,0
311021,333.333333333333,4,2,1,70,1,0
311021,-83.3333333333333,4,3,1,70,0,0
313521,333.333333333333,4,2,1,70,1,0
313521,-83.3333333333333,4,3,1,70,0,0
316022,333.333333333333,4,2,1,70,1,0
316022,-83.3333333333333,4,3,1,70,0,0
318523,333.333333333333,4,3,1,70,1,0
319856,-71.4285714285714,4,2,1,70,0,0
329189,-71.4285714285714,4,2,1,80,0,0
329745,-71.4285714285714,4,2,2,80,0,0
329856,-71.4285714285714,4,2,1,80,0,0
330523,-71.4285714285714,4,2,1,70,0,0
332523,-62.5,4,2,1,70,0,0
332773,-76.9230769230769,4,2,1,70,0,0
333189,-62.5,4,2,1,70,0,0
334523,-62.5,4,2,2,70,0,0
335189,-62.5,4,2,1,70,0,0
335856,-62.5,4,2,2,70,0,0
336189,-62.5,4,2,1,70,0,0
337189,-62.5,4,2,2,70,0,0
337856,-62.5,4,2,1,70,0,0
338189,-62.5,4,2,2,70,0,0
338523,-76.9230769230769,4,2,1,70,0,0
339023,-76.9230769230769,4,2,2,70,0,0
339189,-76.9230769230769,4,2,1,70,0,0
339523,-76.9230769230769,4,2,2,70,0,0
339689,-76.9230769230769,4,2,2,70,0,0
339856,-76.9230769230769,4,2,1,70,0,0
340023,-76.9230769230769,4,2,2,70,0,0
340523,-76.9230769230769,4,2,1,70,0,0
341189,-76.9230769230769,4,3,1,80,0,1
341356,-66.6666666666667,4,3,1,80,0,1
342356,333.333333333333,4,3,1,80,1,1
342356,-76.9230769230769,4,3,1,80,0,1
342522,-66.6666666666667,4,3,1,80,0,1
344856,333.333333333333,4,2,1,80,1,1
344856,-76.9230769230769,4,3,1,80,0,1
347355,333.333333333333,4,2,1,80,1,1
347355,-76.9230769230769,4,3,1,80,0,1
348688,-76.9230769230769,4,2,1,85,0,1
349188,-76.9230769230769,4,2,2,85,0,1
349355,-76.9230769230769,4,2,1,85,0,1
349855,-76.9230769230769,4,2,2,85,0,1
350021,-76.9230769230769,4,2,1,85,0,1
351354,333.333333333333,6,2,1,85,1,0
351354,-90.9090909090909,6,2,1,65,0,0
352020,-111.111111111111,6,2,1,65,0,0
353270,-111.111111111111,6,2,1,5,0,0
353354,-90.9090909090909,6,2,1,65,0,0
354020,-111.111111111111,6,2,1,65,0,0
355270,-111.111111111111,6,2,1,5,0,0
355354,-90.9090909090908,6,2,1,65,0,0
356020,-111.111111111111,6,2,1,65,0,0
356604,-111.111111111111,6,2,1,5,0,0
356687,-111.111111111111,6,2,1,65,0,0
357270,-111.111111111111,6,2,1,5,0,0
357354,-90.9090909090909,6,2,1,65,0,0
358604,-111.111111111111,6,2,1,5,0,0
358687,-90.9090909090909,6,2,1,65,0,0
360020,-111.111111111111,6,2,1,65,0,0
360604,-111.111111111111,6,2,1,5,0,0
360687,-111.111111111111,6,2,1,65,0,0
361270,-111.111111111111,6,2,1,5,0,0
361354,-111.111111111111,6,2,1,65,0,0
361437,-111.111111111111,6,2,1,5,0,0
361520,-111.111111111111,6,2,1,65,0,0
361604,-111.111111111111,6,2,1,5,0,0
361687,-111.111111111111,6,2,1,65,0,0
361770,-111.111111111111,6,2,1,5,0,0
361854,-111.111111111111,6,2,1,65,0,0
361937,-111.111111111111,6,2,1,5,0,0
362020,-111.111111111111,6,2,1,65,0,0
362604,-111.111111111111,6,2,1,5,0,0
362687,-111.111111111111,6,2,1,65,0,0
363270,-111.111111111111,6,2,1,5,0,0
363354,-90.9090909090909,6,2,1,65,0,0
364020,-111.111111111111,6,2,1,65,0,0
364604,-111.111111111111,6,2,1,5,0,0
364687,-111.111111111111,6,2,1,65,0,0
365270,-111.111111111111,6,2,1,5,0,0
365354,-90.9090909090908,6,2,1,65,0,0
366604,-111.111111111111,6,2,1,5,0,0
366687,-90.9090909090908,6,2,1,65,0,0
368020,-111.111111111111,6,2,1,65,0,0
369270,-111.111111111111,6,2,1,5,0,0
369354,-90.9090909090908,6,2,1,65,0,0
370020,-111.111111111111,6,2,1,65,0,0
370604,-111.111111111111,6,2,1,5,0,0
370687,-111.111111111111,6,2,1,65,0,0
371270,-111.111111111111,6,2,1,5,0,0
371354,-90.9090909090908,6,2,1,65,0,0
372020,-111.111111111111,6,2,1,65,0,0
372604,-111.111111111111,6,2,1,5,0,0
372687,-111.111111111111,6,2,1,65,0,0
373270,-111.111111111111,6,2,1,5,0,0
373354,-90.9090909090908,6,2,1,65,0,0
374604,-111.111111111111,6,2,1,5,0,0
374687,-90.9090909090908,6,2,1,65,0,0
384020,-166.666666666667,6,2,1,65,0,0
384353,333.333333333333,3,2,1,75,1,0
384353,-62.5,6,2,1,75,0,0
384603,-62.5,3,2,1,5,0,0
384687,-71.4285714285714,3,2,1,75,0,0
386603,-62.5,3,2,1,5,0,0
386687,-71.4285714285714,3,2,1,75,0,0
388353,-62.5,3,2,1,75,0,0
389020,-71.4285714285714,3,2,1,75,0,0
390770,-62.5,3,2,1,5,0,0
390853,-71.4285714285714,3,2,1,75,0,0
391103,-71.4285714285714,3,2,1,5,0,0
391187,-71.4285714285714,3,2,1,75,0,0
391603,-62.5,3,2,1,5,0,0
391687,-71.4285714285714,3,2,1,75,0,0
392603,-62.5,3,2,1,5,0,0
392687,-71.4285714285714,3,2,1,75,0,0
394603,-62.5,3,2,1,5,0,0
394687,-71.4285714285714,3,2,1,75,0,0
396353,-62.5,3,2,1,75,0,0
396770,-62.5,3,2,1,5,0,0
396853,-142.857142857143,3,2,1,75,0,0
397520,-71.4285714285714,3,2,1,75,0,0
399353,-66.6666666666667,3,2,1,80,0,0
399603,-62.5,3,2,1,5,0,0
399687,-66.6666666666667,3,2,1,80,0,0
400603,-62.5,3,2,1,5,0,0
400687,-66.6666666666667,3,2,1,80,0,0
402520,-62.5,3,2,1,5,0,0
402687,-66.6666666666667,3,2,1,80,0,0
404020,-83.3333333333333,3,2,1,80,0,0
404353,-52.6315789473684,3,2,1,80,0,0
405020,-142.857142857143,3,2,1,75,0,0
405353,-66.6666666666667,3,2,1,75,0,0
406770,-62.5,3,2,1,5,0,0
406853,-66.6666666666667,3,2,1,75,0,0
407103,-62.5,3,2,1,5,0,0
407187,-66.6666666666667,3,2,1,75,0,0
407603,-62.5,3,2,1,5,0,0
407687,-66.6666666666667,3,2,1,75,0,0
408603,-62.5,3,2,1,5,0,0
408687,-66.6666666666667,3,2,1,75,0,0
410603,-62.5,3,2,1,5,0,0
410687,-66.6666666666667,3,2,1,75,0,0
412353,-58.8235294117647,3,2,1,75,0,0
413020,-71.4285714285714,3,2,1,75,0,0
413770,-71.4285714285714,3,2,1,5,0,0
413853,-71.4285714285714,3,2,1,75,0,0
415353,333.333333333333,4,2,1,60,1,0
416686,-333.333333333333,4,2,1,50,0,0
418019,-166.666666666667,4,2,1,50,0,0
418936,-166.666666666667,4,2,1,5,0,0
419019,-166.666666666667,4,2,1,50,0,0
419269,-166.666666666667,4,2,1,5,0,0
419353,-166.666666666667,4,2,1,50,0,0
419936,-166.666666666667,4,2,1,5,0,0
420019,-166.666666666667,4,2,1,50,0,0
420269,-166.666666666667,4,2,1,5,0,0
420353,-333.333333333333,4,2,1,50,0,0
428519,-333.333333333333,4,2,3,30,0,0
430186,-333.333333333333,4,2,3,5,0,0

[Colours]
Combo1 : 0,135,200
Combo2 : 192,192,192
Combo3 : 169,84,84

[HitObjects]
32,64,22524,6,0,P|94:50|143:104,1,135,6|0,3:2|0:0,0:0:0:0:
197,154,22857,2,0,P|223:153|260:134,1,45,2|0,3:2|0:0,0:0:0:0:
327,190,23024,2,0,P|344:170|357:131,1,45,2|0,0:0|0:0,0:0:0:0:
444,123,23190,2,0,P|443:97|423:60,1,45,10|0,0:0|0:0,0:0:0:0:
266,46,23357,2,0,B|229:41|202:18|202:18|219:49|214:88,1,135,0|0,3:2|0:0,0:0:0:0:
240,146,23690,6,0,P|219:153|197:154,1,45,2|0,3:2|0:0,0:0:0:0:
353,154,23857,2,0,P|342:173|327:190,1,45,2|0,3:2|0:0,0:0:0:0:
436,79,24023,2,0,P|443:100|444:123,1,45,2|0,0:0|0:0,0:0:0:0:
413,309,24190,2,0,B|441:259|496:288|496:288|491:322|466:329,1,135,0|0,3:2|0:0,0:0:0:0:
432,384,24524,2,0,L|334:368,1,90,12|0,0:0|3:2,0:0:0:0:
224,292,24857,2,0,L|321:276,1,90,2|0,0:0|3:2,0:0:0:0:
184,384,25190,6,0,P|143:339|59:347,1,135,2|0,3:2|0:0,0:0:0:0:
0,360,25524,2,0,L|8:304,1,45,2|0,3:2|0:0,0:0:0:0:
146,214,25690,2,0,L|154:269,1,45,2|0,0:0|0:0,0:0:0:0:
317,348,25857,2,0,B|359:353|383:298|383:298|386:305|386:305|397:234|472:228|503:285|487:323|449:329,1,270.000010299683,14|0,0:0|0:0,0:0:0:0:
313,278,26357,2,0,L|321:222,1,45,2|0,3:2|0:0,0:0:0:0:
362,12,26524,5,6,3:2:0:0:
491,155,26690,1,10,0:0:0:0:
242,233,26857,1,10,0:0:0:0:
282,161,27024,1,2,3:2:0:0:
470,319,27190,5,10,0:0:0:0:
320,233,27357,1,10,0:0:0:0:
80,383,27524,1,8,0:3:0:0:
3,344,27691,1,8,0:3:0:0:
186,328,27857,6,0,P|145:279|67:298,1,135,6|0,3:2|0:0,0:0:0:0:
80,383,28190,2,0,P|102:370|118:342,1,45,6|0,3:2|0:0,0:0:0:0:
208,204,28357,2,0,P|230:217|246:245,1,45,2|0,0:0|0:0,0:0:0:0:
390,333,28524,2,0,B|416:300|472:313|472:313|471:320|471:320|530:224|449:158,1,270.000010299683,10|0,0:0|0:0,0:0:0:0:
208,204,29024,6,0,P|233:193|249:169,1,45,2|0,3:2|0:0,0:0:0:0:
80,100,29190,2,0,P|77:127|89:153,1,45,2|0,3:2|0:0,0:0:0:0:
234,41,29357,2,0,P|211:24|183:22,1,45,2|0,0:0|0:0,0:0:0:0:
169,120,29524,2,0,B|248:106|248:106|251:109|251:109|338:96,1,161.999995056153,0|0,3:2|0:0,0:0:0:0:
384,33,29857,6,0,L|329:24,1,45,14|0,0:0|0:0,0:0:0:0:
456,164,30024,2,0,L|510:155,1,45,2|0,3:2|0:0,0:0:0:0:
472,28,30190,2,0,L|463:84,1,45,2|0,0:0|0:0,0:0:0:0:
366,206,30357,2,0,L|357:149,1,45,2|0,3:2|0:0,0:0:0:0:
461,253,30524,6,0,B|450:318|450:318|454:322|454:322|442:394,1,135,2|0,3:2|0:0,0:0:0:0:
375,351,30857,2,0,P|333:327|287:347,1,90,10|0,0:0|0:0,0:0:0:0:
229,384,31107,1,2,0:0:0:0:
229,384,31190,2,0,L|220:328,1,45,6|0,0:0|0:0,0:0:0:0:
201,150,31357,1,2,3:2:0:0:
201,150,31440,1,0,3:2:0:0:
201,150,31524,1,8,0:0:0:0:
125,282,31690,6,0,P|149:279|174:256,1,45,2|0,3:2|0:0,0:0:0:0:
49,150,31857,2,0,P|39:172|47:205,1,45,6|0,0:0|0:0,0:0:0:0:
201,150,32024,1,8,0:0:0:0:
0,10,32190,1,10,0:0:0:0:
29,80,32357,1,2,3:2:0:0:
207,35,32524,1,12,0:0:0:0:
125,21,32690,1,2,3:2:0:0:
201,150,32857,1,14,0:0:0:0:
245,142,32940,1,8,0:0:0:0:
289,135,33023,1,10,0:0:0:0:
334,128,33107,1,8,0:0:0:0:
378,121,33190,6,0,B|349:108|349:108|279:118,1,90,4|0,3:2|0:0,0:0:0:0:
198,230,33524,2,0,L|273:217,1,45,10|0,0:0|0:0,0:0:0:0:
323,314,33690,2,0,L|366:251,1,45,2|0,3:2|0:0,0:0:0:0:
470,285,33857,2,0,L|457:209,1,45,2|0,0:0|0:0,0:0:0:0:
445,45,34024,2,0,B|481:39|504:22|504:22|489:43|484:61,1,107.999996704102,0|8,3:2|0:0,0:0:0:0:
378,121,34357,6,0,L|316:111,1,45,2|0,3:2|0:0,0:0:0:0:
155,151,34524,2,0,P|173:143|191:111,1,45,2|0,3:2|0:0,0:0:0:0:
142,14,34690,2,0,P|126:2|89:2,1,45,2|0,3:2|0:0,0:0:0:0:
30,94,34857,2,0,L|47:207,1,90,8|0,0:0|3:2,0:0:0:0:
103,332,35190,2,0,L|11:312,1,90,2|0,3:2|3:2,0:0:0:0:
264,366,35524,2,0,L|172:385,1,90,10|0,0:0|3:2,0:0:0:0:
410,341,35857,6,0,B|382:280|310:302|310:302|333:319|336:348,1,161.999995056153,6|0,3:2|0:0,0:0:0:0:
493,376,36190,2,0,L|483:315,1,45,10|0,0:0|0:0,0:0:0:0:
463,168,36357,2,0,L|453:107,1,45,2|0,3:2|0:0,0:0:0:0:
376,269,36524,2,0,L|482:252,1,90,2|0,3:2|3:2,0:0:0:0:
318,143,36857,1,8,0:0:0:0:
334,336,37024,6,0,L|274:326,1,45,2|0,3:2|0:0,0:0:0:0:
176,384,37190,2,0,L|140:335,1,45,2|8,0:0|0:0,0:0:0:0:
30,306,37357,2,0,L|39:246,1,45,2|0,3:2|0:0,0:0:0:0:
64,103,37524,1,8,0:0:0:0:
210,227,37690,1,2,3:2:0:0:
16,384,37857,5,8,3:2:0:0:
50,186,38024,1,8,0:0:0:0:
224,309,38190,1,10,3:2:0:0:
196,150,38357,1,10,0:0:0:0:
30,306,38524,5,4,3:2:0:0:
52,302,38607,1,0,3:2:0:0:
74,298,38690,1,0,3:2:0:0:
210,227,38857,2,0,L|150:217,1,45,2|0,3:2|0:0,0:0:0:0:
324,186,39024,2,0,L|288:137,1,45,2|8,3:2|0:0,0:0:0:0:
433,237,39190,2,0,L|442:177,1,45,2|0,3:2|0:0,0:0:0:0:
474,350,39357,1,0,3:2:0:0:
385,122,39524,1,8,0:0:0:0:
313,335,39690,6,0,L|365:326,1,45,2|0,3:2|0:0,0:0:0:0:
477,244,39857,2,0,L|424:235,1,45,2|0,3:2|0:0,0:0:0:0:
297,149,40024,2,0,L|254:180,1,45,2|0,3:2|0:0,0:0:0:0:
95,293,40190,2,0,B|71:253|30:229|30:229|65:246|99:240,1,161.999995056153,8|0,0:0|0:0,0:0:0:0:
166,220,40524,6,0,L|158:170,1,45,2|0,3:2|0:0,0:0:0:0:
99,28,40690,2,0,L|91:77,1,45,2|0,3:2|0:0,0:0:0:0:
32,156,40857,2,0,L|89:146,1,45,10|0,0:0|0:0,0:0:0:0:
217,100,41024,2,0,L|159:90,1,45,2|0,3:2|0:0,0:0:0:0:
261,175,41190,6,0,L|383:155,1,107.999996704102,6|0,3:2|3:2,0:0:0:0:
477,244,41524,2,0,L|423:235,1,45,10|0,0:0|0:0,0:0:0:0:
317,95,41690,2,0,L|370:86,1,45,2|0,3:2|0:0,0:0:0:0:
512,23,41857,2,0,L|494:133,1,90,2|0,3:2|3:2,0:0:0:0:
460,350,42190,1,8,0:0:0:0:
336,251,42357,6,0,P|349:274|345:311,1,45,2|0,3:2|0:0,0:0:0:0:
175,372,42524,2,0,P|200:306|288:299,1,161.999995056153,2|0,3:2|0:0,0:0:0:0:
292,368,42857,2,0,P|265:367|235:346,1,45,14|0,0:0|0:0,0:0:0:0:
122,259,43024,2,0,B|76:252|35:221|35:221|70:251|60:281,1,161.999995056153,2|0,3:2|0:0,0:0:0:0:
61,278,43357,2,2,L|78:164,1,90,2|14,3:2|3:2,3:2:0:0:
105,0,43690,1,2,3:2:0:0:
159,180,43857,5,6,3:2:0:0:
190,148,43940,1,0,3:2:0:0:
233,136,44023,1,0,3:2:0:0:
276,147,44107,1,0,3:2:0:0:
308,177,44190,1,14,3:2:0:0:
276,208,44274,1,0,3:2:0:0:
233,220,44357,1,0,3:2:0:0:
190,209,44441,1,0,3:2:0:0:
159,180,44524,5,6,3:2:0:0:
190,148,44607,1,0,3:2:0:0:
233,136,44690,1,0,3:2:0:0:
276,147,44774,1,0,3:2:0:0:
308,177,44857,1,12,3:2:0:0:
340,207,44940,1,0,3:2:0:0:
383,218,45024,1,0,3:2:0:0:
426,206,45107,1,0,3:2:0:0:
458,175,45190,5,6,3:2:0:0:
412,167,45274,1,0,3:2:0:0:
366,160,45357,1,0,3:2:0:0:
320,153,45441,1,0,3:2:0:0:
306,112,45524,5,14,3:2:0:0:
276,147,45608,1,0,3:2:0:0:
247,184,45691,1,0,3:2:0:0:
217,220,45775,1,0,3:2:0:0:
175,212,45856,5,6,3:2:0:0:
190,255,45940,1,0,3:2:0:0:
208,299,46023,1,0,3:2:0:0:
224,343,46107,1,0,3:2:0:0:
196,375,46190,6,0,L|321:348,1,107.999996704102,10|0,3:2|0:0,0:0:0:0:
495,301,46524,5,6,3:2:0:0:
482,258,46607,1,0,3:2:0:0:
452,225,46690,1,0,3:2:0:0:
409,211,46774,1,0,3:2:0:0:
378,176,46857,1,14,3:2:0:0:
365,218,46940,1,0,3:2:0:0:
335,251,47023,1,0,3:2:0:0:
292,265,47107,1,0,3:2:0:0:
261,301,47191,5,6,3:2:0:0:
248,259,47274,1,0,3:2:0:0:
218,226,47357,1,0,3:2:0:0:
175,212,47441,1,0,3:2:0:0:
144,176,47524,1,14,3:2:0:0:
131,218,47607,1,0,3:2:0:0:
101,251,47690,1,0,3:2:0:0:
58,265,47774,1,0,3:2:0:0:
7,303,47857,5,6,3:2:0:0:
14,258,47940,1,0,3:2:0:0:
21,214,48023,1,0,3:2:0:0:
28,169,48107,1,0,3:2:0:0:
35,125,48190,1,14,3:2:0:0:
70,152,48274,1,0,3:2:0:0:
112,136,48357,1,0,3:2:0:0:
154,120,48441,1,0,3:2:0:0:
196,105,48524,5,6,3:2:0:0:
190,148,48607,1,0,3:2:0:0:
225,176,48690,1,0,3:2:0:0:
259,204,48774,1,0,3:2:0:0:
293,233,48857,1,14,3:2:0:0:
253,249,48940,1,0,3:2:0:0:
246,294,49023,1,0,3:2:0:0:
239,337,49107,1,0,3:2:0:0:
231,381,49190,5,14,3:2:0:0:
273,366,49274,1,0,3:2:0:0:
315,351,49357,1,0,3:2:0:0:
357,336,49440,1,0,3:2:0:0:
391,365,49523,1,14,3:2:0:0:
399,321,49607,1,0,3:2:0:0:
407,277,49690,1,0,3:2:0:0:
415,233,49773,1,0,3:2:0:0:
457,218,49857,5,6,3:2:0:0:
423,189,49940,1,0,3:2:0:0:
388,160,50023,1,0,3:2:0:0:
354,131,50106,1,0,3:2:0:0:
362,87,50190,1,14,3:2:0:0:
320,102,50274,1,0,3:2:0:0:
277,118,50357,1,0,3:2:0:0:
235,133,50440,1,0,3:2:0:0:
201,103,50523,5,6,3:2:0:0:
193,147,50607,1,0,3:2:0:0:
163,180,50690,1,0,3:2:0:0:
118,187,50774,1,0,3:2:0:0:
69,213,50856,1,14,3:2:0:0:
77,169,50940,1,0,3:2:0:0:
107,136,51023,1,0,3:2:0:0:
152,129,51107,1,0,3:2:0:0:
193,147,51190,6,0,L|184:203,1,45,6|0,3:2|3:2,3:2:0:0:
142,366,51357,1,0,3:2:0:0:
142,366,51440,1,0,3:2:0:0:
142,366,51524,2,0,B|196:357|196:357|199:360|199:360|276:348,1,107.999996704102,14|0,3:2|0:0,0:0:0:0:
470,324,51857,5,8,0:3:0:0:
406,286,51968,1,8,0:3:0:0:
400,212,52079,1,8,0:3:0:0:
479,162,52190,5,8,3:3:0:0:
511,113,52302,1,8,3:3:0:0:
505,56,52413,1,8,3:3:0:0:
432,15,52524,5,8,0:3:0:0:
388,22,52635,1,8,0:3:0:0:
366,58,52746,1,8,0:3:0:0:
377,139,52857,6,0,P|413:128|425:107,1,53.9999983520508,8|0,3:3|3:0,0:0:0:0:
436,93,53107,1,0,3:2:0:0:
436,93,53190,5,10,0:0:0:0:
302,1,53357,1,0,3:2:0:0:
139,113,53524,1,2,3:2:0:0:
302,191,53690,2,0,B|281:64,1,107.999996704102,6|0,0:0|3:2,0:0:0:0:
97,12,54024,1,10,0:0:0:0:
57,245,54190,1,8,0:0:0:0:
44,324,54357,1,2,3:2:0:0:
58,71,54524,5,6,3:3:0:0:
68,95,54607,1,2,3:3:0:0:
78,120,54690,1,2,3:3:0:0:
88,145,54774,1,2,3:3:0:0:
108,195,54857,1,2,3:3:0:0:
108,195,55190,5,8,0:0:0:0:
247,46,55357,1,2,3:3:0:0:
167,29,55524,1,2,0:3:0:0:
293,216,55690,2,0,L|406:191,1,107.999996704102,2|0,3:3|3:2,0:0:0:0:
188,111,56024,5,2,0:3:0:0:
337,89,56190,1,2,3:3:0:0:
337,89,56273,1,2,0:3:0:0:
337,89,56357,1,2,0:3:0:0:
247,44,56524,1,12,0:0:0:0:
293,216,56690,1,2,3:3:0:0:
328,208,56773,1,2,0:3:0:0:
363,200,56856,1,2,0:3:0:0:
398,193,56940,1,2,0:3:0:0:
433,185,57023,1,2,3:3:0:0:
468,177,57106,1,2,0:3:0:0:
448,135,57190,5,2,3:3:0:0:
440,159,57273,1,2,3:3:0:0:
433,185,57356,1,2,3:3:0:0:
425,211,57440,1,2,3:3:0:0:
411,263,57523,1,2,3:3:0:0:
411,263,57857,5,12,0:0:0:0:
271,140,58024,1,2,3:3:0:0:
271,140,58107,1,2,0:3:0:0:
271,140,58190,1,2,0:3:0:0:
315,296,58357,2,0,L|188:269,1,107.999996704102,6|0,3:3|3:0,0:0:0:0:
23,240,58690,5,8,0:0:0:0:
195,111,58857,1,8,0:0:0:0:
113,85,59024,1,0,3:2:0:0:
141,290,59190,1,8,0:0:0:0:
171,201,59357,1,0,3:3:0:0:
30,53,59524,1,8,3:3:0:0:
41,139,59690,1,8,3:3:0:0:
180,28,59857,5,6,3:3:0:0:
180,28,59940,1,2,0:3:0:0:
180,28,60024,1,2,0:3:0:0:
271,140,60190,2,0,L|388:114,1,107.999996704102,6|0,3:0|0:0,0:0:0:0:
301,43,60524,1,8,0:0:0:0:
244,232,60690,1,0,3:0:0:0:
427,180,60857,1,2,0:3:0:0:
271,140,61024,2,0,L|388:114,1,107.999996704102,2|0,3:0|3:2,0:0:0:0:
512,88,61357,5,2,0:3:0:0:
392,32,61524,1,2,3:3:0:0:
395,20,61607,1,2,0:3:0:0:
398,8,61690,1,2,0:3:0:0:
511,191,61857,5,12,0:0:0:0:
496,228,61940,1,2,0:3:0:0:
465,254,62023,1,2,3:3:0:0:
426,263,62107,1,2,0:3:0:0:
388,252,62190,1,2,0:3:0:0:
358,225,62273,1,2,0:3:0:0:
345,187,62357,1,2,3:3:0:0:
352,147,62440,1,2,0:3:0:0:
376,115,62523,5,2,3:3:0:0:
444,126,62607,2,0,B|457:96|484:85|484:85|453:93|426:81,1,107.999996704102,2|0,0:3|0:0,0:0:0:0:
382,18,62857,2,0,B|330:26|330:26|325:32|325:32|270:40,1,107.999996704102,8|2,0:0|0:3,0:0:0:0:
235,109,63107,1,0,3:3:0:0:
235,109,63190,2,0,L|164:98,1,53.9999983520508,6|0,0:3|0:0,0:0:0:0:
31,80,63357,1,0,3:0:0:0:
31,80,63440,1,0,3:0:0:0:
31,80,63524,1,8,0:0:0:0:
85,205,63690,1,0,3:0:0:0:
106,95,63857,5,4,3:2:0:0:
258,271,64024,1,8,0:0:0:0:
213,31,64190,1,8,0:0:0:0:
186,171,64357,1,2,3:2:0:0:
342,125,64524,2,0,L|226:106,1,107.999996704102,14|0,0:0|3:2,0:0:0:0:
378,1,64857,1,8,0:0:0:0:
392,38,64940,1,8,0:0:0:0:
424,62,65023,1,8,0:0:0:0:
464,65,65107,1,8,0:0:0:0:
499,46,65190,5,2,3:0:0:0:
495,64,65274,1,2,3:3:0:0:
490,81,65357,1,2,3:0:0:0:
454,231,65524,1,8,0:0:0:0:
342,125,65690,1,0,3:2:0:0:
349,132,66024,5,2,3:3:0:0:
349,132,66107,1,0,3:2:0:0:
349,132,66190,1,8,0:0:0:0:
421,302,66357,2,0,B|395:295|374:310|374:310|388:287|381:251,1,90,2|0,3:0|0:0,0:0:0:0:
420,384,66690,5,2,3:3:0:0:
454,231,66857,1,8,3:2:0:0:
458,213,66940,1,2,0:3:0:0:
463,196,67024,1,2,0:3:0:0:
290,270,67190,5,2,3:3:0:0:
277,300,67273,1,2,0:3:0:0:
251,321,67357,1,2,3:3:0:0:
218,327,67439,1,2,0:3:0:0:
187,316,67524,1,8,0:0:0:0:
164,291,67606,1,2,0:3:0:0:
157,258,67690,1,2,3:3:0:0:
167,226,67773,1,2,0:3:0:0:
191,203,67856,5,4,3:2:0:0:
206,215,67940,1,2,0:3:0:0:
220,226,68024,1,2,3:3:0:0:
97,128,68190,1,8,0:0:0:0:
73,283,68357,1,0,3:2:0:0:
73,283,68690,5,2,3:0:0:0:
76,264,68773,1,2,3:0:0:0:
80,247,68857,1,8,0:0:0:0:
81,56,69024,2,0,B|47:57|14:38|14:38|33:69|28:106,1,135,2|0,3:3|0:0,0:0:0:0:
97,128,69357,5,2,3:3:0:0:
266,50,69524,1,8,0:0:0:0:
232,119,69690,1,2,3:0:0:0:
154,75,69857,1,2,3:3:0:0:
152,60,69940,1,2,0:3:0:0:
150,45,70024,1,2,3:3:0:0:
307,147,70190,1,8,0:0:0:0:
309,132,70273,1,2,0:3:0:0:
311,117,70357,1,2,3:3:0:0:
154,219,70524,5,4,3:2:0:0:
152,204,70607,1,2,0:3:0:0:
150,189,70691,1,2,3:0:0:0:
167,334,70857,1,8,0:0:0:0:
352,268,71024,1,2,3:0:0:0:
352,268,71357,5,2,3:0:0:0:
338,266,71440,1,2,3:0:0:0:
324,264,71523,1,8,0:0:0:0:
491,208,71690,1,2,3:0:0:0:
491,208,72024,5,2,3:0:0:0:
477,210,72107,1,2,3:0:0:0:
463,212,72190,1,8,0:0:0:0:
460,337,72357,1,2,3:0:0:0:
270,320,72524,5,2,3:3:0:0:
249,293,72607,1,2,0:3:0:0:
243,260,72690,1,2,3:3:0:0:
252,228,72773,1,2,0:3:0:0:
275,204,72857,1,8,0:0:0:0:
297,179,72941,1,2,0:3:0:0:
307,147,73024,1,2,3:3:0:0:
301,114,73107,1,2,0:3:0:0:
280,88,73190,5,4,3:2:0:0:
266,93,73274,1,2,0:3:0:0:
252,98,73357,1,2,3:3:0:0:
376,123,73524,1,8,0:0:0:0:
152,78,73690,1,2,3:0:0:0:
303,19,73857,2,0,B|338:15|364:-8|364:-8|343:20|351:64,1,135,2|0,3:0|0:0,0:0:0:0:
280,88,74190,1,8,0:0:0:0:
109,17,74357,1,2,3:0:0:0:
140,126,74524,5,2,0:3:0:0:
146,102,74607,1,2,0:3:0:0:
152,78,74690,1,2,3:0:0:0:
0,0,74857,1,8,0:0:0:0:
57,205,75024,1,2,3:3:0:0:
152,78,75190,5,8,0:0:0:0:
200,68,75274,1,8,0:0:0:0:
246,88,75357,1,0,3:0:0:0:
270,127,75440,1,0,3:0:0:0:
298,155,75524,1,0,3:0:0:0:
334,172,75607,1,0,3:0:0:0:
366,173,75690,1,0,3:0:0:0:
391,165,75774,1,0,3:0:0:0:
402,153,75857,5,6,3:3:0:0:
387,138,75940,1,2,0:3:0:0:
366,139,76024,1,2,3:3:0:0:
441,267,76190,1,8,0:0:0:0:
500,78,76357,1,2,3:0:0:0:
500,78,76690,5,2,3:0:0:0:
506,59,76774,1,0,3:0:0:0:
512,39,76857,1,8,0:0:0:0:
470,171,77024,1,2,3:0:0:0:
470,171,77357,5,2,3:3:0:0:
436,165,77440,1,2,3:3:0:0:
403,160,77523,1,8,0:0:0:0:
369,155,77606,1,2,0:3:0:0:
336,149,77690,1,2,3:3:0:0:
174,121,77857,5,2,3:3:0:0:
207,116,77940,1,2,0:3:0:0:
232,95,78023,1,2,3:3:0:0:
242,63,78106,1,2,0:3:0:0:
234,31,78190,1,8,0:0:0:0:
210,8,78273,1,2,0:3:0:0:
178,1,78356,1,2,3:3:0:0:
146,13,78440,1,2,0:3:0:0:
126,39,78523,5,4,3:2:0:0:
105,34,78607,1,2,0:3:0:0:
84,29,78690,1,2,3:0:0:0:
0,163,78857,1,8,0:0:0:0:
174,121,79024,1,0,3:0:0:0:
174,121,79357,5,2,3:3:0:0:
195,116,79441,1,2,0:3:0:0:
216,111,79524,1,8,0:0:0:0:
128,202,79690,2,0,B|87:186|71:140|71:140|81:174|63:200,1,135,2|0,3:3|0:0,0:0:0:0:
14,240,80024,5,2,3:0:0:0:
203,185,80190,1,8,0:0:0:0:
0,163,80357,1,2,3:0:0:0:
28,317,80524,1,2,3:3:0:0:
48,309,80607,1,2,0:3:0:0:
68,301,80690,1,2,3:3:0:0:
181,384,80857,1,8,0:0:0:0:
161,376,80940,1,2,0:3:0:0:
141,368,81023,1,2,3:3:0:0:
269,324,81190,5,6,3:0:0:0:
289,316,81273,1,2,0:3:0:0:
309,308,81356,1,2,3:0:0:0:
178,283,81524,1,8,0:0:0:0:
400,349,81690,1,0,3:0:0:0:
400,349,82024,5,2,3:0:0:0:
395,327,82107,1,0,3:0:0:0:
390,306,82190,1,8,0:0:0:0:
357,132,82357,1,2,3:0:0:0:
357,132,82690,5,2,3:3:0:0:
352,154,82773,1,2,3:3:0:0:
347,175,82856,1,8,0:0:0:0:
342,197,82941,1,2,0:3:0:0:
337,218,83024,1,2,3:3:0:0:
411,77,83189,5,2,3:3:0:0:
383,57,83273,1,2,0:3:0:0:
350,52,83357,1,2,3:3:0:0:
319,62,83439,1,2,0:3:0:0:
295,85,83523,1,8,0:0:0:0:
271,108,83608,1,2,0:3:0:0:
240,118,83690,1,2,3:3:0:0:
207,113,83774,1,2,0:3:0:0:
180,94,83857,5,2,3:0:0:0:
196,80,83940,1,2,3:0:0:0:
217,76,84024,1,2,3:0:0:0:
154,221,84190,1,8,0:0:0:0:
98,26,84357,1,2,3:0:0:0:
26,187,84524,2,0,B|53:126|117:156|117:156|88:172|86:205,1,161.999995056153,4|0,3:2|0:0,0:0:0:0:
154,221,84857,2,0,L|173:97,1,107.999996704102,8|0,0:0|0:0,0:0:0:0:
0,19,85190,5,2,3:0:0:0:
4,44,85274,1,2,3:0:0:0:
8,69,85357,1,2,3:0:0:0:
26,187,85524,1,0,0:0:0:0:
183,36,85690,1,2,0:3:0:0:
324,197,85857,5,8,0:0:0:0:
369,206,85940,1,8,0:0:0:0:
412,189,86023,1,8,0:0:0:0:
439,151,86106,1,8,0:0:0:0:
441,105,86190,1,8,0:0:0:0:
416,65,86273,1,8,0:0:0:0:
374,46,86356,1,8,3:2:0:0:
328,53,86440,1,8,3:2:0:0:
294,84,86523,5,6,3:3:0:0:
291,70,86607,1,2,0:3:0:0:
287,56,86690,1,2,3:3:0:0:
324,197,86857,1,8,0:0:0:0:
327,183,86941,1,2,0:3:0:0:
331,169,87024,1,2,3:3:0:0:
277,318,87190,1,2,3:3:0:0:
274,304,87274,1,2,0:3:0:0:
270,290,87357,1,2,3:3:0:0:
267,276,87440,1,2,0:3:0:0:
263,262,87524,2,0,P|289:259|321:283,1,45,8|0,0:0|0:0,0:0:0:0:
443,375,87690,2,0,B|456:350|485:327|485:327|456:344|424:334,1,107.999996704102,2|2,3:0|3:0,0:0:0:0:
294,384,88024,5,2,3:0:0:0:
447,267,88190,1,8,0:0:0:0:
443,375,88357,1,2,3:0:0:0:
263,262,88525,5,2,3:3:0:0:
293,276,88608,1,2,0:3:0:0:
326,274,88691,1,2,3:3:0:0:
355,257,88774,1,2,0:3:0:0:
372,228,88858,1,8,0:0:0:0:
390,199,88941,1,2,0:3:0:0:
418,181,89024,1,2,3:3:0:0:
451,177,89107,1,2,0:3:0:0:
483,188,89190,5,2,3:3:0:0:
480,174,89274,1,2,0:3:0:0:
477,160,89357,1,2,3:3:0:0:
364,33,89524,1,8,0:0:0:0:
361,47,89608,1,2,0:3:0:0:
358,61,89691,1,2,3:3:0:0:
504,22,89857,1,2,3:0:0:0:
477,160,90024,1,2,3:0:0:0:
443,83,90190,1,8,0:0:0:0:
263,172,90357,2,0,L|376:154,1,107.999996704102,2|0,0:3|3:0,0:0:0:0:
394,153,90607,5,8,0:0:0:0:
394,153,90690,1,0,3:0:0:0:
270,25,90857,1,2,0:3:0:0:
187,187,91024,1,2,3:0:0:0:
153,59,91190,1,8,0:0:0:0:
179,63,91273,1,2,3:0:0:0:
206,67,91356,1,2,3:0:0:0:
67,89,91524,5,8,0:0:0:0:
101,83,91607,1,8,0:0:0:0:
136,78,91691,1,0,3:0:0:0:
170,72,91774,1,0,3:0:0:0:
206,67,91857,5,6,3:0:0:0:
87,10,92024,1,2,3:0:0:0:
113,156,92190,1,8,0:0:0:0:
214,30,92357,1,0,3:0:0:0:
210,48,92440,1,8,0:0:0:0:
206,67,92524,1,2,3:0:0:0:
187,187,92690,1,2,3:0:0:0:
1,72,92857,2,0,L|9:125,1,53.9999983520508,8|0,0:0|0:0,0:0:0:0:
39,277,93024,2,0,B|64:265|89:237|89:237|70:265|78:298,1,107.999996704102,2|2,3:0|3:0,0:0:0:0:
27,384,93357,5,2,3:0:0:0:
210,330,93524,1,8,0:0:0:0:
151,277,93690,1,2,3:0:0:0:
267,384,93857,5,2,3:3:0:0:
294,378,93940,1,2,0:3:0:0:
322,374,94023,1,2,3:3:0:0:
350,370,94106,1,2,0:3:0:0:
378,366,94190,1,8,0:0:0:0:
406,360,94273,1,2,0:3:0:0:
434,356,94356,1,2,3:3:0:0:
462,352,94440,1,2,0:3:0:0:
490,348,94524,5,2,3:3:0:0:
481,331,94607,1,2,0:3:0:0:
472,314,94690,1,2,3:3:0:0:
414,172,94857,1,8,0:0:0:0:
322,374,95024,1,2,3:0:0:0:
293,191,95190,2,0,L|312:313,1,107.999996704102,2|0,3:0|3:0,0:0:0:0:
337,73,95524,1,8,0:0:0:0:
214,186,95690,5,2,3:3:0:0:
218,159,95773,1,2,0:3:0:0:
231,136,95856,1,2,3:3:0:0:
253,120,95939,1,2,0:3:0:0:
279,113,96023,1,2,3:3:0:0:
414,172,96190,1,12,0:0:0:0:
475,53,96357,1,2,3:0:0:0:
337,73,96524,6,0,L|395:63,1,53.9999983520508,2|0,3:0|0:0,0:0:0:0:
475,53,96690,1,2,3:0:0:0:
275,42,96857,2,0,L|216:32,1,53.9999983520508,12|0,0:0|0:0,0:0:0:0:
137,22,97023,1,2,3:0:0:0:
174,147,97190,6,0,B|148:107|105:93|105:93|132:82|154:53,1,143.999995605469,2|0,3:0|3:0,0:0:0:0:
137,22,97524,2,0,B|104:81|46:70|46:70|71:48|67:9,1,143.999995605469,8|2,0:0|3:0,0:0:0:0:
0,16,97857,1,2,0:3:0:0:
29,171,98024,6,0,L|22:131,1,35.9999989013672,2|0,0:3|3:0,0:0:0:0:
91,221,98190,2,0,B|68:244|61:267|61:267|43:252|5:246,1,107.999996704102,8|0,0:0|0:0,0:0:0:0:
194,264,98524,5,2,0:3:0:0:
178,154,98690,2,0,L|136:160,1,35.9999989013672,2|0,0:3|3:0,0:0:0:0:
29,171,98857,1,8,0:0:0:0:
102,308,99024,1,2,0:3:0:0:
272,166,99191,5,2,3:3:0:0:
301,182,99273,1,2,0:3:0:0:
319,210,99356,1,2,0:3:0:0:
321,243,99440,1,2,3:3:0:0:
307,274,99523,1,8,0:0:0:0:
281,294,99606,1,2,3:3:0:0:
248,299,99689,1,2,0:3:0:0:
216,289,99773,1,2,0:3:0:0:
194,264,99856,5,6,3:3:0:0:
191,245,99940,1,2,0:3:0:0:
188,226,100024,2,0,L|182:180,1,35.9999989013672,2|0,0:3|3:0,0:0:0:0:
102,308,100190,1,8,0:0:0:0:
98,327,100274,1,2,3:0:0:0:
95,346,100357,1,2,0:3:0:0:
35,188,100524,1,2,0:3:0:0:
183,190,100690,6,0,L|177:144,1,35.9999989013672,2|0,0:3|3:0,0:0:0:0:
175,62,100857,1,8,0:0:0:0:
35,188,101024,2,0,L|41:142,1,35.9999989013672,2|0,0:3|3:0,0:0:0:0:
107,40,101190,6,0,P|69:3|13:15,1,107.999996704102,2|0,0:3|0:0,0:0:0:0:
18,10,101413,2,0,L|31:90,1,71.9999978027344,0|8,3:0|0:0,0:0:0:0:
56,262,101690,1,2,0:3:0:0:
190,152,101856,1,2,3:0:0:0:
186,171,101940,1,2,0:3:0:0:
183,190,102024,2,0,L|176:227,1,35.9999989013672,2|0,0:3|3:0,0:0:0:0:
374,214,102190,1,8,0:0:0:0:
370,195,102274,1,2,3:3:0:0:
367,176,102358,1,2,0:3:0:0:
309,341,102524,6,0,P|342:296|429:306,1,143.999995605469,4|0,0:0|3:0,0:0:0:0:
478,347,102857,2,0,L|459:231,1,107.999996704102,8|0,0:0|0:0,0:0:0:0:
433,78,103190,2,0,B|454:91|470:115|470:115|466:93|480:68,1,71.9999978027344,2|0,0:3|3:0,0:0:0:0:
473,87,103357,1,2,0:3:0:0:
303,17,103524,2,0,B|274:34|247:30|247:30|268:50|272:99,1,107.999996704102,8|2,0:0|0:3,0:0:0:0:
259,113,103746,6,0,B|300:194|383:135|383:135|349:104|363:58,1,215.999993408203,2|2,0:3|3:3,0:0:0:0:
487,14,104190,1,8,0:0:0:0:
460,240,104357,1,2,0:3:0:0:
359,76,104524,1,2,3:3:0:0:
356,114,104607,1,2,0:3:0:0:
326,135,104690,1,2,0:3:0:0:
288,136,104774,1,2,3:3:0:0:
259,113,104857,1,8,0:0:0:0:
230,90,104940,1,2,3:3:0:0:
192,91,105024,1,2,0:3:0:0:
162,112,105107,1,2,0:3:0:0:
159,150,105190,6,0,B|119:159|96:190|96:190|116:162|109:111,1,143.999995605469,2|0,3:0|3:0,0:0:0:0:
17,102,105524,5,8,0:0:0:0:
0,123,105635,2,0,B|12:134|12:158|12:158|28:140|57:134,1,71.9999978027344,2|0,3:0|0:0,0:0:0:0:
125,50,105857,5,4,3:0:0:0:
142,29,105968,2,0,B|130:18|130:-6|130:-6|114:12|85:18,1,71.9999978027344,0|0,3:0|0:0,0:0:0:0:
110,125,106190,2,0,B|101:178|101:178|103:183|103:183|94:240,1,107.999996704102,8|2,0:0|0:3,0:0:0:0:
94,256,106413,5,0,3:0:0:0:
50,312,106524,2,0,B|98:303|98:303|102:298|102:298|157:289,1,107.999996704102,8|0,0:0|0:0,0:0:0:0:
331,384,106857,2,0,B|282:375|282:375|278:370|278:370|223:361,1,107.999996704102,8|0,0:0|0:0,0:0:0:0:
440,316,107191,5,8,0:3:0:0:
476,253,107302,1,8,0:3:0:0:
440,191,107413,1,8,0:2:0:0:
368,191,107524,5,8,0:3:0:0:
332,253,107635,1,8,0:3:0:0:
368,316,107746,1,8,0:3:0:0:
422,222,107857,5,2,3:3:0:0:
432,206,107940,1,2,3:3:0:0:
440,191,108024,1,2,3:3:0:0:
368,316,108190,1,8,0:0:0:0:
288,182,108357,1,2,3:0:0:0:
196,323,108524,5,8,0:0:0:0:
207,307,108607,1,2,0:3:0:0:
218,291,108690,2,0,L|153:301,1,53.9999983520508,0|0,3:0|3:0,0:0:0:0:
39,211,108857,2,0,L|104:221,1,53.9999983520508,8|0,0:0|0:0,0:0:0:0:
79,345,109024,1,2,3:3:0:0:
176,160,109190,5,2,0:3:0:0:
169,143,109274,1,2,0:3:0:0:
162,126,109357,2,0,L|227:136,1,53.9999983520508,0|0,3:0|3:0,0:0:0:0:
309,79,109524,2,0,L|347:132,1,53.9999983520508,8|0,0:0|0:0,0:0:0:0:
422,222,109690,1,2,3:0:0:0:
473,46,109857,5,2,3:3:0:0:
468,72,109940,1,2,0:3:0:0:
464,99,110024,2,0,P|433:92|405:89,1,53.9999983520508,2|0,3:0|0:0,0:0:0:0:
307,4,110190,2,0,P|276:10|248:14,1,53.9999983520508,8|0,0:0|0:0,0:0:0:0:
92,108,110357,5,0,3:0:0:0:
123,132,110440,1,8,0:0:0:0:
162,126,110523,1,2,3:0:0:0:
186,95,110606,1,2,3:0:0:0:
180,56,110690,1,2,3:0:0:0:
64,179,110857,1,8,0:0:0:0:
16,16,111024,1,0,3:0:0:0:
180,56,111190,5,2,0:3:0:0:
186,95,111274,1,2,0:3:0:0:
162,126,111357,1,2,3:0:0:0:
123,132,111440,1,8,0:0:0:0:
92,108,111523,1,8,0:0:0:0:
119,271,111690,2,0,L|137:386,1,107.999996704102,2|0,3:0|0:0,0:0:0:0:
117,371,111940,1,2,0:3:0:0:
96,365,112024,5,2,3:3:0:0:
211,245,112190,1,8,0:0:0:0:
233,357,112357,1,2,3:0:0:0:
353,294,112524,1,2,3:3:0:0:
331,290,112607,1,2,0:3:0:0:
309,286,112690,1,2,3:3:0:0:
409,368,112857,1,8,0:0:0:0:
417,336,112940,1,2,0:3:0:0:
442,317,113023,1,2,3:0:0:0:
474,316,113106,1,2,0:3:0:0:
500,335,113191,5,2,3:3:0:0:
496,313,113274,1,2,0:3:0:0:
492,291,113357,1,2,0:3:0:0:
316,379,113524,1,8,0:0:0:0:
302,193,113690,1,2,3:0:0:0:
488,269,113857,5,2,0:3:0:0:
484,247,113940,1,2,0:3:0:0:
480,225,114024,2,0,L|469:157,1,53.9999983520508,2|2,3:0|3:0,0:0:0:0:
412,53,114190,2,0,L|401:121,1,53.9999983520508,8|2,0:0|0:3,0:0:0:0:
302,193,114357,2,0,L|291:125,1,53.9999983520508,2|0,3:0|0:0,0:0:0:0:
197,13,114524,5,2,0:3:0:0:
191,48,114607,1,2,0:3:0:0:
185,84,114690,1,0,3:0:0:0:
179,120,114773,1,0,3:0:0:0:
174,156,114857,1,8,0:0:0:0:
286,68,115024,1,2,3:0:0:0:
147,196,115191,5,2,3:3:0:0:
169,192,115274,1,2,0:3:0:0:
191,188,115357,1,2,3:3:0:0:
271,321,115524,1,12,0:0:0:0:
257,304,115607,1,2,0:3:0:0:
243,286,115690,1,2,3:3:0:0:
318,151,115857,5,6,3:3:0:0:
310,172,115940,1,2,0:3:0:0:
302,193,116023,1,2,3:3:0:0:
286,68,116190,1,8,0:0:0:0:
334,276,116357,1,2,3:0:0:0:
490,130,116524,5,2,0:3:0:0:
483,108,116607,1,2,0:3:0:0:
476,86,116690,2,0,L|409:96,1,53.9999983520508,2|0,3:0|0:0,0:0:0:0:
302,193,116857,2,0,L|235:183,1,53.9999983520508,12|0,0:0|0:0,0:0:0:0:
70,84,117024,2,0,B|115:41|115:41|234:59,1,161.999995056153,2|0,3:0|0:0,0:0:0:0:
286,68,117357,5,2,3:0:0:0:
174,223,117524,1,8,0:0:0:0:
139,118,117690,1,2,3:0:0:0:
20,214,117857,1,8,0:0:0:0:
46,209,117940,1,8,0:0:0:0:
73,205,118023,1,0,3:0:0:0:
206,327,118190,1,8,0:3:0:0:
190,324,118273,1,8,0:3:0:0:
174,321,118356,1,12,0:3:0:0:
24,313,118524,5,6,3:0:0:0:
28,335,118607,1,0,0:3:0:0:
32,357,118690,1,2,3:0:0:0:
174,223,118857,1,8,3:2:0:0:
138,384,119024,1,2,3:0:0:0:
280,305,119190,5,2,3:3:0:0:
254,309,119273,1,2,0:3:0:0:
227,313,119357,1,2,3:3:0:0:
201,317,119440,1,2,3:3:0:0:
174,321,119524,1,8,3:2:0:0:
400,344,119690,2,0,B|402:291|352:278|352:278|359:296|358:309,1,107.999996704102,2|0,3:0|3:0,0:0:0:0:
305,384,120024,5,2,3:0:0:0:
496,280,120190,1,8,0:0:0:0:
383,237,120357,2,0,L|403:366,1,107.999996704102,2|0,3:0|3:0,0:0:0:0:
477,165,120690,1,0,3:0:0:0:
311,11,120857,1,8,0:0:0:0:
295,117,121024,1,0,3:0:0:0:
477,165,121190,5,2,3:0:0:0:
472,138,121273,1,2,0:3:0:0:
467,112,121357,1,2,3:0:0:0:
279,223,121524,1,8,0:0:0:0:
394,74,121690,1,2,3:0:0:0:
242,127,121857,5,2,3:0:0:0:
269,122,121940,1,2,0:3:0:0:
295,117,122024,1,2,3:0:0:0:
157,28,122190,1,8,0:0:0:0:
67,212,122357,2,0,B|55:136|55:136|63:150|79:160,1,107.999996704102,2|2,3:0|3:0,0:0:0:0:
45,379,122690,5,0,3:0:0:0:
143,193,122857,1,8,0:0:0:0:
166,299,123024,1,0,3:0:0:0:
61,61,123190,5,8,0:0:0:0:
122,101,123302,1,8,0:0:0:0:
201,91,123413,1,8,0:0:0:0:
248,29,123524,5,0,3:0:0:0:
320,8,123635,1,0,3:0:0:0:
390,20,123746,5,8,0:3:0:0:
388,33,123802,5,8,0:3:0:0:
386,46,123857,6,0,L|368:158,1,107.999996704102,4|0,3:2|3:0,0:0:0:0:
330,358,124190,1,0,3:0:0:0:
251,193,124357,2,0,B|251:216|231:238|231:238|259:235|287:249,1,107.999996704102,12|0,3:2|3:0,0:0:0:0:
369,152,124690,1,0,3:2:0:0:
471,225,124857,2,0,B|462:246|474:274|474:274|448:262|417:267,1,107.999996704102,12|0,3:2|3:0,0:0:0:0:
369,152,125190,5,0,3:2:0:0:
330,358,125357,2,0,B|250:345|250:345|245:341|245:341|168:329,1,161.999995056153,8|0,0:0|0:0,0:0:0:0:
97,319,125690,1,0,3:0:0:0:
49,145,125857,2,0,B|26:107|-21:130|-21:130|2:144|8:162,1,107.999996704102,2|0,0:0|0:0,0:0:0:0:
32,226,126107,1,2,0:2:0:0:
32,226,126190,1,0,3:2:0:0:
251,193,126357,1,2,0:0:0:0:
140,78,126524,5,14,3:2:0:0:
300,265,126690,1,0,3:0:0:0:
337,184,126857,1,0,3:0:0:0:
154,173,127024,2,0,L|171:282,1,107.999996704102,14|0,0:0|3:0,0:0:0:0:
392,264,127357,1,0,3:0:0:0:
234,86,127524,2,0,L|251:195,1,107.999996704102,14|0,0:0|3:0,0:0:0:0:
277,384,127857,5,14,3:2:0:0:
512,214,128024,1,0,3:0:0:0:
300,265,128190,1,2,0:0:0:0:
342,339,128357,1,0,3:0:0:0:
511,347,128524,5,10,0:0:0:0:
251,193,128690,1,8,3:2:0:0:
481,31,128857,1,10,0:0:0:0:
342,339,129024,1,8,3:2:0:0:
448,124,129190,6,0,B|414:92|346:86|321:147|321:147|336:167|330:188,1,188.999994232178,6|0,3:2|0:0,0:0:0:0:
300,265,129523,1,2,3:2:0:0:
182,77,129690,1,2,3:2:0:0:
77,242,129856,2,0,B|116:244|135:266|135:266|132:236|151:202,1,125.999996154785,10|0,0:0|3:2,0:0:0:0:
0,81,130190,6,0,P|54:3|148:35,1,188.999994232178,14|0,0:0|0:0,0:0:0:0:
182,77,130523,1,2,3:2:0:0:
79,316,130690,1,2,3:2:0:0:
331,180,130856,2,0,B|272:171|272:171|268:168|268:168|201:159,1,125.999996154785,2|0,0:0|3:2,0:0:0:0:
259,353,131190,5,2,3:2:0:0:
458,191,131356,2,0,B|442:146|398:139|398:139|413:167|406:198,1,125.999996154785,8|0,0:0|3:0,0:0:0:0:
452,377,131690,1,2,3:2:0:0:
512,122,131856,1,2,0:0:0:0:
331,180,132023,1,2,3:2:0:0:
495,310,132190,6,0,B|446:278|393:320|393:320|368:370|317:366,1,188.999994232178,14|0,0:0|0:0,0:0:0:0:
259,353,132523,1,0,3:0:0:0:
297,266,132690,1,0,3:0:0:0:
78,298,132856,2,0,B|136:287|136:287|141:284|141:284|219:273,1,125.999996154785,10|0,0:0|3:2,0:0:0:0:
14,380,133190,5,6,3:2:0:0:
155,210,133356,1,8,3:2:0:0:
65,29,133523,1,2,3:2:0:0:
0,112,133690,1,0,3:2:0:0:
225,169,133856,2,0,B|257:125|180:83|157:136,1,125.999996154785,2|0,3:2|3:2,0:0:0:0:
260,369,134190,6,0,B|325:409|386:358|390:313|385:314|392:223|461:220|507:240|507:240|510:237|510:237|521:286|493:332|437:325,1,432,14|0,3:2|3:2,0:0:0:0:
221,275,134856,2,0,B|178:296|188:342|188:342|199:314|226:306,1,125.999996154785,2|0,0:0|3:2,0:0:0:0:
444,159,135190,5,6,3:2:0:0:
225,169,135356,2,0,B|182:148|192:102|192:102|203:130|230:138,1,125.999996154785,10|2,0:0|3:2,0:0:0:0:
301,305,135690,1,0,3:2:0:0:
121,224,135856,1,2,3:2:0:0:
49,363,136023,1,0,3:2:0:0:
221,275,136190,5,10,0:0:0:0:
0,104,136356,2,0,B|13:188|13:188|17:196|17:196|34:301,1,188.999994232178,8|0,0:0|0:0,0:0:0:0:
49,363,136690,1,0,3:0:0:0:
221,275,136856,2,0,L|234:210,1,62.9999980773926,4|0,0:0|0:0,0:0:0:0:
32,289,137023,1,0,3:0:0:0:
276,384,137190,6,0,P|362:324|458:346,1,188.999994232178,6|0,3:2|0:0,0:0:0:0:
505,375,137523,1,2,3:2:0:0:
325,198,137690,1,2,3:2:0:0:
505,296,137856,2,0,B|494:270|504:232|504:232|481:260|427:267,1,125.999996154785,10|0,0:0|3:2,0:0:0:0:
152,203,138190,6,0,B|197:228|245:187|245:187|258:125|327:118,1,188.999994232178,14|0,0:0|0:0,0:0:0:0:
376,134,138523,1,2,3:2:0:0:
276,384,138690,1,2,3:2:0:0:
143,122,138856,2,0,B|113:121|86:97|86:97|94:133|81:160,1,125.999996154785,2|0,0:0|3:2,0:0:0:0:
188,296,139190,5,6,3:2:0:0:
343,62,139356,2,0,B|403:52|403:52|408:48|408:48|476:36,1,125.999996154785,8|2,0:0|3:2,0:0:0:0:
205,29,139690,1,0,3:2:0:0:
69,259,139856,2,0,B|18:251|19:195|19:195|30:214|49:221,1,125.999996154785,2|0,0:0|3:2,0:0:0:0:
309,161,140190,6,0,P|234:108|143:122,1,188.999994232178,14|0,3:2|0:0,0:0:0:0:
81,158,140523,1,0,3:0:0:0:
24,26,140690,1,0,3:0:0:0:
150,194,140856,2,0,B|140:254|140:254|142:260|142:260|132:322,1,125.999996154785,2|8,0:0|0:0,0:0:0:0:
11,384,141190,5,6,3:2:0:0:
44,219,141356,1,8,3:2:0:0:
233,384,141523,1,0,3:0:0:0:
209,300,141690,1,0,3:0:0:0:
4,295,141856,2,0,B|38:302|65:339|65:339|60:309|72:289,1,125.999996154785,2|0,0:0|3:2,0:0:0:0:
291,50,142190,6,0,B|351:30|389:94|389:94|394:89|394:89|414:154|509:159|539:61|476:16|424:35,1,360,14|0,3:2|0:0,0:0:0:0:
313,118,142690,2,0,B|283:134|287:169|287:169|319:159|318:119,1,125.999996154785,0|0,3:0|3:0,0:0:0:0:
437,32,143190,5,6,3:2:0:0:
447,283,143356,2,0,B|480:314|516:292|538:243|489:214,1,125.999996154785,8|2,0:0|0:0,0:0:0:0:
262,250,143689,1,0,3:0:0:0:
338,380,143856,1,2,3:0:0:0:
425,201,144023,1,0,3:2:0:0:
164,329,144189,5,14,0:0:0:0:
291,50,144356,1,8,0:0:0:0:
370,310,144523,1,2,0:0:0:0:
129,166,144689,1,2,3:2:0:0:
437,32,144856,2,0,B|421:-15|368:-16|368:-16|385:5|389:30,1,125.999996154785,10|0,0:0|3:2,0:0:0:0:
262,250,145189,6,0,P|333:191|425:201,1,188.999994232178,6|0,3:2|0:0,0:0:0:0:
479,254,145523,1,2,3:2:0:0:
311,123,145689,1,2,3:2:0:0:
164,329,145856,2,0,P|101:318|25:307,1,125.999996154785,10|0,0:0|3:0,0:0:0:0:
130,67,146189,6,0,P|52:39|42:121,1,188.999994232178,14|0,3:2|0:0,0:0:0:0:
129,166,146523,1,2,3:2:0:0:
291,50,146689,1,2,3:2:0:0:
425,201,146856,2,0,B|435:136|435:136|433:133|433:133|444:63,1,125.999996154785,2|0,0:0|3:2,0:0:0:0:
262,250,147189,5,6,3:2:0:0:
448,328,147356,2,0,B|493:312|491:263|491:263|469:287|442:284,1,125.999996154785,8|0,0:0|3:2,0:0:0:0:
278,384,147689,1,2,3:2:0:0:
248,162,147856,1,2,0:0:0:0:
425,201,148023,1,2,3:2:0:0:
228,321,148189,6,0,B|179:350|136:320|136:320|102:259|40:279,1,188.999994232178,14|0,0:0|0:0,0:0:0:0:
0,304,148523,1,0,3:2:0:0:
57,384,148689,1,0,3:2:0:0:
185,257,148856,2,0,B|175:192|175:192|177:189|177:189|166:119,1,125.999996154785,10|0,0:0|3:2,0:0:0:0:
47,10,149189,5,6,3:2:0:0:
8,231,149356,1,8,0:0:0:0:
247,109,149523,1,2,3:2:0:0:
186,52,149689,1,0,3:2:0:0:
185,257,149856,2,0,P|235:219|299:221,1,125.999996154785,2|0,0:0|3:2,0:0:0:0:
503,360,150189,6,0,B|481:384|414:379|366:345|377:242|445:224|445:224|445:216|445:216|504:180|485:87|432:63|432:63|450:87|452:114,1,485.999985168458,14|0,3:2|3:2,0:0:0:0:
466,297,150856,2,0,B|482:288|505:286|505:286|486:284|481:280,1,62.9999980773926,2|0,0:0|3:2,0:0:0:0:
289,337,151189,5,6,3:2:0:0:
381,118,151356,1,8,0:0:0:0:
185,257,151523,2,0,B|129:269|112:217|112:217|136:225|154:212,1,125.999996154785,2|0,0:0|3:2,0:0:0:0:
16,336,151856,1,2,3:2:0:0:
139,147,152023,1,2,3:2:0:0:
226,379,152189,5,10,0:0:0:0:
12,259,152356,2,0,B|-17:210|23:164|23:164|72:136|57:78,1,188.999994232178,8|0,0:0|0:0,0:0:0:0:
16,35,152689,1,0,3:2:0:0:
139,147,152856,2,0,L|207:137,1,62.9999980773926,4|0,0:0|0:0,0:0:0:0:
381,118,153023,1,0,3:0:0:0:
214,63,153189,6,0,B|266:55|287:120|280:118|285:187|356:195,1,188.999994232178,6|0,3:2|0:0,0:0:0:0:
415,198,153523,1,2,3:2:0:0:
300,370,153689,1,2,3:2:0:0:
443,325,153856,2,0,B|452:284|474:257|474:257|450:278|425:280,1,125.999996154785,10|0,0:0|3:2,0:0:0:0:
226,379,154189,6,0,B|219:321|180:281|180:281|214:311|258:311,1,188.999994232178,14|0,0:0|0:0,0:0:0:0:
325,293,154523,1,2,3:2:0:0:
122,333,154689,1,2,3:2:0:0:
287,110,154856,2,0,B|277:171|277:171|279:177|279:177|266:260,1,125.999996154785,2|0,0:0|3:2,0:0:0:0:
207,56,155190,5,2,3:2:0:0:
415,198,155356,2,0,B|470:186|461:127|461:127|444:142|420:146,1,125.999996154785,8|2,0:0|3:2,0:0:0:0:
251,310,155689,1,0,3:2:0:0:
294,14,155856,2,0,P|362:18|404:68,1,125.999996154785,2|0,0:0|3:2,0:0:0:0:
191,255,156189,6,0,B|147:227|145:175|145:175|114:221|51:225,1,188.999994232178,14|0,0:0|0:0,0:0:0:0:
13,177,156523,1,0,3:2:0:0:
59,362,156689,1,0,3:2:0:0:
270,234,156856,2,0,B|279:177|279:177|277:171|277:171|287:110,1,125.999996154785,10|0,0:0|3:2,0:0:0:0:
43,0,157189,5,6,3:2:0:0:
68,222,157356,1,8,3:2:0:0:
209,58,157523,1,0,3:0:0:0:
197,155,157689,1,0,3:0:0:0:
0,82,157856,2,0,B|33:61|67:77|67:77|92:111|138:95,1,125.999996154785,2|0,0:0|3:2,0:0:0:0:
457,204,158189,6,0,B|510:190|532:108|508:42|381:23|338:93|360:144|366:146|336:211|268:212|229:150|260:89|310:113,1,432,14|0,0:0|3:2,0:0:0:0:
399,257,158856,2,0,B|419:282|423:314|423:314|444:288|475:282,1,125.999996154785,2|0,0:0|3:0,0:0:0:0:
330,49,159189,5,2,3:2:0:0:
216,271,159356,2,0,B|143:311|100:235|108:236|58:151|-16:206,1,251.999992309571,8|0,0:0|3:0,0:0:0:0:
76,345,159856,1,0,3:0:0:0:
178,199,160023,1,0,3:0:0:0:
258,342,160189,5,10,0:0:0:0:
0,196,160356,2,0,B|58:241|108:156|100:157|143:81|216:121,1,251.999992309571,8|0,0:0|3:0,0:0:0:0:
76,345,160856,2,0,B|79:291|26:288|26:288|39:313|33:335,1,125.999996154785,2|8,0:0|3:2,0:0:0:0:
258,342,161189,6,0,B|311:376|370:329|370:329|386:277|426:279,1,188.999994232178,6|0,0:0|0:0,0:0:0:0:
479,306,161522,2,0,B|494:342|480:369|480:369|465:349|435:344,1,107.999996704102,0|0,3:2|0:0,0:0:0:0:
302,277,161855,1,8,0:0:0:0:
510,191,162022,2,0,B|483:196|462:229|462:229|459:191|432:168,1,125.999996154785,0|2,3:2|0:3,0:0:0:0:
241,151,162355,5,0,3:2:0:0:
241,151,162439,1,0,3:2:0:0:
241,151,162522,2,0,B|274:195|328:168|328:168|340:127|381:117|381:117|361:141|361:173,1,215.999993408203,6|0,3:2|0:0,0:0:0:0:
158,251,163022,2,0,B|102:257|99:317|99:317|128:349|116:389|116:389|106:360|78:343,1,215.999993408203,6|0,3:2|0:0,0:0:0:0:
113,129,163522,2,0,B|120:71|79:47|79:47|93:65|87:82,1,107.999996704102,6|0,3:2|0:0,0:0:0:0:
207,331,163855,6,0,B|290:378|361:312|361:312|361:321|361:321|421:247|522:290|522:290|477:268|459:222,1,432,6|2,3:2|0:0,0:0:0:0:
467,239,165189,5,12,0:0:0:0:
94,355,165355,1,8,0:0:0:0:
101,362,166189,5,6,3:2:0:0:
101,362,166273,1,0,0:0:0:0:
101,362,166356,1,0,3:2:0:0:
184,212,166523,2,0,L|190:264,1,45,10|0,0:0|0:0,0:0:0:0:
203,384,166690,1,2,3:2:0:0:
0,304,166856,1,2,3:2:0:0:
96,227,167023,1,2,3:2:0:0:
308,384,167190,1,8,0:0:0:0:
94,355,167356,2,0,L|102:301,1,45,2|0,3:2|0:0,0:0:0:0:
131,124,167523,5,2,3:2:0:0:
260,334,167690,1,0,3:2:0:0:
96,227,167856,2,0,L|197:209,1,90,10|0,0:0|3:2,0:0:0:0:
459,186,168190,2,0,L|440:77,1,90,2|0,3:2|3:2,0:0:0:0:
387,373,168523,2,0,L|405:264,1,90,10|0,0:0|3:2,0:0:0:0:
472,28,168856,6,0,B|423:6|379:49|379:49|383:83|361:95,1,125.999996154785,6|0,3:2|3:2,0:0:0:0:
280,100,169190,2,0,P|288:77|316:63,1,45,10|0,0:0|0:0,0:0:0:0:
386,153,169356,2,0,P|378:176|350:190,1,45,2|0,3:2|0:0,0:0:0:0:
251,206,169523,2,0,L|198:197,1,45,2|0,3:2|0:0,0:0:0:0:
123,90,169690,2,0,L|175:81,1,45,2|0,3:2|0:0,0:0:0:0:
46,207,169856,1,8,0:0:0:0:
24,68,170023,2,0,L|33:128,1,45,2|0,3:2|0:0,0:0:0:0:
68,305,170190,5,2,3:2:0:0:
68,305,170273,1,8,0:0:0:0:
68,305,170356,1,2,3:2:0:0:
251,206,170523,2,0,B|191:196|191:196|189:192|189:192|128:183,1,116.999994644165,8|0,0:0|3:2,0:0:0:0:
222,332,170856,5,10,0:0:0:0:
280,84,171023,1,10,3:2:0:0:
477,279,171190,1,10,0:0:0:0:
444,97,171357,1,10,3:2:0:0:
292,289,171523,5,2,3:2:0:0:
292,289,171606,1,0,3:2:0:0:
292,289,171690,1,0,3:2:0:0:
414,169,171856,2,0,L|421:220,1,45,10|0,0:0|0:0,0:0:0:0:
447,365,172023,1,2,3:2:0:0:
447,365,172106,1,8,0:0:0:0:
447,365,172190,1,2,3:2:0:0:
339,208,172356,1,2,3:0:0:0:
512,179,172523,1,8,0:0:0:0:
356,373,172690,2,2,L|296:363,1,45,2|2,3:2|3:2,3:2:0:0:
104,344,172856,5,2,3:2:0:0:
250,204,173023,1,2,3:2:0:0:
228,384,173190,2,0,L|210:274,1,90,10|0,0:0|3:0,0:0:0:0:
116,54,173523,2,0,L|10:30,1,90,2|0,3:2|3:2,0:0:0:0:
265,107,173856,2,0,L|159:130,1,90,10|0,0:0|3:2,0:0:0:0:
481,65,174190,6,0,B|423:53|423:53|418:47|418:47|348:33,1,125.999996154785,6|0,3:2|3:2,0:0:0:0:
265,107,174523,2,0,L|272:151,1,45,10|0,0:0|0:0,0:0:0:0:
413,258,174690,2,0,L|420:213,1,45,2|0,3:2|0:0,0:0:0:0:
252,100,174856,2,0,L|269:208,1,90,2|0,3:0|3:2,0:0:0:0:
296,384,175190,1,10,0:0:0:0:
64,330,175356,2,0,L|72:283,1,45,2|0,3:2|0:0,0:0:0:0:
104,127,175523,6,0,B|43:155|7:88|7:88|35:87|48:75,1,161.999995056153,2|0,3:2|0:0,0:0:0:0:
116,54,175856,2,0,L|169:62,1,45,14|0,0:0|0:0,0:0:0:0:
356,93,176023,1,2,3:2:0:0:
177,202,176190,2,0,L|273:186,1,90,2|0,3:2|3:2,0:0:0:0:
497,150,176523,1,12,0:0:0:0:
377,243,176690,1,2,3:2:0:0:
410,163,176856,5,6,3:2:0:0:
410,163,177023,1,0,3:2:0:0:
489,362,177190,1,8,0:0:0:0:
505,278,177356,1,0,3:2:0:0:
512,285,177690,5,0,3:2:0:0:
512,285,177773,1,0,3:2:0:0:
512,285,177856,1,8,0:0:0:0:
341,322,178023,1,0,3:2:0:0:
348,329,178356,5,0,3:2:0:0:
348,329,178440,1,0,3:2:0:0:
348,329,178523,1,8,0:0:0:0:
177,291,178690,1,0,3:2:0:0:
210,216,178856,1,0,3:0:0:0:
260,304,179023,1,0,3:0:0:0:
193,380,179190,1,8,0:0:0:0:
107,345,179356,5,0,3:2:0:0:
107,345,179440,1,8,0:0:0:0:
107,345,179523,1,4,3:2:0:0:
111,238,179690,1,0,3:2:0:0:
260,304,179856,1,8,0:0:0:0:
210,216,180023,1,0,3:2:0:0:
210,216,180356,5,0,3:0:0:0:
13,257,180523,1,8,0:0:0:0:
63,169,180689,1,0,3:2:0:0:
63,169,181023,5,0,3:2:0:0:
253,138,181189,1,8,0:0:0:0:
203,50,181355,1,0,3:2:0:0:
63,169,181523,6,0,L|59:149,1,18,2|0,3:3|0:0,0:0:0:0:
41,19,181689,2,0,L|37:0,1,18,2|0,3:0|0:0,0:0:0:0:
152,138,181856,5,8,0:0:0:0:
17,88,182023,2,0,L|-12:93,1,18,2|0,3:3|0:0,0:0:0:0:
304,50,182189,5,2,3:3:0:0:
324,47,182273,1,2,0:3:0:0:
344,44,182356,1,2,3:3:0:0:
472,166,182523,2,0,L|421:158,1,45,8|0,0:0|0:0,0:0:0:0:
253,138,182689,1,2,3:3:0:0:
253,138,183023,5,2,3:3:0:0:
256,158,183106,1,2,3:3:0:0:
259,178,183189,1,8,0:0:0:0:
425,75,183356,1,2,3:0:0:0:
425,75,183689,5,2,3:3:0:0:
428,55,183772,1,2,3:3:0:0:
431,35,183855,1,8,0:0:0:0:
400,238,184023,1,2,3:0:0:0:
304,68,184189,5,2,3:3:0:0:
267,51,184272,1,2,0:3:0:0:
227,53,184355,1,2,3:3:0:0:
192,74,184439,1,2,0:3:0:0:
171,108,184522,1,8,0:0:0:0:
150,142,184606,1,2,0:3:0:0:
115,163,184690,1,2,3:3:0:0:
75,165,184773,1,2,0:3:0:0:
39,149,184856,5,6,3:3:0:0:
57,134,184939,1,2,0:3:0:0:
75,119,185023,1,2,3:0:0:0:
45,245,185189,1,8,0:0:0:0:
104,30,185356,1,2,3:0:0:0:
282,155,185523,2,0,B|250:215|193:200|193:200|220:176|221:143,1,161.999995056153,2|0,0:3|0:0,0:0:0:0:
150,142,185856,2,0,L|169:266,1,107.999996704102,8|0,0:0|3:2,0:0:0:0:
17,379,186189,5,2,0:3:0:0:
23,355,186273,1,2,0:3:0:0:
29,331,186356,1,2,3:3:0:0:
188,384,186523,1,8,0:0:0:0:
45,245,186689,1,2,3:0:0:0:
214,240,186856,1,2,3:3:0:0:
190,244,186939,1,2,0:3:0:0:
166,248,187023,1,2,3:3:0:0:
336,377,187189,1,8,0:0:0:0:
312,373,187272,1,2,0:3:0:0:
288,369,187356,1,2,3:3:0:0:
428,247,187523,5,6,3:0:0:0:
452,243,187606,1,2,0:3:0:0:
476,239,187690,1,2,3:0:0:0:
413,350,187856,1,8,0:0:0:0:
494,136,188023,1,2,3:0:0:0:
494,136,188356,5,2,3:0:0:0:
490,112,188439,1,2,3:0:0:0:
486,88,188523,1,0,0:0:0:0:
404,251,188689,1,2,3:0:0:0:
404,251,189022,5,2,3:0:0:0:
408,227,189106,1,2,3:0:0:0:
412,203,189189,1,8,0:0:0:0:
416,179,189273,1,2,0:3:0:0:
420,155,189356,1,2,3:3:0:0:
323,309,189523,5,2,3:3:0:0:
315,268,189606,1,2,0:3:0:0:
287,239,189689,1,2,3:3:0:0:
249,230,189773,1,2,0:3:0:0:
212,244,189856,1,8,0:0:0:0:
186,275,189939,1,2,0:3:0:0:
183,315,190023,1,2,3:3:0:0:
203,350,190106,1,2,0:3:0:0:
237,369,190189,5,6,3:3:0:0:
243,345,190273,1,2,0:3:0:0:
249,322,190356,1,2,3:3:0:0:
67,384,190523,1,8,0:0:0:0:
29,223,190689,1,0,3:0:0:0:
29,223,191022,5,2,3:0:0:0:
35,247,191106,1,2,0:3:0:0:
41,270,191189,1,8,0:0:0:0:
0,104,191356,2,0,B|42:71|93:101|93:101|117:139|169:127,1,161.999995056153,2|0,3:0|0:0,0:0:0:0:
196,74,191689,5,2,3:0:0:0:
253,302,191856,1,8,0:0:0:0:
304,214,192023,1,2,3:0:0:0:
157,230,192189,1,2,3:0:0:0:
180,222,192273,1,2,0:3:0:0:
203,214,192356,1,2,3:0:0:0:
381,163,192523,1,8,0:0:0:0:
362,147,192607,1,2,0:3:0:0:
344,131,192689,1,2,3:0:0:0:
211,3,192856,5,6,3:0:0:0:
206,26,192940,1,2,0:3:0:0:
201,50,193023,1,2,3:0:0:0:
364,0,193189,1,8,0:0:0:0:
400,179,193356,1,2,3:0:0:0:
400,179,193689,1,2,3:0:0:0:
405,155,193773,1,2,3:0:0:0:
410,131,193856,1,8,0:0:0:0:
508,300,194023,1,2,3:0:0:0:
508,300,194356,5,2,3:0:0:0:
503,276,194440,1,2,3:0:0:0:
498,252,194523,1,8,0:0:0:0:
371,374,194689,1,2,3:0:0:0:
400,179,194857,5,2,3:3:0:0:
365,199,194939,1,2,0:3:0:0:
325,202,195023,1,2,3:3:0:0:
288,186,195106,1,2,0:3:0:0:
263,155,195189,1,8,0:0:0:0:
238,125,195273,1,2,0:3:0:0:
201,109,195357,1,2,3:3:0:0:
161,112,195440,1,2,0:3:0:0:
127,132,195523,5,2,3:3:0:0:
137,157,195606,1,2,3:0:0:0:
161,169,195689,1,2,3:3:0:0:
23,230,195856,1,8,0:0:0:0:
95,45,196023,1,2,3:0:0:0:
169,298,196189,2,0,B|226:274|219:211|219:211|198:239|166:239,1,161.999995056153,6|0,0:3|0:0,0:0:0:0:
161,169,196523,2,8,L|287:189,1,107.999996704102,8|0,0:0|3:0,0:0:0:0:
454,24,196856,5,2,3:0:0:0:
430,29,196939,1,2,3:0:0:0:
406,34,197023,1,2,3:0:0:0:
474,140,197189,1,8,0:0:0:0:
294,113,197356,1,6,0:3:0:0:
400,227,197523,1,2,0:3:0:0:
396,203,197606,1,2,0:3:0:0:
392,179,197689,1,2,3:0:0:0:
229,25,197856,1,8,0:0:0:0:
225,49,197939,1,2,0:3:0:0:
221,73,198022,1,2,0:3:0:0:
217,97,198106,1,2,0:3:0:0:
213,121,198189,5,6,3:0:0:0:
188,114,198273,1,2,0:3:0:0:
165,108,198356,1,2,3:0:0:0:
5,44,198522,1,8,0:0:0:0:
30,37,198606,1,2,0:3:0:0:
53,31,198689,1,2,3:0:0:0:
198,195,198857,1,2,3:0:0:0:
171,189,198939,1,2,0:3:0:0:
144,184,199023,1,2,3:0:0:0:
117,178,199106,1,2,0:3:0:0:
91,173,199189,2,0,L|100:232,1,53.9999983520508,8|0,0:0|0:0,0:0:0:0:
71,384,199356,2,0,B|51:361|21:346|21:346|49:361|82:357,1,107.999996704102,2|2,3:0|3:0,0:0:0:0:
265,384,199689,5,2,3:0:0:0:
58,284,199856,1,8,0:0:0:0:
225,201,200023,1,2,3:0:0:0:
71,384,200189,5,2,3:0:0:0:
90,349,200272,1,2,0:3:0:0:
124,326,200355,1,2,3:0:0:0:
164,321,200439,1,2,0:3:0:0:
202,333,200523,1,8,0:0:0:0:
233,308,200606,1,2,0:3:0:0:
273,301,200689,1,2,3:0:0:0:
311,314,200773,1,2,0:3:0:0:
338,343,200856,5,2,3:0:0:0:
332,320,200939,1,2,0:3:0:0:
325,296,201023,1,2,3:0:0:0:
481,218,201189,1,8,0:0:0:0:
475,242,201272,1,2,0:3:0:0:
468,266,201356,1,2,3:0:0:0:
445,148,201523,1,2,3:0:0:0:
318,272,201689,1,2,3:0:0:0:
461,290,201856,1,8,0:0:0:0:
324,186,202023,2,0,B|270:194|270:194|267:198|267:198|219:205,1,107.999996704102,2|0,0:3|3:0,0:0:0:0:
189,217,202273,1,8,0:0:0:0:
189,217,202356,5,2,3:0:0:0:
331,100,202523,1,8,0:0:0:0:
318,272,202689,1,2,3:0:0:0:
121,160,202856,5,8,0:0:0:0:
395,234,203023,1,8,3:2:0:0:
105,247,203189,1,8,0:0:0:0:
331,100,203356,1,8,3:2:0:0:
107,114,203523,5,6,3:0:0:0:
114,137,203606,1,2,0:3:0:0:
121,160,203689,1,2,3:0:0:0:
173,41,203856,1,8,0:0:0:0:
15,210,204023,1,2,3:0:0:0:
22,187,204106,1,8,0:0:0:0:
29,164,204189,1,2,3:0:0:0:
76,20,204356,1,2,3:0:0:0:
128,183,204523,2,0,L|190:173,1,53.9999983520508,8|0,0:0|0:0,0:0:0:0:
331,100,204689,2,0,B|301:89|280:59|280:59|296:90|290:122,1,107.999996704102,2|0,3:0|3:0,0:0:0:0:
362,252,205023,5,2,3:0:0:0:
494,89,205189,1,8,0:0:0:0:
407,13,205356,1,2,3:0:0:0:
442,230,205523,5,2,3:0:0:0:
416,191,205606,1,2,0:3:0:0:
373,172,205689,1,2,3:0:0:0:
327,180,205773,1,2,0:3:0:0:
293,212,205856,1,8,0:0:0:0:
282,257,205939,1,2,0:3:0:0:
298,301,206023,1,2,3:0:0:0:
335,329,206106,1,2,0:3:0:0:
381,333,206189,5,2,3:0:0:0:
374,306,206273,1,2,0:3:0:0:
368,279,206356,1,2,3:0:0:0:
512,190,206523,1,8,0:0:0:0:
479,384,206689,1,2,3:0:0:0:
362,252,206856,2,0,L|231:272,1,107.999996704102,2|0,3:0|3:0,0:0:0:0:
435,283,207189,1,8,0:0:0:0:
188,235,207356,1,0,3:0:0:0:
356,377,207523,5,2,3:3:0:0:
364,354,207606,1,2,0:3:0:0:
372,331,207689,1,2,3:3:0:0:
175,157,207856,1,12,0:0:0:0:
215,372,208023,1,2,3:0:0:0:
362,252,208189,6,0,L|289:244,1,53.9999983520508,6|0,3:0|0:0,0:0:0:0:
188,235,208356,1,2,3:0:0:0:
386,74,208523,2,0,L|328:119,1,53.9999983520508,12|0,0:0|0:0,0:0:0:0:
250,185,208690,1,2,3:0:0:0:
151,0,208856,5,6,3:0:0:0:
155,24,208939,1,2,0:3:0:0:
159,48,209023,1,2,3:0:0:0:
0,202,209189,1,8,0:0:0:0:
41,0,209356,1,2,3:0:0:0:
175,157,209523,1,2,0:3:0:0:
163,72,209689,1,2,3:0:0:0:
42,133,209856,2,0,L|116:121,1,53.9999983520508,8|0,0:0|0:0,0:0:0:0:
254,103,210023,1,2,3:0:0:0:
107,210,210189,5,2,0:3:0:0:
236,9,210356,1,2,3:0:0:0:
424,169,210523,1,8,0:2:0:0:
412,84,210689,1,2,3:0:0:0:
261,198,210857,5,2,3:3:0:0:
259,244,210939,1,2,0:3:0:0:
280,286,211023,1,2,3:3:0:0:
319,311,211106,1,2,0:3:0:0:
366,315,211189,1,8,0:0:0:0:
408,295,211272,1,2,0:3:0:0:
436,257,211357,1,2,3:3:0:0:
441,211,211439,1,2,0:3:0:0:
424,169,211523,5,2,3:3:0:0:
401,176,211606,1,2,0:3:0:0:
377,182,211689,1,2,3:0:0:0:
249,45,211856,1,8,0:0:0:0:
272,52,211940,1,2,0:3:0:0:
296,58,212023,1,2,3:0:0:0:
171,81,212189,1,2,0:3:0:0:
373,23,212356,1,2,3:0:0:0:
294,144,212523,2,0,L|241:130,1,53.9999983520508,8|0,0:0|0:0,0:0:0:0:
49,71,212689,5,2,3:0:0:0:
49,71,212773,1,8,0:0:0:0:
49,71,212856,2,0,B|57:120|57:120|61:124|61:124|72:195,1,107.999996704102,2|0,0:3|3:0,0:0:0:0:
100,366,213189,1,8,0:0:0:0:
198,207,213356,1,2,0:3:0:0:
0,321,213523,1,2,3:0:0:0:
24,315,213606,1,2,0:3:0:0:
47,308,213690,1,2,3:0:0:0:
268,275,213856,1,8,0:0:0:0:
244,269,213939,1,2,0:3:0:0:
221,262,214023,1,2,3:3:0:0:
197,256,214105,1,2,0:3:0:0:
174,249,214189,5,6,3:0:0:0:
186,228,214273,1,2,0:3:0:0:
198,207,214356,1,2,3:0:0:0:
357,321,214523,1,8,0:0:0:0:
369,342,214607,1,2,0:3:0:0:
381,363,214690,1,2,3:0:0:0:
353,221,214856,1,2,0:3:0:0:
270,377,215023,1,2,3:0:0:0:
441,267,215189,2,0,L|430:200,1,53.9999983520508,8|0,0:0|0:0,0:0:0:0:
398,30,215356,2,0,B|430:29|458:54|458:54|435:29|434:-4,1,107.999996704102,2|2,3:0|0:3,0:0:0:0:
222,165,215689,5,2,3:0:0:0:
293,0,215856,1,8,0:0:0:0:
402,105,216023,1,2,0:3:0:0:
275,225,216190,5,2,3:3:0:0:
239,244,216272,1,2,0:3:0:0:
199,243,216356,1,2,3:3:0:0:
165,221,216439,1,2,0:3:0:0:
146,186,216523,1,8,0:0:0:0:
127,151,216606,1,2,0:3:0:0:
93,129,216690,1,2,3:3:0:0:
53,128,216773,1,2,0:3:0:0:
18,146,216856,5,2,3:0:0:0:
25,123,216939,1,2,0:3:0:0:
32,100,217023,1,2,3:0:0:0:
68,212,217189,1,8,0:0:0:0:
2,10,217356,1,2,3:0:0:0:
188,62,217523,2,0,B|160:-11|75:19|75:19|102:36|109:66,1,188.999994232178,2|0,3:3|0:0,0:0:0:0:
127,151,217856,2,0,L|259:122,1,107.999996704102,8|0,0:0|3:0,0:0:0:0:
350,18,218189,5,2,3:3:0:0:
319,11,218273,1,2,0:3:0:0:
288,4,218356,1,2,3:3:0:0:
397,166,218523,1,8,0:0:0:0:
427,159,218606,1,2,0:3:0:0:
458,152,218689,1,2,0:3:0:0:
350,314,218856,5,2,3:0:0:0:
340,299,218939,1,2,0:3:0:0:
301,278,219023,1,8,0:0:0:0:
247,282,219106,1,8,0:0:0:0:
209,327,219189,1,8,0:0:0:0:
159,368,219273,1,10,0:3:0:0:
97,357,219356,1,10,0:3:0:0:
59,301,219439,1,10,0:3:0:0:
83,236,219523,5,6,3:0:0:0:
111,246,219606,1,2,3:3:0:0:
139,256,219689,1,2,3:0:0:0:
0,206,219856,1,8,0:0:0:0:
239,135,220023,1,0,3:0:0:0:
41,36,220189,5,2,0:3:0:0:
32,59,220273,1,2,0:3:0:0:
24,82,220356,2,0,L|91:71,1,53.9999983520508,0|0,3:0|3:0,0:0:0:0:
188,202,220523,2,0,L|144:149,1,53.9999983520508,8|0,0:0|0:0,0:0:0:0:
211,0,220689,1,2,3:0:0:0:
323,164,220856,5,2,0:3:0:0:
316,141,220940,1,2,0:3:0:0:
311,118,221023,2,0,L|364:126,1,53.9999983520508,0|0,3:0|3:0,0:0:0:0:
490,31,221189,2,0,L|425:41,1,53.9999983520508,8|0,0:0|0:0,0:0:0:0:
261,64,221356,1,2,3:3:0:0:
432,197,221523,5,2,0:3:0:0:
453,209,221606,1,2,0:3:0:0:
474,220,221689,2,0,L|464:160,1,53.9999983520508,2|0,3:0|0:0,0:0:0:0:
360,331,221856,2,0,L|370:271,1,53.9999983520508,8|0,0:0|0:0,0:0:0:0:
239,135,222023,5,2,0:3:0:0:
245,175,222106,1,2,0:3:0:0:
251,215,222189,1,2,3:0:0:0:
258,255,222273,1,2,3:0:0:0:
264,295,222356,1,2,3:0:0:0:
311,118,222523,1,8,0:0:0:0:
192,312,222689,1,2,3:0:0:0:
331,202,222856,5,2,0:3:0:0:
291,208,222939,1,2,0:3:0:0:
251,215,223023,1,2,3:0:0:0:
211,221,223106,1,8,0:0:0:0:
171,227,223189,1,8,0:0:0:0:
261,64,223356,2,0,B|291:44|291:44|381:54,1,107.999996704102,2|0,3:0|0:0,0:0:0:0:
396,57,223606,5,2,0:3:0:0:
396,57,223689,1,2,3:0:0:0:
239,135,223856,1,8,0:0:0:0:
199,21,224023,1,2,3:0:0:0:
97,161,224189,1,2,3:0:0:0:
121,155,224273,1,2,0:3:0:0:
145,149,224356,1,2,3:0:0:0:
0,78,224523,1,10,3:2:0:0:
4,38,224606,1,2,0:3:0:0:
31,8,224689,1,2,3:3:0:0:
69,0,224773,1,2,0:3:0:0:
106,15,224857,5,2,3:3:0:0:
97,42,224940,1,2,0:3:0:0:
88,70,225023,1,2,3:3:0:0:
28,256,225189,1,8,0:0:0:0:
239,135,225356,1,2,3:0:0:0:
109,301,225523,5,2,0:3:0:0:
131,312,225606,1,2,0:3:0:0:
153,321,225689,2,0,L|141:250,1,53.9999983520508,2|0,3:0|3:0,0:0:0:0:
239,135,225857,2,0,L|183:180,1,53.9999983520508,8|0,0:0|0:0,0:0:0:0:
35,154,226023,2,0,L|102:179,1,53.9999983520508,2|0,3:0|0:0,0:0:0:0:
255,263,226189,5,2,0:3:0:0:
295,256,226272,1,2,0:3:0:0:
335,250,226355,1,2,3:0:0:0:
375,243,226439,1,2,3:0:0:0:
415,237,226522,1,8,0:0:0:0:
319,142,226689,1,2,3:3:0:0:
463,259,226856,5,2,3:0:0:0:
455,231,226939,1,2,0:3:0:0:
447,203,227023,1,2,3:0:0:0:
476,20,227189,1,8,0:0:0:0:
456,41,227272,1,2,0:3:0:0:
436,61,227356,1,2,3:0:0:0:
263,128,227523,5,6,3:3:0:0:
291,135,227605,1,2,0:3:0:0:
319,142,227689,1,2,3:3:0:0:
183,134,227857,1,8,0:0:0:0:
399,136,228023,1,2,3:0:0:0:
276,268,228189,5,2,3:3:0:0:
248,261,228273,1,2,0:3:0:0:
220,254,228356,2,0,L|231:180,1,53.9999983520508,2|0,3:0|0:0,0:0:0:0:
101,70,228523,2,0,L|112:144,1,53.9999983520508,12|0,0:0|0:0,0:0:0:0:
144,325,228689,2,0,P|80:272|8:326,1,161.999995056153,2|0,3:0|0:0,0:0:0:0:
0,372,229023,5,2,3:0:0:0:
152,210,229189,1,8,0:0:0:0:
243,355,229356,1,2,3:0:0:0:
75,352,229523,6,0,L|157:320,1,74.2500007081032,8|2,0:0|0:3,0:0:0:0:
352,250,229689,1,8,3:2:0:0:
101,70,229856,2,0,L|111:134,1,53.9999983520508,8|2,0:0|0:3,0:0:0:0:
154,365,230023,1,8,3:2:0:0:
336,119,230189,5,6,3:0:0:0:
307,126,230273,1,2,0:3:0:0:
278,133,230356,1,2,3:0:0:0:
409,174,230523,1,8,0:0:0:0:
205,78,230689,1,2,3:0:0:0:
437,58,230856,5,2,3:0:0:0:
430,87,230940,1,2,0:3:0:0:
423,116,231023,1,2,3:0:0:0:
416,145,231106,1,2,0:3:0:0:
409,174,231189,1,8,0:0:0:0:
309,48,231356,2,0,B|321:-2|377:9|377:9|365:26|369:46,1,107.999996704102,2|0,3:0|3:0,0:0:0:0:
194,169,231689,5,2,3:0:0:0:
64,29,231856,1,8,0:0:0:0:
23,116,232023,2,0,L|145:96,1,107.999996704102,2|0,3:0|3:0,0:0:0:0:
259,239,232356,1,2,3:0:0:0:
57,204,232523,1,8,0:0:0:0:
130,99,232689,1,2,3:0:0:0:
165,260,232856,5,2,3:3:0:0:
158,289,232939,1,2,0:3:0:0:
151,318,233023,1,2,3:3:0:0:
8,383,233189,1,8,0:0:0:0:
57,204,233356,1,2,3:0:0:0:
173,354,233522,5,2,3:3:0:0:
144,347,233606,1,2,0:3:0:0:
115,340,233689,1,2,3:3:0:0:
259,239,233856,1,8,0:0:0:0:
386,384,234023,2,0,L|365:257,1,107.999996704102,2|0,3:0|3:0,0:0:0:0:
494,302,234356,5,2,3:0:0:0:
275,369,234523,1,8,0:0:0:0:
347,163,234689,1,8,3:2:0:0:
386,384,234856,5,8,0:0:0:0:
363,312,234967,1,8,0:0:0:0:
292,287,235078,1,8,0:0:0:0:
219,310,235189,5,0,3:0:0:0:
144,315,235301,1,0,3:0:0:0:
98,256,235412,5,8,0:3:0:0:
89,266,235467,5,8,0:3:0:0:
80,276,235523,6,0,L|101:143,1,107.999996704102,4|0,3:0|3:0,0:0:0:0:
118,0,235856,1,0,3:0:0:0:
222,166,236023,2,0,B|247:162|270:183|270:183|263:153|275:130,1,107.999996704102,12|0,3:2|3:0,0:0:0:0:
107,83,236356,1,0,3:0:0:0:
348,164,236523,2,0,B|364:143|394:141|394:141|368:125|360:100,1,107.999996704102,14|0,3:2|3:0,0:0:0:0:
96,169,236856,5,0,3:0:0:0:
281,44,237023,2,0,B|361:56|361:56|365:61|365:61|458:76,1,161.999995056153,8|0,0:0|0:0,0:0:0:0:
512,86,237356,1,2,3:0:0:0:
441,277,237523,2,0,B|394:267|398:214|398:214|417:228|440:234,1,107.999996704102,2|0,0:0|0:0,0:0:0:0:
493,187,237773,1,2,0:0:0:0:
493,187,237856,1,0,3:2:0:0:
450,384,238023,1,2,0:0:0:0:
348,164,238189,5,10,0:0:0:0:
189,349,238356,1,0,3:0:0:0:
152,242,238523,1,0,3:0:0:0:
369,281,238689,2,0,L|249:262,1,107.999996704102,14|0,0:0|3:0,0:0:0:0:
450,384,239023,1,0,3:0:0:0:
348,164,239189,2,0,L|228:145,1,107.999996704102,14|0,0:0|0:0,0:0:0:0:
9,107,239523,5,10,0:0:0:0:
260,19,239689,1,0,3:0:0:0:
139,66,239856,1,2,3:2:0:0:
241,147,240023,1,0,3:0:0:0:
31,0,240189,5,10,0:0:0:0:
111,332,240356,1,8,3:2:0:0:
211,79,240523,1,10,0:0:0:0:
8,342,240690,1,8,3:2:0:0:
257,237,240856,6,0,B|311:208|377:256|377:256|376:296|412:317,1,188.999994232178,6|0,3:2|0:0,0:0:0:0:
487,333,241189,1,2,3:2:0:0:
404,118,241356,1,2,3:2:0:0:
266,339,241522,2,0,B|234:334|203:352|203:352|207:313|177:284,1,125.999996154785,10|0,0:0|0:0,0:0:0:0:
50,13,241856,6,0,P|65:96|138:64,1,188.999994232178,12|0,0:0|0:0,0:0:0:0:
189,12,242189,1,2,3:2:0:0:
257,237,242356,1,2,3:2:0:0:
442,44,242522,2,0,P|382:31|335:69,1,125.999996154785,2|0,0:0|3:0,0:0:0:0:
436,244,242856,5,6,3:2:0:0:
222,130,243022,2,0,B|253:167|303:144|303:144|276:132|270:105,1,125.999996154785,8|0,0:0|3:0,0:0:0:0:
189,12,243356,1,2,3:2:0:0:
107,249,243522,1,2,0:0:0:0:
5,75,243689,1,2,3:2:0:0:
222,130,243856,6,0,B|176:144|174:206|174:206|201:263|159:303,1,188.999994232178,14|0,0:0|0:0,0:0:0:0:
97,326,244189,1,0,3:0:0:0:
36,225,244356,1,0,3:0:0:0:
291,316,244522,2,0,B|232:306|232:306|228:303|228:303|146:290,1,125.999996154785,10|0,0:0|3:0,0:0:0:0:
22,370,244856,5,6,3:2:0:0:
255,199,245022,1,8,0:0:0:0:
465,321,245189,1,2,3:2:0:0:
377,384,245356,1,0,3:2:0:0:
260,118,245522,2,0,B|295:74|361:124|329:166,1,125.999996154785,2|0,0:0|3:0,0:0:0:0:
97,326,245856,6,0,B|34:252|109:176|109:176|102:168|102:168|181:79|99:19|99:19|98:13|98:13|78:56|37:63,1,432,14|0,0:0|3:0,0:0:0:0:
214,296,246522,2,0,B|197:252|150:255|150:255|174:278|166:302,1,125.999996154785,2|0,0:0|3:0,0:0:0:0:
22,370,246856,5,6,3:2:0:0:
310,378,247022,2,0,B|329:335|293:304|293:304|294:337|272:349,1,125.999996154785,8|2,0:0|0:0,0:0:0:0:
97,326,247356,1,0,3:0:0:0:
186,173,247522,1,2,3:2:0:0:
48,60,247689,1,0,3:0:0:0:
214,296,247856,5,10,0:0:0:0:
308,18,248022,2,0,B|222:31|222:31|216:27|216:27|111:45,1,188.999994232178,8|0,0:0|0:0,0:0:0:0:
48,60,248356,1,0,3:0:0:0:
186,173,248522,2,0,L|253:183,1,62.9999980773926,4|0,0:0|0:0,0:0:0:0:
122,43,248689,1,0,3:0:0:0:
0,299,248856,6,0,P|66:326|140:236,1,188.999994232178,6|0,3:2|0:0,0:0:0:0:
95,174,249189,1,10,0:0:0:0:
215,365,249356,1,2,3:2:0:0:
302,144,249522,2,0,B|270:147|241:124|241:124|257:157|247:185,1,125.999996154785,10|0,0:0|3:0,0:0:0:0:
450,348,249856,6,0,B|404:318|354:345|354:345|327:398|273:382,1,188.999994232178,14|0,0:0|0:0,0:0:0:0:
215,365,250189,1,2,3:2:0:0:
369,180,250356,1,2,3:2:0:0:
512,309,250522,2,0,B|502:283|518:250|518:250|489:273|457:270,1,125.999996154785,2|0,0:0|3:0,0:0:0:0:
283,312,250856,5,6,0:0:0:0:
468,198,251022,2,0,B|457:133|457:133|453:128|453:128|442:62,1,125.999996154785,8|2,0:0|3:2,0:0:0:0:
323,246,251356,1,0,3:2:0:0:
128,112,251522,2,0,B|89:91|93:45|93:45|106:69|137:77,1,125.999996154785,2|0,0:0|3:0,0:0:0:0:
368,48,251856,6,0,P|281:97|196:55,1,188.999994232178,14|0,0:0|0:0,0:0:0:0:
158,10,252189,1,0,3:0:0:0:
31,121,252356,1,0,3:0:0:0:
199,204,252522,2,0,B|187:183|196:150|196:150|172:185|127:190,1,125.999996154785,2|8,0:0|0:0,0:0:0:0:
12,368,252856,5,6,3:2:0:0:
263,291,253022,1,0,3:2:0:0:
53,204,253189,1,0,3:2:0:0:
89,372,253356,1,0,3:2:0:0:
199,204,253522,2,0,B|187:183|196:150|196:150|172:185|127:190,1,125.999996154785,2|0,0:0|3:0,0:0:0:0:
305,384,253856,6,0,B|364:233|520:236|520:236|469:257|464:303,1,360,14|0,0:0|0:0,0:0:0:0:
480,384,254356,2,0,B|437:382|418:341|418:341|436:358|464:362,1,125.999996154785,0|0,3:0|3:0,0:0:0:0:
305,384,254856,5,6,3:2:0:0:
138,188,255022,2,0,B|104:149|41:193|65:234,1,125.999996154785,8|2,0:0|0:0,0:0:0:0:
186,384,255355,1,0,3:0:0:0:
318,220,255522,1,2,3:2:0:0:
137,270,255689,1,0,3:0:0:0:
304,306,255855,5,14,0:0:0:0:
209,44,256022,1,8,0:0:0:0:
73,308,256189,1,2,0:0:0:0:
19,128,256355,1,2,3:2:0:0:
349,150,256522,1,10,0:0:0:0:
107,380,256689,1,0,3:2:0:0:
181,137,256855,6,0,B|224:109|271:145|271:145|275:210|343:229,1,188.999994232178,6|0,3:2|0:0,0:0:0:0:
393,212,257189,1,2,3:2:0:0:
275,15,257355,1,2,3:2:0:0:
113,175,257522,2,0,B|135:199|130:233|130:233|153:213|192:217,1,125.999996154785,10|0,0:0|3:2,0:0:0:0:
499,80,257855,6,0,P|480:0|405:34,1,188.999994232178,14|0,0:0|0:0,0:0:0:0:
409,138,258189,1,2,3:2:0:0:
275,15,258355,1,2,3:2:0:0:
113,175,258522,2,0,B|102:111|102:111|98:106|98:106|87:42,1,125.999996154785,2|0,0:0|3:0,0:0:0:0:
0,277,258855,5,6,3:2:0:0:
207,339,259022,2,0,B|221:294|242:270|242:270|216:290|196:288,1,125.999996154785,8|0,0:0|3:0,0:0:0:0:
57,383,259355,1,2,3:2:0:0:
189,216,259522,1,2,0:0:0:0:
7,194,259689,1,2,3:2:0:0:
207,339,259855,6,0,B|254:353|290:314|290:314|293:318|293:318|333:267|396:287,1,188.999994232178,14|0,0:0|0:0,0:0:0:0:
448,289,260189,1,0,3:2:0:0:
498,384,260355,1,0,3:2:0:0:
412,218,260522,2,0,L|433:79,1,125.999996154785,8|0,0:0|3:2,0:0:0:0:
296,7,260855,5,6,3:2:0:0:
338,230,261022,1,8,0:0:0:0:
111,96,261189,1,2,3:2:0:0:
151,15,261355,1,0,3:0:0:0:
323,112,261522,2,0,B|261:102|261:102|258:98|258:98|185:87,1,125.999996154785,2|0,0:0|3:2,0:0:0:0:
56,271,261855,6,0,B|8:308|25:389|99:454|212:391|193:302|181:306|177:192|281:178|281:178|263:195|262:216,1,485.999985168458,14|0,3:2|3:0,0:0:0:0:
103,189,262522,2,0,B|80:182|63:201|63:201|81:199|95:211,1,62.9999980773926,2|0,0:0|3:2,0:0:0:0:
338,230,262856,5,6,3:2:0:0:
190,29,263022,1,8,0:0:0:0:
438,92,263189,2,0,B|431:139|389:151|389:151|402:123|394:96,1,125.999996154785,2|0,0:0|3:0,0:0:0:0:
509,19,263522,1,2,3:2:0:0:
322,116,263689,1,2,3:2:0:0:
499,217,263856,5,14,0:0:0:0:
344,42,264022,2,0,B|287:23|255:65|262:68|222:125|168:97,1,188.999994232178,8|0,0:0|0:0,0:0:0:0:
117,57,264356,1,0,3:2:0:0:
322,116,264522,2,0,L|311:182,1,62.9999980773926,4|0,0:0|0:0,0:0:0:0:
278,364,264689,1,0,3:0:0:0:
82,232,264856,6,0,P|151:174|238:201,1,188.999994232178,6|0,3:2|0:0,0:0:0:0:
295,252,265189,1,2,3:2:0:0:
177,101,265356,1,2,3:2:0:0:
66,312,265522,2,0,P|133:302|161:251,1,125.999996154785,8|0,0:0|3:0,0:0:0:0:
339,40,265856,6,0,B|400:10|442:58|442:98|442:98|408:97|390:119,1,188.999994232178,12|0,0:0|0:0,0:0:0:0:
322,116,266189,1,2,3:2:0:0:
512,33,266356,1,2,3:2:0:0:
419,297,266522,2,0,B|428:239|428:239|426:233|426:233|435:172,1,125.999996154785,2|0,0:0|3:0,0:0:0:0:
512,375,266856,5,6,3:2:0:0:
300,301,267022,2,0,B|306:349|362:354|362:354|343:333|346:313,1,125.999996154785,8|2,0:0|3:2,0:0:0:0:
254,172,267356,1,0,3:0:0:0:
102,380,267522,2,0,B|160:370|160:370|165:365|165:365|224:355,1,125.999996154785,2|0,0:0|3:0,0:0:0:0:
322,114,267856,6,0,P|235:88|170:150,1,188.999994232178,14|0,0:0|0:0,0:0:0:0:
139,221,268189,1,0,3:0:0:0:
54,59,268356,1,0,3:0:0:0:
43,284,268522,2,0,B|33:250|14:200|14:200|33:221|61:231,1,125.999996154785,10|0,0:0|3:0,0:0:0:0:
345,322,268856,5,6,3:2:0:0:
102,380,269022,1,0,3:0:0:0:
254,172,269189,1,0,3:0:0:0:
295,244,269356,1,2,3:2:0:0:
195,367,269522,2,0,B|204:305|204:305|202:300|202:300|214:224,1,125.999996154785,2|0,0:0|3:0,0:0:0:0:
512,135,269855,6,0,B|477:200|361:223|296:161|285:77|324:22|361:6|361:6|361:48|399:71,1,432,14|0,0:0|3:0,0:0:0:0:
512,255,270522,2,0,B|503:315|503:315|506:320|506:320|495:388,1,125.999996154785,2|0,0:0|3:0,0:0:0:0:
435,8,270855,5,6,3:2:0:0:
254,172,271022,2,0,B|235:103|136:85|88:151|88:151|116:166|128:197,1,251.999992309571,8|0,0:0|3:0,0:0:0:0:
194,292,271522,1,0,3:0:0:0:
50,223,271689,1,0,3:0:0:0:
324,114,271855,5,14,0:0:0:0:
97,0,272022,2,0,B|13:54|47:142|47:142|102:146|128:195,1,251.999992309571,8|0,0:0|3:0,0:0:0:0:
20,337,272522,2,0,B|-27:319|-14:264|-14:264|0:290|39:299,1,125.999996154785,2|0,0:0|3:0,0:0:0:0:
256,384,272855,5,14,0:0:0:0:
186,79,273021,1,0,3:0:0:0:
50,223,273188,1,0,3:0:0:0:
419,273,273355,5,12,0:0:0:0:
119,181,273521,1,0,3:0:0:0:
176,370,273688,1,0,3:0:0:0:
404,76,273855,5,12,0:0:0:0:
173,290,274021,1,0,3:0:0:0:
173,290,274105,1,0,3:0:0:0:
173,290,274188,6,0,L|165:239,1,45,14|0,0:0|0:0,0:0:0:0:
126,7,274355,1,0,3:0:0:0:
246,151,274521,1,0,3:0:0:0:
20,104,274688,6,0,L|90:92,1,45,14|0,0:0|0:0,0:0:0:0:
285,63,274855,1,0,3:0:0:0:
119,181,275021,1,0,3:0:0:0:
341,140,275188,6,0,L|330:203,1,45,14|0,0:0|0:0,0:0:0:0:
295,382,275355,1,0,3:0:0:0:
467,221,275521,6,0,L|461:182,2,36,2|2|2,3:2|3:0|3:0,0:0:0:0:
512,109,276355,1,0,3:0:0:0:
408,313,276521,2,0,B|375:330|323:305|323:305|312:246|361:215,1,188.999994232178,10|0,0:0|0:0,0:0:0:0:
467,220,276855,5,2,0:0:0:0:
461,185,277021,1,8,0:0:0:0:
408,313,277188,1,8,3:2:0:0:
267,311,277355,1,8,3:2:0:0:
171,174,277521,1,8,3:2:0:0:
262,8,277688,1,8,3:2:0:0:
414,103,277855,6,0,L|314:86,1,90,6|0,3:2|0:0,0:0:0:0:
89,76,278188,2,0,P|153:66|133:7,1,135,2|0,3:2|0:0,0:0:0:0:
57,2,278521,1,8,0:0:0:0:
72,178,278688,2,0,B|30:173|3:189|3:189|11:159|2:126,1,135,0|0,3:0|0:0,0:0:0:0:
89,76,279021,1,0,3:2:0:0:
184,263,279188,6,0,L|170:173,1,90,2|0,3:2|0:0,0:0:0:0:
42,384,279521,2,0,B|52:317|52:317|49:311|49:311|62:228,1,135,2|0,3:2|0:0,0:0:0:0:
72,178,279855,1,12,0:0:0:0:
274,384,280021,2,0,B|322:362|326:292|267:272|267:272|262:302|240:316,1,180,0|0,3:0|3:0,0:0:0:0:
115,376,280521,6,0,L|223:352,1,90,6|0,3:2|2:0,2:0:0:0:
442,231,280855,2,0,B|383:219|383:219|381:215|381:215|312:204,1,135,2|0,3:2|0:0,0:0:0:0:
236,188,281188,1,8,0:0:0:0:
495,66,281355,2,0,B|443:52|413:15|413:15|440:57|429:96,1,180,0|0,3:0|3:0,0:0:0:0:
312,204,281855,6,0,L|296:103,1,90,2|0,3:2|0:0,0:0:0:0:
83,253,282188,2,0,B|101:199|162:208|162:208|168:233|185:246,1,135,2|0,3:2|0:0,0:0:0:0:
258,270,282521,1,12,0:0:0:0:
331,40,282688,2,0,B|306:0|235:-2|210:42|210:42|225:64|224:97,1,180,0|0,3:0|3:0,0:0:0:0:
177,238,283188,6,0,L|192:137,1,90,6|0,3:2|0:0,0:0:0:0:
0,0,283521,2,0,B|10:64|10:64|6:69|6:69|18:142,1,135,2|0,3:2|0:0,0:0:0:0:
30,207,283855,1,8,0:0:0:0:
223,76,284021,2,0,B|278:41|334:89|334:89|356:126|394:123,1,180,0|0,3:0|3:0,0:0:0:0:
494,21,284521,6,0,B|470:18|448:4|448:4|450:30|439:51,1,90,2|0,3:2|0:0,0:0:0:0:
457,304,284855,2,0,B|467:239|467:239|465:232|465:232|475:169,1,135,2|0,3:2|0:0,0:0:0:0:
485,98,285188,1,12,0:0:0:0:
322,297,285355,2,0,B|256:305|225:240|225:240|259:245|283:224,1,180,0|0,3:0|3:0,0:0:0:0:
223,76,285855,6,0,L|241:190,1,90,2|0,3:2|0:0,0:0:0:0:
382,0,286188,2,0,L|314:93,1,90,10|0,3:2|0:0,0:0:0:0:
318,95,286438,1,0,3:0:0:0:
318,95,286521,1,6,0:0:0:0:
492,105,286688,1,0,3:0:0:0:
492,105,286771,1,0,3:0:0:0:
492,105,286855,1,8,0:0:0:0:
358,158,287021,1,0,3:0:0:0:
512,16,287188,5,4,3:0:0:0:
446,317,287355,1,8,0:0:0:0:
223,76,287521,1,8,0:0:0:0:
241,165,287688,1,0,3:0:0:0:
0,364,287854,1,12,0:0:0:0:
18,275,288021,1,0,3:0:0:0:
244,364,288188,5,8,0:0:0:0:
223,360,288272,1,8,0:0:0:0:
164,348,288355,1,8,0:0:0:0:
142,344,288438,1,8,0:0:0:0:
85,334,288521,5,4,3:2:0:0:
92,341,291021,5,0,3:0:0:0:
92,341,291105,1,0,3:0:0:0:
92,341,291188,1,12,0:0:0:0:
391,240,291355,1,8,0:0:0:0:
391,240,293188,5,8,0:3:0:0:
385,201,293271,1,8,0:3:0:0:
361,179,293355,1,8,0:3:0:0:
336,174,293438,1,8,0:3:0:0:
319,179,293521,5,8,0:0:0:0:
323,120,293605,1,8,0:0:0:0:
366,76,293688,1,8,0:0:0:0:
427,74,293771,1,8,0:0:0:0:
472,114,293855,6,0,L|465:162,5,31.4999990386963,6|2|2|2|2|2,0:3|0:3|0:3|0:3|0:3|0:3,0:0:0:0:
481,25,294355,2,0,B|464:23|452:12|452:12|439:25|421:26|421:26|403:12|378:5,2,94.499997116089,2|2|2,0:0|0:0|0:0,0:0:0:0:
366,76,295021,1,2,0:3:0:0:
294,18,295188,6,0,L|342:11,5,31.4999990386963,2|2|2|2|2|2,0:3|0:3|0:3|0:3|0:3|0:3,0:0:0:0:
209,12,295688,2,0,B|193:37|214:64|217:59|240:79|220:121,2,94.499997116089,2|2|2,0:0|0:0|0:0,0:0:0:0:
156,111,296355,1,2,0:3:0:0:
309,199,296521,6,0,L|301:152,3,40.4999987640381,4|2|2|2,3:2|0:3|0:3|0:3,0:0:0:0:
329,292,296855,2,0,L|279:284,1,40.4999987640381,10|0,0:0|0:0,0:0:0:0:
123,268,297021,1,8,0:0:0:0:
153,249,297105,1,8,0:0:0:0:
183,230,297188,1,8,0:0:0:0:
37,359,297355,6,0,L|9:344,2,26.9999991760254,8|8|8,0:3|0:3|0:3,0:0:0:0:
108,384,297521,1,8,3:2:0:0:
100,335,297605,1,8,0:0:0:0:
93,287,297688,1,8,0:0:0:0:
86,239,297771,1,8,0:0:0:0:
79,191,297855,6,0,L|38:170,3,40.4999987640381,4|2|2|2,3:2|0:3|0:3|0:3,0:0:0:0:
183,230,298188,1,8,3:2:0:0:
239,78,298355,1,8,3:2:0:0:
241,181,298521,1,8,3:2:0:0:
133,22,298688,1,8,3:2:0:0:
56,124,298855,5,8,3:2:0:0:
101,111,298938,1,8,0:0:0:0:
147,100,299021,1,8,0:0:0:0:
193,89,299105,1,8,0:0:0:0:
239,78,299188,6,0,L|230:23,4,49.5000015106202,6|2|2|2|0,3:2|0:3|0:3|0:3|0:3,0:0:0:0:
248,188,299688,2,0,B|304:179|304:179|310:175|310:175|376:165,1,107.999996704102,2|0,3:2|0:0,0:0:0:0:
361,75,299938,1,2,0:2:0:0:
361,75,300021,2,0,L|423:120,1,53.9999983520508,0|0,3:2|0:0,0:0:0:0:
512,191,300188,1,10,0:0:0:0:
490,14,300355,1,2,3:2:0:0:
422,234,300521,6,0,L|431:179,5,49.5000015106202,6|2|2|2|2|2,3:2|0:3|0:3|0:3|0:3|0:3,0:0:0:0:
407,334,301021,2,0,B|446:302|446:302|481:321|481:321|464:343,1,107.999996704102,2|0,3:2|3:2,0:0:0:0:
348,384,301271,1,2,0:0:0:0:
348,384,301355,2,0,L|295:375,1,53.9999983520508,0|0,3:0|0:0,0:0:0:0:
99,356,301521,1,10,0:0:0:0:
266,264,301688,1,2,3:2:0:0:
31,243,301855,6,0,L|40:298,5,49.5000015106202,6|2|2|2|2|2,3:2|0:3|0:3|0:3|0:3|0:3,0:0:0:0:
12,146,302355,2,0,P|70:124|71:65,1,107.999996704102,2|0,3:2|0:0,0:0:0:0:
58,12,302605,1,2,0:0:0:0:
58,12,302688,2,0,L|113:20,1,53.9999983520508,0|0,3:0|0:0,0:0:0:0:
310,46,302855,1,10,0:0:0:0:
137,166,303021,1,2,3:2:0:0:
137,166,303105,1,8,0:0:0:0:
137,166,303188,6,0,L|146:106,5,49.5000015106202,6|2|2|2|2|2,3:2|0:3|0:3|0:3|0:3|0:3,0:0:0:0:
241,149,303688,2,0,B|261:126|261:99|261:99|280:119|325:120,1,107.999996704102,2|0,0:0|3:0,0:0:0:0:
355,28,303938,1,2,0:0:0:0:
355,28,304021,2,0,P|324:29|307:52,1,53.9999983520508,0|0,3:0|0:0,0:0:0:0:
304,199,304188,1,10,0:0:0:0:
512,125,304355,1,2,3:2:0:0:
380,93,304521,5,6,3:2:0:0:
386,133,304604,1,2,0:0:0:0:
392,173,304687,1,2,3:2:0:0:
399,213,304770,1,2,0:0:0:0:
405,253,304854,1,10,0:0:0:0:
421,236,304938,1,2,0:3:0:0:
437,219,305021,6,0,L|427:278,1,53.9999983520508,2|8,3:2|0:0,0:0:0:0:
494,375,305188,1,2,0:3:0:0:
494,375,305271,2,0,L|504:316,1,53.9999983520508,2|0,0:0|3:0,0:0:0:0:
356,384,305438,1,2,0:3:0:0:
356,384,305521,2,0,P|385:377|399:339,1,53.9999983520508,10|0,0:0|0:0,0:0:0:0:
346,264,305688,2,0,P|317:271|303:309,1,53.9999983520508,2|0,3:2|0:0,0:0:0:0:
172,384,305855,5,6,3:2:0:0:
131,377,305938,1,2,0:0:0:0:
91,371,306021,1,2,3:2:0:0:
51,364,306104,1,2,0:0:0:0:
11,358,306188,1,10,0:0:0:0:
29,350,306272,1,2,0:3:0:0:
47,344,306355,6,0,L|106:324,1,53.9999983520508,2|0,0:0|0:0,0:0:0:0:
218,250,306521,1,0,3:0:0:0:
218,250,306604,2,0,L|159:230,1,53.9999983520508,2|0,0:0|3:0,0:0:0:0:
45,198,306771,1,2,0:3:0:0:
45,198,306854,2,0,P|78:188|98:154,1,53.9999983520508,10|0,0:0|0:0,0:0:0:0:
45,81,307021,2,0,P|12:91|-8:125,1,53.9999983520508,2|0,3:2|0:0,0:0:0:0:
179,136,307188,5,6,3:2:0:0:
200,102,307271,1,2,0:0:0:0:
235,82,307354,1,2,3:2:0:0:
275,79,307437,1,2,0:0:0:0:
312,95,307521,1,8,0:0:0:0:
297,111,307604,1,2,0:3:0:0:
282,127,307688,6,0,B|287:141|283:155|283:155|298:147|318:151,1,53.9999983520508,2|0,3:2|0:0,0:0:0:0:
434,103,307854,1,2,0:3:0:0:
434,103,307938,2,0,B|419:100|409:89|409:89|408:106|395:122,1,53.9999983520508,2|0,0:0|3:0,0:0:0:0:
379,208,308104,1,2,0:3:0:0:
379,208,308188,2,0,L|390:278,1,53.9999983520508,10|0,0:0|0:0,0:0:0:0:
489,323,308354,2,0,L|478:253,1,53.9999983520508,2|0,3:2|0:0,0:0:0:0:
279,226,308521,5,6,0:0:0:0:
278,285,308604,1,2,0:0:0:0:
303,322,308688,1,2,3:2:0:0:
343,345,308771,1,2,0:0:0:0:
380,346,308854,5,10,0:2:0:0:
343,322,308938,1,2,0:2:0:0:
303,322,309021,1,10,0:2:0:0:
266,339,309104,1,2,0:2:0:0:
243,367,309188,1,2,3:2:0:0:
212,384,309271,1,2,0:2:0:0:
175,381,309354,1,10,0:2:0:0:
151,362,309438,1,10,0:2:0:0:
144,338,309521,1,2,3:2:0:0:
149,318,309604,1,2,0:2:0:0:
161,306,309688,1,2,3:2:0:0:
174,301,309771,1,2,0:2:0:0:
185,301,309855,5,6,0:2:0:0:
166,265,309938,1,0,0:0:0:0:
135,240,310021,1,0,0:0:0:0:
95,231,310104,1,0,0:0:0:0:
56,240,310188,5,10,0:2:0:0:
74,204,310271,1,0,0:0:0:0:
105,179,310354,1,0,0:0:0:0:
145,170,310437,1,0,0:0:0:0:
184,179,310521,5,2,0:2:0:0:
166,143,310604,1,0,0:0:0:0:
135,118,310687,1,0,0:0:0:0:
95,109,310770,1,0,0:0:0:0:
56,118,310854,2,0,P|70:88|106:71,1,53.9999983520508,10|0,0:2|0:0,0:0:0:0:
274,99,311021,5,14,0:2:0:0:
304,128,311105,1,0,0:0:0:0:
315,166,311188,1,0,0:0:0:0:
306,205,311271,1,0,0:0:0:0:
277,234,311354,1,8,0:2:0:0:
313,215,311438,1,0,0:0:0:0:
353,216,311521,1,0,0:0:0:0:
387,237,311604,1,0,0:0:0:0:
406,273,311688,5,2,0:2:0:0:
398,233,311772,1,0,0:0:0:0:
412,195,311855,1,0,0:0:0:0:
442,169,311938,1,0,0:0:0:0:
481,162,312021,1,10,0:2:0:0:
442,157,312105,1,0,0:0:0:0:
410,133,312188,1,0,0:0:0:0:
394,95,312271,1,0,0:0:0:0:
400,57,312354,5,6,0:2:0:0:
361,67,312437,1,0,0:0:0:0:
322,77,312521,1,0,0:0:0:0:
283,87,312604,1,0,0:0:0:0:
274,123,312687,5,10,0:2:0:0:
236,113,312770,1,0,0:0:0:0:
199,104,312854,1,0,0:0:0:0:
162,94,312937,1,0,0:0:0:0:
158,58,313021,5,2,0:2:0:0:
121,67,313104,1,0,0:0:0:0:
86,76,313188,1,0,0:0:0:0:
51,85,313271,1,0,0:0:0:0:
23,64,313354,2,0,L|33:130,1,53.9999983520508,10|0,0:2|0:0,0:0:0:0:
62,276,313521,5,14,0:2:0:0:
82,241,313604,1,0,0:0:0:0:
117,222,313687,1,0,0:0:0:0:
157,224,313770,1,0,0:0:0:0:
190,247,313854,1,10,0:2:0:0:
170,282,313937,1,0,0:0:0:0:
135,301,314020,1,0,0:0:0:0:
95,299,314103,1,0,0:0:0:0:
62,276,314187,5,2,0:2:0:0:
76,253,314272,1,0,0:0:0:0:
98,238,314355,1,0,0:0:0:0:
125,235,314438,1,0,0:0:0:0:
150,242,314522,1,10,0:2:0:0:
135,264,314605,1,0,0:0:0:0:
113,279,314688,1,0,0:0:0:0:
86,282,314771,1,0,0:0:0:0:
62,276,314855,5,6,0:2:0:0:
36,235,314938,1,0,0:0:0:0:
38,187,315021,1,0,0:0:0:0:
66,149,315104,1,0,0:0:0:0:
102,164,315188,5,14,0:2:0:0:
149,156,315272,1,0,0:0:0:0:
184,125,315355,1,0,0:0:0:0:
196,78,315438,1,0,0:0:0:0:
163,37,315521,5,6,0:2:0:0:
123,36,315605,1,0,0:0:0:0:
82,59,315687,1,0,0:0:0:0:
61,101,315772,1,0,0:0:0:0:
66,149,315854,2,0,L|127:138,1,53.9999983520508,10|0,0:2|0:0,0:0:0:0:
301,44,316022,5,14,0:2:0:0:
337,27,316105,1,0,0:0:0:0:
377,32,316188,1,0,0:0:0:0:
408,57,316271,1,0,0:0:0:0:
421,95,316355,1,14,0:2:0:0:
384,112,316438,1,0,0:0:0:0:
345,107,316521,1,0,0:0:0:0:
314,82,316604,1,0,0:0:0:0:
301,44,316688,5,6,0:2:0:0:
325,33,316773,1,0,0:0:0:0:
352,34,316856,1,0,0:0:0:0:
376,47,316939,1,0,0:0:0:0:
392,68,317023,1,14,0:2:0:0:
367,77,317106,1,0,0:0:0:0:
340,76,317189,1,0,0:0:0:0:
316,62,317272,1,0,0:0:0:0:
301,44,317356,5,6,0:2:0:0:
286,51,317438,1,0,0:0:0:0:
275,66,317522,1,0,0:0:0:0:
272,90,317605,1,0,0:0:0:0:
283,119,317688,1,10,0:2:0:0:
312,146,317772,1,0,0:0:0:0:
346,175,317855,1,12,0:2:0:0:
373,218,317938,1,0,0:0:0:0:
376,269,318022,1,2,0:2:0:0:
353,318,318105,1,0,0:0:0:0:
307,348,318188,1,0,0:0:0:0:
251,349,318272,1,0,0:0:0:0:
211,312,318355,1,2,0:2:0:0:
195,258,318438,1,0,0:0:0:0:
212,205,318522,5,6,0:2:0:0:
209,164,318606,1,0,0:0:0:0:
180,140,318689,1,0,0:0:0:0:
149,141,318773,1,0,0:0:0:0:
122,157,318856,1,2,0:2:0:0:
110,190,318939,1,0,0:0:0:0:
121,230,319023,1,0,0:0:0:0:
151,252,319106,1,0,0:0:0:0:
195,258,319189,1,2,0:2:0:0:
244,251,319273,1,0,0:0:0:0:
284,216,319356,1,0,0:2:0:0:
310,161,319439,1,0,0:0:0:0:
353,121,319523,1,2,0:2:0:0:
416,115,319606,1,0,0:0:0:0:
471,142,319689,1,0,0:0:0:0:
490,200,319773,1,0,0:0:0:0:
472,258,319856,6,0,B|422:247|422:247|405:225|405:225|345:212,1,125.999996154785,6|0,3:2|3:2,0:0:0:0:
236,339,320189,5,14,0:0:0:0:
279,326,320272,1,2,0:0:0:0:
322,312,320356,1,2,3:2:0:0:
421,384,320523,2,0,L|354:367,1,62.9999980773926,2|0,0:0|0:0,0:0:0:0:
165,313,320689,5,2,3:2:0:0:
151,263,320773,1,2,0:0:0:0:
199,276,320856,1,10,0:0:0:0:
96,384,321023,2,0,L|29:367,1,62.9999980773926,2|0,3:2|0:0,0:0:0:0:
22,211,321189,5,2,0:0:0:0:
36,254,321273,1,2,0:0:0:0:
49,297,321356,1,2,3:2:0:0:
107,114,321523,5,10,0:0:0:0:
91,161,321607,1,2,0:0:0:0:
77,208,321690,1,2,3:2:0:0:
61,255,321773,1,2,0:0:0:0:
49,297,321856,2,0,B|92:267|92:267|119:188,1,125.999996154785,2|0,3:2|3:2,0:0:0:0:
105,12,322189,5,10,0:0:0:0:
55,20,322273,1,2,0:0:0:0:
33,63,322356,1,2,3:2:0:0:
59,107,322439,1,2,0:0:0:0:
107,114,322523,6,0,B|168:103|168:103|171:100|171:100|257:87,1,125.999996154785,6|0,3:2|3:2,0:0:0:0:
424,38,322856,1,8,0:2:0:0:
430,78,322939,1,2,0:3:0:0:
457,101,323023,1,2,3:3:0:0:
488,101,323106,1,2,0:3:0:0:
512,90,323189,1,2,0:3:0:0:
492,87,323273,1,2,0:3:0:0:
476,82,323356,1,2,3:3:0:0:
467,72,323439,1,2,0:3:0:0:
465,59,323523,1,8,0:0:0:0:
473,63,323606,1,2,0:3:0:0:
480,63,323689,1,2,3:3:0:0:
491,60,323773,1,8,0:0:0:0:
503,52,323856,5,2,0:0:0:0:
484,29,323939,1,2,0:0:0:0:
442,18,324023,1,2,3:2:0:0:
395,36,324106,1,2,0:0:0:0:
371,87,324189,1,10,0:0:0:0:
388,146,324273,1,2,0:0:0:0:
433,189,324356,1,2,0:3:0:0:
467,224,324439,1,2,0:3:0:0:
490,268,324523,1,0,3:0:0:0:
490,312,324606,1,2,0:3:0:0:
472,342,324689,1,2,3:3:0:0:
434,353,324773,1,2,0:3:0:0:
404,349,324856,1,8,0:2:0:0:
387,335,324939,1,2,0:3:0:0:
380,320,325023,1,2,0:3:0:0:
381,308,325106,1,2,0:3:0:0:
387,296,325189,5,6,3:2:0:0:
369,313,325273,1,2,0:2:0:0:
341,330,325356,1,2,3:2:0:0:
303,338,325439,1,2,0:2:0:0:
256,328,325523,1,10,0:2:0:0:
221,297,325606,1,2,0:2:0:0:
177,265,325689,1,2,3:2:0:0:
123,246,325773,1,10,0:2:0:0:
63,259,325856,1,2,0:2:0:0:
33,312,325939,1,2,0:2:0:0:
39,373,326023,2,0,P|76:357|95:323,1,62.9999980773926,2|0,3:2|0:0,0:0:0:0:
166,174,326189,5,10,0:2:0:0:
115,142,326273,1,2,0:2:0:0:
64,144,326356,1,2,3:2:0:0:
30,167,326439,1,2,0:2:0:0:
16,189,326523,6,0,L|27:116,1,62.9999980773926,2|0,0:0|0:0,0:0:0:0:
194,10,326689,1,2,3:2:0:0:
228,18,326773,1,2,0:2:0:0:
262,46,326856,1,10,0:2:0:0:
271,89,326939,1,2,0:2:0:0:
263,137,327023,1,2,0:2:0:0:
220,166,327106,1,2,0:2:0:0:
166,174,327189,5,2,3:2:0:0:
208,137,327273,1,2,0:0:0:0:
263,137,327356,1,2,3:2:0:0:
307,180,327439,1,2,0:0:0:0:
342,232,327523,1,10,0:0:0:0:
402,247,327606,1,2,0:0:0:0:
461,227,327689,1,2,3:2:0:0:
491,174,327773,1,2,0:0:0:0:
475,117,327856,5,6,3:2:0:0:
421,145,327939,1,2,0:0:0:0:
368,135,328023,1,2,3:2:0:0:
343,95,328106,1,2,0:0:0:0:
348,48,328189,1,10,0:0:0:0:
373,22,328273,1,2,0:0:0:0:
405,18,328356,1,2,3:2:0:0:
427,22,328439,1,2,0:0:0:0:
439,35,328523,5,2,0:0:0:0:
385,54,328606,1,2,0:0:0:0:
328,52,328689,1,2,3:2:0:0:
274,38,328773,1,2,0:0:0:0:
230,17,328856,1,10,0:0:0:0:
184,6,328939,1,2,0:0:0:0:
137,9,329023,1,2,3:2:0:0:
98,27,329106,1,2,0:0:0:0:
75,56,329189,5,6,3:2:0:0:
115,127,329300,1,8,0:0:0:0:
194,106,329411,1,8,0:0:0:0:
275,142,329523,5,2,3:2:0:0:
239,206,329634,1,8,0:3:0:0:
168,186,329745,1,8,0:3:0:0:
88,220,329856,5,2,3:2:0:0:
121,277,329967,1,8,0:0:0:0:
184,259,330078,1,8,0:0:0:0:
255,285,330189,5,2,3:2:0:0:
224,335,330300,1,4,3:2:0:0:
168,320,330411,1,0,3:2:0:0:
239,206,330523,6,0,B|283:192|312:218|312:218|326:250|361:254,1,125.999996154785,6|0,3:2|3:2,0:0:0:0:
431,223,330773,1,2,0:0:0:0:
414,191,330856,1,10,0:0:0:0:
395,182,330939,1,2,0:0:0:0:
379,185,331023,2,0,B|396:156|387:125|387:125|412:147|446:144,1,125.999996154785,2|0,3:2|0:0,0:0:0:0:
508,43,331356,1,2,3:2:0:0:
466,38,331439,1,2,0:0:0:0:
444,54,331522,1,10,0:0:0:0:
437,68,331606,2,0,P|379:31|316:56,1,125.999996154785,2|8,0:0|0:0,0:0:0:0:
246,82,331856,5,2,0:0:0:0:
202,72,331939,1,2,0:0:0:0:
183,51,332022,1,2,0:0:0:0:
177,33,332106,2,0,B|187:84|187:84|177:103|177:103|191:162,1,125.999996154785,2|0,3:0|0:0,0:0:0:0:
158,244,332356,2,0,B|139:228|143:206|143:206|158:219|178:222,1,62.9999980773926,2|0,0:0|0:0,0:0:0:0:
177,315,332523,6,0,B|144:330|115:306|115:306|107:307|107:307|82:273|47:280,1,144,2|0,3:2|3:0,0:0:0:0:
0,369,332773,1,2,0:0:0:0:
0,369,332856,2,0,P|31:367|52:341,1,58.4999973220826,8|0,0:0|0:0,0:0:0:0:
158,244,333023,2,0,P|187:234|216:251,1,58.4999973220826,2|0,3:2|0:0,0:0:0:0:
327,365,333189,6,0,B|303:328|321:294|321:294|364:268|353:220,1,144,6|0,3:2|3:2,0:0:0:0:
408,334,333523,1,8,0:0:0:0:
283,224,333689,1,2,3:2:0:0:
276,203,333773,1,2,0:0:0:0:
269,182,333856,2,0,B|292:126|355:140|355:140|325:163|329:200,1,144,2|0,0:0|3:2,0:0:0:0:
158,244,334189,1,8,0:0:0:0:
28,55,334356,1,0,3:2:0:0:
28,55,334439,1,8,0:0:0:0:
28,55,334523,5,2,0:0:0:0:
12,78,334606,1,2,0:0:0:0:
15,107,334689,1,2,3:2:0:0:
40,133,334773,1,2,0:0:0:0:
78,138,334856,1,10,0:0:0:0:
126,143,334939,1,2,0:0:0:0:
164,183,335023,1,2,0:0:0:0:
158,244,335106,1,2,0:0:0:0:
108,279,335189,5,2,3:2:0:0:
102,244,335273,1,2,0:0:0:0:
121,203,335356,1,2,3:2:0:0:
164,183,335439,1,2,0:0:0:0:
216,188,335523,1,10,0:0:0:0:
268,222,335606,1,2,0:0:0:0:
332,223,335689,1,2,3:2:0:0:
386,188,335773,1,2,0:0:0:0:
398,125,335856,5,6,0:0:0:0:
359,125,335939,1,2,0:0:0:0:
318,101,336023,1,2,0:0:0:0:
307,46,336106,1,2,0:0:0:0:
340,0,336189,1,10,0:0:0:0:
390,23,336273,1,2,0:0:0:0:
411,74,336356,1,2,3:2:0:0:
398,125,336439,1,2,0:0:0:0:
356,157,336523,1,2,0:0:0:0:
309,196,336606,1,2,0:0:0:0:
279,253,336689,1,2,3:2:0:0:
286,316,336773,1,2,0:0:0:0:
323,366,336856,5,10,0:0:0:0:
346,308,336939,1,2,0:0:0:0:
398,275,337023,1,2,3:2:0:0:
460,288,337106,1,2,0:0:0:0:
497,336,337189,5,2,0:0:0:0:
468,356,337273,1,2,0:0:0:0:
425,365,337356,1,2,3:2:0:0:
379,352,337439,1,2,0:0:0:0:
346,308,337523,1,10,0:0:0:0:
302,266,337606,1,2,0:0:0:0:
243,253,337689,1,2,0:0:0:0:
184,267,337773,1,2,0:0:0:0:
143,310,337856,5,2,3:2:0:0:
203,351,337939,1,2,0:0:0:0:
273,332,338023,1,2,3:2:0:0:
302,266,338106,1,2,0:0:0:0:
283,205,338189,1,10,0:0:0:0:
233,177,338273,1,2,0:0:0:0:
187,176,338356,1,2,3:2:0:0:
150,195,338439,1,2,0:0:0:0:
129,227,338523,5,8,0:0:0:0:
124,216,338578,1,8,0:0:0:0:
119,205,338634,1,8,0:0:0:0:
114,194,338689,2,0,L|67:202,2,38.9999982147218,0|0|0,3:2|3:0|3:0,0:0:0:0:
140,124,338856,5,8,0:3:0:0:
145,113,338911,1,8,0:3:0:0:
150,102,338967,1,8,0:3:0:0:
155,91,339023,2,0,L|202:99,2,38.9999982147218,8|8|8,0:3|0:3|0:3,0:0:0:0:
108,33,339189,5,8,0:2:0:0:
103,22,339244,1,8,0:2:0:0:
98,11,339300,1,8,0:2:0:0:
93,0,339356,2,0,L|46:8,2,38.9999982147218,8|8|0,0:2|0:3|3:3,0:0:0:0:
0,83,339523,2,0,L|47:75,2,38.9999982147218,8|8|8,0:3|0:3|0:3,0:0:0:0:
51,147,339689,5,8,3:3:0:0:
48,162,339745,1,8,3:3:0:0:
45,177,339800,1,8,3:3:0:0:
42,192,339856,2,0,L|34:230,2,38.9999982147218,4|8|8,0:2|0:3|0:3,0:0:0:0:
133,269,340023,2,0,L|125:231,2,38.9999982147218,8|8|8,0:3|0:3|0:3,0:0:0:0:
101,355,340189,5,8,0:3:0:0:
72,349,340273,1,8,0:3:0:0:
43,344,340356,2,0,L|-1:334,2,38.9999982147218,8|8|8,0:3|0:3|0:3,0:0:0:0:
130,361,340523,5,8,0:0:0:0:
183,320,340606,1,8,0:0:0:0:
246,308,340689,1,8,0:0:0:0:
296,326,340773,1,8,0:0:0:0:
327,358,340856,1,8,0:3:0:0:
371,380,340939,1,8,0:3:0:0:
435,366,341023,1,8,0:0:0:0:
479,314,341106,1,8,0:0:0:0:
459,247,341189,6,0,P|427:265|391:257,1,58.4999973220826,6|0,3:2|0:0,0:0:0:0:
270,158,341356,1,2,0:2:0:0:
255,110,341439,1,0,0:0:0:0:
278,67,341522,1,10,0:2:0:0:
325,53,341605,1,0,0:0:0:0:
368,76,341689,1,2,0:2:0:0:
327,105,341772,1,0,0:0:0:0:
277,112,341855,1,10,0:2:0:0:
231,94,341938,1,0,0:0:0:0:
198,56,342023,1,2,0:2:0:0:
165,18,342106,1,0,0:0:0:0:
118,0,342189,1,10,0:2:0:0:
68,6,342272,1,0,0:0:0:0:
28,36,342356,6,0,L|37:93,1,58.4999973220826,14|0,0:2|0:0,0:0:0:0:
65,233,342522,1,2,0:2:0:0:
85,187,342605,1,0,0:0:0:0:
131,169,342688,1,10,0:2:0:0:
177,186,342771,1,0,0:0:0:0:
200,229,342856,1,2,0:2:0:0:
236,196,342939,1,0,0:0:0:0:
282,183,343022,1,10,0:2:0:0:
329,194,343105,1,0,0:0:0:0:
366,225,343189,1,2,0:2:0:0:
384,269,343272,1,0,0:0:0:0:
380,316,343355,1,10,0:2:0:0:
354,357,343439,1,0,0:0:0:0:
313,382,343522,1,2,0:2:0:0:
266,384,343605,1,0,0:0:0:0:
222,364,343689,5,14,0:2:0:0:
248,323,343772,1,0,0:0:0:0:
289,298,343855,1,2,0:2:0:0:
336,296,343938,1,0,0:0:0:0:
380,316,344022,1,10,0:2:0:0:
429,316,344106,1,0,0:0:0:0:
467,284,344189,1,2,0:2:0:0:
477,236,344272,1,0,0:0:0:0:
453,191,344357,1,10,0:2:0:0:
404,182,344440,1,0,0:0:0:0:
371,145,344523,1,2,0:2:0:0:
368,95,344606,1,0,0:0:0:0:
396,54,344690,1,10,0:2:0:0:
444,39,344773,1,0,0:0:0:0:
490,56,344856,6,0,P|468:83|428:96,1,58.4999973220826,14|0,0:2|0:0,0:0:0:0:
255,53,345021,1,2,0:2:0:0:
229,18,345105,1,0,0:0:0:0:
189,0,345189,1,10,0:2:0:0:
146,3,345271,1,0,0:0:0:0:
110,27,345356,1,2,0:2:0:0:
149,58,345440,1,0,0:0:0:0:
155,109,345522,1,2,0:2:0:0:
125,151,345606,1,0,0:0:0:0:
74,159,345690,1,2,0:2:0:0:
32,130,345773,1,0,0:0:0:0:
21,80,345856,2,0,P|59:84|82:118,1,58.4999973220826,10|0,0:2|0:0,0:0:0:0:
67,308,346022,5,2,0:2:0:0:
50,326,346106,1,0,0:0:0:0:
33,344,346189,2,0,L|22:275,1,58.4999973220826,10|0,0:2|0:0,0:0:0:0:
206,384,346356,1,2,0:2:0:0:
184,370,346439,2,0,L|127:328,1,58.4999973220826,8|2,0:2|0:2,0:0:0:0:
336,277,346606,1,0,0:0:0:0:
309,281,346689,2,0,L|238:291,1,58.4999973220826,10|0,0:2|0:0,0:0:0:0:
350,106,346856,1,2,0:2:0:0:
334,129,346939,2,0,L|290:186,1,58.4999973220826,8|2,0:2|0:2,0:0:0:0:
211,0,347106,1,0,0:0:0:0:
213,17,347189,1,10,0:2:0:0:
215,34,347272,1,8,0:2:0:0:
217,51,347355,6,0,L|229:122,1,58.4999973220826,14|0,0:2|0:0,0:0:0:0:
251,289,347521,1,10,0:2:0:0:
299,243,347605,1,8,0:2:0:0:
365,240,347688,1,10,0:2:0:0:
412,263,347771,1,8,0:2:0:0:
441,297,347855,1,2,0:2:0:0:
449,328,347938,1,0,0:0:0:0:
447,352,348021,1,10,0:2:0:0:
411,317,348105,1,8,0:0:0:0:
412,263,348188,1,2,0:2:0:0:
434,234,348271,1,0,0:0:0:0:
457,223,348355,1,10,0:2:0:0:
496,205,348438,1,8,0:2:0:0:
512,163,348521,1,10,0:2:0:0:
495,106,348605,1,8,0:2:0:0:
440,84,348688,5,6,3:2:0:0:
387,132,348771,1,10,0:2:0:0:
316,149,348855,1,2,3:2:0:0:
249,114,348938,1,2,3:2:0:0:
216,53,349021,1,10,0:3:0:0:
165,21,349105,1,10,0:3:0:0:
111,22,349188,1,10,0:3:0:0:
68,50,349271,1,10,0:3:0:0:
51,94,349355,1,10,0:3:0:0:
58,139,349438,1,10,0:0:0:0:
85,172,349521,1,2,3:2:0:0:
121,181,349605,1,2,3:2:0:0:
157,175,349688,1,10,0:3:0:0:
179,160,349771,1,10,0:0:0:0:
188,145,349855,1,10,3:3:0:0:
184,133,349938,1,10,3:3:0:0:
174,127,350021,5,2,3:2:0:0:
145,123,350105,1,2,3:2:0:0:
112,142,350188,1,2,3:2:0:0:
99,189,350271,1,2,3:2:0:0:
112,242,350355,1,2,3:2:0:0:
160,277,350438,1,2,3:2:0:0:
225,284,350521,1,2,3:2:0:0:
288,260,350605,1,2,3:2:0:0:
314,193,350688,1,2,3:2:0:0:
365,142,350771,1,2,3:2:0:0:
435,142,350855,1,2,3:2:0:0:
490,192,350938,1,2,3:2:0:0:
491,268,351021,1,10,3:2:0:0:
430,318,351105,1,10,3:2:0:0:
351,311,351188,1,10,3:2:0:0:
288,260,351271,1,10,3:2:0:0:
211,230,351355,6,0,B|153:204|113:242|113:242|83:299|23:291,1,198.000006042481,6|0,3:2|3:2,0:0:0:0:
33,137,351854,1,10,0:0:0:0:
169,297,352020,2,0,P|178:340|193:413,1,80.9999975280763,2|0,3:2|0:0,0:0:0:0:
290,98,352354,2,0,P|279:140|265:214,1,80.9999975280763,10|0,0:0|0:0,0:0:0:0:
152,7,352687,1,2,3:2:0:0:
180,143,352854,1,2,0:0:0:0:
283,21,353020,2,0,B|314:9|344:32|344:32|366:67|421:58,1,121.499996292114,2|0,3:2|0:0,0:0:0:0:
489,22,353354,6,0,P|451:166|448:236,1,198.000006042481,6|0,3:2|3:2,0:0:0:0:
495,372,353854,1,10,0:0:0:0:
300,338,354020,2,0,P|341:328|389:318,1,80.9999975280763,2|0,0:0|3:0,0:0:0:0:
153,234,354354,2,0,P|196:244|242:253,1,80.9999975280763,10|0,0:0|0:0,0:0:0:0:
4,384,354687,1,2,3:2:0:0:
141,352,354854,1,2,0:0:0:0:
61,232,355020,2,0,B|14:235|4:280|4:280|24:259|57:261,1,121.499996292114,2|0,3:2|0:0,0:0:0:0:
56,331,355354,6,0,P|38:229|22:118,1,198.000006042481,6|0,3:2|3:2,0:0:0:0:
0,0,355854,1,10,0:0:0:0:
161,81,356020,2,0,L|81:64,1,80.9999975280763,2|0,3:2|0:0,0:0:0:0:
224,164,356354,2,0,B|285:151|285:151|288:147|288:147|369:130,1,121.499996292114,10|0,0:2|0:0,0:0:0:0:
412,118,356687,1,2,3:2:0:0:
257,44,356854,1,2,0:0:0:0:
393,192,357020,2,0,B|422:214|443:249|443:249|428:219|430:189,1,121.499996292114,2|0,3:2|0:0,0:0:0:0:
506,206,357354,6,0,P|415:244|357:322,1,198.000006042481,6|0,3:2|3:2,0:0:0:0:
140,324,357854,1,10,0:0:0:0:
201,229,358020,1,2,3:2:0:0:
357,321,358187,1,2,0:0:0:0:
202,367,358354,6,0,B|229:336|217:296|217:296|185:259|208:204,1,148.50000453186,14|0,3:2|0:0,0:0:0:0:
249,168,358687,1,2,3:2:0:0:
38,259,358854,1,10,0:0:0:0:
121,11,359020,1,10,0:0:0:0:
270,238,359187,1,8,0:0:0:0:
0,95,359354,6,0,B|71:107|71:107|103:149|103:149|194:168,1,198.000006042481,6|0,3:2|3:2,0:0:0:0:
277,8,359854,1,10,0:0:0:0:
152,85,360020,2,0,L|231:68,1,80.9999975280763,2|0,3:2|0:0,0:0:0:0:
379,139,360354,2,0,B|321:151|301:108|301:108|310:90|307:75,1,121.499996292114,10|0,0:0|0:0,0:0:0:0:
277,8,360687,1,2,3:2:0:0:
247,167,360854,1,2,0:0:0:0:
391,52,361020,2,0,P|447:20|506:41,1,121.499996292114,2|0,3:2|0:0,0:0:0:0:
498,34,361354,6,0,P|485:52|482:86,1,40.4999987640381,6|0,3:2|0:0,0:0:0:0:
379,139,361520,2,0,P|382:160|404:187,1,40.4999987640381,2|0,0:0|0:0,0:0:0:0:
369,297,361687,2,0,P|387:310|420:313,1,40.4999987640381,2|0,3:2|0:0,0:0:0:0:
512,242,361854,2,0,P|494:229|460:226,1,40.4999987640381,10|0,0:0|0:0,0:0:0:0:
487,384,362020,2,0,L|466:283,1,80.9999975280763,2|0,0:0|3:2,0:0:0:0:
334,384,362354,6,0,P|288:346|222:349,1,121.499996292114,10|0,0:0|0:0,0:0:0:0:
157,373,362687,1,2,3:2:0:0:
175,232,362854,1,2,0:0:0:0:
79,363,363020,2,0,B|68:339|28:331|28:331|62:316|69:277,1,121.499996292114,2|0,3:2|0:0,0:0:0:0:
0,267,363354,6,0,P|89:286|182:223,1,198.000006042481,6|0,3:2|3:2,0:0:0:0:
63,56,363854,1,10,0:0:0:0:
39,199,364020,2,0,P|77:208|113:190,1,80.9999975280763,2|0,3:2|0:0,0:0:0:0:
277,113,364354,2,0,P|218:116|177:158,1,121.499996292114,10|0,0:0|0:0,0:0:0:0:
176,232,364687,1,2,3:2:0:0:
70,131,364854,1,2,0:0:0:0:
252,189,365020,2,0,B|255:216|271:236|271:236|239:265|242:313,1,121.499996292114,2|0,3:2|0:0,0:0:0:0:
200,360,365354,6,0,B|244:389|289:360|289:360|293:363|293:363|330:320|388:338,1,198.000006042481,6|0,3:2|3:2,0:0:0:0:
512,384,365854,1,10,0:0:0:0:
464,293,366020,1,2,3:2:0:0:
342,252,366187,1,2,0:0:0:0:
200,360,366354,6,0,P|163:314|75:332,1,148.50000453186,14|0,0:0|0:0,0:0:0:0:
28,379,366687,1,2,3:2:0:0:
252,189,366854,1,10,0:0:0:0:
0,55,367020,1,10,0:0:0:0:
12,306,367187,1,8,0:0:0:0:
293,108,367354,6,0,B|241:80|190:119|190:119|175:170|117:167,1,198.000006042481,6|0,3:2|3:2,0:0:0:0:
96,44,367854,1,10,0:0:0:0:
252,189,368020,2,0,L|237:282,1,80.9999975280763,2|0,3:2|0:0,0:0:0:0:
374,384,368354,2,0,L|359:290,1,80.9999975280763,10|0,0:0|0:0,0:0:0:0:
267,360,368687,1,2,3:2:0:0:
413,214,368854,1,2,0:0:0:0:
479,340,369020,2,0,B|452:305|412:321|412:321|439:338|444:366,1,121.499996292114,2|0,3:2|0:0,0:0:0:0:
374,384,369354,6,0,B|403:324|375:285|375:285|321:254|341:187,1,198.000006042481,6|0,3:2|3:2,0:0:0:0:
462,35,369854,1,10,0:0:0:0:
413,214,370020,2,0,B|431:207|454:210|454:210|445:188|446:162,1,80.9999975280763,2|0,0:0|3:0,0:0:0:0:
310,44,370354,2,0,B|277:57|249:48|249:48|267:70|261:106,1,121.499996292114,10|0,0:0|0:0,0:0:0:0:
342,122,370687,1,2,3:2:0:0:
186,3,370854,1,2,0:0:0:0:
139,163,371020,2,0,B|136:110|190:93|190:93|176:111|177:132,1,121.499996292114,2|0,3:2|0:0,0:0:0:0:
223,186,371354,6,0,P|186:136|47:130,1,198.000006042481,6|0,3:2|3:0,0:0:0:0:
0,272,371854,1,10,0:0:0:0:
144,279,372020,2,0,B|138:243|100:240|100:240|108:257|106:271,1,80.9999975280763,2|0,3:2|0:0,0:0:0:0:
180,363,372354,2,0,B|240:352|240:352|244:348|244:348|316:337,1,121.499996292114,14|0,0:0|0:0,0:0:0:0:
371,326,372687,1,2,3:2:0:0:
223,186,372854,1,2,0:0:0:0:
394,211,373020,2,0,B|426:192|450:163|450:163|435:192|441:216,1,121.499996292114,2|0,3:2|0:0,0:0:0:0:
512,205,373354,6,0,B|419:190|419:190|412:186|412:186|307:169,1,198.000006042481,6|0,3:2|3:2,0:0:0:0:
93,135,373854,1,10,0:0:0:0:
129,231,374020,1,2,3:2:0:0:
256,253,374187,1,2,0:0:0:0:
360,100,374354,6,0,B|307:78|279:47|279:47|296:75|296:112,1,148.50000453186,14|0,0:0|0:0,0:0:0:0:
317,171,374687,1,2,3:2:0:0:
483,10,374854,1,10,0:0:0:0:
215,98,375020,1,10,0:0:0:0:
428,281,375187,1,8,0:0:0:0:
360,100,375354,5,6,3:2:0:0:
492,153,375520,1,2,3:2:0:0:
428,281,375687,1,10,0:0:0:0:
334,248,375854,1,2,3:2:0:0:
409,183,376020,1,10,0:0:0:0:
428,281,376187,1,2,3:2:0:0:
353,346,376354,5,10,0:0:0:0:
431,293,376520,1,2,0:0:0:0:
352,336,376687,1,2,3:2:0:0:
432,303,376854,1,2,0:0:0:0:
353,325,377021,1,2,0:0:0:0:
427,313,377187,1,2,3:2:0:0:
353,317,377354,5,6,3:2:0:0:
421,320,377520,1,10,0:0:0:0:
311,380,377687,1,2,3:2:0:0:
216,297,377854,5,2,3:2:0:0:
92,254,378020,1,2,0:0:0:0:
11,358,378187,1,2,3:2:0:0:
198,313,378354,5,10,0:0:0:0:
98,278,378520,1,2,0:0:0:0:
34,361,378687,1,2,3:2:0:0:
182,324,378854,5,2,3:2:0:0:
102,296,379020,1,2,0:0:0:0:
50,362,379187,1,10,0:0:0:0:
172,343,379353,5,6,3:2:0:0:
182,324,379465,1,2,0:0:0:0:
198,313,379576,1,2,0:0:0:0:
221,304,379687,1,2,0:0:0:0:
258,304,379798,1,2,0:0:0:0:
290,331,379909,1,2,0:0:0:0:
319,373,380020,1,2,0:0:0:0:
372,382,380131,1,2,0:0:0:0:
431,363,380242,1,2,0:0:0:0:
462,310,380353,5,2,3:2:0:0:
398,317,380465,1,2,0:0:0:0:
347,277,380576,1,2,0:0:0:0:
340,213,380687,1,2,3:2:0:0:
380,163,380798,1,2,0:0:0:0:
444,156,380909,1,2,0:0:0:0:
494,196,381020,1,2,3:2:0:0:
430,202,381131,1,2,0:0:0:0:
380,162,381242,1,2,0:0:0:0:
335,96,381353,5,2,3:2:0:0:
275,70,381464,1,2,0:0:0:0:
207,97,381575,1,2,0:0:0:0:
154,153,381687,1,2,3:2:0:0:
77,159,381798,1,2,0:0:0:0:
28,98,381909,1,2,0:0:0:0:
53,23,382020,1,2,3:2:0:0:
68,65,382131,1,2,0:0:0:0:
103,80,382242,1,2,0:0:0:0:
137,77,382353,1,2,3:2:0:0:
155,65,382465,1,2,0:0:0:0:
159,53,382576,1,2,0:0:0:0:
151,43,382687,5,2,3:2:0:0:
174,66,382798,1,2,0:0:0:0:
220,84,382909,1,2,0:0:0:0:
282,81,383020,1,2,3:2:0:0:
342,44,383131,1,2,0:0:0:0:
417,17,383242,1,2,0:0:0:0:
490,53,383353,1,2,3:2:0:0:
490,53,384020,6,0,P|493:65|506:75,2,17.9999994506836,0|0|0,3:0|3:0|3:0,0:0:0:0:
489,46,384187,1,0,3:2:0:0:
494,42,384242,1,0,3:2:0:0:
501,44,384298,1,0,3:2:0:0:
503,50,384353,6,0,B|551:103|505:155|505:155|508:162|508:162|454:183|475:248,1,216,14|0,0:0|0:0,0:0:0:0:
501,307,384687,1,2,3:2:0:0:
409,96,384853,1,2,3:2:0:0:
296,324,385020,2,0,B|358:310|358:310|362:305|362:305|434:289,1,125.999996154785,2|0,0:0|3:2,0:0:0:0:
207,196,385353,5,6,3:2:0:0:
37,384,385520,2,0,B|-5:361|-2:311|-2:311|12:328|28:334,1,125.999996154785,8|0,0:0|3:2,0:0:0:0:
239,384,385853,1,2,3:2:0:0:
57,259,386020,1,2,0:0:0:0:
279,169,386187,1,2,3:2:0:0:
151,384,386353,6,0,B|111:355|118:310|118:310|158:257|114:205,1,188.999994232178,14|0,0:0|0:0,0:0:0:0:
53,178,386687,1,0,3:2:0:0:
207,196,386853,1,0,3:2:0:0:
144,12,387020,2,0,B|134:71|134:71|130:74|130:74|120:143,1,125.999996154785,10|0,0:0|3:2,0:0:0:0:
4,0,387353,5,6,3:2:0:0:
207,196,387520,1,0,3:2:0:0:
407,57,387687,1,2,3:2:0:0:
296,3,387853,1,0,3:2:0:0:
341,229,388020,2,0,B|375:192|309:127|270:176,1,125.999996154785,2|0,0:0|3:2,0:0:0:0:
41,359,388353,6,0,B|115:413|191:342|191:342|189:336|189:336|262:386|351:312|351:312|356:311|356:311|301:320|271:269,1,432,14|0,0:0|3:2,0:0:0:0:
54,245,389020,2,0,B|4:251|-3:295|-3:295|23:277|49:287,1,125.999996154785,2|0,0:0|3:2,0:0:0:0:
223,118,389353,5,6,3:2:0:0:
123,277,389520,2,0,B|143:243|128:213|128:213|95:182|106:147,1,125.999996154785,8|2,0:0|0:0,0:0:0:0:
237,41,389853,1,0,3:2:0:0:
7,158,390020,1,2,3:2:0:0:
76,0,390187,1,0,3:2:0:0:
207,196,390353,5,8,0:0:0:0:
422,91,390520,2,0,B|427:40|364:7|320:48|320:48|316:78|298:90,1,188.999994232178,8|0,0:0|0:0,0:0:0:0:
223,118,390853,1,0,3:2:0:0:
395,243,391020,2,0,L|467:227,1,62.9999980773926,4|0,0:0|0:0,0:0:0:0:
286,163,391187,1,0,3:2:0:0:
211,376,391353,6,0,P|141:313|50:334,1,188.999994232178,6|0,3:2|0:0,0:0:0:0:
0,376,391687,1,10,3:2:0:0:
98,163,391853,1,2,3:2:0:0:
273,279,392020,2,0,B|285:249|317:234|317:234|284:245|251:233,1,125.999996154785,2|0,0:0|3:2,0:0:0:0:
54,330,392353,6,0,B|82:277|48:237|48:237|51:233|51:233|1:196|25:138,1,188.999994232178,14|0,0:0|0:0,0:0:0:0:
60,92,392687,1,2,3:2:0:0:
195,278,392853,1,2,3:2:0:0:
188,57,393020,2,0,B|142:48|116:28|116:28|141:57|140:81,1,125.999996154785,2|0,0:0|3:2,0:0:0:0:
187,204,393353,5,6,3:2:0:0:
435,159,393520,2,0,B|378:146|378:146|374:143|374:143|313:130,1,125.999996154785,8|2,0:0|3:2,0:0:0:0:
474,36,393853,1,0,3:2:0:0:
451,274,394020,2,0,B|506:264|500:208|500:208|488:224|465:231,1,125.999996154785,2|0,0:0|3:2,0:0:0:0:
195,278,394353,6,0,B|251:252|299:290|299:290|305:291|305:291|313:342|357:352,1,188.999994232178,14|0,3:2|0:0,0:0:0:0:
377,283,394687,1,0,3:2:0:0:
230,377,394853,1,0,3:2:0:0:
71,209,395020,2,0,B|29:171|-27:225|9:266,1,125.999996154785,2|8,0:0|0:0,0:0:0:0:
128,356,395353,5,6,3:2:0:0:
329,214,395520,1,8,0:0:0:0:
51,94,395687,1,0,3:2:0:0:
83,292,395853,1,0,3:2:0:0:
169,60,396020,2,0,B|146:15|95:24|95:24|124:43|122:72,1,125.999996154785,2|0,0:0|3:2,0:0:0:0:
273,273,396353,6,0,B|329:322|394:270|394:270|398:275|398:275|466:217|540:260|540:260|512:242|494:207,1,360,14|0,0:0|0:0,0:0:0:0:
436,150,396853,2,0,B|446:117|438:81|438:81|450:113|473:124,1,125.999996154785,0|0,3:2|3:2,0:0:0:0:
329,214,397353,5,6,3:2:0:0:
242,24,397520,2,0,B|304:36|304:36|307:41|307:41|380:56,1,125.999996154785,8|2,0:0|0:0,0:0:0:0:
123,189,397853,1,0,3:2:0:0:
271,117,398020,1,2,3:2:0:0:
43,64,398187,1,0,3:2:0:0:
89,320,398353,5,14,0:0:0:0:
165,0,398520,1,8,0:0:0:0:
329,214,398687,1,2,0:0:0:0:
4,145,398853,1,10,0:0:0:0:
198,371,399020,1,10,0:0:0:0:
242,24,399187,1,8,0:0:0:0:
0,247,399353,6,0,B|51:265|88:227|88:227|92:229|92:229|130:178|195:202,1,202.500007724762,6|0,3:2|0:0,0:0:0:0:
247,248,399687,1,2,3:2:0:0:
400,52,399853,1,2,3:2:0:0:
512,277,400020,2,0,B|454:262|473:199|473:199|486:218|510:226,1,135.000005149842,8|0,0:0|3:2,0:0:0:0:
276,384,400353,6,0,B|182:364|182:364|175:356|175:356|67:333,1,202.500007724762,14|0,0:0|0:0,0:0:0:0:
8,320,400687,1,2,3:2:0:0:
161,124,400853,1,2,3:2:0:0:
319,284,401020,2,0,B|303:256|306:219|306:219|284:246|236:248,1,135.000005149842,2|0,0:0|3:2,0:0:0:0:
59,265,401353,5,6,3:2:0:0:
7,64,401520,2,0,B|20:128|20:128|26:133|26:133|41:200,1,135.000005149842,8|0,0:0|3:2,0:0:0:0:
297,137,401853,1,2,3:2:0:0:
156,14,402020,1,2,0:0:0:0:
107,208,402187,1,2,3:2:0:0:
251,74,402353,6,0,B|312:36|366:94|366:94|382:144|439:147,1,202.500007724762,14|0,0:0|0:0,0:0:0:0:
497,137,402687,1,0,3:0:0:0:
469,0,402853,1,0,3:0:0:0:
297,137,403020,2,0,L|319:277,1,135.000005149842,10|0,0:0|3:2,0:0:0:0:
497,137,403353,5,6,3:2:0:0:
454,381,403520,1,8,0:0:0:0:
219,252,403687,1,2,3:2:0:0:
390,199,403853,1,0,3:2:0:0:
332,370,404020,2,0,P|290:335|215:343,1,107.999996704102,2|0,0:0|3:2,0:0:0:0:
12,370,404353,6,0,B|35:398|79:407|148:376|152:300|108:263|108:263|113:257|113:257|12:190|72:88|72:88|72:80|72:80|79:127|127:145,1,512.999986301423,14|0,0:0|3:2,0:0:0:0:
60,316,405020,2,0,B|51:290|28:298|28:298|45:302|52:311,1,62.9999980773926,2|0,0:0|3:2,0:0:0:0:
149,71,405353,5,6,3:2:0:0:
238,332,405520,1,8,0:0:0:0:
397,130,405687,2,0,B|353:120|324:97|324:97|350:123|354:148,1,135.000005149842,2|0,0:0|3:2,0:0:0:0:
488,207,406020,1,2,3:2:0:0:
273,168,406187,1,2,3:2:0:0:
434,17,406353,5,10,0:0:0:0:
512,298,406520,2,0,B|464:320|415:279|425:276|376:216|311:243,1,202.500007724762,8|0,0:0|0:0,0:0:0:0:
254,256,406853,1,0,3:2:0:0:
346,31,407020,2,0,L|271:46,1,67.5000025749208,4|0,0:0|0:0,0:0:0:0:
53,93,407187,1,0,3:2:0:0:
273,168,407353,6,0,P|208:117|101:161,1,202.500007724762,6|0,3:2|0:0,0:0:0:0:
71,225,407687,1,2,3:2:0:0:
166,37,407853,1,2,3:2:0:0:
254,256,408020,2,0,B|288:269|303:300|303:300|307:264|343:221,1,135.000005149842,10|0,0:0|3:2,0:0:0:0:
503,5,408353,6,0,B|466:2|440:37|457:80|457:80|502:137|459:192,1,202.500007724762,14|0,0:0|0:0,0:0:0:0:
433,239,408687,1,2,3:2:0:0:
346,31,408853,1,2,3:2:0:0:
274,168,409020,2,0,B|317:185|354:113|402:138,1,135.000005149842,2|0,0:0|3:2,0:0:0:0:
254,256,409353,5,6,3:2:0:0:
253,91,409520,2,0,B|234:74|190:81|190:81|173:123|197:145,1,135.000005149842,8|2,0:0|3:2,0:0:0:0:
433,239,409853,1,0,3:2:0:0:
216,360,410020,2,0,P|171:317|95:338,1,135.000005149842,2|0,0:0|3:2,0:0:0:0:
7,51,410353,6,0,B|18:111|79:130|133:93|133:93|108:83|104:67,1,202.500007724762,14|0,0:0|0:0,0:0:0:0:
69,0,410687,1,0,3:2:0:0:
18,188,410853,1,0,3:2:0:0:
253,91,411020,2,0,B|208:65|183:40|183:40|205:68|203:87,1,135.000005149842,10|0,0:0|3:2,0:0:0:0:
254,256,411353,5,6,3:2:0:0:
511,154,411520,1,8,0:0:0:0:
355,352,411687,1,0,3:2:0:0:
312,168,411853,1,0,3:2:0:0:
477,363,412020,2,0,B|527:340|504:283|504:283|483:308|445:308,1,135.000005149842,2|0,0:0|3:2,0:0:0:0:
223,374,412353,6,0,B|174:395|116:353|112:288|112:288|103:286|103:286|114:219|21:150|-70:247|-33:328|27:340,1,459.00000875473,14|0,0:0|3:2,0:0:0:0:
199,303,413020,2,0,B|233:288|261:248|261:248|244:283|257:306,1,125.999996154785,2|0,0:0|3:2,0:0:0:0:
72,384,413353,5,6,3:2:0:0:
199,182,413520,2,0,P|243:273|336:280,1,188.999994232178,8|0,0:0|0:0,0:0:0:0:
393,258,413853,1,0,3:2:0:0:
223,374,414020,1,0,3:2:0:0:
329,206,414187,1,0,3:2:0:0:
512,384,414353,5,10,0:0:0:0:
495,88,414520,2,0,B|435:35|349:68|340:127|340:127|383:137|398:168,1,251.999992309571,8|0,0:0|3:2,0:0:0:0:
381,341,415020,1,2,0:0:0:0:
199,182,415187,1,8,0:0:0:0:
474,189,415353,1,2,0:0:0:0:
474,189,416686,6,0,L|460:273,2,80.9999975280763,2|2|2,0:0|0:0|0:0,0:0:0:0:
512,112,418019,2,0,B|452:85|403:138|403:138|387:202|321:205|321:205|352:187|361:153,1,296.99999093628,2|0,0:0|0:0,0:0:0:0:
292,135,419019,2,0,B|307:112|311:83|311:83|309:106|319:118,1,80.9999975280763,2|0,0:0|0:0,0:0:0:0:
359,160,419353,6,0,P|275:132|160:142,1,188.999994232178,2|0,0:0|0:0,0:0:0:0:
133,195,420019,2,0,B|111:184|89:187|89:187|108:171|106:140,1,80.9999975280763,2|0,0:0|0:0,0:0:0:0:
126,85,420353,6,0,B|70:48|-4:62|-51:122|-48:227|22:272|95:255|95:255|59:317|111:352|152:338|152:338|147:332|147:332|138:283|194:226|263:261|263:261|260:265|260:265|281:382|420:362|420:362|414:359|414:359|441:244|382:200|382:200|389:201|389:201|462:184|496:102|468:51|468:51|474:46|474:46|411:15|311:47|326:154|326:154|297:128|253:130,1,1592.9999513855,2|0,0:0|0:0,0:0:0:0:
