osu file format v14

[General]
AudioFilename: audio.mp3
AudioLeadIn: 0
PreviewTime: 320920
Countdown: 0
SampleSet: Drum
StackLeniency: 0.5
Mode: 0
LetterboxInBreaks: 0
WidescreenStoryboard: 1

[Editor]
Bookmarks: 191770,226120,231220,231820,284695,285970,293320,295120,295720,296170,312145,319120,339820,346945
DistanceSpacing: 1.2
BeatDivisor: 4
GridSize: 32
TimelineZoom: 4.999998

[Metadata]
Title:Chronostasis
TitleUnicode:Chronostasis
Artist:Release Hallucination
ArtistUnicode:Release Hallucination
Creator:Seni
Version:A Brilliant Petal Frozen in an Everlasting Moment
Source:
Tags:m3-38 Japanese Progressive symphonic Metal Rock kaorin emi daiyousei daiyouseii- featured artist fa
BeatmapID:2874408
BeatmapSetID:1392153

[Difficulty]
HPDrainRate:5
CircleSize:4.4
OverallDifficulty:10
ApproachRate:9.7
SliderMultiplier:2
SliderTickRate:1

[Events]
//Background and Video events
0,0,"fffffffffff.jpg",0,0
//Break Periods
2,236220,243925
//Storyboard Layer 0 (Background)
//Storyboard Layer 1 (Fail)
//Storyboard Layer 2 (Pass)
//Storyboard Layer 3 (Foreground)
//Storyboard Layer 4 (Overlay)
//Storyboard Sound Samples

[TimingPoints]
2021,300,4,3,1,70,1,0
20021,272.727272727273,4,3,1,50,1,0
20225,-100,4,2,99,5,0,0
20293,300,4,3,11,50,1,0
20593,-100,4,3,1,50,0,0
20743,-100,4,3,11,50,0,0
21043,-100,4,3,15,50,0,0
21193,-100,4,3,11,50,0,0
21493,-100,4,3,1,50,0,0
21643,333.333333333333,4,2,1,35,1,0
21643,-166.666666666667,4,2,1,35,0,0
22143,277.777777777778,4,2,1,35,1,0
22420,300,4,3,14,70,1,0
22495,-100,4,3,1,70,0,0
22720,-100,4,3,8,70,0,0
26920,-100,4,3,1,70,0,0
27220,-100,4,3,4,70,0,0
27520,-100,4,3,8,70,0,0
31720,-100,4,3,1,70,0,0
32020,-100,4,3,4,70,0,0
32320,-100,4,3,8,70,0,0
36820,-100,4,3,3,70,0,1
39295,-100,4,3,11,70,0,0
39370,-100,4,3,1,70,0,0
39445,-100,4,3,11,70,0,0
39520,-100,4,3,1,70,0,0
39670,-100,4,3,11,70,0,0
39820,-100,4,3,1,70,0,0
40120,-100,4,3,11,70,0,0
40270,-100,4,3,1,70,0,0
40570,-100,4,3,1,20,0,0
40720,-100,4,3,1,30,0,0
40870,-100,4,3,1,40,0,0
41020,-100,4,3,1,50,0,0
41170,-100,4,3,1,60,0,0
41320,-100,4,3,1,70,0,0
41470,-100,4,3,1,80,0,0
41620,-71.4285714285714,4,3,4,85,0,0
41845,-71.4285714285714,4,2,99,5,0,0
41920,-100,4,3,1,60,0,0
41995,-100,4,2,99,5,0,0
42070,-100,4,3,1,60,0,0
42145,-100,4,2,99,5,0,0
42220,-71.4285714285714,4,3,1,60,0,0
42445,-71.4285714285714,4,2,99,5,0,0
42520,-100,4,3,1,60,0,0
43195,-100,4,2,99,5,0,0
43270,-100,4,3,1,60,0,0
43345,-100,4,2,99,5,0,0
43420,-62.5,4,3,1,60,0,0
44020,-83.3333333333333,4,3,1,60,0,0
44245,-83.3333333333333,4,2,99,5,0,0
44320,-83.3333333333333,4,3,1,60,0,0
44395,-83.3333333333333,4,2,99,5,0,0
44470,-83.3333333333333,4,3,1,60,0,0
44545,-83.3333333333333,4,2,99,5,0,0
44620,-166.666666666667,4,3,1,60,0,0
45820,-71.4285714285714,4,3,1,60,0,0
46645,-71.4285714285714,4,2,99,5,0,0
46720,-100,4,3,1,60,0,0
46795,-100,4,2,99,5,0,0
46870,-100,4,3,1,60,0,0
46945,-100,4,2,99,5,0,0
47020,-71.4285714285714,4,3,1,60,0,0
47245,-71.4285714285714,4,2,99,5,0,0
47320,-100,4,3,1,60,0,0
47995,-100,4,2,99,5,0,0
48070,-100,4,3,1,60,0,0
48145,-100,4,2,99,5,0,0
48220,-62.5,4,3,1,60,0,0
48820,-83.3333333333333,4,3,1,60,0,0
49045,-83.3333333333333,4,2,99,5,0,0
49120,-83.3333333333333,4,3,4,60,0,0
49195,-83.3333333333333,4,2,99,5,0,0
49270,-83.3333333333333,4,3,4,60,0,0
49345,-83.3333333333333,4,2,99,5,0,0
49420,-83.3333333333333,4,3,1,60,0,0
49645,-83.3333333333333,4,2,99,5,0,0
49720,-83.3333333333333,4,3,4,60,0,0
50170,-83.3333333333333,4,3,1,60,0,0
50620,-83.3333333333333,4,3,11,60,0,0
50770,-83.3333333333333,4,3,1,60,0,0
51220,-83.3333333333333,4,3,4,60,0,0
51520,-83.3333333333333,4,3,8,60,0,0
53620,-83.3333333333333,4,3,4,60,0,0
53920,-83.3333333333333,4,3,8,60,0,0
55120,-83.3333333333333,4,3,1,60,0,0
55420,-83.3333333333333,4,3,3,60,0,0
55720,-83.3333333333333,4,3,8,60,0,0
56020,-83.3333333333333,4,3,4,60,0,0
56320,-83.3333333333333,4,3,8,60,0,0
58420,-83.3333333333333,4,3,4,60,0,0
58720,-83.3333333333333,4,3,8,60,0,0
59620,-62.5,4,3,4,60,0,0
60070,-125,4,3,6,60,0,0
60670,-83.3333333333333,4,3,6,60,0,0
60820,-83.3333333333333,4,3,4,60,0,0
61120,-83.3333333333333,4,3,8,60,0,0
63220,-83.3333333333333,4,3,4,60,0,0
63520,-83.3333333333333,4,3,8,60,0,0
64720,-83.3333333333333,4,3,1,60,0,0
65020,-83.3333333333333,4,3,3,60,0,0
65320,-83.3333333333333,4,3,4,60,0,0
65620,-83.3333333333333,4,3,8,60,0,0
67720,-83.3333333333333,4,3,4,60,0,0
68020,-83.3333333333333,4,3,8,60,0,0
68320,-83.3333333333333,4,3,1,60,0,0
68620,-83.3333333333333,4,3,8,60,0,0
69920,-83.3333333333333,4,3,11,60,0,0
70320,-83.3333333333333,4,3,4,60,0,0
70420,-71.4285714285714,4,3,4,70,0,0
70645,-71.4285714285714,4,2,99,5,0,0
70720,-100,4,3,1,60,0,0
70795,-100,4,2,99,5,0,0
70870,-100,4,3,1,60,0,0
70945,-100,4,2,99,5,0,0
71020,-71.4285714285714,4,3,1,60,0,0
71245,-71.4285714285714,4,2,99,5,0,0
71320,-100,4,3,1,60,0,0
71995,-100,4,2,99,5,0,0
72070,-100,4,3,1,60,0,0
72145,-100,4,2,99,5,0,0
72220,-62.5,4,3,1,60,0,0
72820,-83.3333333333333,4,3,1,60,0,0
73045,-83.3333333333333,4,2,99,5,0,0
73120,-83.3333333333333,4,3,1,60,0,0
73195,-83.3333333333333,4,2,99,5,0,0
73270,-83.3333333333333,4,3,1,60,0,0
73345,-83.3333333333333,4,2,99,5,0,0
73420,-166.666666666667,4,3,1,60,0,0
74620,-71.4285714285714,4,3,1,60,0,0
75445,-71.4285714285714,4,2,99,5,0,0
75520,-100,4,3,1,60,0,0
75595,-100,4,2,99,5,0,0
75670,-100,4,3,1,60,0,0
75745,-100,4,2,99,5,0,0
75820,-71.4285714285714,4,3,1,60,0,0
76045,-71.4285714285714,4,2,99,5,0,0
76120,-100,4,3,1,60,0,0
76795,-100,4,2,99,5,0,0
76870,-100,4,3,1,60,0,0
76945,-100,4,2,99,5,0,0
77020,-62.5,4,3,1,60,0,0
77620,-71.4285714285714,4,3,1,60,0,0
77845,-71.4285714285714,4,2,99,5,0,0
77920,-100,4,3,4,60,0,0
77995,-100,4,2,99,5,0,0
78070,-100,4,3,4,60,0,0
78145,-100,4,2,99,5,0,0
78220,-100,4,3,4,60,0,0
78520,-83.3333333333333,4,3,4,60,0,0
78820,-66.6666666666667,4,3,1,75,0,0
79045,-66.6666666666667,4,2,99,5,0,0
79120,-166.666666666667,4,3,1,75,0,0
79195,-166.666666666667,4,2,99,5,0,0
79270,-66.6666666666667,4,3,3,75,0,0
79495,-66.6666666666667,4,2,99,5,0,0
79570,-66.6666666666667,4,3,3,75,0,0
79645,-66.6666666666667,4,2,99,5,0,0
79720,-66.6666666666667,4,3,3,75,0,0
79795,-66.6666666666667,4,2,99,5,0,0
79870,-66.6666666666667,4,3,3,75,0,0
79945,-66.6666666666667,4,2,99,5,0,0
80020,-66.6666666666667,4,3,4,60,0,0
80320,-66.6666666666667,4,3,3,60,0,0
80470,-83.3333333333333,4,3,10,60,0,0
84820,-83.3333333333333,4,3,4,60,0,0
85120,-83.3333333333333,4,3,3,60,0,0
85270,-83.3333333333333,4,3,10,60,0,0
88420,-62.5,4,3,10,60,0,0
88870,-125,4,3,10,60,0,0
89470,-83.3333333333333,4,3,10,60,0,0
89620,-83.3333333333333,4,3,4,60,0,0
89920,-83.3333333333333,4,3,3,60,0,0
90070,-83.3333333333333,4,3,10,60,0,0
96520,-83.3333333333333,4,3,4,60,0,0
96745,-83.3333333333333,4,2,99,5,0,0
96820,-83.3333333333333,4,3,3,60,0,0
97120,-83.3333333333333,4,3,10,60,0,0
97420,-83.3333333333333,4,3,3,60,0,0
97770,-83.3333333333333,4,3,11,60,0,0
97920,-83.3333333333333,4,3,1,60,0,0
98020,-83.3333333333333,4,3,3,70,0,0
98320,-83.3333333333333,4,3,7,60,0,0
98395,-83.3333333333333,4,2,99,5,0,0
98470,-83.3333333333333,4,3,9,70,0,0
98695,-83.3333333333333,4,2,99,5,0,0
98770,-83.3333333333333,4,3,9,70,0,0
98995,-83.3333333333333,4,2,99,5,0,0
99070,-83.3333333333333,4,3,9,70,0,0
99220,-83.3333333333333,4,3,4,60,0,0
99520,-83.3333333333333,4,3,20,55,0,0
100270,-83.3333333333333,4,3,8,55,0,0
100420,-83.3333333333333,4,3,1,60,0,0
100720,-83.3333333333333,4,3,8,60,0,0
101020,-83.3333333333333,4,3,4,60,0,0
101320,-83.3333333333333,4,3,8,60,0,0
101470,-83.3333333333333,4,3,1,60,0,0
101920,-83.3333333333333,4,3,8,55,0,0
102295,-83.3333333333333,4,2,99,5,0,0
102370,-83.3333333333333,4,3,8,55,0,0
102520,-83.3333333333333,4,2,99,5,0,0
102595,-83.3333333333333,4,3,8,55,0,0
102745,-83.3333333333333,4,2,99,5,0,0
102820,-83.3333333333333,4,3,1,60,0,0
102970,-83.3333333333333,4,3,11,60,0,0
103270,-83.3333333333333,4,3,12,60,0,0
103420,-83.3333333333333,4,3,1,60,0,0
103720,-83.3333333333333,4,3,1,30,0,0
103795,-83.3333333333333,4,3,1,40,0,0
103870,-83.3333333333333,4,3,1,50,0,0
103945,-83.3333333333333,4,3,1,70,0,0
104020,-83.3333333333333,4,3,14,60,0,0
104095,-83.3333333333333,4,3,1,60,0,0
104470,-83.3333333333333,4,3,14,60,0,0
104545,-83.3333333333333,4,3,1,60,0,0
104920,-83.3333333333333,4,3,14,60,0,0
104995,-83.3333333333333,4,3,1,60,0,0
105220,-83.3333333333333,4,3,14,60,0,0
105295,-83.3333333333333,4,3,1,60,0,0
105520,-83.3333333333333,4,3,14,60,0,0
105595,-83.3333333333333,4,3,1,60,0,0
105970,-83.3333333333333,4,3,14,60,0,0
106045,-83.3333333333333,4,3,1,60,0,0
106420,-66.6666666666667,4,3,1,60,0,0
106495,-66.6666666666667,4,2,99,5,0,0
106570,-66.6666666666667,4,3,1,60,0,0
106645,-66.6666666666667,4,2,99,5,0,0
106720,-66.6666666666667,4,3,1,60,0,0
106795,-66.6666666666667,4,2,99,5,0,0
106870,-66.6666666666667,4,2,1,70,0,0
107620,-76.9230769230769,4,3,14,85,0,1
107920,-76.9230769230769,4,3,8,80,0,1
110245,-76.9230769230769,4,2,99,5,0,1
110320,-76.9230769230769,4,3,8,80,0,1
112645,-76.9230769230769,4,2,99,5,0,1
112720,-76.9230769230769,4,3,8,80,0,1
115045,-76.9230769230769,4,2,99,5,0,1
115120,-76.9230769230769,4,3,8,80,0,1
115420,-76.9230769230769,4,3,8,80,0,1
115645,-76.9230769230769,4,2,99,5,0,1
115720,-76.9230769230769,4,3,8,80,0,1
118495,-76.9230769230769,4,2,99,5,0,1
118570,-76.9230769230769,4,3,8,80,0,1
121045,-76.9230769230769,4,2,99,5,0,1
121120,-76.9230769230769,4,3,8,80,0,1
124420,-76.9230769230769,4,3,1,80,0,1
124720,-76.9230769230769,4,3,8,80,0,1
124870,-76.9230769230769,4,3,1,80,0,1
125020,-76.9230769230769,4,3,8,80,0,1
125320,-76.9230769230769,4,3,3,80,0,1
125720,-166.666666666667,4,3,11,80,0,1
125820,-166.666666666667,4,3,1,80,0,1
125920,-166.666666666667,4,3,1,80,0,0
126070,-166.666666666667,4,2,1,90,0,0
126820,-166.666666666667,4,3,14,70,0,0
126895,-166.666666666667,4,3,1,70,0,0
127120,-166.666666666667,4,3,8,70,0,0
134920,-90.9090909090909,4,3,1,70,0,0
135295,-90.9090909090909,4,3,11,70,0,0
135370,-90.9090909090909,4,3,4,70,0,0
135520,-90.9090909090909,4,3,11,70,0,0
135670,-90.9090909090909,4,3,1,70,0,0
135895,-71.4285714285714,4,3,1,70,0,0
136420,-90.9090909090909,4,3,4,60,0,0
136720,-90.9090909090909,4,3,8,60,0,0
137545,-90.9090909090909,4,2,99,5,0,0
137620,-90.9090909090909,4,3,8,60,0,0
137845,-90.9090909090909,4,2,99,5,0,0
137920,-90.9090909090909,4,3,8,60,0,0
138820,-90.9090909090909,4,3,4,60,0,0
139120,-90.9090909090909,4,3,8,60,0,0
140245,-90.9090909090909,4,2,99,5,0,0
140320,-90.9090909090909,4,3,1,60,0,0
140620,-90.9090909090909,4,3,4,60,0,0
140920,-90.9090909090909,4,3,6,60,0,0
141220,-90.9090909090909,4,3,4,60,0,0
141520,-90.9090909090909,4,3,8,60,0,0
143620,-90.9090909090909,4,3,4,60,0,0
143920,-90.9090909090909,4,3,8,60,0,0
144820,-62.5,4,3,4,60,0,0
145270,-125,4,3,6,60,0,0
145870,-83.3333333333333,4,3,6,60,0,0
146020,-83.3333333333333,4,3,4,60,0,0
146320,-83.3333333333333,4,3,8,60,0,0
148420,-83.3333333333333,4,3,4,60,0,0
148720,-83.3333333333333,4,3,8,60,0,0
149920,-83.3333333333333,4,3,1,60,0,0
150220,-83.3333333333333,4,3,3,60,0,0
150520,-83.3333333333333,4,3,4,60,0,0
150820,-83.3333333333333,4,3,8,60,0,0
154120,-83.3333333333333,4,3,1,60,0,0
155120,-83.3333333333333,4,3,11,60,0,0
155520,-83.3333333333333,4,3,4,60,0,0
155620,-71.4285714285714,4,3,4,60,0,0
155845,-71.4285714285714,4,2,99,5,0,0
155920,-71.4285714285714,4,3,4,60,0,0
156220,-71.4285714285714,4,3,1,60,0,0
156445,-71.4285714285714,4,2,99,5,0,0
156520,-71.4285714285714,4,3,1,60,0,0
157420,-62.5,4,3,1,60,0,0
158020,-83.3333333333333,4,3,1,60,0,0
158245,-83.3333333333333,4,2,99,5,0,0
158320,-100,4,3,1,60,0,0
158395,-100,4,2,99,5,0,0
158470,-100,4,3,1,60,0,0
158545,-100,4,2,99,5,0,0
158620,-166.666666666667,4,3,1,60,0,0
159820,-71.4285714285714,4,3,1,60,0,0
160645,-71.4285714285714,4,2,99,5,0,0
160720,-100,4,3,1,60,0,0
160795,-100,4,2,99,5,0,0
160870,-100,4,3,1,60,0,0
160945,-100,4,2,99,5,0,0
161020,-71.4285714285714,4,3,1,60,0,0
161245,-71.4285714285714,4,2,99,5,0,0
161320,-71.4285714285714,4,3,1,60,0,0
162220,-62.5,4,3,1,60,0,0
162445,-62.5,4,2,99,5,0,0
162520,-100,4,3,1,60,0,0
162595,-100,4,2,99,5,0,0
162670,-100,4,3,1,60,0,0
162745,-100,4,2,99,5,0,0
162820,-71.4285714285714,4,3,1,60,0,0
163045,-71.4285714285714,4,2,99,5,0,0
163120,-71.4285714285714,4,3,1,60,0,0
163720,-83.3333333333333,4,3,1,60,0,0
164020,-71.4285714285714,4,3,3,70,0,0
164470,-71.4285714285714,4,3,6,70,0,0
164695,-71.4285714285714,4,2,99,5,0,0
164770,-71.4285714285714,4,3,6,70,0,0
164995,-71.4285714285714,4,2,99,5,0,0
165070,-71.4285714285714,4,3,6,70,0,0
165145,-71.4285714285714,4,2,99,5,0,0
165220,-71.4285714285714,4,3,4,60,0,0
165520,-71.4285714285714,4,3,3,60,0,0
165670,-83.3333333333333,4,3,10,60,0,0
170020,-83.3333333333333,4,3,4,60,0,0
170320,-83.3333333333333,4,3,3,60,0,0
170470,-83.3333333333333,4,3,10,60,0,0
173620,-62.5,4,3,10,60,0,0
174070,-125,4,3,10,60,0,0
174670,-83.3333333333333,4,3,10,60,0,0
174745,-83.3333333333333,4,3,10,60,0,0
174820,-83.3333333333333,4,3,4,60,0,0
175120,-83.3333333333333,4,3,3,60,0,0
175270,-83.3333333333333,4,3,10,60,0,0
181720,-83.3333333333333,4,3,4,60,0,0
181945,-83.3333333333333,4,2,99,5,0,0
182020,-83.3333333333333,4,3,3,60,0,0
182320,-83.3333333333333,4,3,10,60,0,0
182620,-83.3333333333333,4,3,3,60,0,0
182970,-83.3333333333333,4,3,11,60,0,0
183120,-83.3333333333333,4,3,1,60,0,0
183220,-83.3333333333333,4,3,3,70,0,0
183520,-83.3333333333333,4,3,7,60,0,0
183595,-83.3333333333333,4,2,99,5,0,0
183670,-83.3333333333333,4,3,9,70,0,0
183895,-83.3333333333333,4,2,99,5,0,0
183970,-83.3333333333333,4,3,9,70,0,0
184195,-83.3333333333333,4,2,99,5,0,0
184270,-83.3333333333333,4,3,9,70,0,0
184420,-83.3333333333333,4,3,4,60,0,0
184720,-83.3333333333333,4,3,20,55,0,0
185620,-83.3333333333333,4,3,1,60,0,0
185920,-83.3333333333333,4,3,8,60,0,0
186220,-83.3333333333333,4,3,4,60,0,0
186520,-83.3333333333333,4,3,8,60,0,0
186670,-83.3333333333333,4,3,1,60,0,0
187120,-83.3333333333333,4,3,8,55,0,0
187945,-83.3333333333333,4,2,99,5,0,0
188020,-71.4285714285714,4,3,1,60,0,0
188120,-71.4285714285714,4,2,99,5,0,0
188220,-71.4285714285714,4,3,11,60,0,0
188320,-71.4285714285714,4,2,99,5,0,0
188420,-166.666666666667,4,3,11,60,0,0
188520,-166.666666666667,4,2,99,5,0,0
188620,-71.4285714285714,4,3,1,60,0,0
188720,-71.4285714285714,4,2,99,5,0,0
188820,-71.4285714285714,4,3,11,60,0,0
188920,-71.4285714285714,4,2,99,5,0,0
189020,-166.666666666667,4,3,12,60,0,0
189120,-166.666666666667,4,2,99,5,0,0
189220,-166.666666666667,4,3,12,60,0,0
189370,-166.666666666667,4,3,11,60,0,0
189970,-166.666666666667,4,3,12,60,0,0
190120,-83.3333333333333,4,3,1,60,0,0
190795,-83.3333333333333,4,3,11,60,0,0
190870,-83.3333333333333,4,3,1,60,0,0
191095,-83.3333333333333,4,3,11,60,0,0
191170,-83.3333333333333,4,3,1,60,0,0
191320,-83.3333333333333,4,3,11,60,0,0
191470,-83.3333333333333,4,3,1,60,0,0
192070,-83.3333333333333,4,3,15,60,0,0
192220,-83.3333333333333,4,3,15,65,0,0
192370,-83.3333333333333,4,3,15,70,0,0
192520,-83.3333333333333,4,3,15,75,0,0
192670,-83.3333333333333,4,3,15,80,0,0
192820,-76.9230769230769,4,3,14,85,0,1
193120,-76.9230769230769,4,3,8,80,0,1
195445,-76.9230769230769,4,2,99,5,0,1
195520,-76.9230769230769,4,3,8,80,0,1
197845,-76.9230769230769,4,2,99,5,0,1
197920,-76.9230769230769,4,3,8,80,0,1
200245,-76.9230769230769,4,2,99,5,0,1
200320,-76.9230769230769,4,3,8,80,0,1
200845,-76.9230769230769,4,2,99,5,0,1
200920,-76.9230769230769,4,3,8,80,0,1
202495,-76.9230769230769,4,2,99,5,0,1
202570,-76.9230769230769,4,3,8,80,0,1
204895,-76.9230769230769,4,2,99,5,0,1
204970,-76.9230769230769,4,3,8,80,0,1
206245,-76.9230769230769,4,2,99,5,0,1
206320,-76.9230769230769,4,3,8,80,0,1
208495,-76.9230769230769,4,2,99,5,0,1
208570,-76.9230769230769,4,3,8,80,0,1
209620,-76.9230769230769,4,3,1,80,0,1
209920,-76.9230769230769,4,3,8,80,0,1
210070,-76.9230769230769,4,3,1,80,0,1
210520,-76.9230769230769,4,3,3,80,0,1
210820,-76.9230769230769,4,3,1,70,0,1
211270,-76.9230769230769,4,3,11,70,0,1
211570,-76.9230769230769,4,3,1,70,0,1
212020,-125,4,3,1,70,0,0
212320,-125,4,3,24,60,0,0
214320,-125,4,2,99,5,0,0
214420,-125,4,3,1,60,0,0
214520,-125,4,3,2,20,0,0
214720,-100,4,3,2,25,0,0
215020,-83.3333333333333,4,3,2,30,0,0
215320,-71.4285714285714,4,3,2,35,0,0
215520,-71.4285714285714,4,3,2,38,0,0
215720,-100,4,3,2,41,0,0
215920,-100,4,3,2,45,0,0
216020,-83.3333333333333,4,3,2,45,0,0
216120,-83.3333333333333,4,3,2,50,0,0
216320,-71.4285714285714,4,3,2,60,0,0
216520,-71.4285714285714,4,3,2,70,0,0
216620,-62.5,4,3,2,70,0,0
216820,-62.5,4,3,4,60,0,0
217120,-90.9090909090909,4,3,10,60,0,0
221620,-90.9090909090909,4,3,4,60,0,0
221920,-90.9090909090909,4,3,10,60,0,0
226420,-90.9090909090909,4,3,4,60,0,0
226720,-90.9090909090909,4,3,10,60,0,0
231220,-90.9090909090909,4,3,4,60,0,0
231520,-90.9090909090909,4,3,11,60,0,0
231620,-90.9090909090909,4,3,12,60,0,0
231720,-90.9090909090909,4,3,4,60,0,0
231820,-90.9090909090909,4,3,1,60,0,0
232120,-90.9090909090909,4,3,12,60,0,0
232220,-90.9090909090909,4,3,11,60,0,0
232320,-90.9090909090909,4,3,12,60,0,0
232420,-90.9090909090909,4,3,1,60,0,0
232820,-90.9090909090909,4,3,11,60,0,0
232920,-90.9090909090909,4,3,12,60,0,0
233020,-90.9090909090909,4,3,1,60,0,0
233320,-90.9090909090909,4,3,12,60,0,0
233420,-90.9090909090909,4,3,11,60,0,0
233520,-90.9090909090909,4,3,12,60,0,0
233620,-90.9090909090909,4,3,1,60,0,0
233920,-90.9090909090909,4,3,11,60,0,0
234020,-90.9090909090909,4,3,12,60,0,0
234120,-90.9090909090909,4,3,1,60,0,0
234520,-83.3333333333333,4,3,12,60,0,0
234620,-83.3333333333333,4,3,11,60,0,0
234720,-83.3333333333333,4,3,12,60,0,0
234820,-83.3333333333333,4,3,11,60,0,0
234920,-200,4,3,11,60,0,0
235720,-200,4,3,12,60,0,0
236020,-200,4,3,4,60,0,0
236320,-200,4,3,9,60,0,0
236620,-200,4,3,10,60,0,0
236920,-200,4,3,9,45,0,0
237220,-200,4,3,10,60,0,0
237520,-200,4,3,9,60,0,0
237820,-200,4,3,10,60,0,0
238120,-200,4,3,9,45,0,0
238420,-200,4,3,4,60,0,0
238720,-200,4,3,9,60,0,0
239020,-200,4,3,10,60,0,0
239320,-200,4,3,10,20,0,0
239420,-200,4,3,10,40,0,0
239520,-200,4,3,10,60,0,0
239620,-200,4,3,4,60,0,0
239920,-200,4,3,9,60,0,0
240370,-200,4,3,11,60,0,0
240670,-200,4,3,12,60,0,0
240820,-200,4,3,4,60,0,0
241120,-200,4,3,9,60,0,0
241420,-200,4,3,10,60,0,0
241720,-200,4,3,9,45,0,0
242020,-200,4,3,10,60,0,0
242320,-200,4,3,9,60,0,0
242620,-200,4,3,10,60,0,0
242920,-200,4,3,9,45,0,0
243220,-200,4,3,4,60,0,0
243520,-200,4,3,9,60,0,0
243820,-200,4,3,10,60,0,0
243970,-200,4,3,10,30,0,0
244045,-200,4,3,10,45,0,0
244120,-200,4,3,10,60,0,0
244420,-200,4,3,1,60,0,0
245620,-142.857142857143,4,3,4,60,0,0
245920,-142.857142857143,4,3,25,60,0,0
246145,-142.857142857143,4,2,99,5,0,0
246220,-142.857142857143,4,3,10,60,0,0
246520,-142.857142857143,4,3,9,45,0,0
246820,-142.857142857143,4,3,10,60,0,0
247120,-142.857142857143,4,3,26,60,0,0
247345,-142.857142857143,4,2,99,5,0,0
247420,-142.857142857143,4,3,10,60,0,0
247720,-142.857142857143,4,3,9,45,0,0
248020,-142.857142857143,4,3,4,60,0,0
248320,-142.857142857143,4,3,25,60,0,0
248545,-142.857142857143,4,2,99,5,0,0
248620,-142.857142857143,4,3,10,60,0,0
248920,-142.857142857143,4,3,10,20,0,0
249020,-142.857142857143,4,3,10,40,0,0
249120,-142.857142857143,4,3,10,60,0,0
249220,-142.857142857143,4,3,4,60,0,0
249420,-100,4,3,4,60,0,0
249520,-100,4,3,9,60,0,0
249970,-100,4,3,11,60,0,0
250270,-100,4,3,12,60,0,0
250420,-142.857142857143,4,3,4,60,0,0
250720,-142.857142857143,4,3,25,60,0,0
250945,-142.857142857143,4,2,99,5,0,0
251020,-142.857142857143,4,3,10,60,0,0
251320,-142.857142857143,4,3,9,45,0,0
251620,-142.857142857143,4,3,10,60,0,0
251920,-142.857142857143,4,3,26,60,0,0
252145,-142.857142857143,4,2,99,5,0,0
252220,-142.857142857143,4,3,10,60,0,0
252520,-142.857142857143,4,3,9,45,0,0
252820,-142.857142857143,4,3,4,60,0,0
253120,-142.857142857143,4,3,25,60,0,0
253420,-142.857142857143,4,3,10,60,0,0
253570,-142.857142857143,4,3,10,30,0,0
253645,-142.857142857143,4,3,10,45,0,0
253720,-142.857142857143,4,3,10,60,0,0
254020,-142.857142857143,4,3,1,60,0,0
254395,-142.857142857143,4,2,99,5,0,0
254470,-142.857142857143,4,3,1,60,0,0
254845,-142.857142857143,4,2,99,5,0,0
254920,-142.857142857143,4,3,1,60,0,0
255070,-142.857142857143,4,3,1,60,0,0
255119,-142.857142857143,4,2,99,5,0,0
255220,-142.857142857143,4,3,4,60,0,0
255520,-142.857142857143,4,3,25,60,0,0
255670,-142.857142857143,4,2,99,5,0,0
255820,-142.857142857143,4,3,10,60,0,0
256120,-142.857142857143,4,3,9,45,0,0
256420,-142.857142857143,4,3,10,60,0,0
256720,-142.857142857143,4,3,26,60,0,0
257020,-142.857142857143,4,3,10,60,0,0
257320,-142.857142857143,4,3,9,45,0,0
257620,-142.857142857143,4,3,4,60,0,0
257920,-142.857142857143,4,3,25,60,0,0
258145,-142.857142857143,4,2,99,5,0,0
258220,-142.857142857143,4,3,10,60,0,0
258520,-142.857142857143,4,3,10,20,0,0
258620,-142.857142857143,4,3,10,40,0,0
258720,-142.857142857143,4,3,10,60,0,0
258820,-142.857142857143,4,3,4,60,0,0
259020,-100,4,3,4,60,0,0
259120,-100,4,3,9,60,0,0
259570,-100,4,3,11,60,0,0
259870,-100,4,3,12,60,0,0
260020,-142.857142857143,4,3,4,60,0,0
260245,-142.857142857143,4,2,99,5,0,0
260320,-142.857142857143,4,3,9,60,0,0
260470,-142.857142857143,4,2,99,5,0,0
260620,-142.857142857143,4,3,10,60,0,0
260920,-142.857142857143,4,3,9,45,0,0
261220,-142.857142857143,4,3,10,60,0,0
261445,-142.857142857143,4,2,99,5,0,0
261520,-142.857142857143,4,3,9,60,0,0
261670,-142.857142857143,4,2,99,5,0,0
261820,-142.857142857143,4,3,10,60,0,0
262120,-142.857142857143,4,3,9,45,0,0
262420,-142.857142857143,4,3,4,60,0,0
262645,-142.857142857143,4,2,99,5,0,0
262720,-142.857142857143,4,3,9,60,0,0
262870,-142.857142857143,4,2,99,5,0,0
263020,-142.857142857143,4,3,10,60,0,0
263170,-142.857142857143,4,3,10,30,0,0
263245,-142.857142857143,4,3,10,45,0,0
263320,-142.857142857143,4,3,10,60,0,0
263620,-142.857142857143,4,3,1,60,0,0
263995,-142.857142857143,4,2,99,5,0,0
264070,-142.857142857143,4,3,1,60,0,0
264445,-142.857142857143,4,2,99,5,0,0
264520,-142.857142857143,4,3,1,60,0,0
264670,-142.857142857143,4,2,99,5,0,0
264820,-117.647058823529,4,3,4,60,0,0
265045,-117.647058823529,4,2,99,5,0,0
265120,-117.647058823529,4,3,9,60,0,0
265345,-117.647058823529,4,2,99,5,0,0
265420,-117.647058823529,4,3,10,60,0,0
265720,-117.647058823529,4,3,9,45,0,0
266020,-117.647058823529,4,3,10,60,0,0
266245,-117.647058823529,4,2,99,5,0,0
266320,-117.647058823529,4,3,9,60,0,0
266545,-117.647058823529,4,2,99,5,0,0
266620,-117.647058823529,4,3,10,60,0,0
266920,-117.647058823529,4,3,9,45,0,0
267220,-117.647058823529,4,3,4,60,0,0
267445,-117.647058823529,4,2,99,5,0,0
267520,-117.647058823529,4,3,9,60,0,0
267745,-117.647058823529,4,2,99,5,0,0
267820,-117.647058823529,4,3,10,60,0,0
268120,-117.647058823529,4,3,10,20,0,0
268220,-117.647058823529,4,3,10,40,0,0
268320,-117.647058823529,4,3,10,60,0,0
268420,-117.647058823529,4,3,4,60,0,0
268720,-117.647058823529,4,3,9,60,0,0
269170,-117.647058823529,4,3,11,60,0,0
269470,-117.647058823529,4,3,12,60,0,0
269620,-117.647058823529,4,3,4,60,0,0
269920,-117.647058823529,4,3,25,60,0,0
270070,-117.647058823529,4,2,99,5,0,0
270220,-117.647058823529,4,3,10,60,0,0
270520,-117.647058823529,4,3,9,45,0,0
270820,-117.647058823529,4,3,10,60,0,0
271045,-117.647058823529,4,2,99,5,0,0
271120,-117.647058823529,4,3,9,60,0,0
271420,-117.647058823529,4,3,10,60,0,0
271720,-117.647058823529,4,3,9,45,0,0
272020,-117.647058823529,4,3,4,60,0,0
272245,-117.647058823529,4,2,99,5,0,0
272320,-117.647058823529,4,3,9,60,0,0
272545,-117.647058823529,4,2,99,5,0,0
272620,-117.647058823529,4,3,10,60,0,0
272770,-117.647058823529,4,3,10,30,0,0
272845,-117.647058823529,4,3,10,45,0,0
272920,-117.647058823529,4,3,10,60,0,0
273220,-133.333333333333,4,3,1,60,0,0
273445,-133.333333333333,4,2,99,5,0,0
273520,-76.9230769230769,4,3,1,60,0,0
273670,-133.333333333333,4,2,99,5,0,0
273820,-133.333333333333,4,3,1,60,0,0
274045,-133.333333333333,4,2,99,5,0,0
274120,-76.9230769230769,4,3,1,60,0,0
274270,-117.647058823529,4,2,99,5,0,0
274420,-117.647058823529,4,3,5,60,0,0
274720,-117.647058823529,4,1,0,50,0,0
275620,-95.2380952380952,4,3,5,60,0,0
275845,-95.2380952380952,4,2,99,5,0,0
275920,-95.2380952380952,4,3,5,60,0,0
276220,-95.2380952380952,4,1,0,50,0,0
276820,-95.2380952380952,4,3,1,60,0,0
277270,-95.2380952380952,4,3,5,60,0,0
277345,-95.2380952380952,4,2,99,5,0,0
277420,-95.2380952380952,4,3,5,60,0,0
277720,-95.2380952380952,4,1,0,50,0,0
278020,-95.2380952380952,4,3,1,60,0,0
278170,-95.2380952380952,4,3,11,60,0,0
278470,-95.2380952380952,4,3,7,60,0,0
278620,-95.2380952380952,4,3,8,60,0,0
278770,-95.2380952380952,4,3,2,60,0,0
278845,-95.2380952380952,4,2,99,5,0,0
278920,-95.2380952380952,4,3,2,60,0,0
279070,-95.2380952380952,4,3,7,60,0,0
279220,-95.2380952380952,4,3,11,60,0,0
279295,-95.2380952380952,4,3,1,60,0,0
279370,-95.2380952380952,4,3,11,60,0,0
279520,-95.2380952380952,4,3,1,60,0,0
279595,-95.2380952380952,4,3,11,60,0,0
279745,-95.2380952380952,4,3,12,60,0,0
279820,300,4,3,5,60,1,0
281020,-100,4,3,4,60,0,0
281320,-100,4,3,5,60,0,0
281920,300,4,3,1,60,1,0
282220,-100,4,3,4,60,0,0
282670,-100,4,3,5,60,0,0
282820,-100,4,3,6,60,0,0
283420,-100,4,3,5,60,0,0
283495,-100,4,3,10,60,0,0
283870,-100,4,3,11,60,0,0
284170,-100,4,3,7,60,0,0
284320,-100,4,3,8,60,0,0
284470,-100,4,3,2,60,0,0
284920,-100,4,3,11,60,0,0
284995,-100,4,3,2,60,0,0
285070,-100,4,3,11,60,0,0
285145,-100,4,3,12,60,0,0
285220,-100,4,3,2,60,0,0
285295,-100,4,3,11,60,0,0
285445,-100,4,3,12,60,0,0
285520,-100,4,3,1,60,0,0
285820,-100,4,3,4,60,0,0
286420,-100,4,3,8,60,0,0
286720,-100,4,3,4,60,0,0
287470,-100,4,3,4,40,0,0
287545,-100,4,3,4,50,0,0
287620,-100,4,3,4,60,0,0
287695,-100,4,3,4,70,0,0
287770,-100,4,3,11,60,0,0
287920,-100,4,3,3,60,0,0
288220,-100,4,3,4,60,0,0
291820,-100,4,3,11,60,0,0
291970,-100,4,3,4,60,0,0
292120,-100,4,3,11,60,0,0
292570,-100,4,3,1,60,0,0
293320,300,4,3,4,60,1,0
293620,-100,4,3,3,60,0,0
293770,-100,4,3,10,60,0,0
296770,-83.3333333333333,4,3,10,60,0,0
297820,-83.3333333333333,4,3,27,60,0,0
297970,-83.3333333333333,4,3,10,60,0,0
298120,-83.3333333333333,4,3,4,60,0,0
298420,-83.3333333333333,4,3,3,60,0,0
298570,-83.3333333333333,4,3,10,60,0,0
301420,-83.3333333333333,4,3,3,60,0,0
301645,-83.3333333333333,4,3,3,30,0,0
301720,-83.3333333333333,4,3,3,60,0,0
301795,-83.3333333333333,4,3,11,60,0,0
301870,-83.3333333333333,4,3,12,60,0,0
301945,-83.3333333333333,4,3,11,60,0,0
302020,-83.3333333333333,4,3,3,60,0,0
302245,-83.3333333333333,4,3,11,60,0,0
302470,-83.3333333333333,4,3,1,60,0,0
302920,-71.4285714285714,4,3,4,60,0,0
303220,-71.4285714285714,4,3,3,60,0,0
303370,-71.4285714285714,4,3,10,60,0,0
304945,-71.4285714285714,4,2,99,5,0,0
305020,-71.4285714285714,4,3,10,60,0,0
306820,-71.4285714285714,4,3,3,60,0,0
307120,-71.4285714285714,4,3,10,60,0,0
307420,-83.3333333333333,4,3,3,60,0,0
307720,-83.3333333333333,4,3,4,60,0,0
308020,-83.3333333333333,4,3,9,60,0,0
309820,-83.3333333333333,4,3,6,60,0,0
310120,-83.3333333333333,4,3,6,75,0,0
311770,-83.3333333333333,4,3,15,75,0,0
311995,-83.3333333333333,4,3,15,75,0,0
312070,-83.3333333333333,4,3,15,75,0,0
312145,-83.3333333333333,4,3,15,75,0,0
312220,-71.4285714285714,4,3,15,75,0,0
312520,-71.4285714285714,4,3,14,60,0,1
312820,-71.4285714285714,4,3,10,60,0,1
314320,-71.4285714285714,4,3,14,60,0,1
314395,-71.4285714285714,4,3,0,60,0,1
314620,-71.4285714285714,4,3,10,60,0,1
314920,-71.4285714285714,4,3,14,60,0,1
314995,-71.4285714285714,4,3,0,60,0,1
315220,-71.4285714285714,4,3,10,60,0,1
315520,-71.4285714285714,4,3,14,60,0,1
315595,-71.4285714285714,4,3,0,60,0,1
315820,-71.4285714285714,4,3,10,60,0,1
317020,-55.5555555555556,4,3,10,60,0,0
317320,-55.5555555555556,4,3,14,60,0,1
317620,-55.5555555555556,4,3,10,60,0,1
319120,-55.5555555555556,4,3,14,60,0,1
319195,-55.5555555555556,4,3,0,60,0,1
319420,-55.5555555555556,4,3,10,60,0,1
319720,-55.5555555555556,4,3,14,60,0,1
319795,-55.5555555555556,4,3,0,60,0,1
320020,-55.5555555555556,4,3,4,60,0,1
320320,-66.6666666666667,4,3,14,60,0,1
320545,-66.6666666666667,4,2,99,5,0,1
320620,-66.6666666666667,4,3,1,60,0,1
320770,-66.6666666666667,4,3,1,45,0,1
320920,-66.6666666666667,4,3,4,60,0,1
321070,-66.6666666666667,4,3,4,30,0,1
321220,-66.6666666666667,4,3,4,45,0,1
321370,-66.6666666666667,4,3,4,60,0,1
321445,-66.6666666666667,4,2,99,5,0,1
321520,-66.6666666666667,4,3,4,60,0,1
321595,-66.6666666666667,4,2,99,5,0,1
321670,-66.6666666666667,4,3,11,60,0,1
321745,-66.6666666666667,4,2,99,5,0,1
321820,-66.6666666666667,4,3,11,60,0,1
321895,-66.6666666666667,4,2,99,5,0,1
321970,-66.6666666666667,4,3,12,60,0,1
322045,-66.6666666666667,4,2,99,5,0,1
322120,-100,4,3,14,80,0,0
322345,-100,4,2,99,5,0,0
322420,-100,4,3,1,20,0,0
322570,-100,4,3,1,40,0,0
322720,-100,4,3,1,70,0,0
323170,-100,4,3,1,45,0,0
323320,-100,4,3,1,70,0,0
324970,-100,4,3,1,45,0,0
325120,-100,4,3,1,70,0,0
325570,-100,4,3,1,45,0,0
325720,-100,4,3,1,70,0,0
326920,-100,4,3,4,70,0,0
327145,-100,4,2,99,5,0,0
327220,-100,4,3,1,20,0,0
327370,-100,4,3,1,40,0,0
327520,-100,4,3,1,70,0,0
327970,-100,4,3,1,45,0,0
328120,-100,4,3,1,70,0,0
328645,-100,4,2,99,5,0,0
328720,-100,4,3,1,70,0,0
329770,-100,4,3,1,45,0,0
329920,-100,4,3,1,70,0,0
330370,-100,4,3,1,45,0,0
330520,-100,4,3,1,70,0,0
331720,-100,4,3,4,70,0,0
331945,-100,4,2,99,5,0,0
332020,-100,4,3,1,20,0,0
332170,-100,4,3,1,40,0,0
332320,-100,4,3,1,70,0,0
332770,-100,4,3,1,45,0,0
332920,-100,4,3,1,70,0,0
334345,-100,4,2,99,5,0,0
334420,-100,4,3,1,70,0,0
334570,-100,4,3,1,45,0,0
334720,-100,4,3,1,70,0,0
335170,-100,4,3,1,45,0,0
335320,-100,4,3,1,70,0,0
335695,-100,4,2,99,5,0,0
335770,-100,4,3,1,70,0,0
336670,-100,4,3,1,60,0,0
338320,-100,4,3,1,70,0,0
338620,-100,4,3,1,80,0,0
338920,-71.4285714285714,4,3,4,90,0,0
339145,-71.4285714285714,4,2,99,5,0,0
339220,-71.4285714285714,4,3,1,70,0,0
339820,-71.4285714285714,4,3,4,70,0,0
341320,-71.4285714285714,4,3,14,85,0,1
341395,-71.4285714285714,4,3,4,80,0,1
341620,-71.4285714285714,4,3,8,80,0,1
342370,-71.4285714285714,4,3,8,80,0,1
344920,-83.3333333333333,4,3,8,80,0,1
345220,-71.4285714285714,4,3,8,80,0,1
353020,-71.4285714285714,4,3,8,80,0,1
354820,-83.3333333333333,4,3,8,80,0,1
355120,-71.4285714285714,4,3,8,80,0,1
355420,-71.4285714285714,4,3,8,80,0,1
356620,-71.4285714285714,4,3,8,80,0,1
358120,-76.9230769230769,4,3,1,70,0,1
358170,-76.9230769230769,4,3,11,70,0,1
358220,-62.5,4,3,11,70,0,1
358320,-62.5,4,3,3,70,0,1
358420,-62.5,4,3,11,70,0,1
358470,-62.5,4,3,12,70,0,1
358520,-62.5,4,3,11,70,0,1
358570,-62.5,4,3,12,70,0,1
358620,-62.5,4,3,1,70,0,1
358720,-62.5,4,3,11,70,0,1
358770,-62.5,4,3,12,70,0,1
358820,-62.5,4,3,11,70,0,1
358870,-62.5,4,3,12,70,0,1
358920,-62.5,4,3,1,70,0,1
359020,-62.5,4,3,11,70,0,1
359070,-62.5,4,3,12,70,0,1
359120,-62.5,4,3,11,70,0,1
359170,-62.5,4,3,12,70,0,1
359220,-62.5,4,3,1,70,0,1
359320,-62.5,4,3,3,70,0,1
359395,-62.5,4,2,99,5,0,1
359470,-62.5,4,3,3,70,0,1
359545,-62.5,4,2,99,5,0,1
359620,-62.5,4,3,3,70,0,1
359695,-62.5,4,2,99,5,0,1
359770,-166.666666666667,4,2,1,90,0,0
360520,-166.666666666667,4,3,14,70,0,0
360595,-166.666666666667,4,3,1,70,0,0
360820,-166.666666666667,4,3,8,70,0,0
370120,-166.666666666667,4,3,3,70,0,1
374920,-100,4,3,3,70,0,0
375220,-100,4,3,11,70,0,0
375420,-100,4,3,1,70,0,0
375520,-100,4,3,11,70,0,0
375620,-100,4,3,12,70,0,0
375720,-100,4,3,1,70,0,0
375820,-100,4,3,12,70,0,0
375920,-100,4,3,11,70,0,0
376020,-100,4,3,1,70,0,0
376120,-76.9230769230769,4,3,4,70,0,0
377020,-66.6666666666667,4,3,4,70,0,0
377920,-66.6666666666667,4,3,14,70,0,0
378370,-66.6666666666667,4,3,14,85,0,0
379720,-66.6666666666667,4,2,99,5,0,0

[Colours]
Combo1 : 243,92,84
Combo2 : 227,168,45
Combo3 : 228,152,202
Combo4 : 153,153,153

[HitObjects]
100,131,20021,6,0,B|179:141|179:141|179:144|179:144|289:158,1,150,6|0,0:0|0:0,0:0:0:0:
256,162,20293,5,8,0:0:0:0:
413,57,20443,1,8,0:0:0:0:
408,32,20518,1,8,0:0:0:0:
403,7,20593,1,8,0:0:0:0:
362,247,20743,5,8,0:0:0:0:
214,67,20893,1,8,0:0:0:0:
219,39,20968,1,8,0:0:0:0:
225,12,21043,1,10,0:0:0:0:
319,358,21193,5,8,0:0:0:0:
491,190,21343,1,8,0:0:0:0:
485,159,21418,1,8,0:0:0:0:
478,129,21493,1,8,0:0:0:0:
493,110,21643,6,0,B|445:124|415:84|415:84|379:39|323:64,1,179.999994506836
353,136,22420,5,6,1:3:0:0:
315,165,22495,1,4,0:0:0:0:
265,173,22570,1,4,0:0:0:0:
221,151,22645,1,4,0:0:0:0:
195,110,22720,1,14,0:0:0:0:
178,62,22795,1,4,0:0:0:0:
139,33,22870,1,4,1:3:0:0:
90,30,22945,1,4,0:0:0:0:
48,57,23020,1,6,0:0:0:0:
29,102,23095,1,4,0:0:0:0:
37,150,23170,1,4,0:0:0:0:
72,185,23245,1,4,0:0:0:0:
121,194,23320,1,14,0:0:0:0:
169,203,23395,1,4,0:0:0:0:
204,238,23470,1,4,0:0:0:0:
215,286,23545,1,4,0:0:0:0:
197,332,23620,1,6,0:0:0:0:
157,361,23695,1,4,0:0:0:0:
108,363,23770,1,4,0:0:0:0:
66,338,23845,1,4,0:0:0:0:
44,295,23920,1,14,0:0:0:0:
49,246,23995,1,4,0:0:0:0:
81,208,24070,1,4,0:0:0:0:
130,193,24145,1,4,0:0:0:0:
176,207,24220,1,6,0:0:0:0:
225,216,24295,1,4,0:0:0:0:
271,199,24370,1,4,0:0:0:0:
303,161,24445,1,4,0:0:0:0:
312,112,24520,1,14,0:0:0:0:
295,66,24595,1,4,0:0:0:0:
257,34,24670,1,4,0:0:0:0:
208,26,24745,1,4,0:0:0:0:
162,43,24820,5,6,0:0:0:0:
173,91,24895,1,4,0:0:0:0:
207,126,24970,1,4,0:0:0:0:
255,138,25045,1,4,0:0:0:0:
302,123,25120,1,14,0:0:0:0:
342,94,25195,1,4,0:0:0:0:
391,91,25270,1,4,0:0:0:0:
434,115,25345,1,4,0:0:0:0:
457,158,25420,1,6,0:0:0:0:
454,208,25495,1,4,0:0:0:0:
425,247,25570,1,4,0:0:0:0:
379,265,25645,1,4,0:0:0:0:
330,255,25720,1,14,0:0:0:0:
295,221,25795,1,4,0:0:0:0:
261,184,25870,1,4,0:0:0:0:
213,171,25945,1,4,0:0:0:0:
166,184,26020,1,6,0:0:0:0:
132,220,26095,1,4,0:0:0:0:
122,268,26170,1,4,0:0:0:0:
138,315,26245,1,4,0:0:0:0:
176,346,26320,1,14,0:0:0:0:
225,353,26395,1,4,0:0:0:0:
270,334,26470,1,4,0:0:0:0:
299,294,26545,1,4,0:0:0:0:
303,245,26620,1,6,0:0:0:0:
280,201,26695,1,4,0:0:0:0:
238,175,26770,1,4,0:0:0:0:
208,135,26845,1,4,0:0:0:0:
208,86,26920,1,14,0:0:0:0:
237,47,26995,1,4,0:0:0:0:
284,33,27070,1,4,0:0:0:0:
330,51,27145,1,4,0:0:0:0:
356,93,27220,5,6,0:0:0:0:
329,140,27295,1,4,0:0:0:0:
281,167,27370,1,4,0:0:0:0:
227,166,27445,1,4,0:0:0:0:
181,137,27520,1,14,0:0:0:0:
131,113,27595,1,4,0:0:0:0:
78,122,27670,1,4,0:0:0:0:
39,160,27745,1,4,0:0:0:0:
28,213,27820,1,6,0:0:0:0:
49,263,27895,1,4,0:0:0:0:
95,292,27970,1,4,0:0:0:0:
149,290,28045,1,4,0:0:0:0:
194,258,28120,1,14,0:0:0:0:
213,207,28195,1,4,0:0:0:0:
233,156,28270,1,4,0:0:0:0:
279,127,28345,1,4,0:0:0:0:
333,128,28420,1,6,0:0:0:0:
376,160,28495,1,4,0:0:0:0:
394,211,28570,1,4,0:0:0:0:
380,264,28645,1,4,0:0:0:0:
338,298,28720,1,14,0:0:0:0:
284,304,28795,1,4,0:0:0:0:
237,277,28870,1,4,0:0:0:0:
215,226,28945,1,4,0:0:0:0:
188,179,29020,1,6,0:0:0:0:
141,152,29095,1,4,0:0:0:0:
87,151,29170,1,4,0:0:0:0:
39,176,29245,1,4,0:0:0:0:
10,222,29320,1,14,0:0:0:0:
7,277,29395,1,4,0:0:0:0:
31,325,29470,1,4,0:0:0:0:
76,356,29545,1,4,0:0:0:0:
130,360,29620,5,6,0:0:0:0:
165,312,29695,1,4,0:0:0:0:
168,253,29770,1,4,0:0:0:0:
137,202,29845,1,4,0:0:0:0:
84,177,29920,1,14,0:0:0:0:
50,128,29995,1,4,0:0:0:0:
50,69,30070,1,4,0:0:0:0:
85,21,30145,1,4,0:0:0:0:
141,3,30220,1,6,0:0:0:0:
198,21,30295,1,4,0:0:0:0:
233,68,30370,1,4,0:0:0:0:
234,127,30445,1,4,0:0:0:0:
201,176,30520,1,14,0:0:0:0:
191,234,30595,1,4,0:0:0:0:
214,289,30670,1,4,0:0:0:0:
263,323,30745,1,4,0:0:0:0:
322,326,30820,5,6,0:0:0:0:
338,270,30895,1,4,0:0:0:0:
321,220,30970,1,4,0:0:0:0:
282,192,31045,1,4,0:0:0:0:
239,190,31120,1,14,0:0:0:0:
206,209,31195,1,4,0:0:0:0:
190,237,31270,1,4,0:0:0:0:
193,264,31345,1,4,0:0:0:0:
206,281,31420,1,6,0:0:0:0:
222,285,31495,1,4,0:0:0:0:
233,280,31570,1,4,0:0:0:0:
237,274,31645,1,4,0:0:0:0:
241,267,31720,2,0,B|237:240|237:240|238:241|238:241|234:202,3,50,14|4|4|4,0:0|0:0|0:0|0:0,0:0:0:0:
389,262,32020,5,6,0:0:0:0:
355,304,32095,1,4,0:0:0:0:
304,322,32170,1,4,0:0:0:0:
252,307,32245,1,4,0:0:0:0:
216,266,32320,1,14,0:0:0:0:
210,212,32395,1,4,0:0:0:0:
182,164,32470,1,4,0:0:0:0:
135,138,32545,1,4,0:0:0:0:
80,141,32620,1,6,0:0:0:0:
35,171,32695,1,4,0:0:0:0:
12,220,32770,1,4,0:0:0:0:
18,274,32845,1,4,0:0:0:0:
50,317,32920,1,14,0:0:0:0:
101,337,32995,1,4,0:0:0:0:
154,328,33070,1,4,0:0:0:0:
196,293,33145,1,4,0:0:0:0:
211,240,33220,1,6,0:0:0:0:
198,187,33295,1,4,0:0:0:0:
176,137,33370,1,4,0:0:0:0:
184,83,33445,1,4,0:0:0:0:
218,41,33520,1,14,0:0:0:0:
269,23,33595,1,4,0:0:0:0:
322,34,33670,1,4,0:0:0:0:
362,72,33745,1,4,0:0:0:0:
376,124,33820,1,6,0:0:0:0:
361,176,33895,1,4,0:0:0:0:
320,213,33970,1,4,0:0:0:0:
275,244,34045,1,4,0:0:0:0:
259,295,34120,1,14,0:0:0:0:
278,346,34195,1,4,0:0:0:0:
323,375,34270,1,4,0:0:0:0:
377,370,34345,1,4,0:0:0:0:
417,333,34420,5,6,0:0:0:0:
396,277,34495,1,4,0:0:0:0:
348,242,34570,1,4,0:0:0:0:
289,240,34645,1,4,0:0:0:0:
239,271,34720,1,14,0:0:0:0:
188,301,34795,1,4,0:0:0:0:
129,298,34870,1,4,0:0:0:0:
82,262,34945,1,4,0:0:0:0:
64,206,35020,1,6,0:0:0:0:
80,149,35095,1,4,0:0:0:0:
125,111,35170,1,4,0:0:0:0:
184,106,35245,1,4,0:0:0:0:
236,134,35320,1,14,0:0:0:0:
263,186,35395,1,4,0:0:0:0:
307,225,35470,1,4,0:0:0:0:
365,235,35545,1,4,0:0:0:0:
419,211,35620,1,6,0:0:0:0:
453,162,35695,1,4,0:0:0:0:
455,103,35770,1,4,0:0:0:0:
425,52,35845,1,4,0:0:0:0:
372,26,35920,1,14,0:0:0:0:
313,31,35995,1,4,0:0:0:0:
266,68,36070,1,4,0:0:0:0:
246,123,36145,1,4,0:0:0:0:
230,180,36220,1,6,0:0:0:0:
187,221,36295,1,4,0:0:0:0:
129,234,36370,1,4,0:0:0:0:
72,216,36445,1,4,0:0:0:0:
33,172,36520,1,14,0:0:0:0:
22,114,36595,1,4,0:0:0:0:
42,58,36670,1,4,0:0:0:0:
87,20,36745,1,4,0:0:0:0:
146,11,36820,5,14,0:0:0:0:
184,67,36895,1,4,0:0:0:0:
176,135,36970,1,4,0:0:0:0:
126,181,37045,1,4,0:0:0:0:
57,183,37120,1,14,0:0:0:0:
9,232,37195,1,4,0:0:0:0:
11,300,37270,1,4,0:0:0:0:
61,347,37345,1,4,0:0:0:0:
129,345,37420,1,14,0:0:0:0:
175,295,37495,1,4,0:0:0:0:
173,228,37570,1,4,0:0:0:0:
157,161,37645,1,4,0:0:0:0:
195,106,37720,1,14,0:0:0:0:
263,98,37795,1,4,0:0:0:0:
313,143,37870,1,4,0:0:0:0:
313,211,37945,1,4,0:0:0:0:
262,256,38020,1,14,0:0:0:0:
259,323,38095,1,4,0:0:0:0:
309,369,38170,1,4,0:0:0:0:
376,362,38245,1,4,0:0:0:0:
415,306,38320,1,14,0:0:0:0:
397,240,38395,1,4,0:0:0:0:
336,211,38470,1,4,0:0:0:0:
300,153,38545,1,4,0:0:0:0:
319,88,38620,1,14,0:0:0:0:
381,60,38695,1,4,0:0:0:0:
443,88,38770,1,4,0:0:0:0:
462,153,38845,1,4,0:0:0:0:
426,211,38920,1,14,0:0:0:0:
356,218,38995,1,0,0:0:0:0:
306,172,39070,1,0,0:0:0:0:
308,105,39145,1,0,0:0:0:0:
360,61,39220,5,8,0:0:0:0:
421,109,39295,1,8,0:0:0:0:
435,186,39370,1,8,0:0:0:0:
395,253,39445,1,8,0:0:0:0:
321,277,39520,1,4,0:0:0:0:
249,246,39595,1,4,0:0:0:0:
215,175,39670,1,8,0:0:0:0:
160,118,39745,1,8,0:0:0:0:
82,113,39820,1,8,0:0:0:0:
21,162,39895,1,8,0:0:0:0:
9,240,39970,1,4,0:0:0:0:
52,305,40045,1,4,0:0:0:0:
127,324,40120,1,4,0:0:0:0:
193,293,40195,1,4,0:0:0:0:
259,250,40270,1,4,0:0:0:0:
337,253,40345,1,4,0:0:0:0:
399,302,40420,5,6,0:0:0:0:
379,307,40495,1,0,0:0:0:0:
360,303,40570,1,8,0:0:0:0:
345,291,40645,1,8,0:0:0:0:
336,273,40720,1,8,0:0:0:0:
337,253,40795,1,8,0:0:0:0:
348,236,40870,1,8,0:0:0:0:
364,226,40945,1,8,0:0:0:0:
384,224,41020,5,8,0:0:0:0:
419,286,41095,1,8,0:0:0:0:
385,354,41170,1,8,0:0:0:0:
305,368,41245,1,8,0:0:0:0:
238,314,41320,1,8,0:0:0:0:
246,224,41395,1,8,0:0:0:0:
324,171,41470,1,8,0:0:0:0:
419,195,41545,1,8,0:0:0:0:
461,287,41620,6,0,B|428:335|428:335|358:325|358:325|356:327|356:327|245:308,1,210,6|0,0:0|0:0,0:0:0:0:
270,322,41920,2,0,B|261:299|261:299|264:298|264:298|248:249,1,50,4|0,0:0|0:0,0:0:0:0:
146,223,42070,2,0,B|153:244|153:244|150:246|150:246|159:268,1,50,4|0,0:0|0:0,0:0:0:0:
117,145,42220,6,0,B|165:121|213:168|213:168|263:223|350:178,1,210,10|0,0:0|0:0,0:0:0:0:
316,205,42520,2,0,B|326:156|326:156|328:158|328:158|343:78,1,100,4|8,0:0|0:0,0:0:0:0:
367,288,42820,5,6,0:0:0:0:
248,68,42970,1,8,0:0:0:0:
433,58,43120,2,0,L|419:131,1,50,4|0,0:0|0:0,0:0:0:0:
350,158,43270,2,0,L|341:208,1,50,4|0,0:0|0:0,0:0:0:0:
134,17,43420,6,0,B|93:66|93:66|193:52|193:52|193:57|193:57|290:43|290:43|237:102,1,320,10|4,0:0|0:0,0:0:0:0:
255,81,43870,1,8,0:0:0:0:
242,319,44020,6,0,B|218:234|218:234|216:233|216:233|180:103,1,180,6|0,0:0|0:0,0:0:0:0:
198,137,44320,2,0,B|167:133|167:133|136:152,1,60,4|0,0:0|0:0,0:0:0:0:
71,240,44470,2,0,B|102:244|102:244|133:225,1,60,4|0,0:0|0:0,0:0:0:0:
83,47,44620,6,0,B|69:104|69:104|66:102|66:102|49:177,1,120,10|4,0:0|0:0,0:0:0:0:
53,158,45070,1,8,0:0:0:0:
286,366,45220,5,6,0:0:0:0:
32,286,45370,1,8,0:0:0:0:
271,170,45520,1,4,0:0:0:0:
30,299,45670,1,4,0:0:0:0:
296,377,45820,6,0,B|346:328|346:328|323:233,1,140,10|0,0:0|0:0,0:0:0:0:
234,99,46120,1,4,0:0:0:0:
166,291,46270,1,8,0:0:0:0:
380,158,46420,6,0,B|277:179|277:179|279:182|279:182|140:209,1,210,6|0,0:0|0:0,0:0:0:0:
174,214,46720,2,0,P|145:200|152:170,1,50,4|0,0:0|0:0,0:0:0:0:
60,163,46870,2,0,P|64:131|95:128,1,50,4|0,0:0|0:0,0:0:0:0:
228,41,47020,6,0,B|260:50|261:76|261:76|234:135|141:114|133:30,1,210,10|0,0:0|0:0,0:0:0:0:
147,45,47320,2,0,B|94:41|94:41|94:39|94:39|32:34,1,100,4|8,0:0|0:0,0:0:0:0:
197,334,47620,5,6,0:0:0:0:
4,167,47770,1,8,0:0:0:0:
183,112,47920,2,0,B|176:142|176:142|174:143|174:143|164:192,1,50,4|0,0:0|0:0,0:0:0:0:
99,222,48070,2,0,B|92:252|92:252|90:253|90:253|80:302,1,50,4|0,0:0|0:0,0:0:0:0:
307,286,48220,6,0,B|225:239|162:319|162:319|97:396|6:323,1,320,10|4,0:0|0:0,0:0:0:0:
24,336,48670,1,8,0:0:0:0:
198,102,48820,6,0,B|223:159|181:196|181:196|167:149|104:133,1,180,6|0,0:0|0:0,0:0:0:0:
119,150,49120,2,0,P|105:110|122:87,1,60,10|0,0:0|0:0,0:0:0:0:
54,41,49270,2,0,P|87:15|114:24,1,60,4|0,0:0|0:0,0:0:0:0:
323,63,49420,6,0,B|297:148|297:148|300:151|300:151|263:280,1,180,6|0,0:0|0:0,0:0:0:0:
267,243,49720,2,0,B|312:283|312:283|378:273,1,120,10|0,0:0|0:0,0:0:0:0:
500,125,50020,5,4,0:0:0:0:
438,369,50170,1,10,0:0:0:0:
222,96,50320,5,4,0:0:0:0:
467,247,50470,1,4,0:0:0:0:
195,329,50620,1,12,0:0:0:0:
472,235,50770,1,4,0:0:0:0:
342,19,50920,2,0,B|327:77|327:77|327:80|327:80|304:167,1,120,10|0,1:3|1:3,0:0:0:0:
162,198,51220,5,6,1:3:0:0:
198,188,51295,1,0,0:0:0:0:
236,201,51370,1,0,0:0:0:0:
258,233,51445,1,0,0:0:0:0:
281,265,51520,1,10,1:3:0:0:
317,279,51595,1,0,0:0:0:0:
355,269,51670,2,0,B|361:239|361:239|364:239|364:239|376:192,1,60,0|0,1:3|0:0,0:0:0:0:
418,372,51820,5,6,0:0:0:0:
241,247,51970,1,4,0:0:0:0:
433,143,52120,2,0,B|467:197|467:197|447:278,1,120,10|0,1:3|0:0,0:0:0:0:
275,358,52420,5,6,1:3:0:0:
275,358,52495,1,0,0:0:0:0:
275,358,52570,2,0,B|268:328|268:328|265:328|265:328|253:281,1,60
197,251,52720,2,0,B|209:194|209:194|212:193|212:193|229:123,1,120,10|0,0:0|1:3,0:0:0:0:
102,357,53020,5,6,0:0:0:0:
102,357,53095,1,0,0:0:0:0:
102,357,53170,1,4,0:0:0:0:
19,315,53320,2,0,P|71:269|151:293,1,120,10|0,1:3|1:3,0:0:0:0:
361,324,53620,5,6,1:3:0:0:
331,356,53695,1,0,0:0:0:0:
287,362,53770,1,0,0:0:0:0:
250,339,53845,1,0,0:0:0:0:
235,298,53920,1,10,0:0:0:0:
437,230,54070,6,0,B|445:289|445:289|447:290|447:290|456:360,1,120,0|6,1:3|0:0,0:0:0:0:
454,348,54370,1,4,0:0:0:0:
310,250,54520,2,0,B|318:191|318:191|320:190|320:190|329:120,1,120,10|0,1:3|0:0,0:0:0:0:
150,14,54820,5,6,1:3:0:0:
156,57,54895,1,0,0:0:0:0:
188,88,54970,1,0,0:0:0:0:
232,92,55045,1,0,0:0:0:0:
269,69,55120,1,10,1:3:0:0:
306,44,55195,1,0,0:0:0:0:
350,43,55270,1,0,1:3:0:0:
388,66,55345,1,0,0:0:0:0:
407,106,55420,5,6,0:0:0:0:
392,110,55495,1,0,0:0:0:0:
378,115,55570,1,4,0:0:0:0:
364,120,55645,1,0,0:0:0:0:
350,124,55720,2,0,L|343:187,1,60,10|0,1:3|0:0,0:0:0:0:
423,258,55870,2,0,L|429:198,1,60,0|0,1:3|0:0,0:0:0:0:
439,355,56020,5,6,1:3:0:0:
399,359,56095,1,0,0:0:0:0:
364,342,56170,1,0,0:0:0:0:
344,308,56245,1,0,0:0:0:0:
325,274,56320,1,10,0:0:0:0:
289,257,56395,1,0,0:0:0:0:
250,261,56470,2,0,L|243:320,1,60,0|0,1:3|0:0,0:0:0:0:
205,150,56620,5,6,0:0:0:0:
125,364,56770,1,4,0:0:0:0:
51,245,56920,2,0,B|111:236|111:236|111:238|111:238|171:229,1,120,10|0,0:0|1:3,0:0:0:0:
128,13,57220,5,6,1:3:0:0:
128,13,57295,1,0,0:0:0:0:
128,13,57370,2,0,B|125:48|125:48|123:46|123:46|120:75,1,60
142,147,57520,2,0,P|78:141|38:72,1,120,10|0,0:0|1:3,0:0:0:0:
310,32,57820,5,6,0:0:0:0:
310,32,57895,1,0,0:0:0:0:
310,32,57970,1,4,0:0:0:0:
258,98,58120,2,0,B|268:157|268:157|271:157|271:157|282:221,1,120,10|0,0:0|1:3,0:0:0:0:
498,187,58420,5,6,1:3:0:0:
489,143,58495,1,0,0:0:0:0:
456,114,58570,1,0,0:0:0:0:
412,109,58645,1,0,0:0:0:0:
374,132,58720,1,10,0:0:0:0:
387,349,58870,6,0,L|526:367,1,120,0|6,1:3|0:0,0:0:0:0:
506,364,59170,1,4,0:0:0:0:
404,225,59320,2,0,L|265:243,1,120,10|0,0:0|1:3,0:0:0:0:
43,332,59620,6,0,B|63:367|106:375|106:375|103:369|103:369|137:372|166:350|166:350|192:327|229:324|229:324|226:319|226:319|280:316|312:372,1,320,6|10,1:3|1:3,0:0:0:0:
137,210,60070,6,0,B|105:239|105:239|118:288,1,80,6|0,1:3|0:0,0:0:0:0:
125,280,60370,6,0,B|115:244|115:244|147:215,1,80,6|8,0:0|1:3,0:0:0:0:
52,110,60670,6,0,L|66:183,1,60,4|4,1:3|0:0,0:0:0:0:
147,131,60820,5,6,1:3:0:0:
186,132,60895,1,0,0:0:0:0:
218,154,60970,1,0,0:0:0:0:
231,191,61045,1,0,0:0:0:0:
244,228,61120,1,10,0:0:0:0:
276,250,61195,1,0,0:0:0:0:
315,251,61270,2,0,L|326:192,1,60,0|0,1:3|0:0,0:0:0:0:
512,129,61420,5,6,0:0:0:0:
389,328,61570,1,4,0:0:0:0:
287,114,61720,2,0,B|346:101|346:101|406:143,1,120,10|0,1:3|0:0,0:0:0:0:
202,26,62020,5,6,1:3:0:0:
202,26,62095,1,0,0:0:0:0:
202,26,62170,2,0,L|215:97,1,60
170,153,62320,2,0,B|160:214|160:214|162:214|162:214|148:288,1,120,10|0,1:3|1:3,0:0:0:0:
375,323,62620,5,6,0:0:0:0:
375,323,62695,1,0,0:0:0:0:
375,323,62770,1,4,0:0:0:0:
391,233,62920,2,0,P|314:245|285:295,1,120,10|0,1:3|1:3,0:0:0:0:
97,354,63220,5,6,1:3:0:0:
139,342,63295,1,0,0:0:0:0:
165,306,63370,1,0,0:0:0:0:
164,262,63445,1,0,0:0:0:0:
136,228,63520,1,10,0:0:0:0:
16,36,63670,6,0,P|55:85|107:30,1,120,0|6,1:3|0:0,0:0:0:0:
99,65,63970,1,4,0:0:0:0:
276,105,64120,2,0,P|222:87|192:134,1,120,10|0,1:3|0:0,0:0:0:0:
1,209,64420,5,6,1:3:0:0:
36,183,64495,1,0,0:0:0:0:
81,181,64570,1,0,0:0:0:0:
119,204,64645,1,0,0:0:0:0:
138,243,64720,1,10,0:0:0:0:
158,283,64795,1,0,0:0:0:0:
196,306,64870,1,0,1:3:0:0:
241,304,64945,1,0,0:0:0:0:
276,278,65020,5,6,0:0:0:0:
270,264,65095,1,0,0:0:0:0:
264,250,65170,1,4,0:0:0:0:
259,236,65245,1,0,0:0:0:0:
253,222,65320,2,0,B|258:191|258:191|259:191|259:191|266:156,1,60,10|0,1:3|0:0,0:0:0:0:
195,90,65470,2,0,B|189:117|189:117|188:117|188:117|182:148,1,60,0|0,1:3|0:0,0:0:0:0:
167,12,65620,5,6,1:3:0:0:
205,2,65695,1,0,0:0:0:0:
242,15,65770,1,0,0:0:0:0:
266,46,65845,1,0,0:0:0:0:
290,76,65920,1,10,0:0:0:0:
327,89,65995,1,0,0:0:0:0:
365,80,66070,2,0,B|359:49|359:49|358:49|358:49|352:21,1,60,0|0,1:3|0:0,0:0:0:0:
460,268,66220,5,6,0:0:0:0:
247,150,66370,1,4,0:0:0:0:
462,62,66520,2,0,B|451:121|451:121|449:121|449:121|434:194,1,120,10|0,0:0|1:3,0:0:0:0:
213,289,66820,5,6,1:3:0:0:
216,252,66895,1,0,0:0:0:0:
237,221,66970,1,0,0:0:0:0:
271,206,67045,1,0,0:0:0:0:
308,209,67120,1,10,0:0:0:0:
338,230,67195,1,0,0:0:0:0:
353,264,67270,1,0,1:3:0:0:
350,301,67345,1,0,0:0:0:0:
329,331,67420,6,0,B|296:277|296:277|322:195,1,120,6|4,0:0|0:0,0:0:0:0:
204,74,67720,2,0,B|237:128|237:128|211:210,1,120,10|0,0:0|1:3,0:0:0:0:
3,161,68020,5,6,1:3:0:0:
19,120,68095,1,0,0:0:0:0:
58,99,68170,1,0,0:0:0:0:
101,108,68245,1,0,0:0:0:0:
129,143,68320,1,10,0:0:0:0:
77,230,68470,1,0,1:3:0:0:
128,17,68620,6,0,B|188:24|188:24|189:26|189:26|262:35,1,120,6|4,1:3|0:0,0:0:0:0:
300,212,68920,2,0,B|240:219|240:219|239:221|239:221|166:230,1,120,10|0,0:0|0:0,0:0:0:0:
380,120,69220,5,8,0:0:0:0:
366,123,69320,2,0,P|330:109|333:59,1,80,8|8,0:0|0:0,0:0:0:0:
400,29,69520,1,8,0:0:0:0:
414,26,69620,2,0,P|449:39|446:89,1,80,4|4,0:0|0:0,0:0:0:0:
433,197,69820,5,8,0:0:0:0:
367,238,69920,1,8,0:0:0:0:
291,220,70020,1,8,0:0:0:0:
252,152,70120,1,4,1:3:0:0:
186,110,70220,1,4,0:0:0:0:
110,128,70320,1,4,0:0:0:0:
71,196,70420,6,0,B|123:235|123:235|139:160|139:160|143:158|143:158|168:53,1,210,6|0,1:3|0:0,0:0:0:0:
153,83,70720,2,0,P|177:66|208:82,1,50,4|0,0:0|0:0,0:0:0:0:
278,162,70870,2,0,P|253:164|235:148,1,50,4|0,0:0|0:0,0:0:0:0:
336,22,71020,6,0,B|356:116|356:116|360:117|360:117|387:239,1,210,10|0,0:0|0:0,0:0:0:0:
383,238,71320,2,0,L|508:216,1,100,4|8,0:0|0:0,0:0:0:0:
352,362,71620,5,6,0:0:0:0:
458,124,71770,1,8,0:0:0:0:
487,333,71920,2,0,L|399:317,1,50,4|0,1:3|0:0,0:0:0:0:
376,249,72070,2,0,L|288:233,1,50,4|0,0:0|0:0,0:0:0:0:
155,156,72220,6,0,B|138:179|110:186|110:186|166:211|208:167|208:167|249:122|306:150|306:150|271:153|248:186,1,320,10|4,1:3|0:0,0:0:0:0:
263,169,72670,1,8,0:0:0:0:
48,64,72820,6,0,B|31:147|31:147|29:146|29:146|6:257,1,180,6|0,1:3|0:0,0:0:0:0:
3,250,73120,2,0,B|28:272|28:272|75:264,1,60,4|0,0:0|0:0,0:0:0:0:
160,213,73270,2,0,B|135:191|135:191|88:199,1,60,4|0,0:0|0:0,0:0:0:0:
148,368,73420,6,0,P|181:343|129:301,1,120,10|4,1:3|0:0,0:0:0:0:
138,297,73870,1,8,0:0:0:0:
422,141,74020,5,6,0:0:0:0:
306,366,74170,1,8,0:0:0:0:
267,115,74320,1,4,0:0:0:0:
445,294,74470,1,4,0:0:0:0:
194,254,74620,6,0,B|126:269|126:269|126:271|126:271|56:286,1,140,10|0,0:0|0:0,0:0:0:0:
259,187,74920,1,4,1:3:0:0:
167,359,75070,1,8,0:0:0:0:
37,112,75220,6,0,B|105:124|105:124|107:127|107:127|180:140|180:140|132:180,1,210,6|0,1:3|0:0,0:0:0:0:
119,185,75520,2,0,P|112:205|141:230,1,50,4|0,0:0|0:0,0:0:0:0:
99,302,75670,2,0,P|115:314|148:294,1,50,4|0,0:0|0:0,0:0:0:0:
296,258,75820,6,0,B|306:231|328:217|328:217|284:176|214:197|210:261,1,210,10|0,0:0|0:0,0:0:0:0:
222,264,76120,2,0,B|235:316|235:316|234:319|234:319|247:367,1,100,4|8,0:0|0:0,0:0:0:0:
446,150,76420,5,6,0:0:0:0:
334,340,76570,1,8,0:0:0:0:
264,161,76720,2,0,B|289:166|289:166|290:169|290:169|324:177,1,50,4|0,1:3|0:0,0:0:0:0:
377,230,76870,2,0,B|402:235|402:235|403:238|403:238|437:246,1,50,4|0,0:0|0:0,0:0:0:0:
508,101,77020,6,0,B|448:173|368:99|368:99|304:30|218:85,1,320,10|4,1:3|0:0,0:0:0:0:
226,81,77470,1,8,0:0:0:0:
110,201,77620,6,0,B|171:216|171:216|159:168|159:168|157:142|157:142|145:122|145:122|130:56,1,210,6|0,1:3|0:0,0:0:0:0:
142,64,77920,2,0,B|121:51|121:51|92:61,1,50,10|0,0:0|0:0,0:0:0:0:
13,131,78070,2,0,B|33:143|33:143|63:134,1,50
252,155,78220,5,6,1:3:0:0:
23,232,78370,1,4,0:0:0:0:
173,348,78520,2,0,B|187:292|187:292|184:289|184:289|198:232,1,120,10|0,0:0|0:0,0:0:0:0:
255,71,78820,6,0,B|314:49|355:97|355:97|398:146|464:116,1,225,6|0,1:3|0:0,0:0:0:0:
466,110,79120,6,0,B|462:89|462:89|462:90|462:90|458:61,1,29.9999999999999,4|0,1:3|0:0,0:0:0:0:
325,272,79270,6,0,B|261:304|261:304|275:231|275:231|273:226|273:226|291:124,1,225,10|0,1:3|0:0,0:0:0:0:
294,164,79570,6,0,B|255:170|255:170|256:169|256:169|207:176,1,75,14|0,1:3|0:0,0:0:0:0:
163,314,79720,2,0,B|177:277|177:277|177:278|177:278|196:232,1,75,12|0,0:0|0:0,0:0:0:0:
98,125,79870,2,0,B|122:155|122:155|121:155|121:155|151:194,1,75,12|0,1:3|0:0,0:0:0:0:
34,64,80020,5,6,1:3:0:0:
77,40,80095,1,4,0:0:0:0:
127,43,80170,1,4,1:3:0:0:
168,70,80245,1,4,0:0:0:0:
209,97,80320,1,14,1:3:0:0:
259,100,80395,1,4,0:0:0:0:
302,76,80470,2,0,B|310:47|310:47|309:46|309:46|319:-2,1,60,6|4,1:3|0:0,0:0:0:0:
471,242,80620,5,6,1:3:0:0:
245,190,80770,1,6,0:0:0:0:
411,25,80920,2,0,B|429:84|429:84|370:141,1,120,14|6,1:3|1:3,0:0:0:0:
201,272,81220,5,6,0:0:0:0:
231,304,81295,1,4,0:0:0:0:
274,315,81370,1,6,0:0:0:0:
316,301,81445,1,4,0:0:0:0:
345,267,81520,1,14,1:3:0:0:
375,235,81595,1,4,0:0:0:0:
418,224,81670,1,6,0:0:0:0:
460,238,81745,1,4,0:0:0:0:
489,272,81820,5,6,0:0:0:0:
486,286,81895,1,4,0:0:0:0:
483,301,81970,1,6,0:0:0:0:
480,316,82045,1,4,0:0:0:0:
477,330,82120,2,0,B|415:336|415:336|412:333|412:333|318:343,1,120,14|6,1:3|1:3,0:0:0:0:
208,293,82420,5,6,1:3:0:0:
208,293,82495,1,4,0:0:0:0:
208,293,82570,2,0,L|228:372,1,60,6|4,0:0|0:0,0:0:0:0:
135,227,82720,2,0,B|181:189|181:189|259:208,1,120,14|6,1:3|0:0,0:0:0:0:
369,117,83020,5,6,1:3:0:0:
358,127,83095,1,4,0:0:0:0:
343,131,83170,1,6,1:3:0:0:
329,128,83245,1,4,0:0:0:0:
318,118,83320,1,14,1:3:0:0:
312,104,83395,1,4,0:0:0:0:
314,89,83470,1,6,1:3:0:0:
323,77,83545,1,4,0:0:0:0:
336,71,83620,5,6,0:0:0:0:
333,112,83695,1,4,0:0:0:0:
310,146,83770,1,6,1:3:0:0:
272,164,83845,1,4,0:0:0:0:
231,159,83920,1,14,0:0:0:0:
198,135,83995,1,4,0:0:0:0:
164,110,84070,1,6,1:3:0:0:
123,105,84145,1,4,0:0:0:0:
85,123,84220,1,6,1:3:0:0:
62,157,84295,1,4,0:0:0:0:
60,199,84370,1,6,0:0:0:0:
84,234,84445,1,4,1:3:0:0:
122,252,84520,2,0,B|149:219|149:219|133:135,1,120,14|6,0:0|1:3,0:0:0:0:
286,304,84820,5,6,1:3:0:0:
280,318,84895,1,4,0:0:0:0:
275,332,84970,1,4,0:0:0:0:
270,346,85045,1,4,0:0:0:0:
265,360,85120,2,0,B|203:352|203:352|200:353|200:353|133:345,1,120,14|6,1:3|1:3,0:0:0:0:
72,185,85420,5,6,0:0:0:0:
58,177,85495,1,4,0:0:0:0:
43,177,85570,1,6,0:0:0:0:
30,184,85645,1,4,0:0:0:0:
21,196,85720,1,14,0:0:0:0:
18,211,85795,1,4,0:0:0:0:
22,224,85870,1,6,0:0:0:0:
31,236,85945,1,4,0:0:0:0:
45,242,86020,5,6,0:0:0:0:
86,245,86095,1,4,0:0:0:0:
122,225,86170,1,6,0:0:0:0:
141,188,86245,1,4,0:0:0:0:
135,147,86320,1,14,0:0:0:0:
120,108,86395,1,4,0:0:0:0:
129,67,86470,1,6,1:3:0:0:
158,38,86545,1,4,0:0:0:0:
198,29,86620,1,6,1:3:0:0:
237,43,86695,1,4,0:0:0:0:
262,76,86770,1,6,0:0:0:0:
266,117,86845,1,4,1:3:0:0:
246,154,86920,2,0,P|194:147|226:85,1,120,14|6,0:0|1:3,0:0:0:0:
414,67,87220,5,6,1:3:0:0:
445,98,87295,1,4,0:0:0:0:
450,141,87370,1,6,0:0:0:0:
426,178,87445,1,4,0:0:0:0:
384,192,87520,1,14,0:0:0:0:
342,205,87595,1,4,0:0:0:0:
317,242,87670,1,6,0:0:0:0:
322,286,87745,1,4,0:0:0:0:
354,317,87820,5,6,1:3:0:0:
396,276,87895,1,4,0:0:0:0:
410,218,87970,1,6,0:0:0:0:
390,162,88045,1,4,0:0:0:0:
343,126,88120,1,14,0:0:0:0:
284,122,88195,1,4,0:0:0:0:
232,150,88270,1,6,0:0:0:0:
204,202,88345,1,4,0:0:0:0:
209,261,88420,6,0,B|248:258|278:223|278:223|268:221|268:221|291:193|281:156|281:156|276:164|276:164|265:121|223:108|223:108|227:119|227:119|191:107|146:119,1,320,6|14,1:3|1:3,0:0:0:0:
130,228,88870,6,0,P|93:217|93:180,1,80,6|6,1:3|0:0,0:0:0:0:
100,169,89170,6,0,P|97:201|143:213,1,80,6|14,0:0|1:3,0:0:0:0:
199,79,89470,6,0,P|189:107|185:137,1,60,6|4,0:0|0:0,0:0:0:0:
231,221,89620,5,6,1:3:0:0:
269,231,89695,1,4,0:0:0:0:
306,219,89770,1,4,1:3:0:0:
331,188,89845,1,4,0:0:0:0:
355,157,89920,1,14,1:3:0:0:
393,145,89995,1,4,0:0:0:0:
431,155,90070,2,0,L|445:223,1,60,6|4,1:3|0:0,0:0:0:0:
484,78,90220,5,6,1:3:0:0:
385,286,90370,1,6,0:0:0:0:
274,92,90520,2,0,B|335:81|335:81|336:83|336:83|417:69,1,120,14|6,0:0|1:3,0:0:0:0:
241,1,90820,5,6,0:0:0:0:
198,12,90895,1,4,0:0:0:0:
168,45,90970,1,6,0:0:0:0:
163,89,91045,1,4,0:0:0:0:
184,128,91120,1,14,1:3:0:0:
204,167,91195,1,4,0:0:0:0:
199,211,91270,1,6,0:0:0:0:
170,244,91345,1,4,0:0:0:0:
127,255,91420,5,6,0:0:0:0:
121,241,91495,1,4,0:0:0:0:
115,227,91570,1,6,0:0:0:0:
109,213,91645,1,4,0:0:0:0:
103,199,91720,2,0,B|164:210|164:210|165:208|165:208|219:217,1,120,14|6,1:3|0:0,0:0:0:0:
375,319,92020,5,6,1:3:0:0:
375,319,92095,1,4,0:0:0:0:
375,319,92170,2,0,B|342:325|342:325|341:324|341:324|298:332,1,60,6|4,0:0|0:0,0:0:0:0:
464,320,92320,2,0,P|460:286|387:233,1,120,14|6,1:3|1:3,0:0:0:0:
245,120,92620,5,6,1:3:0:0:
245,120,92695,1,4,0:0:0:0:
245,120,92770,2,0,B|278:126|278:126|279:125|279:125|322:133,1,60,6|4,0:0|0:0,0:0:0:0:
408,41,92920,5,14,0:0:0:0:
393,44,92995,1,4,0:0:0:0:
378,46,93070,1,6,1:3:0:0:
363,49,93145,1,4,0:0:0:0:
349,52,93220,5,6,0:0:0:0:
384,30,93295,1,4,0:0:0:0:
425,31,93370,1,6,1:3:0:0:
460,54,93445,1,4,0:0:0:0:
477,92,93520,1,14,0:0:0:0:
471,133,93595,1,4,0:0:0:0:
443,164,93670,1,6,1:3:0:0:
404,176,93745,1,4,0:0:0:0:
366,193,93820,1,6,1:3:0:0:
343,227,93895,1,4,0:0:0:0:
341,268,93970,1,6,0:0:0:0:
362,304,94045,1,4,1:3:0:0:
398,324,94120,2,0,B|438:274|438:274|410:191,1,120,14|6,0:0|1:3,0:0:0:0:
238,209,94420,5,6,1:3:0:0:
235,222,94495,1,4,0:0:0:0:
244,233,94570,1,6,0:0:0:0:
258,235,94645,1,4,0:0:0:0:
270,224,94720,2,0,P|307:214|297:278,1,120,14|6,1:3|1:3,0:0:0:0:
250,371,95020,5,6,0:0:0:0:
250,371,95095,1,4,0:0:0:0:
250,371,95170,2,0,B|282:364|282:364|281:365|281:365|336:355,1,60,6|4,0:0|0:0,0:0:0:0:
171,294,95320,5,14,0:0:0:0:
167,308,95395,1,4,0:0:0:0:
163,323,95470,1,6,0:0:0:0:
159,337,95545,1,4,0:0:0:0:
156,352,95620,5,6,0:0:0:0:
115,342,95695,1,4,0:0:0:0:
86,313,95770,1,6,0:0:0:0:
76,273,95845,1,4,0:0:0:0:
88,233,95920,1,14,0:0:0:0:
119,206,95995,1,4,0:0:0:0:
160,200,96070,1,6,0:0:0:0:
199,215,96145,1,4,0:0:0:0:
236,233,96220,1,6,0:0:0:0:
277,228,96295,1,4,0:0:0:0:
308,201,96370,1,6,0:0:0:0:
320,162,96445,1,4,0:0:0:0:
308,122,96520,2,0,B|251:136|251:136|240:191|240:191|235:193|235:193|219:273,1,180,10|0,1:3|0:0,0:0:0:0:
230,265,96820,6,0,B|198:270|198:270|197:269|197:269|141:278,1,60,6|0,1:3|0:0,0:0:0:0:
7,166,96970,1,0,0:0:0:0:
7,166,97045,1,0,0:0:0:0:
7,166,97120,2,0,B|65:177|65:177|65:180|65:180|141:193,1,120,10|0,0:0|0:0,0:0:0:0:
133,186,97345,1,0,0:0:0:0:
143,182,97420,2,0,B|172:127|172:127|129:50,1,120,6|0,1:3|0:0,0:0:0:0:
243,46,97720,5,8,0:0:0:0:
243,46,97770,1,8,0:0:0:0:
243,46,97820,2,0,L|256:92,2,40,8|4|4,0:0|1:3|0:0,0:0:0:0:
265,92,98020,5,14,1:3:0:0:
377,71,98170,6,0,B|388:48|415:36|412:48|431:52|458:31|458:31|421:83|380:74,1,179.999994506836,14|0,0:0|0:0,0:0:0:0:
412,148,98470,6,0,B|435:140|463:151|453:157|463:173|498:177|498:177|434:188|412:153,1,179.999994506836,12|0,1:3|0:0,0:0:0:0:
382,227,98770,6,0,B|404:238|416:265|404:262|400:281|421:308|421:308|369:271|378:230,1,179.999994506836,12|0,1:3|0:0,0:0:0:0:
304,261,99070,5,12,1:3:0:0:
295,82,99220,6,0,B|253:86|223:59|223:59|223:65|223:65|192:39|193:1|193:1|166:29|123:34|123:34|129:41|129:41|65:42|47:119|47:119|117:155|143:132|158:120|158:120|104:158|100:212|125:255|125:255|126:263|126:263|133:261|133:261|172:264|197:241|197:241|198:247|198:247|253:225|249:157,1,840,6|0,1:3|1:3,0:0:0:0:
354,331,100420,6,0,P|242:340|114:361,1,239.999992675781,6|6,1:3|0:0,0:0:0:0:
39,314,100870,1,4,1:3:0:0:
315,238,101020,2,0,P|420:250|476:262,1,119.999996337891,10|0,1:3|0:0,0:0:0:0:
453,341,101320,1,6,0:0:0:0:
453,341,101470,1,8,1:3:0:0:
458,66,101620,6,0,B|424:11|424:11|339:16|339:16|339:12|339:12|229:20,1,240,6|2,1:3|1:3,0:0:0:0:
66,83,102070,2,0,B|148:92|148:92|150:96|150:96|275:112,1,180,0|0,1:3|0:0,0:0:0:0:
253,101,102370,2,0,B|282:159|282:159|242:222,1,120,0|2,1:3|0:0,0:0:0:0:
242,212,102595,2,0,B|251:271|251:271|249:275|249:275|262:348,1,120,0|0,1:3|0:0,0:0:0:0:
269,339,102820,5,6,1:3:0:0:
77,228,102970,1,8,0:0:0:0:
253,101,103120,1,4,0:0:0:0:
167,384,103270,1,8,1:3:0:0:
100,101,103420,1,8,1:3:0:0:
386,220,103570,1,4,0:0:0:0:
92,349,103720,5,8,1:3:0:0:
83,351,103795,1,8,0:0:0:0:
73,352,103870,1,8,0:0:0:0:
63,353,103945,1,8,0:0:0:0:
53,354,104020,5,4,1:3:0:0:
73,289,104095,1,4,0:0:0:0:
128,248,104170,1,4,0:0:0:0:
197,251,104245,1,4,0:0:0:0:
250,295,104320,1,4,0:0:0:0:
301,342,104395,1,4,0:0:0:0:
369,342,104470,1,4,1:3:0:0:
421,297,104545,1,4,0:0:0:0:
429,229,104620,1,4,0:0:0:0:
389,173,104695,1,4,0:0:0:0:
323,158,104770,1,4,1:3:0:0:
263,191,104845,1,4,0:0:0:0:
204,225,104920,1,4,1:3:0:0:
137,210,104995,1,4,0:0:0:0:
98,154,105070,1,4,0:0:0:0:
105,86,105145,1,4,0:0:0:0:
157,41,105220,1,4,1:3:0:0:
225,41,105295,1,4,0:0:0:0:
276,87,105370,1,4,0:0:0:0:
282,157,105445,1,4,0:0:0:0:
241,212,105520,5,4,1:3:0:0:
201,151,105595,1,4,0:0:0:0:
208,78,105670,1,4,1:3:0:0:
261,28,105745,1,4,0:0:0:0:
332,17,105820,1,4,0:0:0:0:
394,57,105895,1,4,0:0:0:0:
417,127,105970,5,4,1:3:0:0:
359,172,106045,1,4,0:0:0:0:
286,165,106120,1,4,0:0:0:0:
236,111,106195,1,4,0:0:0:0:
178,67,106270,1,4,1:3:0:0:
105,74,106345,1,4,0:0:0:0:
55,128,106420,6,0,B|64:164|64:164|61:165|61:165|76:227,1,75,8|0,1:3|0:0,0:0:0:0:
157,372,106570,2,0,B|183:346|183:346|186:347|186:347|232:304,1,75,12|0,0:0|0:0,0:0:0:0:
318,162,106720,2,0,B|282:151|282:151|282:148|282:148|221:130,1,75,12|0,1:3|0:0,0:0:0:0:
168,205,106870,5,2,0:0:0:0:
161,230,107020,5,0,0:0:0:0:
186,234,107170,5,0,0:0:0:0:
179,218,107320,5,0,0:0:0:0:
175,227,107470,5,0,0:0:0:0:
509,57,107620,6,0,B|444:33|397:96|397:96|350:162|261:122,1,260,6|10,0:0|1:3,0:0:0:0:
50,65,108070,1,0,1:3:0:0:
240,326,108220,1,6,0:0:0:0:
316,43,108370,1,4,1:3:0:0:
38,201,108520,1,10,0:0:0:0:
342,374,108670,6,0,B|375:247|375:247|372:244|372:244|412:93,1,260,0|0,1:3|0:0,0:0:0:0:
266,5,109120,2,0,P|261:59|330:82,1,130,10|0,1:3|0:0,0:0:0:0:
494,307,109420,5,6,1:3:0:0:
238,230,109570,1,4,0:0:0:0:
423,87,109720,2,0,B|408:148|408:148|405:149|405:149|387:222,1,130,10|0,1:3|0:0,0:0:0:0:
64,361,110020,6,0,B|27:320|27:320|41:258|41:258|39:255|39:255|60:171,1,195,6|0,1:3|0:0,0:0:0:0:
50,172,110320,2,0,B|112:144|112:144|184:172,1,130,10|0,0:0|0:0,0:0:0:0:
401,66,110620,5,6,1:3:0:0:
265,303,110770,1,4,0:0:0:0:
217,34,110920,1,10,1:3:0:0:
451,238,111070,6,0,B|388:277|326:232|326:232|259:181|170:251,1,260,0|0,1:3|0:0,0:0:0:0:
401,66,111520,1,10,0:0:0:0:
265,303,111670,5,0,1:3:0:0:
164,5,111820,1,6,1:3:0:0:
481,131,111970,1,4,1:3:0:0:
170,298,112120,1,10,1:3:0:0:
477,115,112270,1,0,1:3:0:0:
150,11,112420,6,0,B|130:93|130:93|134:109|134:109|104:231,1,195,6|0,1:3|0:0,0:0:0:0:
120,214,112720,1,10,1:3:0:0:
345,106,112870,2,0,B|287:75|287:75|211:97,1,130,0|6,1:3|0:0,0:0:0:0:
52,282,113170,2,0,B|110:313|110:313|186:291,1,130,4|10,1:3|0:0,0:0:0:0:
372,323,113470,6,0,B|291:330|259:267|259:267|225:191|143:210,1,260,0|0,1:3|0:0,0:0:0:0:
378,109,113920,2,0,B|360:172|360:172|362:171|362:171|342:239,1,130,10|0,1:3|0:0,0:0:0:0:
489,27,114220,5,6,1:3:0:0:
210,126,114370,1,4,0:0:0:0:
475,282,114520,1,10,1:3:0:0:
212,101,114670,1,0,0:0:0:0:
482,11,114820,6,0,B|494:101|494:101|491:99|491:99|509:235,1,195,6|0,1:3|0:0,0:0:0:0:
512,211,115120,2,0,P|470:246|394:200,1,129.999994049073,10|0,0:0|0:0,0:0:0:0:
215,95,115420,6,0,P|302:109|438:143,1,195,6|0,1:3|0:0,0:0:0:0:
414,145,115720,1,10,0:0:0:0:
148,274,115870,6,0,B|127:143|127:143|123:142|123:142|95:-35,1,260,0|0,1:3|0:0,0:0:0:0:
251,258,116320,1,10,0:0:0:0:
262,269,116395,1,0,0:0:0:0:
265,285,116470,1,0,0:0:0:0:
260,300,116545,1,0,0:0:0:0:
248,310,116620,6,0,P|242:239|315:223,1,130,6|4,1:3|0:0,0:0:0:0:
341,294,116920,1,10,1:3:0:0:
252,132,117070,6,0,B|328:110|372:177|372:177|416:243|497:215,1,260,0|0,1:3|0:0,0:0:0:0:
483,3,117520,2,0,P|468:64|451:147,1,130,10|0,0:0|0:0,0:0:0:0:
178,80,117820,6,0,P|192:31|264:61,1,130,6|4,1:3|0:0,0:0:0:0:
262,131,118120,1,10,0:0:0:0:
129,241,118270,6,0,P|106:139|71:27,1,195,0|0,1:3|0:0,0:0:0:0:
68,46,118570,1,0,0:0:0:0:
198,94,118720,2,0,P|260:105|363:125,1,130,10|0,0:0|0:0,0:0:0:0:
342,364,119020,6,0,P|402:335|374:280,1,130,6|4,1:3|0:0,0:0:0:0:
301,289,119320,1,10,1:3:0:0:
446,191,119470,2,0,B|319:205|319:205|312:202|312:202|179:217,1,260,0|0,1:3|0:0,0:0:0:0:
40,118,119920,2,0,B|101:124|101:124|105:121|105:121|181:129,1,130,10|0,1:3|0:0,0:0:0:0:
398,79,120220,5,6,1:3:0:0:
212,309,120370,1,4,0:0:0:0:
129,41,120520,1,10,1:3:0:0:
219,318,120670,1,0,1:3:0:0:
397,60,120820,6,0,B|356:26|356:26|298:37|298:37|293:34|293:34|204:52,1,195,6|0,0:0|0:0,0:0:0:0:
211,62,121120,2,0,B|202:120|202:120|197:120|197:120|202:120|202:120|191:205,1,130,10|0,0:0|0:0,0:0:0:0:
421,247,121420,5,6,1:3:0:0:
132,331,121570,1,4,0:0:0:0:
421,247,121720,1,10,0:0:0:0:
433,159,121870,6,0,B|360:154|334:221|334:221|301:298|216:276,1,260,0|0,1:3|0:0,0:0:0:0:
443,358,122320,2,0,B|462:293|462:293|400:224,1,130,10|0,0:0|0:0,0:0:0:0:
137,114,122620,5,6,1:3:0:0:
205,373,122770,1,4,0:0:0:0:
137,114,122920,1,10,0:0:0:0:
77,51,123070,6,0,B|129:16|129:16|190:46|190:46|197:43|197:43|260:73|260:73|326:40,1,260,0|0,1:3|0:0,0:0:0:0:
91,213,123520,2,0,P|32:193|58:135,1,130,10|0,0:0|0:0,0:0:0:0:
313,294,123820,5,6,1:3:0:0:
82,328,123970,1,4,0:0:0:0:
177,157,124120,2,0,B|187:221|187:221|185:223|185:223|197:307,1,130,10|0,0:0|0:0,0:0:0:0:
450,128,124420,5,6,1:3:0:0:
236,377,124570,1,0,0:0:0:0:
292,56,124720,1,10,0:0:0:0:
334,384,124870,5,6,1:3:0:0:
93,95,125020,1,2,0:0:0:0:
446,233,125170,1,4,0:0:0:0:
26,282,125320,5,10,1:3:0:0:
288,43,125470,1,0,0:0:0:0:
194,377,125620,1,8,1:3:0:0:
194,377,125670,1,8,0:0:0:0:
194,377,125720,2,0,L|172:370,4,20,8|8|4|4|8,0:0|0:0|0:0|0:0|0:0,0:0:0:0:
168,358,126070,6,0,B|187:340|202:335|202:335|200:340|200:340|220:334|239:349|239:349|256:365|280:373|280:373|277:368|277:368|297:368|318:355,1,180
424,372,126820,5,6,1:3:0:0:
461,332,126895,1,4,0:0:0:0:
467,279,126970,1,4,0:0:0:0:
441,231,127045,1,4,0:0:0:0:
392,209,127120,5,14,0:0:0:0:
389,217,127195,1,4,0:0:0:0:
387,226,127270,1,4,1:3:0:0:
385,235,127345,1,4,0:0:0:0:
382,244,127420,5,6,0:0:0:0:
333,221,127495,1,4,0:0:0:0:
322,170,127570,1,4,0:0:0:0:
357,130,127645,1,4,0:0:0:0:
410,134,127720,1,14,0:0:0:0:
458,111,127795,1,4,0:0:0:0:
469,60,127870,1,4,0:0:0:0:
434,20,127945,1,4,0:0:0:0:
381,24,128020,5,6,0:0:0:0:
392,77,128095,1,4,0:0:0:0:
403,131,128170,1,4,0:0:0:0:
414,185,128245,1,4,0:0:0:0:
425,239,128320,5,14,0:0:0:0:
416,235,128395,1,4,0:0:0:0:
408,231,128470,1,4,0:0:0:0:
399,227,128545,1,4,0:0:0:0:
391,224,128620,5,6,0:0:0:0:
419,268,128695,1,4,0:0:0:0:
399,317,128770,1,4,0:0:0:0:
348,330,128845,1,4,0:0:0:0:
308,295,128920,1,14,0:0:0:0:
268,260,128995,1,4,0:0:0:0:
216,272,129070,1,4,0:0:0:0:
197,321,129145,1,4,0:0:0:0:
225,366,129220,5,6,0:0:0:0:
235,313,129295,1,4,0:0:0:0:
207,267,129370,1,4,0:0:0:0:
155,254,129445,1,4,0:0:0:0:
108,280,129520,5,14,0:0:0:0:
110,288,129595,1,4,0:0:0:0:
112,297,129670,1,4,0:0:0:0:
115,306,129745,1,4,0:0:0:0:
117,315,129820,5,6,0:0:0:0:
170,304,129895,1,4,0:0:0:0:
208,265,129970,1,4,0:0:0:0:
218,212,130045,1,4,0:0:0:0:
198,162,130120,1,14,0:0:0:0:
153,132,130195,1,4,0:0:0:0:
98,132,130270,1,4,0:0:0:0:
53,162,130345,1,4,0:0:0:0:
32,212,130420,5,6,0:0:0:0:
86,201,130495,1,4,0:0:0:0:
140,191,130570,1,4,0:0:0:0:
194,181,130645,1,4,0:0:0:0:
248,171,130720,5,14,0:0:0:0:
241,164,130795,1,4,0:0:0:0:
235,157,130870,1,4,0:0:0:0:
229,150,130945,1,4,0:0:0:0:
222,144,131020,5,6,0:0:0:0:
214,196,131095,1,4,0:0:0:0:
249,237,131170,1,4,0:0:0:0:
302,239,131245,1,4,0:0:0:0:
339,200,131320,1,14,0:0:0:0:
375,161,131395,1,4,0:0:0:0:
429,163,131470,1,4,0:0:0:0:
463,203,131545,1,4,0:0:0:0:
456,256,131620,5,6,0:0:0:0:
402,254,131695,1,4,0:0:0:0:
361,219,131770,1,4,0:0:0:0:
351,166,131845,1,4,0:0:0:0:
376,118,131920,5,14,0:0:0:0:
381,125,131995,1,4,0:0:0:0:
386,132,132070,1,4,0:0:0:0:
392,140,132145,1,4,0:0:0:0:
397,147,132220,5,6,0:0:0:0:
353,179,132295,1,4,0:0:0:0:
299,180,132370,1,4,0:0:0:0:
255,148,132445,1,4,0:0:0:0:
239,97,132520,1,14,0:0:0:0:
222,45,132595,1,4,0:0:0:0:
178,13,132670,1,4,0:0:0:0:
124,14,132745,1,4,0:0:0:0:
81,47,132820,5,6,0:0:0:0:
90,101,132895,1,4,0:0:0:0:
100,155,132970,1,4,0:0:0:0:
109,209,133045,1,4,0:0:0:0:
119,263,133120,5,14,0:0:0:0:
111,259,133195,1,4,0:0:0:0:
102,254,133270,1,4,0:0:0:0:
94,250,133345,1,4,0:0:0:0:
86,245,133420,5,6,0:0:0:0:
107,195,133495,1,4,0:0:0:0:
153,166,133570,1,4,0:0:0:0:
207,168,133645,1,4,0:0:0:0:
251,200,133720,1,14,0:0:0:0:
269,252,133795,1,4,0:0:0:0:
255,304,133870,1,4,0:0:0:0:
214,339,133945,1,4,0:0:0:0:
161,346,134020,5,6,0:0:0:0:
158,292,134095,1,4,0:0:0:0:
190,248,134170,1,4,0:0:0:0:
242,234,134245,1,4,0:0:0:0:
292,256,134320,5,14,0:0:0:0:
289,265,134395,1,4,0:0:0:0:
287,273,134470,1,4,0:0:0:0:
284,282,134545,1,4,0:0:0:0:
282,291,134620,5,6,0:0:0:0:
329,317,134695,1,4,0:0:0:0:
382,313,134770,1,4,0:0:0:0:
424,279,134845,1,4,0:0:0:0:
439,227,134920,2,0,B|413:218|413:218|413:221|413:221|365:206,3,55,14|4|4|4,0:0|0:0|0:0|0:0,0:0:0:0:
452,126,135220,5,8,0:0:0:0:
389,97,135295,1,8,0:0:0:0:
323,115,135370,1,4,0:0:0:0:
283,171,135445,1,4,0:0:0:0:
289,239,135520,1,4,0:0:0:0:
294,307,135595,1,4,0:0:0:0:
254,363,135670,1,4,0:0:0:0:
188,381,135745,1,4,0:0:0:0:
126,352,135820,5,8,0:0:0:0:
123,339,135895,2,0,L|147:262,1,70,8|4,0:0|0:0,0:0:0:0:
33,189,136045,5,4,0:0:0:0:
43,198,136120,2,0,B|110:192|110:192|116:188|116:188|205:180,1,140,14|0,1:3|1:3,0:0:0:0:
397,283,136420,6,0,B|332:269|295:316|295:316|251:370|171:331,1,220,6|10,1:3|1:3,0:0:0:0:
153,244,136870,2,0,P|172:220|219:276,1,110,0|6,1:3|0:0,0:0:0:0:
226,255,137170,1,4,0:0:0:0:
75,317,137320,2,0,B|61:233|61:233|64:230|64:230|46:121,1,165,10|0,1:3|0:0,0:0:0:0:
41,144,137620,6,0,B|106:87|106:87|200:122,1,165,6|0,1:3|0:0,0:0:0:0:
194,108,137920,1,10,0:0:0:0:
290,40,138070,2,0,B|281:94|281:94|284:97|284:97|270:176,1,110,0|6,1:3|0:0,0:0:0:0:
276,148,138370,1,4,0:0:0:0:
440,66,138520,2,0,P|387:63|382:124,1,110,10|0,1:3|1:3,0:0:0:0:
477,303,138820,6,0,B|465:236|465:236|467:233|467:233|450:156|450:156|427:198|362:200,1,220,6|10,1:3|0:0,0:0:0:0:
299,287,139270,2,0,B|354:272|354:272|395:315,1,110,0|6,1:3|0:0,0:0:0:0:
390,310,139570,1,4,0:0:0:0:
257,213,139720,2,0,P|225:238|215:306,1,110,10|0,1:3|0:0,0:0:0:0:
246,126,140020,6,0,B|296:118|323:154|323:154|350:190|403:180,1,165,6|0,1:3|0:0,0:0:0:0:
405,191,140320,1,10,1:3:0:0:
459,65,140470,2,0,P|409:49|395:106,1,110,0|6,1:3|0:0,0:0:0:0:
388,92,140770,1,4,0:0:0:0:
197,25,140920,6,0,B|253:34|253:34|256:37|256:37|310:46,1,110,10|0,1:3|1:3,0:0:0:0:
144,178,141220,6,0,B|90:171|66:99|113:58|113:58|125:90|157:103,1,220,6|10,1:3|0:0,0:0:0:0:
293,240,141670,2,0,B|183:256|183:256|179:260|179:260|45:278,1,220,0|4,1:3|0:0,0:0:0:0:
11,78,142120,5,10,0:0:0:0:
82,148,142270,1,0,1:3:0:0:
113,54,142420,6,0,B|173:46|204:99|204:99|236:157|303:140,1,220,6|10,1:3|0:0,0:0:0:0:
470,79,142870,2,0,B|454:40|419:25|419:25|357:41|357:41|354:38|354:38|260:63,1,220,0|4,1:3|0:0,0:0:0:0:
155,290,143320,5,10,0:0:0:0:
232,221,143470,1,0,1:3:0:0:
256,320,143620,6,0,B|366:303|366:303|371:308|371:308|509:288,1,220,6|10,1:3|0:0,0:0:0:0:
474,130,144070,2,0,B|424:76|424:76|410:139|410:139|407:140|407:140|386:232,1,220,0|4,1:3|0:0,0:0:0:0:
95,9,144520,6,0,B|79:72|79:72|80:77|80:77|66:129,1,110,10|4,0:0|1:3,0:0:0:0:
71,128,144745,1,4,0:0:0:0:
73,140,144820,6,0,B|104:168|145:168|145:168|140:161|140:161|173:158|196:135|196:135|202:122|202:122|215:119|215:119|236:82|277:76|277:76|272:83|272:83|320:83|343:114,1,320,6|10,1:3|1:3,0:0:0:0:
306,253,145270,6,0,B|294:213|294:213|296:210|296:210|283:162,1,80,14|0,1:3|0:0,0:0:0:0:
279,192,145570,6,0,B|288:225|288:225|286:228|286:228|298:268,1,80,14|0,0:0|0:0,0:0:0:0:
201,367,145870,6,0,L|216:294,1,60,14|0,1:3|0:0,0:0:0:0:
194,221,146020,5,6,1:3:0:0:
154,218,146095,1,0,0:0:0:0:
119,235,146170,1,0,0:0:0:0:
97,268,146245,1,0,0:0:0:0:
75,301,146320,1,10,0:0:0:0:
40,318,146395,1,0,0:0:0:0:
0,315,146470,2,0,L|15:242,1,60,0|0,1:3|0:0,0:0:0:0:
191,88,146620,5,6,0:0:0:0:
11,166,146770,1,4,0:0:0:0:
183,271,146920,2,0,P|195:242|117:226,1,120,10|0,1:3|0:0,0:0:0:0:
136,346,147220,5,6,1:3:0:0:
175,367,147295,1,0,0:0:0:0:
219,364,147370,1,0,0:0:0:0:
255,339,147445,1,0,0:0:0:0:
273,298,147520,1,10,1:3:0:0:
290,257,147595,1,0,0:0:0:0:
327,231,147670,1,0,1:3:0:0:
371,229,147745,1,0,0:0:0:0:
410,250,147820,5,6,0:0:0:0:
408,260,147895,1,0,0:0:0:0:
406,270,147970,1,4,0:0:0:0:
266,140,148120,2,0,B|327:129|327:129|329:131|329:131|420:114,1,120,10|0,1:3|1:3,0:0:0:0:
236,45,148420,5,6,1:3:0:0:
191,47,148495,1,0,0:0:0:0:
158,76,148570,1,0,0:0:0:0:
150,120,148645,1,0,0:0:0:0:
171,159,148720,1,10,0:0:0:0:
246,302,148870,6,0,P|290:290|282:215,1,120,0|6,1:3|0:0,0:0:0:0:
292,224,149170,1,4,0:0:0:0:
383,99,149320,2,0,P|378:154|429:176,1,120,10|0,1:3|0:0,0:0:0:0:
403,11,149620,5,6,1:3:0:0:
360,0,149695,1,0,0:0:0:0:
318,14,149770,1,0,0:0:0:0:
292,50,149845,1,0,0:0:0:0:
291,94,149920,1,10,0:0:0:0:
290,138,149995,1,0,0:0:0:0:
264,174,150070,1,0,1:3:0:0:
222,188,150145,1,0,0:0:0:0:
179,177,150220,5,6,0:0:0:0:
174,162,150295,1,0,0:0:0:0:
170,148,150370,1,4,0:0:0:0:
165,133,150445,1,0,0:0:0:0:
161,119,150520,2,0,B|182:28,1,60,10|0,1:3|0:0,0:0:0:0:
94,1,150670,2,0,B|80:59,1,60,0|0,1:3|0:0,0:0:0:0:
77,164,150820,5,6,1:3:0:0:
97,197,150895,1,0,0:0:0:0:
132,214,150970,1,0,0:0:0:0:
171,209,151045,1,0,0:0:0:0:
210,204,151120,1,10,0:0:0:0:
245,221,151195,1,0,0:0:0:0:
265,254,151270,2,0,B|251:312,1,60,0|0,1:3|0:0,0:0:0:0:
456,190,151420,5,6,0:0:0:0:
329,382,151570,1,4,0:0:0:0:
226,176,151720,2,0,B|289:164|289:164|351:212,1,120,10|0,0:0|1:3,0:0:0:0:
511,98,152020,5,6,1:3:0:0:
492,129,152095,1,0,0:0:0:0:
459,147,152170,1,0,0:0:0:0:
422,145,152245,1,0,0:0:0:0:
391,124,152320,1,10,0:0:0:0:
376,91,152395,1,0,0:0:0:0:
380,54,152470,1,0,1:3:0:0:
403,25,152545,1,0,0:0:0:0:
437,11,152620,6,0,B|444:67|444:67|442:70|442:70|451:149,1,120,6|4,0:0|0:0,0:0:0:0:
311,274,152920,2,0,B|318:218|318:218|316:215|316:215|325:136,1,120,10|0,0:0|1:3,0:0:0:0:
157,10,153220,5,6,1:3:0:0:
138,49,153295,1,0,0:0:0:0:
150,91,153370,1,0,0:0:0:0:
188,114,153445,1,0,0:0:0:0:
231,105,153520,1,10,0:0:0:0:
246,12,153670,1,0,1:3:0:0:
31,39,153820,6,0,P|40:96|54:170,1,120,6|4,1:3|0:0,0:0:0:0:
214,237,154120,2,0,P|225:178|234:118,1,120,10|0,0:0|0:0,0:0:0:0:
39,296,154420,5,8,0:0:0:0:
32,306,154520,2,0,P|42:346|94:325,1,80,8|8,0:0|0:0,0:0:0:0:
128,288,154720,1,8,0:0:0:0:
132,276,154820,2,0,P|125:238|88:232,1,80,4|4,0:0|0:0,0:0:0:0:
39,146,155020,5,8,0:0:0:0:
100,99,155120,1,8,0:0:0:0:
175,120,155220,1,8,0:0:0:0:
204,191,155320,1,4,1:3:0:0:
233,262,155420,1,4,0:0:0:0:
308,283,155520,1,4,0:0:0:0:
369,236,155620,6,0,B|354:134|354:134|351:132|351:132|333:15,1,210,6|0,1:3|0:0,0:0:0:0:
323,26,155920,1,4,0:0:0:0:
434,92,156070,1,4,0:0:0:0:
270,169,156220,6,0,B|215:151|178:201|178:201|138:254|64:216,1,210,10|0,0:0|0:0,0:0:0:0:
70,232,156520,2,0,L|46:90,1,140,4|8,0:0|0:0,0:0:0:0:
317,47,156820,5,6,0:0:0:0:
250,269,156970,1,8,0:0:0:0:
138,62,157120,1,4,1:3:0:0:
242,278,157270,1,4,0:0:0:0:
327,55,157420,6,0,B|344:85|385:93|385:93|296:100|296:100|293:105|293:105|204:112|204:112|244:119|267:171,1,320,10|4,1:3|0:0,0:0:0:0:
254,148,157870,1,8,0:0:0:0:
131,21,158020,6,0,B|108:104|108:104|111:104|111:104|87:192,1,180,6|0,1:3|0:0,0:0:0:0:
93,204,158320,2,0,P|58:224|41:208,1,50,4|0,0:0|0:0,0:0:0:0:
40,301,158470,2,0,P|1:290|0:267,1,50,4|0,0:0|0:0,0:0:0:0:
187,344,158620,6,0,P|131:342|144:286,1,120,10|4,1:3|0:0,0:0:0:0:
136,291,159070,1,8,0:0:0:0:
310,137,159220,5,6,0:0:0:0:
67,224,159370,1,8,0:0:0:0:
310,312,159520,1,4,0:0:0:0:
64,212,159670,1,4,0:0:0:0:
306,123,159820,6,0,B|379:131|379:131|380:133|380:133|453:141,1,140,10|0,0:0|0:0,0:0:0:0:
237,201,160120,1,4,1:3:0:0:
356,21,160270,1,8,0:0:0:0:
483,250,160420,6,0,B|426:239|394:288|394:288|358:344|289:320,1,210,6|0,1:3|0:0,0:0:0:0:
290,332,160720,2,0,B|284:311|284:311|286:310|286:310|278:280,1,50,4|0,0:0|0:0,0:0:0:0:
186,247,160870,2,0,B|192:268|192:268|190:269|190:269|198:299,1,50,4|0,0:0|0:0,0:0:0:0:
113,199,161020,6,0,B|159:156|159:156|231:170|231:170|236:167|236:167|317:182,1,210,10|0,0:0|0:0,0:0:0:0:
312,192,161320,1,4,0:0:0:0:
378,0,161470,1,8,0:0:0:0:
476,205,161620,5,6,0:0:0:0:
227,82,161770,1,8,0:0:0:0:
487,28,161920,1,4,1:3:0:0:
223,94,162070,1,4,0:0:0:0:
371,319,162220,6,0,B|389:205|389:205|394:203|394:203|414:81,1,240,10|0,1:3|0:0,0:0:0:0:
408,72,162520,2,0,B|379:76|379:76|378:77|378:77|346:82,1,50,4|0,0:0|0:0,0:0:0:0:
268,145,162670,2,0,B|297:149|297:149|298:150|298:150|330:155,1,50,8|0,0:0|0:0,0:0:0:0:
267,62,162820,6,0,B|213:59|189:112|189:112|152:175|71:142,1,210,6|0,1:3|0:0,0:0:0:0:
84,157,163120,2,0,P|59:101|127:75,1,140,10|0,0:0|0:0,0:0:0:0:
248,289,163420,5,6,1:3:0:0:
32,238,163570,1,4,0:0:0:0:
106,384,163720,2,0,B|120:324|120:324|122:321|122:321|141:250,1,120,10|0,0:0|0:0,0:0:0:0:
340,263,164020,6,0,B|260:299|216:228|216:228|161:145|57:208,1,280,6|4,1:3|1:3,0:0:0:0:
88,201,164395,1,4,0:0:0:0:
81,214,164470,2,0,B|94:117|94:117|91:118|91:118|106:5,1,210,10|0,1:3|0:0,0:0:0:0:
96,0,164770,6,0,B|66:46|66:46|149:37|149:37|149:39|149:39|245:28,1,210,14|0,1:3|0:0,0:0:0:0:
231,21,165070,2,0,B|225:60|225:60|223:58|223:58|218:102,1,70,14|0,1:3|0:0,0:0:0:0:
192,179,165220,5,6,1:3:0:0:
228,194,165295,1,4,0:0:0:0:
266,185,165370,1,4,1:3:0:0:
291,156,165445,1,4,0:0:0:0:
316,127,165520,1,14,1:3:0:0:
354,118,165595,1,4,0:0:0:0:
390,133,165670,2,0,B|395:168|395:168|396:168|396:168|403:214,1,60,6|4,1:3|0:0,0:0:0:0:
241,88,165820,5,6,1:3:0:0:
386,275,165970,1,6,0:0:0:0:
432,50,166120,2,0,B|371:35|371:35|304:80,1,120,14|6,1:3|1:3,0:0:0:0:
160,139,166420,5,6,0:0:0:0:
160,139,166495,1,4,0:0:0:0:
160,139,166570,2,0,P|179:163|214:147,1,60,6|4,0:0|0:0,0:0:0:0:
136,52,166720,2,0,P|79:92|72:152,1,120,14|6,1:3|0:0,0:0:0:0:
237,353,167020,5,6,0:0:0:0:
237,353,167095,1,4,0:0:0:0:
237,353,167170,1,6,0:0:0:0:
155,297,167320,2,0,B|93:306|93:306|92:305|92:305|10:317,1,120,14|6,1:3|1:3,0:0:0:0:
0,136,167620,5,6,1:3:0:0:
40,119,167695,1,4,0:0:0:0:
83,130,167770,1,6,0:0:0:0:
109,166,167845,1,4,0:0:0:0:
108,209,167920,1,14,1:3:0:0:
15,227,168070,1,6,0:0:0:0:
176,20,168220,5,6,1:3:0:0:
176,20,168295,1,4,0:0:0:0:
176,20,168370,1,6,1:3:0:0:
224,94,168520,2,0,L|201:245,1,120,14|6,1:3|1:3,0:0:0:0:
180,359,168820,5,6,0:0:0:0:
200,319,168895,1,4,0:0:0:0:
238,296,168970,1,6,1:3:0:0:
282,298,169045,1,4,0:0:0:0:
319,323,169120,1,14,0:0:0:0:
355,348,169195,1,4,0:0:0:0:
399,349,169270,1,6,1:3:0:0:
438,327,169345,1,4,0:0:0:0:
458,287,169420,5,6,1:3:0:0:
448,275,169495,1,4,0:0:0:0:
435,267,169570,1,6,0:0:0:0:
421,263,169645,1,4,1:3:0:0:
406,263,169720,2,0,B|410:297|410:297|411:298|411:298|420:363,1,60,14|4,0:0|0:0,0:0:0:0:
326,187,169870,2,0,B|321:221|321:221|321:222|321:222|312:287,1,60,6|4,1:3|0:0,0:0:0:0:
258,125,170020,5,6,1:3:0:0:
282,94,170095,1,4,0:0:0:0:
321,85,170170,1,4,0:0:0:0:
357,100,170245,1,4,0:0:0:0:
393,115,170320,1,14,1:3:0:0:
431,105,170395,1,4,0:0:0:0:
456,75,170470,2,0,B|452:50|452:50|451:49|451:49|447:15,1,60,6|4,1:3|0:0,0:0:0:0:
326,187,170620,6,0,B|378:219|378:219|458:192,1,120,6|6,0:0|0:0,0:0:0:0:
366,7,170920,2,0,B|310:-11|310:-11|258:20,1,120,14|6,0:0|0:0,0:0:0:0:
127,291,171220,5,6,0:0:0:0:
127,291,171295,1,4,0:0:0:0:
127,291,171370,2,0,L|140:232,1,60,6|4,0:0|0:0,0:0:0:0:
225,205,171520,2,0,B|210:147|210:147|212:145|212:145|191:56,1,120,14|6,0:0|1:3,0:0:0:0:
0,162,171820,5,6,1:3:0:0:
0,162,171895,1,4,0:0:0:0:
0,162,171970,1,6,0:0:0:0:
14,73,172120,2,0,P|52:38|134:50,1,120,14|6,0:0|1:3,0:0:0:0:
95,227,172420,5,6,1:3:0:0:
89,185,172495,1,4,0:0:0:0:
108,149,172570,1,6,0:0:0:0:
144,129,172645,1,4,0:0:0:0:
185,133,172720,1,14,0:0:0:0:
217,160,172795,1,4,0:0:0:0:
228,199,172870,1,6,0:0:0:0:
214,238,172945,1,4,0:0:0:0:
181,263,173020,5,6,1:3:0:0:
178,204,173095,1,4,0:0:0:0:
216,160,173170,1,6,0:0:0:0:
275,154,173245,1,4,0:0:0:0:
321,189,173320,1,14,0:0:0:0:
367,224,173395,1,4,0:0:0:0:
425,218,173470,1,6,0:0:0:0:
463,174,173545,1,4,0:0:0:0:
461,115,173620,6,0,B|442:98|416:87|416:87|417:93|417:93|388:84|360:85|360:85|364:90|364:90|331:99|308:112|308:112|317:115|317:115|293:136|281:159|281:159|292:170|306:177|306:177|305:180|305:180|306:177|306:177|327:182|364:182,1,320,6|14,1:3|1:3,0:0:0:0:
445,257,174070,6,0,P|454:223|400:204,1,80,6|6,1:3|0:0,0:0:0:0:
417,210,174370,6,0,P|447:233|439:270,1,80,6|14,0:0|1:3,0:0:0:0:
359,334,174670,6,0,B|353:306|353:306|354:304|354:304|348:276,1,60,6|4,0:0|0:0,0:0:0:0:
334,184,174820,5,6,1:3:0:0:
294,181,174895,1,4,0:0:0:0:
264,206,174970,1,4,1:3:0:0:
258,244,175045,1,4,0:0:0:0:
251,282,175120,1,14,1:3:0:0:
221,306,175195,1,4,0:0:0:0:
182,304,175270,2,0,B|175:275|175:275|176:274|176:274|170:245,1,60,6|4,1:3|0:0,0:0:0:0:
67,102,175420,5,6,1:3:0:0:
244,195,175570,1,6,0:0:0:0:
72,303,175720,2,0,B|82:241|82:241|81:239|81:239|95:153,1,120,14|6,0:0|1:3,0:0:0:0:
264,74,176020,5,6,0:0:0:0:
264,74,176095,1,4,0:0:0:0:
264,74,176170,2,0,P|248:97|212:90,1,60,6|4,1:3|0:0,0:0:0:0:
317,6,176320,2,0,B|358:52|358:52|338:123,1,120,14|6,1:3|0:0,0:0:0:0:
240,348,176620,5,6,0:0:0:0:
240,348,176695,1,4,0:0:0:0:
240,348,176770,1,6,0:0:0:0:
306,291,176920,2,0,L|458:311,1,120,14|6,1:3|0:0,0:0:0:0:
491,173,177220,5,6,1:3:0:0:
461,146,177295,1,4,0:0:0:0:
422,147,177370,1,6,0:0:0:0:
394,174,177445,1,4,0:0:0:0:
366,201,177520,1,14,1:3:0:0:
327,202,177595,1,4,0:0:0:0:
297,175,177670,2,0,P|294:143|323:137,1,60,6|4,1:3|0:0,0:0:0:0:
203,192,177820,6,0,B|185:133|185:133|231:71,1,120,6|6,1:3|1:3,0:0:0:0:
403,110,178120,2,0,B|421:169|421:169|375:231,1,120,14|6,0:0|1:3,0:0:0:0:
343,332,178420,5,6,0:0:0:0:
322,292,178495,1,4,0:0:0:0:
283,272,178570,1,6,1:3:0:0:
238,276,178645,1,4,0:0:0:0:
205,305,178720,1,14,0:0:0:0:
172,334,178795,1,4,0:0:0:0:
127,338,178870,1,6,1:3:0:0:
88,318,178945,1,4,0:0:0:0:
67,278,179020,5,6,1:3:0:0:
76,266,179095,1,4,0:0:0:0:
90,261,179170,1,6,0:0:0:0:
105,262,179245,1,4,1:3:0:0:
118,270,179320,2,0,L|132:346,1,60,14|4,0:0|0:0,0:0:0:0:
197,214,179470,2,0,L|211:290,1,60,6|4,1:3|0:0,0:0:0:0:
263,154,179620,5,6,1:3:0:0:
234,126,179695,1,4,0:0:0:0:
196,118,179770,1,6,0:0:0:0:
159,132,179845,1,4,0:0:0:0:
122,146,179920,1,14,1:3:0:0:
84,138,179995,1,4,0:0:0:0:
55,110,180070,2,0,L|65:50,1,60,6|4,1:3|0:0,0:0:0:0:
209,246,180220,5,6,0:0:0:0:
0,178,180370,1,6,0:0:0:0:
148,34,180520,2,0,B|208:26|208:26|211:28|211:28|294:18,1,120,14|6,0:0|0:0,0:0:0:0:
450,157,180820,5,6,0:0:0:0:
409,174,180895,1,4,0:0:0:0:
366,162,180970,1,6,0:0:0:0:
340,127,181045,1,4,0:0:0:0:
340,83,181120,1,14,0:0:0:0:
437,58,181270,1,6,0:0:0:0:
356,281,181420,5,6,0:0:0:0:
356,281,181495,1,4,0:0:0:0:
356,281,181570,2,0,B|363:314|363:314|362:316|362:316|372:355,1,60,6|4,0:0|0:0,0:0:0:0:
363,198,181720,2,0,B|323:182|287:219|287:219|246:259|189:235,1,180,10|0,1:3|0:0,0:0:0:0:
187,245,182020,6,0,B|194:212|194:212|193:210|193:210|203:171,1,60,6|0,1:3|0:0,0:0:0:0:
260,134,182170,2,0,B|253:101|253:101|254:99|254:99|244:60,1,60
108,59,182320,2,0,P|141:51|154:122,1,120,10|0,0:0|1:3,0:0:0:0:
93,250,182620,2,0,B|87:192|87:192|84:189|84:189|75:107,1,120,6|0,1:3|0:0,0:0:0:0:
104,338,182920,5,8,0:0:0:0:
104,338,182970,1,8,0:0:0:0:
104,338,183020,2,0,P|126:339|141:314,2,39.9999987792969,8|4|4,0:0|1:3|0:0,0:0:0:0:
149,317,183220,5,14,1:3:0:0:
233,258,183370,6,0,B|214:231|221:192|221:192|189:213|199:243|199:243|194:241|194:241|203:271|237:288,1,179.999994506836,14|0,0:0|0:0,0:0:0:0:
319,222,183670,6,0,B|338:195|377:190|377:190|347:167|322:186|322:186|322:180|322:180|297:198|291:235,1,179.999994506836,12|0,1:3|0:0,0:0:0:0:
383,290,183970,6,0,B|414:300|430:336|430:336|444:300|418:281|418:281|423:280|423:280|398:261|361:267,1,179.999994506836,12|0,1:3|0:0,0:0:0:0:
304,302,184270,5,12,1:3:0:0:
256,131,184420,6,0,B|258:88|301:64|301:64|268:55|233:87|233:87|232:79|232:79|180:119|192:178|192:178|185:176|185:176|193:247|231:266|231:266|167:305|118:263|118:263|128:274|128:274|69:285|46:333|46:333|6:285|30:217|30:217|32:225|32:225|52:164|119:159,1,839.999974365235,6|0,1:3|1:3,0:0:0:0:
340,139,185620,6,0,P|394:257|446:366,1,239.999992675781,6|6,1:3|0:0,0:0:0:0:
462,201,186070,1,4,1:3:0:0:
330,336,186220,2,0,P|303:270|278:219,1,119.999996337891,10|0,1:3|0:0,0:0:0:0:
238,322,186520,1,6,0:0:0:0:
238,322,186670,1,8,1:3:0:0:
106,167,186820,6,0,P|225:152|343:133,1,239.999992675781,6|2,1:3|1:3,3:3:0:0:
416,335,187270,2,0,B|351:352|319:293|319:293|282:222|216:239,2,239.999992675781
238,320,188020,6,0,P|202:329|156:267,1,93.3333333333334,6|0,1:3|0:0,0:0:0:0:
90,339,188220,2,0,P|70:307|115:244,1,93.3333333333334,8|0,1:3|0:0,0:0:0:0:
28,197,188420,2,0,P|49:179|78:184,1,39.9999999999999,4|0,1:3|0:0,0:0:0:0:
31,83,188620,6,0,P|100:102|162:125,1,93.3333304850261,12|0,1:3|0:0,0:0:0:0:
201,84,188820,2,0,P|262:120|316:158,1,93.3333304850261,4|0,1:3|0:0,0:0:0:0:
362,127,189020,2,0,P|397:156|417:176,1,39.9999987792969,8|0,1:3|0:0,0:0:0:0:
454,78,189220,5,8,1:3:0:0:
445,311,189370,1,8,1:3:0:0:
468,70,189520,1,4,0:0:0:0:
277,314,189670,5,12,1:3:0:0:
316,26,189820,1,12,0:0:0:0:
290,325,189970,1,8,1:3:0:0:
89,28,190120,5,12,1:3:0:0:
89,28,190195,1,4,0:0:0:0:
89,28,190270,2,0,B|97:61|97:61|96:65|96:65|113:126,1,60,12|4,0:0|0:0,0:0:0:0:
149,220,190420,5,12,1:3:0:0:
149,220,190495,1,4,0:0:0:0:
149,220,190570,2,0,B|157:187|157:187|156:183|156:183|173:122,1,60,12|4,0:0|0:0,0:0:0:0:
36,253,190720,5,12,1:3:0:0:
76,314,190795,1,8,0:0:0:0:
145,340,190870,1,8,1:3:0:0:
215,319,190945,1,8,0:0:0:0:
259,259,191020,1,8,0:0:0:0:
292,193,191095,1,8,0:0:0:0:
361,166,191170,1,4,1:3:0:0:
430,191,191245,1,4,0:0:0:0:
466,255,191320,1,4,0:0:0:0:
452,327,191395,1,4,0:0:0:0:
393,371,191470,2,0,P|353:368|320:356,1,59.9999981689454,4|4,1:3|0:0,0:0:0:0:
320,205,191620,5,8,1:3:0:0:
336,200,191695,1,8,0:0:0:0:
330,215,191770,1,8,0:0:0:0:
325,207,191845,1,8,0:0:0:0:
331,207,191920,1,12,1:3:0:0:
150,159,192070,5,10,1:3:0:0:
448,345,192220,1,8,1:3:0:0:
317,22,192370,1,8,1:3:0:0:
230,360,192520,1,8,1:3:0:0:
498,134,192670,1,8,1:3:0:0:
146,15,192820,6,0,B|120:48|75:50|75:50|161:66|161:66|158:68|158:68|271:89,1,259.999988098145,6|10,1:3|1:3,0:0:0:0:
498,119,193270,1,0,1:3:0:0:
174,163,193420,1,6,0:0:0:0:
421,315,193570,1,4,1:3:0:0:
378,25,193720,1,10,0:0:0:0:
431,304,193870,6,0,B|361:272|317:332|317:332|258:406|171:339,1,260,0|0,1:3|0:0,0:0:0:0:
444,220,194320,2,0,P|509:216|504:273,1,130,10|0,1:3|0:0,0:0:0:0:
250,129,194620,5,6,1:3:0:0:
390,380,194770,1,4,0:0:0:0:
472,113,194920,1,10,1:3:0:0:
374,383,195070,1,0,0:0:0:0:
76,196,195220,6,0,B|41:217|34:250|34:250|48:304|48:304|46:302|46:302|66:382,1,194.999991073609,6|0,1:3|0:0,0:0:0:0:
74,376,195520,2,0,B|109:396|138:366|139:365|140:364|158:326|214:346,1,129.999994049073,10|0,0:0|0:0,0:0:0:0:
332,124,195820,5,6,1:3:0:0:
137,268,195970,1,4,0:0:0:0:
379,342,196120,1,10,1:3:0:0:
254,14,196270,6,0,B|238:139|238:139|240:139|240:139|214:331,1,260,0|0,1:3|0:0,0:0:0:0:
160,60,196720,1,10,0:0:0:0:
356,328,196870,5,0,1:3:0:0:
55,191,197020,1,6,1:3:0:0:
370,123,197170,1,4,1:3:0:0:
147,367,197320,1,10,1:3:0:0:
179,46,197470,1,0,1:3:0:0:
444,310,197620,6,0,B|348:303|348:303|350:301|350:301|239:292,1,195,6|0,1:3|0:0,0:0:0:0:
242,305,197920,1,10,1:3:0:0:
352,140,198070,2,0,P|404:165|355:222,1,130,0|6,1:3|0:0,0:0:0:0:
155,319,198370,2,0,P|130:265|183:238,1,130,4|10,1:3|0:0,0:0:0:0:
472,106,198670,6,0,B|445:72|445:72|448:73|448:73|424:43|424:43|336:53|336:53|331:51|331:51|221:64,1,260,0|0,1:3|0:0,0:0:0:0:
34,139,199120,2,0,B|90:174|90:174|176:148,1,130,10|0,1:3|0:0,0:0:0:0:
383,235,199420,5,6,1:3:0:0:
105,81,199570,1,4,0:0:0:0:
389,0,199720,1,10,1:3:0:0:
102,95,199870,1,0,0:0:0:0:
392,155,200020,6,0,B|338:145|310:198|310:198|274:254|196:219,1,195,6|0,1:3|0:0,0:0:0:0:
214,242,200320,2,0,B|165:197|165:197|195:120,1,130,10|0,0:0|0:0,0:0:0:0:
443,0,200620,6,0,P|462:89|480:201,1,195,6|0,1:3|0:0,0:0:0:0:
474,207,200920,1,10,0:0:0:0:
317,329,201070,6,0,B|339:346|371:349|371:349|371:352|371:352|405:355|435:342|435:342|442:306|420:275|420:275|423:276|423:276|409:251|382:234,1,260,0|0,1:3|0:0,0:0:0:0:
180,248,201520,5,10,0:0:0:0:
180,248,201595,1,0,0:0:0:0:
180,248,201670,2,0,P|200:276|176:292,1,65
111,353,201820,2,0,B|99:294|99:294|100:291|100:291|81:199,1,130,6|4,1:3|0:0,0:0:0:0:
18,297,202120,1,10,1:3:0:0:
220,146,202270,6,0,B|174:181|124:153|124:153|70:128|16:179,1,195,0|0,1:3|0:0,0:0:0:0:
29,176,202570,1,0,0:0:0:0:
124,16,202720,2,0,P|188:52|142:88,1,130,10|0,0:0|0:0,0:0:0:0:
262,314,203020,6,0,B|313:271|313:271|296:190,1,130,6|4,1:3|0:0,0:0:0:0:
221,238,203320,1,10,0:0:0:0:
492,208,203470,6,0,B|425:241|376:174|376:174|335:106|250:136,1,260,0|0,1:3|0:0,0:0:0:0:
429,7,203920,2,0,P|443:72|453:158,1,130,10|0,0:0|0:0,0:0:0:0:
415,376,204220,6,0,P|361:347|398:283,1,130,6|4,1:3|0:0,0:0:0:0:
461,309,204520,1,10,1:3:0:0:
256,380,204670,6,0,P|277:282|315:148,1,195,0|0,1:3|0:0,0:0:0:0:
316,185,204970,1,0,0:0:0:0:
148,163,205120,2,0,P|202:192|165:256,1,130,10|0,1:3|0:0,0:0:0:0:
0,23,205420,5,6,1:3:0:0:
283,124,205570,1,4,0:0:0:0:
15,293,205720,1,10,1:3:0:0:
290,138,205870,1,0,1:3:0:0:
13,7,206020,6,0,B|24:106|24:106|21:104|21:104|36:225,1,195,6|0,0:0|0:0,0:0:0:0:
27,210,206320,2,0,P|75:223|96:148,1,130,10|0,0:0|0:0,0:0:0:0:
341,21,206620,5,6,1:3:0:0:
108,78,206770,1,4,0:0:0:0:
284,247,206920,1,10,0:0:0:0:
310,164,207070,6,0,B|239:148|202:213|202:213|155:280|75:241,1,260,0|0,1:3|0:0,0:0:0:0:
77,48,207520,2,0,P|100:99|130:186,1,130,10|0,0:0|0:0,0:0:0:0:
242,320,207820,5,6,1:3:0:0:
388,139,207970,1,4,0:0:0:0:
494,356,208120,1,10,0:0:0:0:
403,358,208270,6,0,P|433:265|477:145,1,195,0|0,1:3|0:0,0:0:0:0:
481,185,208570,1,0,0:0:0:0:
372,63,208720,2,0,P|439:80|501:93,1,130,10|0,0:0|0:0,0:0:0:0:
168,180,209020,5,6,1:3:0:0:
273,0,209170,1,4,0:0:0:0:
364,196,209320,2,0,P|302:171|341:137,1,130,10|0,0:0|0:0,0:0:0:0:
81,0,209620,5,6,1:3:0:0:
413,128,209770,1,0,0:0:0:0:
54,181,209920,1,10,0:0:0:0:
419,39,210070,5,6,1:3:0:0:
252,340,210220,1,0,0:0:0:0:
197,19,210370,2,0,L|206:70,2,43.3333333333333,4|4|4,0:0|0:0|0:0,0:0:0:0:
215,74,210520,2,0,B|280:83|280:83|277:84|277:84|359:96,1,130,8|4,1:3|0:0,0:0:0:0:
474,204,210820,5,8,1:3:0:0:
416,175,210895,1,8,0:0:0:0:
354,188,210970,1,8,0:0:0:0:
313,237,211045,1,8,0:0:0:0:
313,301,211120,1,4,0:0:0:0:
278,348,211195,1,4,0:0:0:0:
227,361,211270,1,8,1:3:0:0:
183,346,211345,1,4,0:0:0:0:
162,313,211420,1,8,0:0:0:0:
163,280,211495,1,4,0:0:0:0:
180,261,211570,1,4,0:0:0:0:
198,256,211645,1,4,0:0:0:0:
209,262,211720,5,8,1:3:0:0:
221,198,211795,1,8,0:0:0:0:
234,134,211870,1,8,0:0:0:0:
247,70,211945,1,8,0:0:0:0:
262,7,212020,6,0,B|312:-3|346:31|346:31|338:31|338:31|369:52|369:86|369:86|366:80|366:80|324:122|253:103|253:103|259:109|259:109|214:79|173:88|173:88|179:82|179:82|131:82|103:103|103:103|105:156|161:183|161:183|154:186|154:186|207:210|262:196|262:196|259:241|286:274|286:274|275:273|275:273|291:317|332:340|332:340|387:320|399:280|399:280|404:286|404:286|436:232|412:167|412:167|418:204|405:237|405:237|401:232|401:232|386:268|354:283,1,1240,6|0,1:3|0:0,0:0:0:0:
363,261,214420,6,0,P|352:235|398:231,2,53.3333333333333,8|8|8,0:0|0:0|0:0,0:0:0:0:
306,164,214720,6,0,P|335:137|382:154,2,66.6666666666667,8|8|8,0:0|0:0|0:0,0:0:0:0:
349,56,215020,6,0,P|385:51|414:110,2,80,8|8|8,0:0|0:0|0:0,0:0:0:0:
474,19,215320,6,0,P|507:61|460:109,2,93.3333333333334,8|8|8,0:0|0:0|0:0,0:0:0:0:
441,158,215620,5,8,0:0:0:0:
434,165,215720,2,0,B|430:195|430:195|429:196|429:196|422:235,1,66.6666666666667,8|8,0:0|0:0,0:0:0:0:
362,357,215920,5,8,0:0:0:0:
355,350,216020,2,0,B|349:313|349:313|348:312|348:312|338:254,1,80,8|8,0:0|0:0,0:0:0:0:
281,145,216220,5,8,0:0:0:0:
274,152,216320,2,0,B|266:198|266:198|265:199|265:199|255:257,1,93.3333333333334,8|8,0:0|0:0,0:0:0:0:
189,345,216520,5,8,0:0:0:0:
182,338,216620,2,0,B|174:287|174:287|173:286|173:286|163:228,1,106.666666666667,8|8,0:0|0:0,0:0:0:0:
99,108,216820,5,6,0:0:0:0:
96,117,216920,1,4,0:0:0:0:
93,126,217020,1,4,0:0:0:0:
90,135,217120,2,0,B|168:123,2,73.3333333333333,14|4|4,0:0|0:0|0:0,0:0:0:0:
190,43,217420,5,6,0:0:0:0:
190,43,217520,2,0,P|220:59|249:109,1,73.3333333333333,4|4,0:0|0:0,0:0:0:0:
329,88,217720,1,14,0:0:0:0:
329,88,217820,2,0,P|323:121|284:164,1,73.3333333333333,4|4,0:0|0:0,0:0:0:0:
337,346,218020,5,6,0:0:0:0:
334,337,218120,1,4,0:0:0:0:
331,328,218220,1,4,0:0:0:0:
328,319,218320,2,0,B|406:331,2,73.3333333333333,14|4|4,0:0|0:0|0:0,0:0:0:0:
467,273,218620,5,6,0:0:0:0:
467,273,218720,2,0,B|496:244|496:244|478:191,1,73.3333333333333,4|4,0:0|0:0,0:0:0:0:
405,186,218920,1,14,0:0:0:0:
405,186,219020,2,0,B|375:214|375:214|393:267,1,73.3333333333333,4|4,0:0|0:0,0:0:0:0:
239,77,219220,5,6,0:0:0:0:
230,80,219320,1,4,0:0:0:0:
221,83,219420,1,4,0:0:0:0:
212,86,219520,2,0,B|204:125|204:125|205:125|205:125|197:168,2,73.3333333333333,14|4|4,0:0|0:0|0:0,0:0:0:0:
112,159,219820,5,6,0:0:0:0:
112,159,219920,2,0,B|124:196|124:196|125:196|125:196|140:237,1,73.3333333333333,4|4,0:0|0:0,0:0:0:0:
61,272,220120,1,14,0:0:0:0:
61,272,220220,2,0,B|90:298|90:298|91:297|91:297|124:325,1,73.3333333333333,4|4,0:0|0:0,0:0:0:0:
276,347,220420,5,6,0:0:0:0:
285,344,220520,1,4,0:0:0:0:
294,341,220620,1,4,0:0:0:0:
303,338,220720,2,0,P|328:305|305:259,2,73.3333333333333,14|4|4,0:0|0:0|0:0,0:0:0:0:
300,197,221020,5,6,0:0:0:0:
300,197,221120,2,0,P|258:209|250:253,1,73.3333333333333,4|4,0:0|0:0,0:0:0:0:
167,228,221320,1,14,0:0:0:0:
167,228,221420,2,0,P|165:271|204:292,1,73.3333333333333,4|4,0:0|0:0,0:0:0:0:
70,217,221620,5,6,0:0:0:0:
99,154,221720,1,4,0:0:0:0:
165,132,221820,1,4,0:0:0:0:
227,163,221920,1,14,0:0:0:0:
288,194,222020,1,4,0:0:0:0:
354,171,222120,1,4,0:0:0:0:
384,109,222220,6,0,L|371:37,2,73.3333333333333,6|4|4,0:0|0:0|0:0,0:0:0:0:
289,16,222520,1,14,0:0:0:0:
281,25,222620,2,0,L|294:97,1,73.3333333333333,4|4,0:0|0:0,0:0:0:0:
213,161,222820,5,6,0:0:0:0:
157,205,222920,1,4,0:0:0:0:
87,195,223020,1,4,0:0:0:0:
47,136,223120,1,14,0:0:0:0:
63,67,223220,1,4,0:0:0:0:
125,32,223320,1,4,0:0:0:0:
193,54,223420,6,0,P|176:94|125:94,2,73.3333333333333,6|4|4,0:0|0:0|0:0,0:0:0:0:
169,178,223720,1,14,0:0:0:0:
161,189,223820,2,0,P|117:185|101:136,1,73.3333333333333,4|4,0:0|0:0,0:0:0:0:
241,142,224020,5,6,0:0:0:0:
310,124,224120,1,4,0:0:0:0:
369,164,224220,1,4,0:0:0:0:
376,235,224320,1,14,0:0:0:0:
384,305,224420,1,4,0:0:0:0:
442,346,224520,1,4,0:0:0:0:
512,329,224620,6,0,B|508:293|508:293|510:295|510:295|505:242,2,73.3333333333333,6|4|4,0:0|0:0|0:0,0:0:0:0:
455,197,224920,1,14,0:0:0:0:
465,189,225020,2,0,B|468:154|468:154|466:156|466:156|470:120,1,73.3333333333333,4|4,0:0|0:0,0:0:0:0:
405,51,225220,5,6,0:0:0:0:
345,11,225320,1,4,0:0:0:0:
275,23,225420,1,4,0:0:0:0:
232,80,225520,1,14,0:0:0:0:
241,151,225620,1,4,0:0:0:0:
296,196,225720,1,4,0:0:0:0:
368,191,225820,6,0,P|361:146|323:132,2,73.3333333333333,6|4|4,0:0|0:0|0:0,0:0:0:0:
375,61,226120,1,14,0:0:0:0:
371,46,226220,2,0,P|326:38|300:70,1,73.3333333333333,4|4,0:0|0:0,0:0:0:0:
213,63,226420,5,6,0:0:0:0:
147,20,226520,1,4,0:0:0:0:
71,38,226620,1,4,0:0:0:0:
31,105,226720,1,6,0:0:0:0:
52,180,226820,1,4,0:0:0:0:
120,217,226920,1,4,0:0:0:0:
194,194,227020,1,14,0:0:0:0:
268,171,227120,1,4,0:0:0:0:
336,208,227220,1,4,0:0:0:0:
356,283,227320,1,6,0:0:0:0:
316,350,227420,1,4,0:0:0:0:
240,368,227520,1,4,0:0:0:0:
175,325,227620,5,6,0:0:0:0:
214,258,227720,1,4,0:0:0:0:
291,246,227820,1,4,0:0:0:0:
348,298,227920,1,6,0:0:0:0:
414,336,228020,1,4,0:0:0:0:
486,307,228120,1,4,0:0:0:0:
505,232,228220,1,14,0:0:0:0:
458,171,228320,1,4,0:0:0:0:
381,172,228420,1,4,0:0:0:0:
335,233,228520,1,6,0:0:0:0:
262,258,228620,1,4,0:0:0:0:
200,212,228720,1,4,0:0:0:0:
203,135,228820,5,6,0:0:0:0:
280,131,228920,1,4,0:0:0:0:
330,190,229020,1,4,0:0:0:0:
314,265,229120,1,6,0:0:0:0:
245,299,229220,1,4,0:0:0:0:
176,266,229320,1,4,0:0:0:0:
160,190,229420,1,14,0:0:0:0:
144,115,229520,1,4,0:0:0:0:
73,86,229620,1,4,0:0:0:0:
10,130,229720,1,6,0:0:0:0:
12,207,229820,1,4,0:0:0:0:
77,247,229920,1,4,0:0:0:0:
147,215,230020,5,6,0:0:0:0:
85,169,230120,1,4,0:0:0:0:
14,198,230220,1,4,0:0:0:0:
1,273,230320,1,6,0:0:0:0:
51,330,230420,1,4,0:0:0:0:
126,318,230520,1,4,0:0:0:0:
166,253,230620,1,14,0:0:0:0:
231,214,230720,1,4,0:0:0:0:
294,241,230820,1,4,0:0:0:0:
317,316,230920,1,6,0:0:0:0:
265,371,231020,1,4,0:0:0:0:
188,369,231120,1,4,0:0:0:0:
147,305,231220,5,6,0:0:0:0:
213,262,231320,1,4,0:0:0:0:
290,273,231420,1,4,0:0:0:0:
337,335,231520,1,4,0:0:0:0:
412,355,231620,1,8,0:0:0:0:
484,325,231720,1,4,0:0:0:0:
505,249,231820,5,14,0:0:0:0:
495,241,231920,2,0,B|486:206|486:206|486:203|486:203|476:153,1,73.3333355712891,4|4,0:0|0:0,0:0:0:0:
397,106,232120,5,8,0:0:0:0:
390,119,232220,1,4,0:0:0:0:
392,133,232320,1,8,0:0:0:0:
471,80,232420,5,6,0:0:0:0:
392,74,232520,1,4,0:0:0:0:
328,120,232620,1,4,0:0:0:0:
324,198,232720,1,4,0:0:0:0:
281,263,232820,1,4,0:0:0:0:
204,280,232920,1,8,0:0:0:0:
140,233,233020,5,14,0:0:0:0:
151,222,233120,2,0,P|190:236|173:280,1,73.3333355712891,4|4,0:0|0:0,0:0:0:0:
53,199,233320,5,8,0:0:0:0:
58,186,233420,1,4,0:0:0:0:
72,178,233520,1,8,0:0:0:0:
15,94,233620,5,6,0:0:0:0:
75,143,233720,1,4,0:0:0:0:
153,142,233820,1,4,0:0:0:0:
204,82,233920,1,4,0:0:0:0:
270,40,234020,1,8,0:0:0:0:
347,48,234120,1,4,0:0:0:0:
399,105,234220,5,14,0:0:0:0:
387,117,234320,2,0,B|398:138|396:153|396:153|406:140|441:121,1,73.3333355712891,4|4,0:0|0:0,0:0:0:0:
307,116,234520,6,0,B|313:153|313:153|315:155|315:155|322:195,2,80,8|4|8,0:0|0:0|0:0,0:0:0:0:
219,292,234820,5,8,0:0:0:0:
224,297,234920,2,0,L|238:296,2,16.6666666666667,8|0|8,0:0|0:0|0:0,0:0:0:0:
320,362,235120,5,4,0:0:0:0:
327,359,235220,2,0,L|331:342,2,16.6666666666667,4|0|4,0:0|0:0|0:0,0:0:0:0:
420,298,235420,5,4,0:0:0:0:
419,291,235520,2,0,L|406:279,2,16.6666666666667,4|0|4,0:0|0:0|0:0,0:0:0:0:
398,187,235720,5,8,0:0:0:0:
390,186,235820,2,0,L|376:195,2,16.6666666666667,8|0|8,0:0|0:0|0:0,0:0:0:0:
297,157,236020,5,6,0:0:0:0:
344,266,244420,5,6,0:0:0:0:
306,161,244870,5,6,0:0:0:0:
268,50,245320,5,6,0:0:0:0:
488,195,245620,6,0,B|416:165|379:225|381:225|383:225|345:298|259:246,1,245,6|0,0:0|0:0,0:0:0:0:
258,262,246220,2,0,P|251:222|244:173,1,69.9999999999999,6|0,0:0|0:0,0:0:0:0:
53,20,246520,5,10,0:0:0:0:
94,106,246670,1,8,0:0:0:0:
149,26,246820,6,0,P|276:42|401:61,1,244.999992523194,6|0,0:0|0:0,0:0:0:0:
405,53,247420,2,0,P|418:97|429:152,1,69.9999999999999,10|0,0:0|0:0,0:0:0:0:
280,275,247720,5,10,0:0:0:0:
359,326,247870,1,8,0:0:0:0:
274,370,248020,6,0,B|149:355|149:355|145:356|145:356|23:343,1,245,6|0,0:0|0:0,0:0:0:0:
18,355,248620,2,0,B|7:318|7:318|29:283,1,69.9999999999999,6|0,0:0|0:0,0:0:0:0:
123,103,248920,5,8,0:0:0:0:
123,103,248970,1,8,0:0:0:0:
123,103,249020,2,0,L|128:139,2,23.3333333333333,8|8|8,0:0|0:0|0:0,0:0:0:0:
82,200,249220,5,10,0:0:0:0:
82,200,249320,1,0,0:0:0:0:
82,200,249420,2,0,B|114:217|114:217|151:207,1,66.6666666666667,0|6,0:0|0:0,0:0:0:0:
317,108,249670,5,8,0:0:0:0:
433,247,249820,1,8,0:0:0:0:
284,298,249970,1,8,0:0:0:0:
332,202,250120,1,4,0:0:0:0:
345,230,250270,1,8,0:0:0:0:
328,237,250420,6,0,B|271:207|271:207|286:136|286:136|283:134|283:134|305:21,1,245,6|0,0:0|0:0,0:0:0:0:
294,20,251020,2,0,B|331:16|331:16|331:16|331:16|378:13,1,69.9999999999999,6|0,0:0|0:0,0:0:0:0:
162,130,251320,5,10,0:0:0:0:
97,57,251470,1,8,0:0:0:0:
34,135,251620,6,0,B|23:216|23:216|25:215|25:215|15:300|15:300|55:311|76:356,1,244.999992523194,6|0,0:0|0:0,0:0:0:0:
82,357,252220,2,0,B|116:352|116:352|114:354|114:354|161:348,1,69.9999978637696,10|0,0:0|0:0,0:0:0:0:
471,250,252520,5,10,0:0:0:0:
443,350,252670,1,8,0:0:0:0:
381,277,252820,6,0,B|316:333|248:275|248:275|178:217|111:292,1,280,6|6,0:0|0:0,0:0:0:0:
356,123,253570,5,8,0:0:0:0:
360,133,253645,1,8,0:0:0:0:
364,143,253720,1,8,0:0:0:0:
316,219,253870,1,8,0:0:0:0:
274,145,254020,6,0,B|253:157|242:175|242:175|231:111|231:111|229:110|229:110|217:38,1,175,6|0,0:0|0:0,0:0:0:0:
221,33,254470,2,0,B|181:65|138:43|138:43|82:14|32:50,1,175,6|0,0:0|0:0,0:0:0:0:
49,51,254920,2,0,P|81:71|134:60,1,93.3333304850261,6|0,0:0|0:0,0:0:0:0:
60,293,255220,6,0,B|49:226|49:226|50:222|50:222|37:142|37:142|69:159|114:153,1,210,6|0,0:0|0:0,0:0:0:0:
245,280,255820,5,6,0:0:0:0:
150,236,255970,1,0,0:0:0:0:
194,141,256120,1,10,0:0:0:0:
289,185,256270,1,8,0:0:0:0:
494,249,256420,6,0,B|480:191|426:172|377:196|377:196|371:238|331:261,1,209.999993591309,6|0,0:0|0:0,0:0:0:0:
194,364,257020,5,10,0:0:0:0:
155,288,257170,1,0,0:0:0:0:
215,228,257320,1,10,0:0:0:0:
290,265,257470,1,8,0:0:0:0:
56,336,257620,6,0,B|75:218|75:218|74:214|74:214|96:72,1,245,6|0,0:0|0:0,0:0:0:0:
87,80,258220,2,0,B|124:72|124:72|160:95,1,69.9999999999999,6|0,0:0|0:0,0:0:0:0:
344,249,258520,5,8,0:0:0:0:
344,249,258570,1,8,0:0:0:0:
344,249,258620,2,0,L|333:211,2,23.3333333333333,8|8|8,0:0|0:0|0:0,0:0:0:0:
375,160,258820,5,10,0:0:0:0:
360,147,258920,1,0,0:0:0:0:
333,143,259020,1,0,0:0:0:0:
309,154,259120,1,6,0:0:0:0:
116,368,259270,5,8,0:0:0:0:
244,244,259420,1,8,0:0:0:0:
116,198,259570,1,8,0:0:0:0:
142,294,259720,1,4,0:0:0:0:
166,272,259870,1,8,0:0:0:0:
158,264,260020,6,0,B|211:270|211:270|213:272|213:272|283:280,1,105,6|0,0:0|0:0,0:0:0:0:
273,289,260320,2,0,L|291:213,1,69.9999999999999,2|0,0:0|0:0,0:0:0:0:
477,291,260620,5,6,0:0:0:0:
494,285,260770,1,0,0:0:0:0:
481,371,260920,5,10,0:0:0:0:
396,299,261070,1,8,0:0:0:0:
461,213,261220,6,0,L|440:84,1,105,6|0,0:0|0:0,0:0:0:0:
447,95,261520,2,0,P|411:74|378:105,1,69.9999999999999,2|0,0:0|0:0,0:0:0:0:
116,144,261820,5,10,0:0:0:0:
119,130,261970,1,0,0:0:0:0:
70,215,262120,5,10,0:0:0:0:
29,117,262270,1,8,0:0:0:0:
116,54,262420,6,0,P|164:43|208:84,1,105,6|0,0:0|0:0,0:0:0:0:
217,86,262720,2,0,B|209:123|209:123|210:124|210:124|202:164,1,69.9999999999999,2|0,0:0|0:0,0:0:0:0:
161,235,263020,2,0,B|169:272|169:272|168:273|168:273|174:303,1,69.9999999999999,6|8,0:0|0:0,0:0:0:0:
171,314,263245,1,8,0:0:0:0:
167,324,263320,1,8,0:0:0:0:
80,277,263470,1,8,0:0:0:0:
250,232,263620,6,0,B|340:250|340:250|338:251|338:251|435:271,1,175,6|0,0:0|0:0,0:0:0:0:
424,277,264070,2,0,B|376:269|350:313|350:313|350:315|350:315|322:361|265:344,1,174.999994659424,6|0,0:0|0:0,0:0:0:0:
267,334,264520,2,0,B|227:343|227:343|227:341|227:341|184:351,1,69.9999999999999,6|0,0:0|0:0,0:0:0:0:
7,212,264820,6,0,P|52:165|123:188,1,127.5,6|0,0:0|0:0,0:0:0:0:
117,190,265120,2,0,P|177:197|218:152,1,127.5,2|0,0:0|0:0,0:0:0:0:
233,157,265420,2,0,B|224:115|224:115|226:116|226:116|216:71,1,85.0000000000003,6|0,0:0|0:0,0:0:0:0:
492,91,265720,5,10,0:0:0:0:
397,44,265870,1,8,0:0:0:0:
497,106,266020,6,0,B|490:169|490:169|492:168|492:168|480:255,1,127.5,6|0,0:0|0:0,0:0:0:0:
472,235,266320,2,0,B|479:298|479:298|477:297|477:297|485:358,1,127.5,2|0,0:0|0:0,0:0:0:0:
474,368,266620,2,0,L|372:359,1,85.0000000000003,10|0,0:0|0:0,0:0:0:0:
161,311,266920,5,10,0:0:0:0:
264,282,267070,1,8,0:0:0:0:
149,323,267220,6,0,L|164:179,1,127.5,6|0,0:0|0:0,0:0:0:0:
174,187,267520,2,0,L|160:60,1,127.5,2|0,0:0|0:0,0:0:0:0:
166,47,267820,2,0,B|125:37|125:37|74:63,1,85.0000000000003,6|0,0:0|0:0,0:0:0:0:
61,273,268120,5,8,0:0:0:0:
61,273,268170,1,8,0:0:0:0:
61,273,268220,2,0,L|50:227,2,28.3333333333334,8|8|8,0:0|0:0|0:0,0:0:0:0:
35,165,268420,5,10,0:0:0:0:
55,156,268520,1,0,0:0:0:0:
77,161,268620,1,0,0:0:0:0:
94,175,268720,1,6,0:0:0:0:
304,342,268870,5,8,0:0:0:0:
146,248,269020,1,8,0:0:0:0:
255,168,269170,1,8,0:0:0:0:
252,266,269320,1,4,0:0:0:0:
225,247,269470,1,8,0:0:0:0:
231,258,269620,6,0,B|295:219|346:280|346:280|402:342|476:285,1,255.000000000001,6|0,0:0|0:0,0:0:0:0:
375,128,270220,5,6,0:0:0:0:
410,230,270370,1,0,0:0:0:0:
512,195,270520,1,10,0:0:0:0:
477,93,270670,1,8,0:0:0:0:
304,36,270820,6,0,B|294:101|294:101|293:99|293:99|279:185,1,127.5,6|0,0:0|0:0,0:0:0:0:
276,169,271120,2,0,B|283:211|283:211|282:214|282:214|289:262,1,85.0000000000003,2|0,0:0|0:0,0:0:0:0:
58,277,271420,5,10,0:0:0:0:
93,175,271570,1,0,0:0:0:0:
195,210,271720,1,10,0:0:0:0:
160,312,271870,1,8,0:0:0:0:
21,127,272020,6,0,P|57:83|132:111,1,127.5,6|0,0:0|0:0,0:0:0:0:
134,103,272320,2,0,B|200:90|200:90|199:92|199:92|263:78,1,127.5,2|0,0:0|0:0,0:0:0:0:
264,68,272620,1,6,0:0:0:0:
467,245,272770,5,8,0:0:0:0:
461,232,272845,1,8,0:0:0:0:
455,219,272920,1,8,0:0:0:0:
394,309,273070,1,8,0:0:0:0:
392,109,273220,6,0,B|380:166|380:166|379:164|379:164|368:221,1,112.500004291535,6|0,0:0|0:0,0:0:0:0:
361,230,273520,2,0,B|317:220|298:253|297:254|295:256|275:288|217:261,1,129.999994049073
80,104,273820,6,0,P|105:64|169:86,1,112.500004291535,6|0,0:0|0:0,0:0:0:0:
163,92,274120,2,0,P|175:154|191:226,1,129.999994049073
102,325,274420,5,6,0:0:0:0:
447,142,274720,5,0,0:0:0:0:
446,149,274795,1,0,0:0:0:0:
445,156,274870,1,0,0:0:0:0:
394,231,275020,5,0,0:0:0:0:
473,243,275170,1,0,0:0:0:0:
356,153,275320,5,0,0:0:0:0:
277,165,275470,1,0,0:0:0:0:
152,334,275620,6,0,B|197:320|230:348|230:348|263:377|312:359,1,157.5,6|0,0:0|0:0,0:0:0:0:
310,352,275920,1,6,0:0:0:0:
283,275,276070,1,0,0:0:0:0:
61,189,276220,5,0,0:0:0:0:
62,182,276295,1,0,0:0:0:0:
63,175,276370,1,0,0:0:0:0:
128,110,276520,5,0,0:0:0:0:
42,91,276670,1,0,0:0:0:0:
195,20,276820,5,6,0:0:0:0:
281,39,276970,1,0,0:0:0:0:
235,136,277120,6,0,B|312:128|312:128|315:125|315:125|401:117,1,157.5,4|0,0:0|0:0,0:0:0:0:
402,128,277420,1,6,0:0:0:0:
365,212,277570,1,0,0:0:0:0:
174,31,277720,5,0,0:0:0:0:
173,38,277795,1,0,0:0:0:0:
172,45,277870,1,0,0:0:0:0:
175,276,278020,5,8,0:0:0:0:
61,148,278170,1,8,0:0:0:0:
234,120,278320,1,4,0:0:0:0:
158,175,278470,5,2,0:0:0:0:
159,182,278545,1,2,0:0:0:0:
160,189,278620,2,0,B|152:261|152:261|153:264|153:264|142:355,1,157.5,2|0,0:0|0:0,0:0:0:0:
136,360,278920,2,0,B|189:378|189:378|251:348,1,105,4|2,0:0|0:0,0:0:0:0:
242,269,279220,5,8,0:0:0:0:
263,222,279295,1,8,0:0:0:0:
311,202,279370,1,8,0:0:0:0:
359,220,279445,1,4,0:0:0:0:
383,265,279520,1,8,0:0:0:0:
408,309,279595,1,8,0:0:0:0:
457,321,279670,1,4,0:0:0:0:
500,293,279745,1,8,0:0:0:0:
509,243,279820,5,6,0:0:0:0:
447,48,279970,1,4,0:0:0:0:
397,132,280120,1,8,0:0:0:0:
406,134,280195,1,0,0:0:0:0:
416,136,280270,1,4,0:0:0:0:
298,0,280420,6,0,B|248:5|248:5|245:3|245:3|166:12,1,100,4|4,0:0|0:0,0:0:0:0:
118,119,280720,2,0,B|168:114|168:114|170:115|170:115|250:107,1,100,8|0,0:0|0:0,0:0:0:0:
24,248,281020,5,14,0:0:0:0:
83,10,281170,1,4,0:0:0:0:
114,238,281320,5,6,0:0:0:0:
42,164,281470,1,4,0:0:0:0:
136,131,281620,1,8,0:0:0:0:
134,140,281695,1,0,0:0:0:0:
132,150,281770,1,4,0:0:0:0:
37,347,281920,6,0,B|29:291|29:291|30:289|30:289|22:230,1,100,4|4,0:0|0:0,0:0:0:0:
337,224,282220,5,10,0:0:0:0:
65,161,282370,1,4,0:0:0:0:
171,243,282520,5,4,0:0:0:0:
236,178,282670,1,6,0:0:0:0:
234,168,282745,1,0,0:0:0:0:
232,159,282820,2,0,B|225:133|225:133|226:132|226:132|214:83,1,50,10|0,0:0|0:0,0:0:0:0:
289,52,282970,2,0,B|296:78|296:78|295:79|295:79|307:128,1,50,4|0,0:0|0:0,0:0:0:0:
392,267,283120,5,12,0:0:0:0:
444,42,283270,1,4,0:0:0:0:
494,127,283420,1,6,0:0:0:0:
485,129,283495,1,6,0:0:0:0:
475,131,283570,1,6,0:0:0:0:
228,235,283720,5,8,0:0:0:0:
493,277,283870,1,8,0:0:0:0:
418,202,284020,1,4,0:0:0:0:
301,335,284170,5,2,0:0:0:0:
310,333,284245,1,2,0:0:0:0:
320,331,284320,1,6,0:0:0:0:
267,137,284470,1,6,0:0:0:0:
73,190,284620,1,4,0:0:0:0:
126,384,284770,1,6,0:0:0:0:
302,242,284920,5,8,0:0:0:0:
273,202,284995,1,8,0:0:0:0:
227,186,285070,1,4,0:0:0:0:
180,201,285145,1,8,0:0:0:0:
151,240,285220,1,8,0:0:0:0:
122,279,285295,1,8,0:0:0:0:
75,293,285370,1,4,0:0:0:0:
28,278,285445,1,8,0:0:0:0:
0,238,285520,6,0,L|11:175,1,50,6|4,0:0|0:0,0:0:0:0:
95,119,285670,2,0,L|84:182,1,50,4|4,0:0|0:0,0:0:0:0:
156,331,285820,5,12,0:0:0:0:
156,331,285895,1,4,0:0:0:0:
156,331,285970,2,0,L|147:281,1,50,4|4,0:0|0:0,0:0:0:0:
302,110,286120,6,0,B|283:133|283:133|282:137|282:137|260:165,1,50,6|4,0:0|0:0,0:0:0:0:
172,205,286270,2,0,B|201:208|201:208|206:208|206:208|240:213,1,50,4|4,0:0|0:0,0:0:0:0:
320,271,286420,2,0,B|308:243|308:243|305:239|305:239|292:207,1,50,12|4,0:0|0:0,0:0:0:0:
501,97,286570,5,4,0:0:0:0:
501,97,286645,1,4,0:0:0:0:
501,97,286720,2,0,L|515:169,1,50,6|4,0:0|0:0,0:0:0:0:
500,324,286870,2,0,L|490:274,1,50,4|4,0:0|0:0,0:0:0:0:
429,155,287020,2,0,L|443:227,1,50,14|4,0:0|0:0,0:0:0:0:
368,281,287170,2,0,L|358:231,1,50,4|4,0:0|0:0,0:0:0:0:
345,151,287320,5,6,0:0:0:0:
301,128,287395,1,4,0:0:0:0:
252,135,287470,1,8,0:0:0:0:
217,170,287545,1,8,0:0:0:0:
208,218,287620,1,8,0:0:0:0:
199,266,287695,1,8,0:0:0:0:
163,300,287770,1,8,0:0:0:0:
115,308,287845,1,8,0:0:0:0:
71,285,287920,5,6,0:0:0:0:
155,89,288070,1,4,0:0:0:0:
249,336,288220,5,14,0:0:0:0:
51,162,288370,1,4,0:0:0:0:
312,146,288520,1,4,0:0:0:0:
5,249,288670,5,14,0:0:0:0:
241,21,288820,1,4,0:0:0:0:
130,325,288970,1,4,0:0:0:0:
128,28,289120,5,14,0:0:0:0:
282,314,289270,1,4,0:0:0:0:
352,13,289420,1,4,0:0:0:0:
156,320,289570,5,14,0:0:0:0:
469,115,289720,1,4,0:0:0:0:
90,100,289870,1,4,0:0:0:0:
480,371,290020,5,14,0:0:0:0:
324,37,290170,1,4,0:0:0:0:
262,384,290320,1,4,0:0:0:0:
489,28,290470,5,14,0:0:0:0:
97,244,290620,1,8,0:0:0:0:
501,39,290770,1,8,0:0:0:0:
345,263,290920,5,8,0:0:0:0:
332,264,290995,1,8,0:0:0:0:
326,255,291070,1,4,0:0:0:0:
314,256,291145,1,4,0:0:0:0:
308,248,291220,2,0,B|315:223|315:223|315:222|315:222|326:188,1,50,8|8,0:0|0:0,0:0:0:0:
354,111,291370,2,0,B|371:129|371:129|373:130|373:130|396:156,1,50,8|8,0:0|0:0,0:0:0:0:
451,217,291520,2,0,B|425:222|425:222|424:223|424:223|390:231,1,50,8|8,0:0|0:0,0:0:0:0:
275,129,291670,5,4,0:0:0:0:
230,108,291745,1,4,0:0:0:0:
182,118,291820,1,8,0:0:0:0:
150,155,291895,1,8,0:0:0:0:
117,191,291970,1,4,0:0:0:0:
69,201,292045,1,4,0:0:0:0:
25,181,292120,1,4,0:0:0:0:
8,141,292195,1,4,0:0:0:0:
21,108,292270,1,4,0:0:0:0:
45,95,292345,1,4,0:0:0:0:
64,97,292420,1,4,0:0:0:0:
75,102,292495,1,4,0:0:0:0:
80,107,292570,2,0,L|92:180,1,50,4|4,0:0|0:0,0:0:0:0:
174,259,292720,5,8,0:0:0:0:
164,246,292795,2,0,L|172:196,2,50,8|4|4,0:0|0:0|0:0,0:0:0:0:
254,148,293020,5,8,0:0:0:0:
249,131,293095,1,8,0:0:0:0:
244,114,293170,1,8,0:0:0:0:
239,97,293245,1,8,0:0:0:0:
234,80,293320,5,6,0:0:0:0:
180,86,293395,1,4,0:0:0:0:
148,129,293470,1,4,0:0:0:0:
148,182,293545,1,4,0:0:0:0:
183,222,293620,1,14,0:0:0:0:
235,234,293695,1,4,0:0:0:0:
285,216,293770,1,6,0:0:0:0:
309,168,293845,1,4,0:0:0:0:
315,114,293920,1,6,0:0:0:0:
342,68,293995,1,4,0:0:0:0:
393,52,294070,1,6,0:0:0:0:
444,65,294145,1,4,0:0:0:0:
478,105,294220,1,14,0:0:0:0:
483,158,294295,1,4,0:0:0:0:
454,203,294370,1,6,0:0:0:0:
404,223,294445,1,4,0:0:0:0:
352,207,294520,5,6,0:0:0:0:
355,157,294595,1,4,0:0:0:0:
388,126,294670,1,6,0:0:0:0:
427,123,294745,1,4,0:0:0:0:
455,139,294820,1,14,0:0:0:0:
461,163,294895,1,4,0:0:0:0:
448,175,294970,1,6,0:0:0:0:
438,176,295045,1,4,0:0:0:0:
434,169,295120,5,6,0:0:0:0:
425,223,295195,1,4,0:0:0:0:
378,251,295270,1,6,0:0:0:0:
323,245,295345,1,4,0:0:0:0:
284,205,295420,1,14,0:0:0:0:
258,156,295495,1,4,0:0:0:0:
206,136,295570,1,6,0:0:0:0:
153,151,295645,1,4,0:0:0:0:
125,198,295720,5,6,0:0:0:0:
173,233,295795,1,4,0:0:0:0:
232,236,295870,1,6,0:0:0:0:
275,195,295945,1,4,0:0:0:0:
276,135,296020,1,14,0:0:0:0:
241,85,296095,1,4,0:0:0:0:
182,72,296170,5,6,0:0:0:0:
189,122,296245,1,4,0:0:0:0:
196,171,296320,1,6,0:0:0:0:
203,221,296395,1,4,0:0:0:0:
209,270,296470,1,6,0:0:0:0:
216,320,296545,1,4,0:0:0:0:
223,369,296620,5,14,0:0:0:0:
231,362,296695,1,4,0:0:0:0:
239,355,296770,2,0,B|205:347|205:347|206:348|206:348|170:342,1,60,6|4,0:0|0:0,0:0:0:0:
74,185,296920,6,0,B|54:212|23:224|23:224|109:238|109:238|109:241|109:241|228:260,1,240,6|14,0:0|0:0,0:0:0:0:
200,247,297295,1,4,0:0:0:0:
207,239,297370,2,0,B|199:205|199:205|200:205|200:205|194:170,1,60,6|4,0:0|0:0,0:0:0:0:
431,191,297520,6,0,B|392:228|337:211|337:211|341:208|341:208|308:191|291:159|291:159|276:127|245:104|245:104|251:104|251:104|181:71|132:123,1,359.999989013672,6|6,0:0|0:0,0:0:0:0:
88,360,298120,5,6,0:0:0:0:
45,335,298195,1,4,0:0:0:0:
22,291,298270,1,4,0:0:0:0:
26,242,298345,1,4,0:0:0:0:
55,202,298420,1,14,0:0:0:0:
100,183,298495,1,4,0:0:0:0:
149,192,298570,1,6,0:0:0:0:
186,225,298645,1,4,0:0:0:0:
221,259,298720,1,6,0:0:0:0:
269,272,298795,1,4,0:0:0:0:
317,261,298870,1,6,0:0:0:0:
354,228,298945,1,4,0:0:0:0:
371,182,299020,1,14,0:0:0:0:
363,133,299095,1,4,0:0:0:0:
333,94,299170,1,6,0:0:0:0:
288,74,299245,1,4,0:0:0:0:
239,77,299320,5,6,0:0:0:0:
229,132,299395,1,4,0:0:0:0:
256,179,299470,1,6,0:0:0:0:
306,200,299545,1,4,0:0:0:0:
359,185,299620,1,14,0:0:0:0:
410,165,299695,1,4,0:0:0:0:
463,175,299770,1,6,0:0:0:0:
502,213,299845,1,4,0:0:0:0:
512,266,299920,1,6,0:0:0:0:
483,313,299995,1,4,0:0:0:0:
430,327,300070,1,6,0:0:0:0:
377,309,300145,1,4,0:0:0:0:
344,264,300220,1,14,0:0:0:0:
302,228,300295,1,4,0:0:0:0:
247,221,300370,1,6,0:0:0:0:
198,247,300445,1,4,0:0:0:0:
177,297,300520,5,6,0:0:0:0:
231,322,300595,1,0,0:0:0:0:
290,315,300670,1,2,0:0:0:0:
333,273,300745,1,0,0:0:0:0:
338,213,300820,1,10,0:0:0:0:
315,157,300895,1,0,0:0:0:0:
261,130,300970,5,6,0:0:0:0:
255,137,301045,1,0,0:0:0:0:
249,144,301120,5,6,0:0:0:0:
246,203,301195,1,0,0:0:0:0:
287,246,301270,1,6,0:0:0:0:
346,254,301345,1,0,0:0:0:0:
395,220,301420,1,14,0:0:0:0:
414,163,301495,1,0,0:0:0:0:
393,106,301570,2,0,B|359:100|359:100|360:99|360:99|310:92,1,60,0|8,0:0|0:0,0:0:0:0:
155,6,301720,5,8,0:0:0:0:
84,20,301795,1,4,0:0:0:0:
50,83,301870,1,8,0:0:0:0:
68,152,301945,1,4,0:0:0:0:
130,188,302020,1,4,0:0:0:0:
201,177,302095,1,4,0:0:0:0:
272,182,302170,1,8,0:0:0:0:
321,234,302245,1,8,0:0:0:0:
329,305,302320,1,4,0:0:0:0:
289,364,302395,1,8,0:0:0:0:
217,370,302470,1,4,0:0:0:0:
153,336,302545,1,4,0:0:0:0:
133,266,302620,5,8,0:0:0:0:
194,213,302695,1,8,0:0:0:0:
274,212,302770,1,8,0:0:0:0:
344,251,302845,1,8,0:0:0:0:
355,333,302920,6,0,B|296:389|224:338|224:338|145:287|78:374,2,280,6|14|6,0:0|0:0|0:0,0:0:0:0:
272,160,303670,5,6,0:0:0:0:
272,160,303745,1,4,0:0:0:0:
272,160,303820,2,0,B|241:223|241:223|300:295,1,140,14|6,0:0|0:0,0:0:0:0:
297,273,304045,1,4,0:0:0:0:
310,269,304120,2,0,B|288:165|288:165|284:162|284:162|265:73|265:73|246:116|193:135,1,280,6|14,0:0|0:0,0:0:0:0:
106,246,304570,5,6,0:0:0:0:
106,246,304645,1,4,0:0:0:0:
106,246,304720,2,0,B|124:140|124:140|122:132|122:132|143:-1,1,210,6|0,0:0|0:0,0:0:0:0:
149,51,305020,2,0,B|80:60|80:60|79:63|79:63|-48:82,1,140,14|6,0:0|0:0,0:0:0:0:
39,313,305320,5,6,0:0:0:0:
90,341,305395,1,4,0:0:0:0:
148,332,305470,1,6,0:0:0:0:
189,289,305545,1,4,0:0:0:0:
194,230,305620,1,14,0:0:0:0:
199,171,305695,1,4,0:0:0:0:
239,128,305770,1,6,0:0:0:0:
297,119,305845,1,4,0:0:0:0:
349,147,305920,1,6,0:0:0:0:
372,202,305995,1,4,0:0:0:0:
360,260,306070,1,6,0:0:0:0:
317,287,306145,1,4,0:0:0:0:
275,285,306220,1,14,0:0:0:0:
252,260,306295,1,4,0:0:0:0:
251,236,306370,1,6,0:0:0:0:
259,223,306445,1,4,0:0:0:0:
267,219,306520,5,6,0:0:0:0:
275,222,306595,1,4,0:0:0:0:
281,228,306670,1,6,0:0:0:0:
283,236,306745,1,4,0:0:0:0:
280,244,306820,5,14,0:0:0:0:
231,277,306895,1,4,0:0:0:0:
172,286,306970,1,4,0:0:0:0:
116,266,307045,1,4,0:0:0:0:
74,224,307120,1,6,0:0:0:0:
56,167,307195,1,4,0:0:0:0:
66,108,307270,1,6,0:0:0:0:
101,60,307345,1,4,0:0:0:0:
155,34,307420,2,0,B|159:66|159:66|158:65|158:65|164:104,3,60,14|4|4|4,0:0|0:0|0:0|0:0,0:0:0:0:
69,89,307720,5,6,0:0:0:0:
100,150,307795,1,4,0:0:0:0:
163,177,307870,1,4,0:0:0:0:
231,172,307945,1,4,0:0:0:0:
278,121,308020,1,14,0:0:0:0:
337,86,308095,1,4,0:0:0:0:
405,93,308170,1,4,0:0:0:0:
455,139,308245,1,4,0:0:0:0:
475,204,308320,1,14,0:0:0:0:
444,266,308395,1,4,0:0:0:0:
383,298,308470,1,4,0:0:0:0:
314,288,308545,1,4,0:0:0:0:
261,243,308620,1,14,0:0:0:0:
213,192,308695,1,4,0:0:0:0:
144,181,308770,1,4,0:0:0:0:
81,210,308845,1,4,0:0:0:0:
50,271,308920,5,14,0:0:0:0:
109,321,308995,1,4,0:0:0:0:
186,317,309070,1,4,0:0:0:0:
233,255,309145,1,4,0:0:0:0:
212,179,309220,1,14,0:0:0:0:
166,115,309295,1,4,0:0:0:0:
176,37,309370,1,4,0:0:0:0:
245,0,309445,1,4,0:0:0:0:
321,16,309520,1,14,0:0:0:0:
359,83,309595,1,4,0:0:0:0:
343,159,309670,1,4,0:0:0:0:
277,200,309745,1,4,0:0:0:0:
252,274,309820,1,14,0:0:0:0:
286,343,309895,1,4,0:0:0:0:
359,367,309970,1,4,0:0:0:0:
432,340,310045,1,4,0:0:0:0:
447,263,310120,5,12,0:0:0:0:
253,67,310270,1,12,0:0:0:0:
194,325,310420,1,12,0:0:0:0:
412,115,310570,1,12,0:0:0:0:
103,105,310720,1,12,0:0:0:0:
287,357,310870,1,12,0:0:0:0:
253,35,311020,1,12,0:0:0:0:
28,253,311170,1,12,0:0:0:0:
375,342,311320,5,12,0:0:0:0:
81,174,311470,1,12,0:0:0:0:
378,46,311620,1,12,0:0:0:0:
225,371,311770,1,14,0:0:0:0:
54,70,311920,1,12,0:0:0:0:
432,152,312070,1,12,0:0:0:0:
117,374,312220,1,12,0:0:0:0:
152,21,312370,1,12,0:0:0:0:
435,104,312520,5,6,0:0:0:0:
411,175,312595,1,0,0:0:0:0:
344,209,312670,1,0,0:0:0:0:
270,195,312745,1,0,0:0:0:0:
226,134,312820,1,6,0:0:0:0:
202,62,312895,1,12,0:0:0:0:
137,22,312970,1,6,0:0:0:0:
62,31,313045,1,12,0:0:0:0:
12,87,313120,1,6,0:0:0:0:
12,161,313195,1,12,0:0:0:0:
54,222,313270,1,6,0:0:0:0:
125,243,313345,1,12,0:0:0:0:
197,224,313420,1,6,0:0:0:0:
238,161,313495,1,12,0:0:0:0:
296,113,313570,1,6,0:0:0:0:
370,110,313645,1,12,0:0:0:0:
436,145,313720,1,6,0:0:0:0:
466,213,313795,1,12,0:0:0:0:
453,286,313870,1,6,0:0:0:0:
393,331,313945,1,12,0:0:0:0:
318,331,314020,1,6,0:0:0:0:
251,296,314095,1,12,0:0:0:0:
223,226,314170,1,6,0:0:0:0:
236,152,314245,1,12,0:0:0:0:
284,94,314320,5,6,0:0:0:0:
357,135,314395,1,4,0:0:0:0:
385,213,314470,1,4,0:0:0:0:
377,296,314545,1,4,0:0:0:0:
312,349,314620,1,6,0:0:0:0:
228,353,314695,1,12,0:0:0:0:
155,310,314770,1,6,0:0:0:0:
127,230,314845,1,12,0:0:0:0:
138,146,314920,5,6,0:0:0:0:
221,146,314995,1,4,0:0:0:0:
283,201,315070,1,4,0:0:0:0:
297,283,315145,1,4,0:0:0:0:
257,357,315220,1,6,0:0:0:0:
176,380,315295,1,12,0:0:0:0:
94,359,315370,1,6,0:0:0:0:
54,284,315445,1,12,0:0:0:0:
63,200,315520,5,6,0:0:0:0:
139,172,315595,1,4,0:0:0:0:
215,197,315670,1,4,0:0:0:0:
252,267,315745,1,4,0:0:0:0:
294,334,315820,1,6,0:0:0:0:
370,356,315895,1,12,0:0:0:0:
447,335,315970,1,6,0:0:0:0:
494,270,316045,1,12,0:0:0:0:
494,190,316120,1,6,0:0:0:0:
443,128,316195,1,12,0:0:0:0:
365,109,316270,1,6,0:0:0:0:
289,135,316345,1,12,0:0:0:0:
248,204,316420,1,6,0:0:0:0:
262,272,316495,1,12,0:0:0:0:
310,306,316570,1,6,0:0:0:0:
358,302,316645,1,12,0:0:0:0:
380,270,316720,1,6,0:0:0:0:
378,242,316795,1,12,0:0:0:0:
367,228,316870,1,6,0:0:0:0:
357,224,316945,1,12,0:0:0:0:
349,228,317020,6,0,B|340:269|340:269|342:269|342:269|331:332,1,89.9999999999999,6|12,0:0|0:0,0:0:0:0:
487,355,317170,2,0,B|478:313|478:313|480:313|480:313|469:250,1,89.9999999999999,6|12,0:0|0:0,0:0:0:0:
461,97,317320,5,6,0:0:0:0:
402,44,317395,1,0,0:0:0:0:
323,36,317470,1,0,0:0:0:0:
258,81,317545,1,0,0:0:0:0:
239,157,317620,1,6,0:0:0:0:
198,224,317695,1,12,0:0:0:0:
121,242,317770,1,6,0:0:0:0:
46,217,317845,1,12,0:0:0:0:
7,148,317920,1,6,0:0:0:0:
22,70,317995,1,12,0:0:0:0:
79,16,318070,1,6,0:0:0:0:
157,11,318145,1,12,0:0:0:0:
222,54,318220,1,6,0:0:0:0:
252,126,318295,1,12,0:0:0:0:
235,203,318370,1,6,0:0:0:0:
232,281,318445,1,12,0:0:0:0:
268,350,318520,1,6,0:0:0:0:
340,380,318595,1,12,0:0:0:0:
416,362,318670,1,6,0:0:0:0:
472,306,318745,1,12,0:0:0:0:
477,227,318820,1,6,0:0:0:0:
437,159,318895,1,12,0:0:0:0:
364,128,318970,1,6,0:0:0:0:
286,140,319045,1,12,0:0:0:0:
237,202,319120,5,6,0:0:0:0:
280,280,319195,1,4,0:0:0:0:
363,312,319270,1,4,0:0:0:0:
449,285,319345,1,4,0:0:0:0:
487,203,319420,1,6,0:0:0:0:
466,115,319495,1,12,0:0:0:0:
393,62,319570,1,6,0:0:0:0:
303,69,319645,1,12,0:0:0:0:
242,135,319720,5,6,0:0:0:0:
284,214,319795,1,4,0:0:0:0:
369,241,319870,1,4,0:0:0:0:
453,210,319945,1,4,0:0:0:0:
481,124,320020,1,6,0:0:0:0:
451,38,320095,1,4,0:0:0:0:
367,4,320170,1,4,0:0:0:0:
280,28,320245,1,4,0:0:0:0:
246,111,320320,6,0,B|258:213|258:213|260:211|260:211|275:345,1,225.000008583069,14|0,0:0|0:0,0:0:0:0:
269,347,320620,2,0,B|234:368|234:368|185:349,1,75.0000028610231,4|0,0:0|0:0,0:0:0:0:
177,207,320770,5,8,0:0:0:0:
177,207,320845,1,0,0:0:0:0:
177,207,320920,2,0,B|167:289,1,75.0000028610231,8|0,0:0|0:0,0:0:0:0:
94,367,321070,5,8,0:0:0:0:
94,367,321145,1,8,0:0:0:0:
94,367,321220,2,0,B|84:285,1,75.0000028610231,8|8,0:0|0:0,0:0:0:0:
223,0,321370,6,0,B|241:28|241:28|241:31|241:31|266:73,1,75,8|0,1:3|0:0,0:0:0:0:
398,329,321520,6,0,B|366:316|366:316|365:314|365:314|319:295,1,75,8|0,1:3|0:0,0:0:0:0:
65,168,321670,6,0,B|98:159|98:159|100:160|100:160|148:148,1,75,8|0,1:3|0:0,0:0:0:0:
431,101,321820,6,0,B|409:127|409:127|407:127|407:127|374:165,1,75,4|0,1:3|0:0,0:0:0:0:
173,370,321970,6,0,B|175:335|175:335|176:334|176:334|180:284,1,75,8|0,1:3|0:0,0:0:0:0:
239,6,322120,6,0,B|247:79|247:79|245:82|245:82|253:160,1,150,6|0,1:3|0:0,0:0:0:0:
255,173,322420,1,8,1:3:0:0:
406,123,322570,2,0,P|381:87|319:115,1,100,8|10,1:3|0:0,0:0:0:0:
331,276,322870,2,0,B|335:225|335:225|337:226|337:226|344:156,1,100,0|0,1:3|0:0,0:0:0:0:
484,298,323170,2,0,B|433:280|397:329|397:329|351:388|274:342,1,200,8|0,1:3|0:0,0:0:0:0:
93,290,323620,6,0,B|143:309|143:309|209:269,1,100,0|0,1:3|0:0,0:0:0:0:
133,215,323920,2,0,B|124:120|124:120|120:123|120:123|108:2,1,200,10|0,1:3|1:3,0:0:0:0:
39,160,324370,1,0,0:0:0:0:
205,79,324520,6,0,B|283:51|334:134|334:134|378:213|477:183,1,300,6|8,1:3|0:0,0:0:0:0:
452,177,325045,1,0,0:0:0:0:
446,166,325120,2,0,B|438:221|438:221|437:222|437:222|427:291,1,100,10|0,1:3|0:0,0:0:0:0:
356,358,325420,2,0,B|349:315|349:315|348:314|348:314|340:259,1,100,0|8,1:3|1:3,0:0:0:0:
302,21,325720,2,0,B|285:116|285:116|288:115|288:115|267:231,1,200,6|0,0:0|0:0,0:0:0:0:
106,112,326170,5,0,1:3:0:0:
190,68,326320,1,10,1:3:0:0:
146,200,326470,1,0,1:3:0:0:
14,157,326620,1,0,1:3:0:0:
58,25,326770,1,0,1:3:0:0:
87,378,326920,6,0,B|78:303|78:303|76:304|76:304|65:217,1,150,6|0,1:3|0:0,0:0:0:0:
76,215,327220,1,8,1:3:0:0:
177,356,327370,2,0,L|164:256,1,100,8|10,1:3|0:0,0:0:0:0:
14,157,327670,2,0,P|54:129|109:135,1,100,0|0,1:3|0:0,0:0:0:0:
184,44,327970,6,0,P|285:30|397:19,1,200,8|0,1:3|0:0,0:0:0:0:
510,209,328420,2,0,P|489:108|473:51,1,150,0|0,1:3|0:0,0:0:0:0:
464,50,328720,2,0,P|459:93|397:84,1,100,10|0,1:3|0:0,0:0:0:0:
365,191,329020,2,0,P|411:194|419:240,1,100,0|0,1:3|0:0,0:0:0:0:
489,338,329320,6,0,B|389:324|389:324|386:326|386:326|258:307,1,200,6|0,1:3|0:0,0:0:0:0:
291,311,329770,1,8,0:0:0:0:
127,241,329920,6,0,B|156:189|221:189|254:233|254:233|219:247|209:297,1,200,10|0,1:3|0:0,0:0:0:0:
219,264,330370,1,8,1:3:0:0:
94,321,330520,6,0,P|45:313|52:263,1,100,6|0,0:0|0:0,0:0:0:0:
8,140,330820,2,0,P|57:148|50:198,1,100
353,331,331120,6,0,B|302:338|302:338|301:340|301:340|255:346,1,100,10|0,1:3|0:0,0:0:0:0:
205,282,331420,1,0,0:0:0:0:
205,282,331570,1,0,1:3:0:0:
367,246,331720,6,0,L|391:61,1,150,6|0,0:0|0:0,0:0:0:0:
389,82,332020,1,8,0:0:0:0:
316,0,332170,1,8,0:0:0:0:
120,132,332320,6,0,B|173:147|173:147|219:120,1,100,10|0,1:3|0:0,0:0:0:0:
161,52,332620,1,0,1:3:0:0:
161,52,332770,1,8,1:3:0:0:
47,53,332920,6,0,B|28:141|28:141|30:147|30:147|5:266,1,200,6|0,0:0|0:0,0:0:0:0:
9,248,333370,1,0,0:0:0:0:
243,366,333520,6,0,P|192:371|240:280,1,200,10|0,1:3|1:3,0:0:0:0:
219,272,333970,1,0,1:3:0:0:
486,330,334120,6,0,B|407:319|407:319|404:321|404:321|309:308,1,150,6|0,0:0|0:0,0:0:0:0:
334,324,334420,2,0,P|313:317|346:258,1,100,0|8,1:3|0:0,0:0:0:0:
402,166,334720,2,0,P|423:173|390:232,1,100,10|0,1:3|0:0,0:0:0:0:
319,169,335020,1,0,1:3:0:0:
319,169,335170,1,8,1:3:0:0:
156,143,335320,6,0,B|208:166|248:119|248:119|285:68|351:92,1,200,6|0,0:0|0:0,0:0:0:0:
332,86,335770,1,0,0:0:0:0:
184,71,335920,6,0,B|197:165|197:165|200:165|200:165|215:285,1,200,10|0,1:3|0:0,0:0:0:0:
212,266,336370,1,0,1:3:0:0:
368,254,336520,5,14,0:0:0:0:
114,198,336670,1,12,0:0:0:0:
351,94,336820,1,12,0:0:0:0:
220,316,336970,1,12,0:0:0:0:
192,47,337120,5,12,1:3:0:0:
381,268,337270,1,12,0:0:0:0:
98,200,337420,1,12,0:0:0:0:
366,88,337570,1,12,1:3:0:0:
209,350,337720,5,12,0:0:0:0:
188,32,337870,1,12,0:0:0:0:
390,276,338020,1,12,0:0:0:0:
81,198,338170,1,12,0:0:0:0:
391,75,338320,5,12,1:3:0:0:
207,360,338470,1,12,0:0:0:0:
188,21,338620,1,12,0:0:0:0:
402,284,338770,1,12,0:0:0:0:
51,204,338920,6,0,B|110:171|154:216|154:216|203:261|274:217,1,210,10|0,1:3|0:0,0:0:0:0:
251,220,339220,1,4,0:0:0:0:
240,8,339370,2,0,B|223:78|223:78|224:81|224:81|205:158,1,140,10|0,1:3|0:0,0:0:0:0:
463,277,339670,1,4,0:0:0:0:
463,277,339745,1,4,0:0:0:0:
463,277,339820,2,0,B|447:214|447:214|448:211|448:211|431:141,1,139.999995727539,10|0,1:3|0:0,0:0:0:0:
240,8,340120,5,12,1:3:0:0:
235,18,340195,1,8,0:0:0:0:
250,14,340270,1,8,0:0:0:0:
240,8,340345,1,8,0:0:0:0:
235,18,340420,1,8,0:0:0:0:
250,14,340495,1,8,0:0:0:0:
242,14,340570,6,0,B|249:56|249:56|252:56|252:56|263:119,1,69.9999978637696,8|8,1:3|0:0,0:0:0:0:
306,297,340720,6,0,B|324:256|324:256|322:254|322:254|349:197,1,69.9999978637696,8|8,1:3|0:0,0:0:0:0:
419,30,340870,6,0,B|380:50|380:50|380:52|380:52|324:83,1,69.9999978637696,4|4,1:3|0:0,0:0:0:0:
172,179,341020,6,0,B|215:184|215:184|215:182|215:182|278:190,1,69.9999978637696,8|8,1:3|0:0,0:0:0:0:
458,202,341170,6,0,B|425:170|425:170|423:171|423:171|376:128,1,69.9999978637696,8|8,1:3|0:0,0:0:0:0:
125,55,341320,5,6,1:3:0:0:
63,67,341395,1,4,0:0:0:0:
25,117,341470,1,4,0:0:0:0:
24,179,341545,1,4,0:0:0:0:
64,227,341620,1,14,1:3:0:0:
122,249,341695,1,4,0:0:0:0:
184,238,341770,1,4,1:3:0:0:
224,189,341845,1,4,0:0:0:0:
245,129,341920,1,6,0:0:0:0:
295,90,341995,1,4,0:0:0:0:
357,87,342070,1,4,1:3:0:0:
410,119,342145,1,4,0:0:0:0:
427,179,342220,1,14,0:0:0:0:
412,240,342295,1,4,0:0:0:0:
362,279,342370,5,4,1:3:0:0:
297,251,342445,1,4,0:0:0:0:
269,186,342520,1,6,0:0:0:0:
282,117,342595,1,4,0:0:0:0:
335,71,342670,1,4,0:0:0:0:
404,66,342745,1,4,0:0:0:0:
458,109,342820,5,14,1:3:0:0:
455,122,342895,1,4,0:0:0:0:
452,135,342970,2,0,B|416:139|416:139|417:141|417:141|366:147,1,69.9999978637696,4|4,0:0|0:0,0:0:0:0:
315,19,343120,5,6,1:3:0:0:
327,15,343195,1,4,0:0:0:0:
340,11,343270,2,0,B|361:40|361:40|362:38|362:38|393:79,1,69.9999978637696,4|4,0:0|0:0,0:0:0:0:
308,187,343420,5,14,1:3:0:0:
298,179,343495,1,4,0:0:0:0:
288,169,343570,2,0,B|302:135|302:135|300:135|300:135|320:88,1,69.9999978637696,4|4,0:0|0:0,0:0:0:0:
433,258,343720,5,6,1:3:0:0:
400,320,343795,1,4,0:0:0:0:
334,343,343870,1,4,0:0:0:0:
265,328,343945,1,4,0:0:0:0:
230,267,344020,1,14,0:0:0:0:
195,206,344095,1,4,0:0:0:0:
126,191,344170,1,4,0:0:0:0:
60,214,344245,1,4,0:0:0:0:
27,276,344320,5,6,1:3:0:0:
67,324,344395,1,4,0:0:0:0:
128,337,344470,1,4,0:0:0:0:
186,313,344545,1,4,0:0:0:0:
215,257,344620,1,14,1:3:0:0:
203,194,344695,1,4,0:0:0:0:
156,151,344770,1,4,1:3:0:0:
93,144,344845,1,4,0:0:0:0:
43,183,344920,6,0,L|59:264,3,59.9999981689454,6|4|4|4,0:0|0:0|0:0|0:0,0:0:0:0:
142,78,345220,5,14,0:0:0:0:
149,87,345295,1,4,0:0:0:0:
156,95,345370,2,0,B|149:129|149:129|150:130|150:130|142:163,1,69.9999978637696,4|4,1:3|0:0,0:0:0:0:
186,300,345520,6,0,B|193:266|193:266|192:265|192:265|199:231,1,69.9999978637696,6|4,1:3|0:0,0:0:0:0:
257,80,345670,6,0,B|250:114|250:114|251:115|251:115|243:148,1,69.9999978637696,4|4,1:3|0:0,0:0:0:0:
278,338,345820,6,0,B|285:304|285:304|284:303|284:303|291:269,1,69.9999978637696,14|4,1:3|0:0,0:0:0:0:
353,87,345970,6,0,B|346:121|346:121|347:122|347:122|339:155,1,69.9999978637696,4|4,1:3|0:0,0:0:0:0:
487,271,346120,5,6,1:3:0:0:
463,329,346195,1,4,0:0:0:0:
405,355,346270,1,4,0:0:0:0:
342,351,346345,1,4,0:0:0:0:
298,305,346420,1,14,1:3:0:0:
288,242,346495,1,4,0:0:0:0:
319,187,346570,1,4,1:3:0:0:
350,132,346645,1,4,0:0:0:0:
340,69,346720,1,6,0:0:0:0:
296,23,346795,1,4,0:0:0:0:
233,19,346870,1,4,1:3:0:0:
174,44,346945,1,4,0:0:0:0:
151,103,347020,1,14,0:0:0:0:
167,163,347095,1,4,0:0:0:0:
213,205,347170,5,4,1:3:0:0:
264,157,347245,1,4,0:0:0:0:
269,87,347320,1,6,0:0:0:0:
218,38,347395,1,4,0:0:0:0:
148,36,347470,1,4,0:0:0:0:
101,88,347545,1,4,0:0:0:0:
101,158,347620,5,14,1:3:0:0:
111,167,347695,1,4,0:0:0:0:
121,177,347770,2,0,B|157:169|157:169|154:171|154:171|196:161,1,69.9999978637696,4|4,0:0|0:0,0:0:0:0:
310,235,347920,5,6,1:3:0:0:
300,244,347995,1,4,0:0:0:0:
290,254,348070,2,0,B|254:246|254:246|257:248|257:248|215:238,1,69.9999978637696,4|4,0:0|0:0,0:0:0:0:
97,310,348220,5,14,1:3:0:0:
107,319,348295,1,4,0:0:0:0:
117,329,348370,2,0,B|153:321|153:321|150:323|150:323|192:313,1,69.9999978637696,4|4,0:0|0:0,0:0:0:0:
371,331,348520,5,6,1:3:0:0:
430,295,348595,1,4,0:0:0:0:
456,230,348670,1,4,0:0:0:0:
442,160,348745,1,4,0:0:0:0:
389,114,348820,1,14,0:0:0:0:
319,109,348895,1,4,0:0:0:0:
260,145,348970,1,4,0:0:0:0:
229,208,349045,1,4,0:0:0:0:
245,275,349120,5,6,1:3:0:0:
319,256,349195,1,4,0:0:0:0:
355,188,349270,1,4,0:0:0:0:
350,110,349345,1,4,0:0:0:0:
300,51,349420,1,14,0:0:0:0:
224,35,349495,1,4,0:0:0:0:
154,67,349570,1,4,1:3:0:0:
117,134,349645,1,4,0:0:0:0:
125,210,349720,5,6,0:0:0:0:
171,252,349795,1,4,0:0:0:0:
233,261,349870,1,4,0:0:0:0:
290,235,349945,1,4,0:0:0:0:
309,174,350020,1,14,0:0:0:0:
328,113,350095,1,4,0:0:0:0:
385,87,350170,1,4,0:0:0:0:
447,96,350245,1,4,0:0:0:0:
493,138,350320,5,6,1:3:0:0:
486,152,350395,1,4,0:0:0:0:
479,166,350470,2,0,L|494:254,1,69.9999978637696,4|4,0:0|0:0,0:0:0:0:
408,356,350620,2,0,L|419:286,1,69.9999978637696,14|4,1:3|0:0,0:0:0:0:
373,111,350770,5,4,1:3:0:0:
334,60,350845,1,4,0:0:0:0:
271,53,350920,1,6,0:0:0:0:
216,84,350995,1,4,0:0:0:0:
193,142,351070,1,4,0:0:0:0:
209,202,351145,1,4,0:0:0:0:
222,263,351220,1,14,0:0:0:0:
198,321,351295,1,4,0:0:0:0:
143,352,351370,1,4,0:0:0:0:
80,345,351445,1,4,0:0:0:0:
40,296,351520,5,6,1:3:0:0:
44,284,351595,1,4,0:0:0:0:
48,272,351670,2,0,L|136:258,1,69.9999978637696,4|4,0:0|0:0,0:0:0:0:
193,203,351820,2,0,L|262:213,1,69.9999978637696,14|4,1:3|0:0,0:0:0:0:
440,322,351970,5,4,1:3:0:0:
495,292,352045,1,4,0:0:0:0:
512,231,352120,1,6,0:0:0:0:
491,171,352195,1,4,0:0:0:0:
436,139,352270,1,4,0:0:0:0:
373,147,352345,1,4,0:0:0:0:
333,196,352420,1,14,0:0:0:0:
301,250,352495,1,4,0:0:0:0:
242,272,352570,1,4,0:0:0:0:
182,251,352645,1,4,0:0:0:0:
154,194,352720,5,6,1:3:0:0:
164,184,352795,1,4,0:0:0:0:
174,174,352870,2,0,L|160:78,1,69.9999978637696,4|4,0:0|0:0,0:0:0:0:
273,50,353020,2,0,L|262:119,1,69.9999978637696,14|4,1:3|0:0,0:0:0:0:
171,351,353170,5,4,1:3:0:0:
108,344,353245,1,4,0:0:0:0:
59,303,353320,1,6,0:0:0:0:
51,240,353395,1,4,0:0:0:0:
81,184,353470,1,4,0:0:0:0:
137,155,353545,1,4,0:0:0:0:
199,166,353620,1,14,1:3:0:0:
244,209,353695,1,4,0:0:0:0:
277,262,353770,1,4,0:0:0:0:
336,282,353845,1,4,0:0:0:0:
398,273,353920,1,6,1:3:0:0:
447,234,353995,1,4,0:0:0:0:
457,171,354070,1,4,0:0:0:0:
442,109,354145,1,4,0:0:0:0:
390,72,354220,6,0,B|352:81|352:81|354:79|354:79|298:93,1,69.9999978637696,14|4,1:3|0:0,0:0:0:0:
262,152,354370,2,0,B|234:159|234:159|236:157|236:157|198:166,1,69.9999978637696,4|4,1:3|0:0,0:0:0:0:
297,372,354520,5,6,1:3:0:0:
307,365,354595,1,4,0:0:0:0:
317,358,354670,2,0,L|303:258,1,69.9999978637696,4|4,0:0|0:0,0:0:0:0:
367,223,354820,2,0,L|381:123,3,59.9999981689454,14|4|4|4,0:0|0:0|0:0|0:0,0:0:0:0:
463,137,355120,5,6,1:3:0:0:
425,77,355195,1,4,0:0:0:0:
355,67,355270,1,4,0:0:0:0:
298,107,355345,1,4,0:0:0:0:
282,175,355420,1,14,0:0:0:0:
241,232,355495,1,4,0:0:0:0:
173,248,355570,1,4,1:3:0:0:
110,217,355645,1,4,0:0:0:0:
77,155,355720,5,6,0:0:0:0:
139,109,355795,1,4,0:0:0:0:
215,113,355870,1,4,0:0:0:0:
263,172,355945,1,4,0:0:0:0:
289,244,356020,1,14,0:0:0:0:
353,286,356095,1,4,0:0:0:0:
429,283,356170,1,4,0:0:0:0:
490,236,356245,1,4,0:0:0:0:
502,159,356320,5,6,1:3:0:0:
438,130,356395,1,4,0:0:0:0:
369,145,356470,1,4,0:0:0:0:
330,203,356545,1,4,0:0:0:0:
305,268,356620,1,14,0:0:0:0:
242,300,356695,1,4,0:0:0:0:
173,286,356770,1,4,1:3:0:0:
138,225,356845,1,4,0:0:0:0:
152,155,356920,5,6,0:0:0:0:
226,134,356995,1,4,0:0:0:0:
288,178,357070,1,4,0:0:0:0:
310,251,357145,1,4,0:0:0:0:
273,318,357220,1,14,0:0:0:0:
200,345,357295,1,4,0:0:0:0:
128,317,357370,1,4,0:0:0:0:
95,247,357445,1,4,0:0:0:0:
123,173,357520,5,6,1:3:0:0:
185,153,357595,1,4,0:0:0:0:
247,170,357670,1,4,0:0:0:0:
283,223,357745,1,4,0:0:0:0:
294,287,357820,1,14,0:0:0:0:
337,335,357895,1,4,0:0:0:0:
399,354,357970,1,4,0:0:0:0:
458,328,358045,1,4,0:0:0:0:
471,268,358120,6,0,B|408:240|359:296|359:296|306:364|218:306,1,259.999988098145,12|4,0:0|0:0,0:0:0:0:
300,122,358570,5,8,0:0:0:0:
300,122,358620,1,4,0:0:0:0:
300,122,358670,2,0,P|337:242|371:383,1,266.666666666667,4|0,0:0|0:0,0:0:0:0:
473,185,359020,5,8,0:0:0:0:
473,185,359070,1,8,0:0:0:0:
473,185,359120,2,0,P|443:146|381:186,1,106.666666666667,8|0,0:0|0:0,0:0:0:0:
154,342,359320,6,0,P|174:292|197:294,1,80,14|0,0:0|0:0,0:0:0:0:
187,213,359470,6,0,P|240:214|246:236,1,80,14|0,0:0|0:0,0:0:0:0:
324,202,359620,6,0,P|340:253|321:266,1,80,14|0,0:0|0:0,0:0:0:0:
241,359,359770,6,0,P|118:311|58:294,1,179.999994506836
25,169,360520,5,6,1:3:0:0:
6,123,360595,1,4,0:0:0:0:
15,74,360670,1,4,0:0:0:0:
48,37,360745,1,4,0:0:0:0:
95,23,360820,1,14,0:0:0:0:
142,36,360895,1,4,0:0:0:0:
176,72,360970,1,4,1:3:0:0:
186,120,361045,1,4,0:0:0:0:
169,167,361120,1,6,0:0:0:0:
137,205,361195,1,4,0:0:0:0:
130,253,361270,1,4,0:0:0:0:
151,298,361345,1,4,0:0:0:0:
192,326,361420,1,14,0:0:0:0:
241,327,361495,1,4,0:0:0:0:
284,302,361570,1,4,0:0:0:0:
307,259,361645,1,4,0:0:0:0:
303,210,361720,1,6,0:0:0:0:
281,165,361795,1,4,0:0:0:0:
285,116,361870,1,4,0:0:0:0:
313,75,361945,1,4,0:0:0:0:
357,54,362020,1,14,0:0:0:0:
406,59,362095,1,4,0:0:0:0:
447,87,362170,1,4,0:0:0:0:
467,132,362245,1,4,0:0:0:0:
462,181,362320,1,6,0:0:0:0:
432,221,362395,1,4,0:0:0:0:
387,241,362470,1,4,0:0:0:0:
341,236,362545,1,4,0:0:0:0:
301,207,362620,1,14,0:0:0:0:
265,172,362695,1,4,0:0:0:0:
218,157,362770,1,4,0:0:0:0:
169,167,362845,1,4,0:0:0:0:
131,198,362920,5,6,0:0:0:0:
146,246,362995,1,4,0:0:0:0:
188,273,363070,1,4,0:0:0:0:
237,279,363145,1,4,0:0:0:0:
282,257,363220,1,14,0:0:0:0:
305,213,363295,1,4,0:0:0:0:
302,163,363370,1,4,0:0:0:0:
272,122,363445,1,4,0:0:0:0:
262,72,363520,1,6,0:0:0:0:
280,25,363595,1,4,0:0:0:0:
323,0,363670,1,4,0:0:0:0:
373,0,363745,1,4,0:0:0:0:
415,26,363820,1,14,0:0:0:0:
437,70,363895,1,4,0:0:0:0:
427,119,363970,1,4,0:0:0:0:
395,157,364045,1,4,0:0:0:0:
346,169,364120,1,6,0:0:0:0:
299,187,364195,1,4,0:0:0:0:
267,226,364270,1,4,0:0:0:0:
260,275,364345,1,4,0:0:0:0:
277,321,364420,1,14,0:0:0:0:
315,352,364495,1,4,0:0:0:0:
364,359,364570,1,4,0:0:0:0:
413,349,364645,1,4,0:0:0:0:
444,310,364720,1,6,0:0:0:0:
454,261,364795,1,4,0:0:0:0:
434,215,364870,1,4,0:0:0:0:
394,184,364945,1,4,0:0:0:0:
344,174,365020,1,14,0:0:0:0:
297,192,365095,1,4,0:0:0:0:
268,232,365170,1,4,0:0:0:0:
260,281,365245,1,4,0:0:0:0:
281,326,365320,5,6,0:0:0:0:
340,326,365395,1,4,0:0:0:0:
391,294,365470,1,4,0:0:0:0:
411,237,365545,1,4,0:0:0:0:
400,177,365620,1,14,0:0:0:0:
356,136,365695,1,4,0:0:0:0:
295,128,365770,1,4,0:0:0:0:
241,154,365845,1,4,0:0:0:0:
210,205,365920,1,6,0:0:0:0:
175,254,365995,1,4,0:0:0:0:
119,277,366070,1,4,0:0:0:0:
59,267,366145,1,4,0:0:0:0:
15,225,366220,1,14,0:0:0:0:
2,166,366295,1,4,0:0:0:0:
20,109,366370,1,4,0:0:0:0:
68,73,366445,1,4,0:0:0:0:
127,66,366520,1,6,0:0:0:0:
182,88,366595,1,4,0:0:0:0:
214,138,366670,1,4,0:0:0:0:
240,191,366745,1,4,0:0:0:0:
289,225,366820,1,14,0:0:0:0:
348,231,366895,1,4,0:0:0:0:
400,201,366970,1,4,0:0:0:0:
430,149,367045,1,4,0:0:0:0:
425,89,367120,1,6,0:0:0:0:
387,36,367195,1,4,0:0:0:0:
331,22,367270,1,4,0:0:0:0:
271,31,367345,1,4,0:0:0:0:
231,76,367420,1,14,0:0:0:0:
218,134,367495,1,4,0:0:0:0:
239,190,367570,1,4,0:0:0:0:
288,224,367645,1,4,0:0:0:0:
346,235,367720,5,6,0:0:0:0:
368,174,367795,1,4,0:0:0:0:
349,111,367870,1,4,0:0:0:0:
303,65,367945,1,4,0:0:0:0:
238,56,368020,1,14,0:0:0:0:
177,78,368095,1,4,0:0:0:0:
140,131,368170,1,4,0:0:0:0:
135,195,368245,1,4,0:0:0:0:
169,250,368320,1,6,0:0:0:0:
225,282,368395,1,4,0:0:0:0:
289,282,368470,1,4,0:0:0:0:
341,244,368545,1,4,0:0:0:0:
369,185,368620,1,14,0:0:0:0:
360,120,368695,1,4,0:0:0:0:
317,70,368770,1,4,0:0:0:0:
254,52,368845,1,4,0:0:0:0:
190,65,368920,5,6,0:0:0:0:
193,124,368995,1,4,0:0:0:0:
232,162,369070,1,4,0:0:0:0:
279,177,369145,1,4,0:0:0:0:
322,166,369220,1,14,0:0:0:0:
352,140,369295,1,4,0:0:0:0:
381,121,369370,1,4,0:0:0:0:
409,112,369445,1,4,0:0:0:0:
433,114,369520,1,6,0:0:0:0:
449,125,369595,1,4,0:0:0:0:
458,136,369670,1,4,0:0:0:0:
461,145,369745,1,4,0:0:0:0:
458,152,369820,1,14,0:0:0:0:
453,157,369895,1,4,0:0:0:0:
446,160,369970,1,4,0:0:0:0:
438,161,370045,1,4,0:0:0:0:
430,159,370120,5,14,0:0:0:0:
382,109,370195,1,4,0:0:0:0:
314,101,370270,1,4,0:0:0:0:
256,138,370345,1,4,0:0:0:0:
236,204,370420,1,14,0:0:0:0:
216,270,370495,1,4,0:0:0:0:
158,307,370570,1,4,0:0:0:0:
90,299,370645,1,4,0:0:0:0:
42,249,370720,1,14,0:0:0:0:
38,180,370795,1,4,0:0:0:0:
78,125,370870,1,4,0:0:0:0:
145,108,370945,1,4,0:0:0:0:
206,137,371020,1,14,0:0:0:0:
268,167,371095,1,4,0:0:0:0:
335,150,371170,1,4,0:0:0:0:
375,94,371245,1,4,0:0:0:0:
371,26,371320,5,14,0:0:0:0:
304,2,371395,1,4,0:0:0:0:
239,30,371470,1,4,0:0:0:0:
211,95,371545,1,4,0:0:0:0:
234,162,371620,1,14,0:0:0:0:
297,195,371695,1,4,0:0:0:0:
365,175,371770,1,4,0:0:0:0:
435,167,371845,1,4,0:0:0:0:
491,210,371920,1,14,0:0:0:0:
502,280,371995,1,4,0:0:0:0:
463,339,372070,1,4,0:0:0:0:
395,355,372145,1,4,0:0:0:0:
333,320,372220,1,14,0:0:0:0:
313,250,372295,1,4,0:0:0:0:
347,186,372370,1,4,0:0:0:0:
416,166,372445,1,4,0:0:0:0:
483,197,372520,5,14,0:0:0:0:
447,261,372595,1,4,0:0:0:0:
379,290,372670,1,4,0:0:0:0:
308,271,372745,1,4,0:0:0:0:
264,213,372820,1,14,0:0:0:0:
219,154,372895,1,4,0:0:0:0:
148,135,372970,1,4,0:0:0:0:
80,164,373045,1,4,0:0:0:0:
45,229,373120,1,14,0:0:0:0:
60,302,373195,1,4,0:0:0:0:
118,349,373270,1,4,0:0:0:0:
192,356,373345,1,4,0:0:0:0:
256,318,373420,1,14,0:0:0:0:
277,246,373495,1,4,0:0:0:0:
243,178,373570,1,4,0:0:0:0:
179,137,373645,1,4,0:0:0:0:
105,151,373720,5,14,0:0:0:0:
133,223,373795,1,4,0:0:0:0:
207,247,373870,1,4,0:0:0:0:
272,205,373945,1,4,0:0:0:0:
282,129,374020,1,14,0:0:0:0:
293,53,374095,1,4,0:0:0:0:
358,11,374170,1,4,0:0:0:0:
432,35,374245,1,4,0:0:0:0:
460,107,374320,1,14,0:0:0:0:
418,175,374395,1,4,0:0:0:0:
339,191,374470,1,4,0:0:0:0:
287,252,374545,1,4,0:0:0:0:
299,331,374620,1,14,0:0:0:0:
368,370,374695,1,4,0:0:0:0:
445,350,374770,1,4,0:0:0:0:
476,276,374845,1,4,0:0:0:0:
439,204,374920,6,0,B|403:211|403:211|404:210|404:210|352:220,2,66.6666666666667,8|8|4,0:0|0:0|0:0,0:0:0:0:
393,133,375220,5,8,0:0:0:0:
370,77,375320,1,4,0:0:0:0:
311,49,375420,1,4,0:0:0:0:
252,75,375520,1,4,0:0:0:0:
232,136,375620,1,8,0:0:0:0:
264,192,375720,1,4,0:0:0:0:
296,247,375820,1,8,0:0:0:0:
276,309,375920,1,4,0:0:0:0:
217,334,376020,1,4,0:0:0:0:
158,307,376120,6,0,B|283:293|283:293|281:296|281:296|430:279,1,260,14|4,0:0|0:0,0:0:0:0:
452,69,376570,5,14,0:0:0:0:
202,218,376720,1,4,0:0:0:0:
494,259,376870,1,4,0:0:0:0:
243,139,377020,6,0,B|207:122|173:134|173:134|172:125|172:125|143:135|130:166|130:166|119:191|79:208|79:208|87:214|87:214|43:236|-5:200,1,300,14|4,0:0|0:0,0:0:0:0:
242,294,377470,5,14,0:0:0:0:
49,111,377620,1,4,0:0:0:0:
320,60,377770,1,4,0:0:0:0:
120,332,377920,5,12,0:0:0:0:
173,14,378070,1,12,0:0:0:0:
131,337,378220,1,12,0:0:0:0:
496,127,378370,5,14,0:0:0:0:
256,192,378445,12,0,379720,0:0:0:0:
