osu file format v14

[General]
AudioFilename: audio.mp3
AudioLeadIn: 0
PreviewTime: 246505
Countdown: 0
SampleSet: Normal
StackLeniency: 0.5
Mode: 0
LetterboxInBreaks: 0
WidescreenStoryboard: 1

[Editor]
Bookmarks: 17000,38161,66361,104687,125557,130775,132514,134180,134760,136499,137079,138818,139398,143456,144036,145775,146355,148094,148674,152732,153312,155051,155631,157370,157950,162008,162588,164327,164907,166646,167226,171936,183385,220489,241359,246577,248316,249982,250562,252301,252881,254620,255200,259258,259838,261577,262157,263896,264476,268534,269114,270853,271433,273172,273752,277810,278390,280129,280709,282448,283028,285419,292376,309769,320204,329480,338756,348032,354988,361945,368902,378177,379337,388613,395570,397889,399556,400135,401875,402454,404194,404773,408832,409411,411151,411730,413470,414049,418107,418687,420426,421006,422745,423325,425717,428036,448616,449993
DistanceSpacing: 0.7
BeatDivisor: 4
GridSize: 8
TimelineZoom: 1.8

[Metadata]
Title:Ariadne
TitleUnicode:Ariadne
Artist:Release Hallucination
ArtistUnicode:Release Hallucination
Creator:Diriusse
Version:Daydream
Source:
Tags:symphonic metal marathon single vocal
BeatmapID:1747221
BeatmapSetID:834089

[Difficulty]
HPDrainRate:6
CircleSize:4
OverallDifficulty:9
ApproachRate:9.7
SliderMultiplier:2.3
SliderTickRate:1

[Events]
//Background and Video events
0,0,"BG.jpg",0,0
//Break Periods
2,174310,182890
2,285619,291881
2,348087,354493
//Storyboard Layer 0 (Background)
//Storyboard Layer 1 (Fail)
//Storyboard Layer 2 (Pass)
//Storyboard Layer 3 (Foreground)
//Storyboard Layer 4 (Overlay)
//Storyboard Sound Samples

[TimingPoints]
10044,289.873277065709,3,1,0,100,1,0
17000,-153.846153846153,4,1,1,65,0,0
20479,-200,4,1,1,65,0,0
23088,-133.333333333333,4,1,1,65,0,0
32943,-133.333333333333,4,1,1,5,0,0
33088,-133.333333333333,4,1,1,65,0,0
33813,-133.333333333333,4,1,1,5,0,0
33958,-133.333333333333,4,1,1,65,0,0
34248,-133.333333333333,4,1,1,70,0,0
37002,289.873277065709,4,1,1,75,1,0
37002,-333.333333333333,4,1,1,75,0,0
38161,-100,4,1,1,75,0,1
42509,-83.3333333333333,4,1,1,75,0,1
42799,-100,4,1,1,75,0,1
44828,-83.3333333333333,4,1,1,75,0,1
45118,-133.333333333333,4,1,1,75,0,1
45843,-133.333333333333,4,1,1,5,0,1
45988,-133.333333333333,4,1,1,75,0,1
46133,-133.333333333333,4,1,1,5,0,1
46277,-133.333333333333,4,1,1,75,0,1
46567,-133.333333333333,4,1,1,5,0,1
46712,-133.333333333333,4,1,1,75,0,1
47002,-133.333333333333,4,1,1,5,0,1
47147,-133.333333333333,4,1,1,75,0,1
47292,-133.333333333333,4,1,1,5,0,1
47437,-100,4,1,1,75,0,1
49756,-133.333333333333,4,1,1,75,0,1
50191,-100,4,1,1,75,0,1
50626,-133.333333333333,4,1,1,75,0,1
51205,-100,4,1,1,75,0,1
54104,-83.3333333333333,4,1,1,75,0,1
54394,-100,4,1,1,75,0,1
55553,-133.333333333333,4,1,1,75,0,1
56423,-133.333333333333,4,1,1,5,0,1
56568,-133.333333333333,4,1,1,75,0,1
56713,-133.333333333333,4,1,1,5,0,1
56858,-100,4,1,1,75,0,1
58452,-86.9565217391304,4,1,1,75,0,1
59032,-100,4,1,1,75,0,1
59612,-86.9565217391304,4,1,1,75,0,1
59901,-100,4,1,1,75,0,1
63090,-86.9565217391304,4,1,1,75,0,1
63670,-133.333333333333,4,1,1,75,0,1
66424,289.873277065709,4,1,1,75,1,0
66424,-200,4,1,1,65,0,0
67583,-133.333333333333,4,1,1,65,0,0
69540,-133.333333333333,4,1,1,5,0,0
69612,-133.333333333333,4,1,1,65,0,0
74178,-133.333333333333,4,1,1,5,0,0
74250,-133.333333333333,4,1,1,65,0,0
75265,-117.647058823529,4,1,1,65,0,0
76279,-90.9090909090909,4,1,1,65,0,0
76352,-90.9090909090909,4,1,1,5,0,0
76424,-90.9090909090909,4,1,1,65,0,0
76497,-90.9090909090909,4,1,1,5,0,0
76569,-90.9090909090909,4,1,1,65,0,0
76642,-90.9090909090909,4,1,1,5,0,0
76714,-90.9090909090909,4,1,1,65,0,0
76786,-90.9090909090909,4,1,1,5,0,0
76859,-100,4,1,1,65,0,0
77294,-133.333333333333,4,1,1,65,0,0
86135,-100,4,1,1,65,0,0
86570,-133.333333333333,4,1,1,65,0,0
88092,-133.333333333333,4,1,1,5,0,0
88164,-133.333333333333,4,1,1,65,0,0
92729,-133.333333333333,4,1,1,5,0,0
92802,-133.333333333333,4,1,1,65,0,0
93817,-117.647058823529,4,1,1,65,0,0
94831,-90.9090909090909,4,1,1,65,0,0
94904,-90.9090909090909,4,1,1,5,0,0
94976,-90.9090909090909,4,1,1,65,0,0
95048,-90.9090909090909,4,1,1,5,0,0
95121,-90.9090909090909,4,1,1,65,0,0
95193,-90.9090909090909,4,1,1,5,0,0
95266,-90.9090909090909,4,1,1,65,0,0
95338,-90.9090909090909,4,1,1,5,0,0
95411,-100,4,1,1,65,0,0
95846,-133.333333333333,4,1,1,65,0,0
102368,-117.647058823529,4,1,1,65,0,0
104687,289.873277065709,3,1,1,65,1,0
105121,-200,3,1,1,55,0,0
105556,-133.333333333333,3,1,1,55,0,0
106136,-200,3,1,1,55,0,0
107295,-133.333333333333,3,1,1,55,0,0
107875,-200,3,1,1,55,0,0
109035,-133.333333333333,3,1,1,55,0,0
109904,-200,3,1,1,55,0,0
110774,-133.333333333333,3,1,1,55,0,0
115702,-117.647058823529,3,1,1,55,0,0
115992,-100,3,1,1,55,0,0
116426,-133.333333333333,3,1,1,55,0,0
119180,-117.647058823529,3,1,1,62,0,0
122949,-111.111111111111,3,1,1,67,0,0
123818,-100,3,1,1,70,0,0
125557,-100,3,1,1,75,0,0
130775,-200,3,1,1,50,0,0
132514,289.873277065709,4,1,1,85,1,1
132514,-83.3333333333333,4,1,1,85,0,1
140775,-74.0740740740741,4,1,1,85,0,1
141789,-83.3333333333333,4,1,1,85,0,1
159327,-74.0740740740741,4,1,1,85,0,1
159834,-74.0740740740741,4,1,1,5,0,1
159907,-74.0740740740741,4,1,1,85,0,1
160341,-83.3333333333333,4,1,1,85,0,1
170052,-90.9090909090909,4,1,1,85,0,1
170777,-76.9230769230769,4,1,1,85,0,1
170849,-100,4,1,1,5,0,1
170922,-83.3333333333333,4,1,1,85,0,1
170994,-100,4,1,1,5,0,1
171067,-100,4,1,1,85,0,1
171139,-100,4,1,1,5,0,1
171212,-125,4,1,1,85,0,1
171284,-100,4,1,1,5,0,1
171357,-149.253731343283,4,1,1,85,0,1
171429,-100,4,1,1,5,0,1
171501,-181.818181818181,4,1,1,85,0,1
171574,-100,4,1,1,5,0,1
171646,-333.333333333333,4,1,1,85,0,1
171719,-100,4,1,1,5,0,1
171791,-200,4,1,1,85,0,1
171936,-133.333333333333,4,1,1,75,0,0
172371,-100,4,1,1,75,0,0
172806,-80,4,1,1,75,0,0
174110,289.873277065709,4,1,1,75,1,0
174110,-111.111111111111,4,1,1,75,0,0
183385,-133.333333333333,4,1,1,65,0,0
185342,-133.333333333333,4,1,1,5,0,0
185415,-133.333333333333,4,1,1,65,0,0
189980,-133.333333333333,4,1,1,5,0,0
190053,-133.333333333333,4,1,1,65,0,0
191067,-117.647058823529,4,1,1,65,0,0
192082,-90.9090909090909,4,1,1,65,0,0
192154,-90.9090909090909,4,1,1,5,0,0
192227,-90.9090909090909,4,1,1,65,0,0
192299,-90.9090909090909,4,1,1,5,0,0
192372,-90.9090909090909,4,1,1,65,0,0
192444,-90.9090909090909,4,1,1,5,0,0
192516,-90.9090909090909,4,1,1,65,0,0
192589,-90.9090909090909,4,1,1,5,0,0
192661,-100,4,1,1,65,0,0
193096,-133.333333333333,4,1,1,65,0,0
201937,-100,4,1,1,65,0,0
202372,-133.333333333333,4,1,1,65,0,0
203894,-133.333333333333,4,1,1,5,0,0
203966,-133.333333333333,4,1,1,65,0,0
208532,-133.333333333333,4,1,1,5,0,0
208604,-133.333333333333,4,1,1,65,0,0
209619,-111.111111111111,4,1,1,65,0,0
210634,-90.9090909090909,4,1,1,65,0,0
210706,-90.9090909090909,4,1,1,5,0,0
210778,-90.9090909090909,4,1,1,65,0,0
210851,-90.9090909090909,4,1,1,5,0,0
210923,-90.9090909090909,4,1,1,65,0,0
210996,-90.9090909090909,4,1,1,5,0,0
211068,-90.9090909090909,4,1,1,65,0,0
211141,-90.9090909090909,4,1,1,5,0,0
211213,-100,4,1,1,65,0,0
211648,-133.333333333333,4,1,1,65,0,0
218170,-111.111111111111,4,1,1,65,0,0
220489,289.873277065709,3,1,1,65,1,0
220923,-200,3,1,1,55,0,0
221358,-133.333333333333,3,1,1,55,0,0
222228,-200,3,1,1,55,0,0
223967,-133.333333333333,3,1,1,55,0,0
225416,-200,3,1,1,55,0,0
226576,-133.333333333333,3,1,1,55,0,0
231504,-117.647058823529,3,1,1,55,0,0
231794,-133.333333333333,3,1,1,55,0,0
234982,-117.647058823529,3,1,1,62,0,0
238751,-111.111111111111,3,1,1,67,0,0
239620,-100,3,1,1,70,0,0
241359,-100,3,1,1,75,0,0
246577,-200,3,1,1,50,0,0
248316,289.873277065709,4,1,1,85,1,1
248316,-83.3333333333333,4,1,1,85,0,1
256577,-74.0740740740741,4,1,1,85,0,1
257084,-74.0740740740741,4,1,1,5,0,1
257157,-74.0740740740741,4,1,1,85,0,1
257591,-83.3333333333333,4,1,1,85,0,1
275129,-74.0740740740741,4,1,1,85,0,1
275636,-74.0740740740741,4,1,1,5,0,1
275709,-74.0740740740741,4,1,1,85,0,1
276143,-83.3333333333333,4,1,1,85,0,1
285419,-83.3333333333333,4,1,1,75,0,0
292376,-111.111111111111,4,1,1,75,0,0
293149,-111.111111111111,4,1,1,5,0,0
293246,-111.111111111111,4,1,1,75,0,0
294019,-111.111111111111,4,1,1,5,0,0
294115,-111.111111111111,4,1,1,75,0,0
295468,-111.111111111111,4,1,1,5,0,0
295565,-111.111111111111,4,1,1,75,0,0
296338,-111.111111111111,4,1,1,5,0,0
296434,-111.111111111111,4,1,1,75,0,0
297787,-111.111111111111,4,1,1,5,0,0
297884,-111.111111111111,4,1,1,75,0,0
298657,-111.111111111111,4,1,1,5,0,0
298753,-111.111111111111,4,1,1,75,0,0
300106,-111.111111111111,4,1,1,5,0,0
300203,-111.111111111111,4,1,1,75,0,0
300976,-111.111111111111,4,1,1,5,0,0
301072,-111.111111111111,4,1,1,75,0,0
301507,-153.846153846153,4,1,1,75,0,0
304696,-133.333333333333,4,1,1,75,0,0
304768,-133.333333333333,4,1,1,5,0,0
304841,-133.333333333333,4,1,1,75,0,0
304913,-133.333333333333,4,1,1,5,0,0
304986,-133.333333333333,4,1,1,75,0,0
305058,-133.333333333333,4,1,1,5,0,0
305131,-133.333333333333,4,1,1,75,0,0
305710,-133.333333333333,4,1,1,75,0,0
309334,-133.333333333333,4,1,1,75,0,0
309406,-133.333333333333,4,1,1,5,0,0
309479,-133.333333333333,4,1,1,75,0,0
309551,-133.333333333333,4,1,1,5,0,0
309624,-133.333333333333,4,1,1,75,0,0
309696,-133.333333333333,4,1,1,5,0,0
309769,-90.9090909090909,4,1,1,75,0,0
310059,-83.3333333333333,4,1,1,75,0,0
310348,-76.9230769230769,4,1,1,75,0,0
310928,-90.9090909090909,4,1,1,75,0,0
313247,-76.9230769230769,4,1,1,75,0,0
315566,-71.4285714285714,4,1,1,75,0,0
315784,-71.4285714285714,4,1,1,5,0,0
315856,-71.4285714285714,4,1,1,75,0,0
316146,-76.9230769230769,4,1,1,75,0,0
316218,-76.9230769230769,4,1,1,5,0,0
316291,-76.9230769230769,4,1,1,75,0,0
316363,-76.9230769230769,4,1,1,5,0,0
316436,-71.4285714285714,4,1,1,75,0,0
316726,-66.6666666666667,4,1,1,75,0,0
317305,-71.4285714285714,4,1,1,75,0,0
317885,-71.4285714285714,4,1,1,75,0,0
318102,-71.4285714285714,4,1,1,5,0,0
318175,-71.4285714285714,4,1,1,75,0,0
318465,-76.9230769230769,4,1,1,75,0,0
318537,-76.9230769230769,4,1,1,5,0,0
318610,-76.9230769230769,4,1,1,75,0,0
318682,-76.9230769230769,4,1,1,5,0,0
318755,-71.4285714285714,4,1,1,75,0,0
319045,-76.9230769230769,4,1,1,75,0,0
319117,-76.9230769230769,4,1,1,5,0,0
319190,-76.9230769230769,4,1,1,75,0,0
319262,-76.9230769230769,4,1,1,5,0,0
319334,-76.9230769230769,4,1,1,75,0,0
319407,-76.9230769230769,4,1,1,5,0,0
319479,-76.9230769230769,4,1,1,75,0,0
319552,-76.9230769230769,4,1,1,5,0,0
319624,-76.9230769230769,4,1,1,75,0,0
319697,-76.9230769230769,4,1,1,5,0,0
319769,-83.3333333333333,4,1,1,75,0,0
320204,-83.3333333333333,4,1,1,75,0,0
320784,-71.4285714285714,4,1,1,75,0,0
321364,-66.6666666666667,4,1,1,75,0,0
321943,-76.9230769230769,4,1,1,75,0,0
322740,-76.9230769230769,4,1,1,5,0,0
322813,-76.9230769230769,4,1,1,75,0,0
326219,-76.9230769230769,4,1,1,5,0,0
326291,-76.9230769230769,4,1,1,75,0,0
327451,-71.4285714285714,4,1,1,75,0,0
328900,-66.6666666666667,4,1,1,75,0,0
329480,-83.3333333333333,4,1,1,75,0,0
330640,-90.9090909090909,4,1,1,75,0,0
338756,-100,4,1,1,75,0,0
340205,-83.3333333333333,4,1,1,75,0,0
340278,-83.3333333333333,4,1,1,5,0,0
340350,-83.3333333333333,4,1,1,75,0,0
340423,-83.3333333333333,4,1,1,5,0,0
340495,-83.3333333333333,4,1,1,75,0,0
340568,-83.3333333333333,4,1,1,5,0,0
340640,-83.3333333333333,4,1,1,75,0,0
340713,-83.3333333333333,4,1,1,5,0,0
340785,-76.9230769230769,4,1,1,75,0,0
341075,-83.3333333333333,4,1,1,75,0,0
343684,-76.9230769230769,4,1,1,75,0,0
343756,-76.9230769230769,4,1,1,5,0,0
343829,-76.9230769230769,4,1,1,75,0,0
343901,-76.9230769230769,4,1,1,5,0,0
343974,-76.9230769230769,4,1,1,75,0,0
344046,-76.9230769230769,4,1,1,5,0,0
344119,-76.9230769230769,4,1,1,75,0,0
344191,-76.9230769230769,4,1,1,5,0,0
344264,-76.9230769230769,4,1,1,75,0,0
344553,-83.3333333333333,4,1,1,75,0,0
345713,-100,4,1,1,75,0,0
346148,-90.9090909090909,4,1,1,75,0,0
346583,-83.3333333333333,4,1,1,75,0,0
348032,289.873277065709,3,1,1,75,1,0
348032,-117.647058823529,3,1,1,75,0,0
368323,-333.333333333334,3,1,1,75,0,0
368902,289.873277065709,4,1,1,75,1,0
368902,-100,4,1,1,75,0,0
378177,-100,4,1,1,75,0,0
379337,-166.666666666667,4,1,1,75,0,0
380207,-200,4,1,1,5,0,0
381656,-200,4,1,1,50,0,0
382236,-200,4,1,1,5,0,0
382815,-333.333333333333,4,1,1,50,0,0
383975,-200,4,1,1,50,0,0
384555,-200,4,1,1,5,0,0
384989,-200,4,1,1,50,0,0
386874,-200,4,1,1,5,0,0
387164,-200,4,1,1,65,0,0
388468,-133.333333333333,4,1,1,70,0,0
392091,-117.647058823529,4,1,1,70,0,0
393251,-111.111111111111,4,1,1,70,0,0
395280,-100,4,1,1,78,0,0
397889,-83.3333333333333,4,1,1,85,0,1
415426,-74.0740740740741,4,1,1,85,0,1
415933,-74.0740740740741,4,1,1,5,0,1
416006,-74.0740740740741,4,1,1,85,0,1
416441,-83.3333333333333,4,1,1,85,0,1
426876,-76.9230769230769,4,1,1,85,0,1
426949,-76.9230769230769,4,1,1,5,0,1
427021,-83.3333333333333,4,1,1,85,0,1
427094,-83.3333333333333,4,1,1,5,0,1
427166,-100,4,1,1,85,0,1
427238,-100,4,1,1,5,0,1
427311,-125,4,1,1,85,0,1
427383,-125,4,1,1,5,0,1
427456,-149.253731343284,4,1,1,85,0,1
427528,-149.253731343284,4,1,1,5,0,1
427601,-181.818181818181,4,1,1,85,0,1
427673,-181.818181818181,4,1,1,5,0,1
427746,-333.333333333333,4,1,1,85,0,1
427818,-333.333333333333,4,1,1,5,0,1
427891,-333.333333333333,4,1,1,85,0,1
428036,-125,4,1,1,75,0,0
428470,-100,4,1,1,75,0,0
428905,-83.3333333333333,4,1,1,75,0,0
430210,289.873277065709,4,1,1,75,1,0
430210,-117.647058823529,4,1,1,75,0,0
433543,-133.333333333333,4,1,1,75,0,0
434847,-117.647058823529,4,1,1,75,0,0
437891,-133.333333333333,4,1,1,75,0,0
438181,-117.647058823529,4,1,1,75,0,0
445283,-133.333333333333,4,1,1,75,0,0
446442,-117.647058823529,4,1,1,75,0,0
448616,-166.666666666667,4,1,1,75,0,0

[Colours]
Combo1 : 191,191,191
Combo2 : 255,145,145
Combo3 : 230,124,89
Combo4 : 190,129,129

[HitObjects]
485,301,17000,6,0,B|470:354|417:352|417:352|367:352|311:287|359:208|423:200|470:237|470:237|447:192|399:160|399:160|495:176|527:112|487:32|431:48|417:75|417:75|404:95|429:116|452:121|453:96,1,747.499965782167,4|0,0:2|0:0,2:0:0:0:
162,257,18740,6,0,L|116:281,2,37.3749982891084,0|0|8,0:0|0:0|0:0,0:0:0:0:
333,175,19030,1,4,0:3:0:0:
127,82,19175,1,8,0:0:0:0:
234,4,19319,1,0,0:0:0:0:
234,4,19464,1,0,0:0:0:0:
279,279,19609,5,8,0:0:0:0:
383,20,19754,1,8,0:0:0:0:
200,138,19899,1,4,0:3:0:0:
419,182,20044,1,8,0:0:0:0:
304,56,20189,1,0,0:0:0:0:
307,60,20334,1,0,0:0:0:0:
83,264,20479,6,0,B|49:359|49:359|136:336|136:336|233:356,1,287.5,4|0,0:2|2:0,2:0:0:0:
308,104,21349,2,0,B|234:63|234:63|254:281,1,287.5,8|0,0:2|2:0,2:0:0:0:
449,211,22218,2,0,P|492:304|351:323,1,287.5,4|0,0:2|2:0,2:0:0:0:
364,138,23088,5,0,0:0:0:0:
364,138,23160,1,0,0:0:0:0:
364,138,23233,1,8,0:0:0:0:
250,38,23378,1,0,0:0:0:0:
312,239,23523,1,8,0:0:0:0:
272,23,23668,1,0,0:0:0:0:
297,265,23812,1,8,0:0:0:0:
92,48,23957,5,4,0:0:0:0:
92,48,24102,2,0,P|77:87|90:135,1,86.2500032901765,0|0,0:0|0:0,2:0:0:0:
154,197,24392,1,0,0:0:0:0:
158,89,24537,1,0,0:0:0:0:
38,179,24682,1,0,0:0:0:0:
155,345,24827,6,0,B|210:334|210:334|241:345|241:345|265:325|265:325|337:312,1,172.500006580353,8|0,0:1|0:0,2:0:0:0:
436,301,25262,1,0,0:0:0:0:
436,301,25407,1,0,0:0:0:0:
436,301,25552,1,0,0:0:0:0:
339,66,25697,5,0,0:0:0:0:
339,66,25842,2,0,P|354:104|350:156,1,86.2500032901765
337,228,26131,1,0,0:0:0:0:
249,84,26276,1,0,0:0:0:0:
235,216,26421,1,0,0:0:0:0:
437,37,26566,6,0,B|429:105|429:105|443:142|443:142|435:212,1,172.500006580353,8|0,0:0|0:0,2:0:0:0:
412,308,27001,1,0,0:0:0:0:
287,281,27146,1,0,0:0:0:0:
508,250,27291,1,0,0:0:0:0:
217,344,27436,5,4,0:0:0:0:
217,344,27581,2,0,P|195:308|188:262,1,86.2500032901765
192,183,27871,1,0,0:0:0:0:
93,218,28016,1,0,0:0:0:0:
296,207,28161,1,0,0:0:0:0:
16,122,28306,6,0,B|60:138|60:138|183:104,1,172.500006580353,8|0,0:1|0:0,2:0:0:0:
74,45,28740,1,0,0:0:0:0:
74,45,28885,1,0,0:0:0:0:
74,45,29030,1,0,0:0:0:0:
220,258,29175,5,4,0:0:0:0:
220,258,29320,2,0,L|213:350,1,86.2500032901765
397,230,29610,2,0,L|389:56,1,172.500006580353,4|0,0:0|0:0,2:0:0:0:
498,276,30045,5,8,0:0:0:0:
279,158,30190,1,0,0:0:0:0:
486,29,30335,1,0,0:0:0:0:
372,303,30480,2,0,L|363:130,1,172.500006580353,4|0,0:0|0:0,0:0:0:0:
270,305,30914,5,0,0:0:0:0:
270,305,31059,2,0,P|192:268|108:252,1,172.500006580353,0|8,0:0|0:0,0:0:0:0:
219,125,31639,5,0,0:0:0:0:
320,210,31784,1,0,0:0:0:0:
320,210,31929,2,0,P|398:173|483:157,1,172.500006580353,0|8,0:0|0:0,0:0:0:0:
108,62,32509,5,0,0:0:0:0:
62,154,32654,1,0,0:0:0:0:
189,169,32799,2,0,P|256:151|281:133,1,86.2500032901765
390,17,33089,1,8,0:0:0:0:
372,303,33378,5,0,0:0:0:0:
350,153,33523,1,0,0:0:0:0:
200,259,33668,2,0,P|157:251|119:232,1,86.2500032901765
2,113,33958,1,12,0:0:0:0:
76,316,34248,5,8,0:0:0:0:
189,169,34393,1,12,0:0:0:0:
283,357,34538,1,8,0:0:0:0:
390,17,34828,1,8,0:0:0:0:
108,62,35118,5,8,0:0:0:0:
200,259,35263,1,12,0:0:0:0:
432,243,35408,1,8,0:0:0:0:
2,113,35698,1,8,0:0:0:0:
281,36,35987,5,8,0:0:0:0:
432,243,36132,1,12,0:0:0:0:
255,367,36277,1,8,0:0:0:0:
390,17,36567,1,8,0:0:0:0:
62,154,36857,5,8,0:0:0:0:
255,367,37002,2,0,B|269:318|244:276|244:276|263:261|263:261|243:228|254:173,1,206.999993682861,8|0,0:0|0:0,2:0:0:0:
391,110,38161,5,4,0:2:0:0:
373,151,38233,1,0,0:0:0:0:
373,195,38305,1,0,0:0:0:0:
387,237,38378,1,0,0:0:0:0:
425,260,38451,2,0,P|452:267|489:253,1,57.5
300,132,38596,2,0,P|266:127|242:132,1,57.5
178,170,38741,2,0,P|124:182|62:163,1,115,8|0,0:0|0:0,0:0:0:0:
285,41,39030,1,2,0:0:0:0:
285,41,39103,1,0,0:0:0:0:
285,41,39176,1,0,0:0:0:0:
276,208,39320,5,2,0:0:0:0:
276,208,39393,1,0,0:0:0:0:
276,208,39465,1,0,0:0:0:0:
136,69,39610,2,0,P|83:54|26:72,1,115,4|4,0:3|0:3,0:0:0:0:
215,289,39900,1,8,0:0:0:0:
83,156,40045,2,0,L|77:279,1,115
302,124,40335,1,8,0:0:0:0:
320,329,40480,5,4,0:2:0:0:
353,358,40552,1,0,0:0:0:0:
397,350,40624,1,0,0:0:0:0:
425,314,40697,1,0,0:0:0:0:
433,269,40770,2,0,L|428:201,1,57.5
311,68,40915,2,0,L|299:136,1,57.5,0|0,0:0|0:0,2:0:0:0:
215,189,41060,2,0,L|88:181,1,115,8|0,0:0|0:0,0:0:0:0:
65,93,41350,1,2,0:0:0:0:
65,93,41422,1,0,0:0:0:0:
65,93,41495,1,0,0:0:0:0:
130,276,41639,6,0,L|110:330,2,57.5,2|0|0,0:0|0:0|0:0,0:0:0:0:
186,84,41929,1,4,0:3:0:0:
228,252,42075,1,4,0:3:0:0:
408,120,42219,1,8,0:0:0:0:
208,171,42364,1,4,0:3:0:0:
407,240,42509,2,0,L|346:181,1,68.9999978942872,4|0,0:3|0:0,2:0:0:0:
161,33,42654,2,0,L|122:92,1,68.9999978942872,4|0,0:3|0:0,2:0:0:0:
11,327,42799,5,4,0:2:0:0:
11,327,42872,1,0,0:0:0:0:
11,327,42944,2,0,L|3:387,2,57.5
87,120,43234,1,0,0:0:0:0:
112,142,43307,1,0,0:0:0:0:
150,164,43379,2,0,P|208:173|279:145,1,115,8|0,0:0|0:0,2:0:0:0:
453,48,43669,2,0,L|507:27,2,57.5,2|0|0,0:0|0:0|0:0,0:0:0:0:
262,35,43958,6,0,L|208:16,2,57.5,2|0|0,0:0|0:0|0:0,0:0:0:0:
447,240,44249,1,4,0:3:0:0:
367,32,44393,1,0,0:0:0:0:
367,32,44466,1,4,0:3:0:0:
367,32,44538,1,8,0:0:0:0:
308,244,44683,1,4,0:3:0:0:
434,132,44828,2,0,P|396:124|347:127,1,68.9999978942872,4|0,0:3|0:0,2:0:0:0:
200,290,44973,2,0,P|234:302|272:296,1,68.9999978942872,4|0,0:3|0:0,2:0:0:0:
145,42,45118,6,0,P|72:9|-4:62,1,172.500006580353,6|0,0:2|0:0,2:0:0:0:
255,80,45553,1,2,0:0:0:0:
81,91,45698,2,0,L|74:185,1,86.2500032901765,10|0,0:0|0:0,2:0:0:0:
331,110,45988,2,0,L|329:23,1,86.2500032901765,10|0,0:0|2:0,2:0:0:0:
299,310,46278,6,0,P|294:222|223:188,1,172.500006580353,6|0,0:2|2:0,2:0:0:0:
266,382,46712,1,2,0:0:0:0:
176,155,46857,2,0,L|172:244,1,86.2500032901765,10|0,0:0|2:0,2:0:0:0:
381,313,47147,2,0,L|375:219,1,86.2500032901765,10|0,0:0|2:0,2:0:0:0:
144,299,47437,5,4,0:2:0:0:
119,305,47510,1,0,0:0:0:0:
95,312,47582,1,0,0:0:0:0:
70,318,47655,1,0,0:0:0:0:
45,324,47727,2,0,L|50:256,1,57.5
94,108,47872,2,0,L|89:168,1,57.5
142,47,48017,2,0,P|196:34|259:44,1,115,8|0,0:0|0:0,0:0:0:0:
372,88,48307,1,2,0:0:0:0:
372,88,48379,1,0,0:0:0:0:
372,88,48451,1,0,0:0:0:0:
231,145,48596,5,2,0:0:0:0:
231,145,48669,1,0,0:0:0:0:
231,145,48741,1,0,0:0:0:0:
321,26,48886,1,4,0:3:0:0:
321,26,49031,1,4,0:3:0:0:
242,250,49176,1,8,0:0:0:0:
400,145,49321,2,0,P|456:134|513:154,1,115
240,40,49611,1,8,0:0:0:0:
366,211,49756,5,4,0:2:0:0:
368,230,49828,1,0,0:0:0:0:
370,249,49901,2,0,L|373:303,2,43.1250016450883
281,325,50191,1,0,0:0:0:0:
298,342,50263,1,0,0:0:0:0:
319,354,50336,2,0,P|371:369|429:348,1,115,8|0,0:0|0:0,0:0:0:0:
511,166,50626,2,0,L|501:212,2,43.1250016450883,2|0|0,0:0|0:0|0:0,0:0:0:0:
328,58,50915,6,0,L|338:101,2,43.1250016450883,2|0|0,0:0|0:0|0:0,0:0:0:0:
366,217,51205,1,4,0:3:0:0:
479,43,51350,1,4,0:3:0:0:
214,26,51495,1,8,3:1:0:0:
187,69,51569,1,0,3:3:0:0:
185,117,51640,1,0,3:3:0:0:
205,162,51713,1,0,3:3:0:0:
246,192,51785,2,0,P|276:201|316:187,3,57.5,0|0|0|0,3:3|0:3|0:3|0:3,0:3:0:0:
130,308,52075,5,6,0:2:0:0:
130,298,52148,1,0,0:0:0:0:
131,289,52220,1,0,0:0:0:0:
131,279,52293,1,0,0:0:0:0:
132,270,52365,1,0,0:0:0:0:
133,260,52438,1,0,0:0:0:0:
132,251,52510,1,0,0:0:0:0:
132,242,52582,1,0,0:0:0:0:
132,232,52655,2,0,L|133:174,1,57.5,14|0,0:0|0:0,0:0:0:0:
140,45,52800,1,0,0:0:0:0:
282,231,52944,2,0,L|244:177,1,57.5,14|0,0:0|0:0,0:0:0:0:
134,20,53089,1,0,0:0:0:0:
403,186,53234,5,14,0:0:0:0:
403,186,53306,1,0,0:0:0:0:
403,186,53379,1,0,0:0:0:0:
123,346,53669,5,4,0:3:0:0:
123,346,53742,1,0,0:0:0:0:
123,346,53814,1,8,0:0:0:0:
255,225,53959,1,0,0:0:0:0:
60,155,54104,2,0,P|51:197|66:240,1,68.9999978942872,4|0,0:3|0:0,0:0:0:0:
300,264,54249,2,0,P|307:231|294:179,1,68.9999978942872,4|0,0:3|0:0,0:0:0:0:
37,32,54394,5,4,0:2:0:0:
37,32,54539,2,0,L|103:35,2,57.5,0|0|8,0:0|0:0|0:0,0:0:0:0:
198,122,54829,1,0,0:0:0:0:
198,122,54901,1,0,0:0:0:0:
198,122,54974,1,0,0:0:0:0:
304,66,55119,2,0,L|311:9,2,57.5,0|0|8,0:0|0:0|0:0,0:0:0:0:
281,246,55408,1,0,0:0:0:0:
281,246,55480,1,0,0:0:0:0:
281,246,55553,6,0,P|325:251|372:238,1,86.2500032901765,4|0,0:2|0:0,0:0:0:0:
469,181,55843,1,0,0:0:0:0:
451,305,55988,2,0,L|446:352,2,43.1250016450883,0|0|8,0:0|0:0|0:0,0:0:0:0:
313,168,56278,2,0,P|276:163|214:183,1,86.2500032901765,6|0,0:2|2:2,2:2:0:0:
110,286,56568,2,0,P|74:293|23:285,1,86.2500032901765,6|0,0:2|2:2,2:2:0:0:
16,87,56858,5,0,0:0:0:0:
184,236,57003,1,8,0:0:0:0:
37,196,57148,1,0,0:0:0:0:
162,9,57293,1,0,0:0:0:0:
162,9,57365,1,0,0:0:0:0:
162,9,57438,1,0,0:0:0:0:
137,139,57583,1,8,0:0:0:0:
363,109,57728,1,0,0:0:0:0:
187,76,57872,5,0,0:0:0:0:
342,186,58017,1,0,0:0:0:0:
248,16,58163,1,8,0:0:0:0:
316,277,58307,1,0,0:0:0:0:
479,87,58452,2,0,B|490:41|490:41|481:-16,2,88.1666683483124
429,137,58741,5,8,0:0:0:0:
386,193,58838,1,8,0:0:0:0:
404,261,58935,1,8,0:0:0:0:
458,298,59032,6,0,P|414:316|328:301,1,115,4|0,0:2|0:0,0:0:0:0:
215,252,59322,1,8,0:0:0:0:
281,357,59467,1,0,0:0:0:0:
341,199,59612,5,0,0:0:0:0:
323,131,59708,1,0,0:0:0:0:
253,116,59805,1,0,0:0:0:0:
187,154,59901,2,0,L|72:153,1,115,8|4,3:1|0:3,0:0:0:0:
344,47,60191,6,0,L|459:48,1,115,0|4,0:0|0:3,0:0:0:0:
328,292,60481,1,8,0:0:0:0:
130,134,60626,1,0,0:0:0:0:
364,11,60771,2,0,L|481:11,1,115,0|4,0:0|0:3,0:0:0:0:
250,222,61061,2,0,P|193:243|132:232,1,115,8|0,0:0|0:0,2:0:0:0:
21,193,61351,5,4,0:2:0:0:
21,193,61496,1,0,0:2:0:0:
199,333,61641,1,8,0:0:0:0:
204,167,61786,1,0,0:0:0:0:
60,331,61931,1,0,0:0:0:0:
60,331,62003,1,0,0:0:0:0:
60,331,62076,1,0,0:0:0:0:
289,285,62221,1,8,0:0:0:0:
139,181,62366,1,0,0:0:0:0:
334,226,62510,5,0,0:0:0:0:
174,125,62655,1,0,0:0:0:0:
377,168,62800,1,8,0:0:0:0:
250,342,62945,1,0,0:0:0:0:
439,340,63090,5,8,0:0:0:0:
470,276,63187,1,8,0:0:0:0:
456,207,63283,1,8,0:0:0:0:
405,158,63380,5,0,0:0:0:0:
390,88,63477,1,0,0:0:0:0:
450,52,63573,1,0,0:0:0:0:
494,106,63670,6,0,B|432:112|432:112|383:97|383:97|319:104,1,172.500006580353,12|0,0:2|0:3,0:0:0:0:
242,152,64105,1,10,0:0:0:0:
406,184,64250,1,4,0:3:0:0:
373,23,64395,1,4,0:3:0:0:
340,279,64540,5,10,0:0:0:0:
470,147,64685,1,4,0:3:0:0:
299,81,64830,1,4,0:3:0:0:
404,254,64974,5,10,0:0:0:0:
435,19,65119,1,4,0:3:0:0:
191,60,65264,1,4,0:3:0:0:
235,302,65409,5,10,0:1:0:0:
256,336,65481,1,4,0:3:0:0:
292,355,65553,1,4,0:3:0:0:
333,352,65626,1,4,0:3:0:0:
370,336,65698,1,0,0:0:0:0:
407,318,65771,1,0,0:0:0:0:
447,313,65843,1,0,0:0:0:0:
486,326,65916,1,0,0:0:0:0:
506,365,65988,5,4,0:3:0:0:
464,362,66061,1,0,0:0:0:0:
437,331,66133,1,0,0:0:0:0:
430,289,66206,1,0,0:0:0:0:
434,248,66278,1,4,0:3:0:0:
448,209,66351,1,4,0:3:0:0:
471,179,66424,6,0,B|499:106|411:47|411:47|487:65,1,230,12|0,0:2|0:0,2:0:0:0:
256,188,67583,5,4,0:2:0:0:
256,188,67873,1,8,0:0:0:0:
168,133,68018,2,0,L|82:126,1,86.2500032901765
10,44,68308,2,0,L|3:0,2,43.1250016450883,0|0|8,0:0|0:0|0:0,0:0:0:0:
49,236,68598,1,0,0:0:0:0:
258,66,68887,5,0,0:0:0:0:
361,225,69032,1,8,0:0:0:0:
256,188,69177,1,0,0:0:0:0:
356,88,69322,2,0,P|418:75|484:100,1,129.375004935265
506,131,69612,2,0,L|501:223,1,86.2500032901765,8|0,0:0|0:0,0:0:0:0:
267,377,69902,6,0,L|270:283,1,86.2500032901765,4|0,0:0|0:0,0:0:0:0:
355,156,70192,1,8,0:0:0:0:
188,233,70337,2,0,L|177:338,1,86.2500032901765
55,209,70627,1,0,0:0:0:0:
55,209,70699,1,0,0:0:0:0:
55,209,70772,1,8,0:0:0:0:
170,87,70917,1,0,0:0:0:0:
39,340,71206,5,0,0:0:0:0:
39,340,71351,2,0,L|134:364,1,86.2500032901765,8|0,0:0|0:0,0:0:0:0:
228,274,71641,2,0,L|316:262,1,86.2500032901765
491,328,71931,2,0,L|392:351,1,86.2500032901765,8|0,0:0|0:0,0:0:0:0:
206,197,72221,6,0,P|191:152|207:99,1,86.2500032901765,4|0,0:0|0:0,0:0:0:0:
339,9,72511,1,8,0:0:0:0:
339,9,72656,2,0,L|338:95,1,86.2500032901765
447,292,72946,1,0,0:0:0:0:
458,279,73018,1,0,0:0:0:0:
466,263,73091,2,0,P|472:220|458:180,1,86.2500032901765,4|0,0:0|0:0,0:0:0:0:
258,159,73380,6,0,B|216:150|191:162|191:162|158:145|158:145|112:160|76:149,1,172.500006580353,0|8,0:0|0:0,0:0:0:0:
221,357,73960,2,0,L|231:225,1,129.375004935265
258,159,74250,2,0,L|272:253,1,86.2500032901765,8|0,0:0|0:0,0:0:0:0:
92,133,74540,6,0,L|70:234,1,86.2500032901765,4|0,0:0|0:0,0:0:0:0:
65,9,74830,1,8,0:0:0:0:
171,74,74975,1,0,0:0:0:0:
171,74,75120,1,0,0:0:0:0:
350,42,75265,2,0,L|339:103,1,48.8750009322167
369,167,75410,2,0,P|417:181|468:172,1,97.7500018644333,8|0,0:0|0:0,0:0:0:0:
456,55,75699,6,0,B|442:116|442:116|466:177|466:177|456:260,1,195.500003728867,4|8,0:0|0:0,0:0:0:0:
343,350,76134,1,0,0:0:0:0:
220,145,76279,6,0,P|261:141|299:150,1,63.2500019302369,2|0,0:0|0:0,0:0:0:0:
349,199,76424,2,0,B|355:238|355:238|351:275,1,63.2500019302369,2|0,0:0|0:0,0:0:0:0:
177,283,76569,2,0,B|174:250|174:250|178:218,1,63.2500019302369,2|0,0:0|0:0,0:0:0:0:
219,361,76714,2,0,P|180:370|132:359,1,63.2500019302369,2|0,0:0|0:0,0:0:0:0:
32,286,76859,6,0,B|11:220|51:175|51:175|34:157|34:157|67:120|41:60,1,230,4|8,0:0|0:0,0:0:0:0:
140,103,77294,2,0,P|185:114|243:97,1,86.2500032901765
356,42,77584,2,0,L|375:-1,2,43.1250016450883,0|0|8,0:0|0:0|0:0,0:0:0:0:
289,182,77873,1,0,0:0:0:0:
179,34,78018,6,0,P|130:25|82:41,1,86.2500032901765
125,228,78308,1,8,0:0:0:0:
125,228,78453,2,0,P|206:266|295:241,1,172.500006580353
456,133,78888,2,0,L|449:242,1,86.2500032901765,8|0,0:0|0:0,0:0:0:0:
376,349,79178,6,0,L|365:241,1,86.2500032901765,4|0,0:0|0:0,0:0:0:0:
351,74,79468,1,8,0:0:0:0:
505,94,79613,1,0,0:0:0:0:
484,206,79758,1,0,0:0:0:0:
463,318,79903,2,0,L|471:361,2,43.1250016450883,0|0|8,0:0|0:0|0:0,0:0:0:0:
343,216,80192,1,0,0:0:0:0:
343,216,80337,6,0,P|296:202|242:218,1,86.2500032901765
137,327,80627,1,8,0:0:0:0:
60,215,80772,1,0,0:0:0:0:
60,215,80917,2,0,L|65:119,1,86.2500032901765
301,81,81207,6,0,P|217:108|135:48,1,172.500006580353,8|4,0:0|0:0,0:0:0:0:
230,17,81642,1,0,0:0:0:0:
271,193,81787,2,0,P|228:201|186:193,1,86.2500032901765,8|0,0:0|0:0,0:0:0:0:
227,288,82077,1,0,0:0:0:0:
408,206,82222,1,0,0:0:0:0:
408,206,82294,1,0,0:0:0:0:
408,206,82367,2,0,P|451:198|493:206,1,86.2500032901765,8|0,0:0|0:0,0:0:0:0:
438,337,82656,5,0,0:0:0:0:
356,288,82801,1,0,0:0:0:0:
274,337,82946,1,8,0:0:0:0:
192,288,83091,1,0,0:0:0:0:
110,337,83236,1,0,0:0:0:0:
61,255,83381,1,0,0:0:0:0:
110,173,83526,1,8,0:0:0:0:
61,91,83671,1,0,0:0:0:0:
143,42,83816,5,4,0:0:0:0:
192,124,83961,1,0,0:0:0:0:
274,75,84106,1,8,0:0:0:0:
323,157,84251,1,0,0:0:0:0:
405,108,84396,1,0,0:0:0:0:
372,239,84541,1,0,0:0:0:0:
372,239,84613,1,0,0:0:0:0:
372,239,84686,1,8,0:0:0:0:
168,229,84830,6,0,L|70:214,1,86.2500032901765
205,122,85120,1,0,0:0:0:0:
174,380,85265,1,8,0:0:0:0:
322,299,85410,2,0,L|420:283,1,86.2500032901765
106,315,85700,1,0,0:0:0:0:
106,315,85773,1,0,0:0:0:0:
106,315,85845,1,8,0:0:0:0:
207,61,85990,1,8,0:0:0:0:
320,268,86135,6,0,P|411:245|364:127,1,230,4|8,0:0|0:0,0:0:0:0:
248,232,86570,2,0,P|239:274|246:317,1,86.2500032901765
389,362,86860,2,0,L|438:350,2,43.1250016450883,0|0|8,0:0|0:0|0:0,0:0:0:0:
489,284,87149,1,0,0:0:0:0:
310,60,87439,5,0,0:0:0:0:
310,60,87584,2,0,P|263:50|207:66,1,86.2500032901765,8|0,0:0|0:0,0:0:0:0:
147,129,87874,2,0,P|86:150|20:123,1,129.375004935265
88,75,88164,2,0,L|80:162,1,86.2500032901765,8|0,0:0|0:0,0:0:0:0:
163,353,88454,6,0,B|173:252,1,86.2500032901765,4|0,0:0|0:0,0:0:0:0:
266,135,88744,1,8,0:0:0:0:
266,135,88889,2,0,L|277:226,1,86.2500032901765
297,354,89179,1,0,0:0:0:0:
297,354,89251,1,0,0:0:0:0:
297,354,89323,1,8,0:0:0:0:
392,245,89468,1,0,0:0:0:0:
73,359,89758,5,0,0:0:0:0:
73,359,89903,2,0,P|79:310|68:268,1,86.2500032901765,8|0,0:0|0:0,0:0:0:0:
18,188,90193,2,0,P|13:135|34:80,1,86.2500032901765
181,148,90483,2,0,L|94:144,1,86.2500032901765,8|0,0:0|0:0,0:0:0:0:
169,18,90773,6,0,L|255:20,1,86.2500032901765,4|0,0:0|0:0,0:0:0:0:
368,19,91063,1,8,0:0:0:0:
390,141,91208,2,0,P|340:154|297:141,1,86.2500032901765
484,14,91498,1,0,0:0:0:0:
484,14,91570,1,0,0:0:0:0:
484,14,91642,2,0,L|475:105,1,86.2500032901765,8|0,0:0|0:0,0:0:0:0:
437,266,91932,6,0,B|430:207|430:207|443:156|443:156|431:83,1,172.500006580353,0|8,0:0|0:0,0:0:0:0:
223,344,92512,2,0,P|288:315|359:345,1,129.375004935265
383,354,92802,2,0,P|384:298|372:253,1,86.2500032901765,8|0,0:0|0:0,0:0:0:0:
274,149,93092,6,0,P|261:192|276:243,1,86.2500032901765,4|0,0:0|0:0,0:0:0:0:
353,88,93382,1,8,0:0:0:0:
191,115,93527,1,0,0:0:0:0:
285,11,93672,1,0,0:0:0:0:
98,40,93817,2,0,L|88:90,1,48.8750009322167
50,151,93961,2,0,L|70:255,1,97.7500018644333,8|0,0:0|0:0,0:0:0:0:
139,344,94251,6,0,B|247:387|223:269|344:316,1,195.500003728867,0|8,0:0|0:0,0:0:0:0:
454,335,94686,1,0,0:0:0:0:
425,141,94831,6,0,L|350:130,1,63.2500019302369,2|0,0:0|0:0,0:0:0:0:
268,196,94976,2,0,L|330:206,1,63.2500019302369,2|0,0:0|0:0,0:0:0:0:
434,132,95121,2,0,B|367:124,1,63.2500019302369,10|0,0:0|0:0,0:0:0:0:
259,204,95266,2,0,L|340:216,1,63.2500019302369,2|0,0:0|0:0,0:0:0:0:
157,25,95411,6,0,P|133:137|228:99,1,230,4|8,0:0|0:0,0:0:0:0:
283,42,95846,2,0,P|331:30|390:42,1,86.2500032901765
492,80,96136,2,0,L|497:24,2,43.1250016450883,0|0|8,0:0|0:0|0:0,0:0:0:0:
476,220,96425,1,0,0:0:0:0:
327,146,96570,6,0,P|309:200|326:257,1,86.2500032901765
348,358,96860,1,8,0:0:0:0:
348,358,97005,2,0,B|256:335|256:335|171:357,1,172.500006580353
19,303,97440,2,0,L|102:283,1,86.2500032901765,8|0,0:0|0:0,0:0:0:0:
207,186,97730,6,0,P|217:134|207:88,1,86.2500032901765,4|0,0:0|0:0,0:0:0:0:
73,26,98020,1,8,0:0:0:0:
73,26,98165,2,0,P|61:79|73:124,1,86.2500032901765
131,238,98454,2,0,L|120:290,2,43.1250016450883,0|0|8,0:0|0:0|0:0,0:0:0:0:
211,101,98744,1,0,0:0:0:0:
323,217,98889,6,0,L|336:326,1,86.2500032901765
424,129,99179,1,8,0:0:0:0:
327,27,99324,1,0,0:0:0:0:
327,27,99469,2,0,L|226:21,1,86.2500032901765
472,46,99759,6,0,B|500:122|500:122|484:219,1,172.500006580353,8|4,0:0|0:0,0:0:0:0:
456,323,100194,1,0,0:0:0:0:
235,338,100339,2,0,L|325:319,1,86.2500032901765,8|0,0:0|0:0,0:0:0:0:
403,228,100629,1,0,0:0:0:0:
298,147,100773,2,0,L|245:134,2,43.1250016450883,0|0|8,0:0|0:0|0:0,0:0:0:0:
215,236,101063,1,0,0:0:0:0:
141,138,101208,5,0,0:0:0:0:
67,40,101353,1,0,0:0:0:0:
20,154,101498,1,8,0:0:0:0:
67,40,101643,1,0,0:0:0:0:
214,19,101788,2,0,L|323:26,1,86.2500032901765
134,172,102078,1,8,0:0:0:0:
256,136,102223,1,0,0:0:0:0:
58,282,102368,6,0,B|26:315|26:315|186:300,1,195.500003728867,4|8,0:0|0:0,0:0:0:0:
347,278,102803,1,0,0:0:0:0:
246,352,102948,1,0,0:0:0:0:
228,155,103092,1,0,0:0:0:0:
228,155,103165,1,0,0:0:0:0:
228,155,103237,1,8,0:0:0:0:
358,354,103382,1,0,0:0:0:0:
471,231,103527,6,0,B|489:191|469:146|469:146|481:120|481:120|462:75|479:41,1,195.500003728867,0|8,0:0|0:0,0:0:0:0:
347,278,103962,1,0,0:0:0:0:
215,84,104107,1,0,3:0:0:0:
169,65,104179,1,0,3:0:0:0:
120,70,104252,1,0,3:0:0:0:
77,92,104324,1,0,3:0:0:0:
47,131,104397,1,0,3:0:0:0:
230,363,104687,5,6,0:2:0:0:
320,139,105121,6,0,L|326:68,2,57.5
242,74,105556,2,0,P|325:1|398:109,1,258.75000987053,12|0,0:0|0:0,2:0:0:0:
397,209,106136,1,0,0:0:0:0:
316,288,106281,1,0,0:0:0:0:
154,213,106426,6,0,L|212:214,1,57.5,4|0,0:2|0:0,0:0:0:0:
379,343,106861,2,0,L|444:357,2,57.5
204,352,107295,2,0,P|68:336|56:220,1,258.75000987053,12|0,0:0|0:0,2:0:0:0:
83,126,107875,1,0,0:2:0:0:
193,132,108020,1,0,0:0:0:0:
277,292,108165,6,0,L|224:242,1,57.5,4|0,0:2|0:0,0:0:0:0:
346,56,108600,2,0,L|359:111,2,57.5
260,152,109035,2,0,P|356:226|460:163,1,258.75000987053,12|0,0:0|0:0,2:0:0:0:
345,35,109615,1,0,0:0:0:0:
474,45,109760,1,8,0:0:0:0:
274,73,109904,6,0,L|331:64,1,57.5,4|0,0:2|0:0,0:0:0:0:
77,81,110194,2,0,L|133:92,1,57.5
233,177,110484,1,0,0:0:0:0:
186,26,110629,1,0,0:0:0:0:
132,194,110774,2,0,L|117:286,1,86.2500032901765,4|0,0:0|0:0,0:0:0:0:
347,149,111064,2,0,L|365:236,1,86.2500032901765,8|0,0:0|0:0,0:0:0:0:
188,125,111354,1,8,0:0:0:0:
318,299,111499,1,8,0:0:0:0:
442,107,111643,6,0,L|457:199,1,86.2500032901765,4|0,0:2|0:0,0:0:0:0:
70,239,112078,1,0,0:0:0:0:
70,239,112223,2,0,L|59:333,1,86.2500032901765
261,190,112513,2,0,B|179:195|179:195|103:143,1,172.5,12|0,0:0|0:0,0:0:0:0:
22,75,112948,1,0,0:0:0:0:
281,34,113093,2,0,L|195:41,1,86.2500032901765,8|0,0:0|0:0,0:0:0:0:
7,8,113383,5,4,0:2:0:0:
7,8,113528,1,0,0:0:0:0:
178,86,113673,2,0,L|264:79,1,86.2500032901765,8|0,0:0|0:0,0:0:0:0:
396,216,113963,1,0,0:0:0:0:
462,33,114108,1,0,0:0:0:0:
396,216,114252,2,0,B|422:139|356:142|385:47,1,172.500006580353,12|0,0:0|0:0,0:0:0:0:
492,211,114687,1,0,0:0:0:0:
302,336,114833,2,0,P|253:347|206:334,1,86.2500032901765,8|0,0:0|0:0,0:0:0:0:
280,185,115122,5,4,0:2:0:0:
280,185,115267,1,0,0:0:0:0:
392,322,115412,2,0,P|433:333|486:322,1,86.2500032901765,8|0,0:0|0:0,0:0:0:0:
206,223,115702,2,0,P|156:215|101:240,1,97.7500018644333
33,379,115992,2,0,P|125:367|143:220,1,230,12|0,0:2|0:0,0:0:0:0:
80,111,116426,1,0,0:0:0:0:
80,111,116499,1,0,0:0:0:0:
80,111,116571,1,8,0:0:0:0:
249,26,116716,1,0,0:0:0:0:
249,26,116789,1,0,0:0:0:0:
249,26,116861,6,0,L|250:113,1,86.2500032901765,4|0,0:2|0:0,0:0:0:0:
174,275,117151,1,8,0:0:0:0:
328,130,117296,1,8,0:0:0:0:
188,179,117441,1,0,0:0:0:0:
322,252,117586,1,0,0:0:0:0:
471,35,117731,2,0,L|460:131,1,86.2500032901765,12|0,0:0|0:0,0:0:0:0:
412,311,118021,2,0,L|401:225,1,86.2500032901765
369,38,118311,1,8,0:0:0:0:
491,213,118456,1,8,0:0:0:0:
335,334,118601,6,0,P|288:341|237:331,1,86.2500032901765,4|0,0:2|0:0,0:0:0:0:
51,257,118890,2,0,P|102:247|148:257,1,86.2500032901765,8|0,0:0|0:0,0:0:0:0:
250,335,119180,1,0,0:0:0:0:
352,254,119325,1,0,0:0:0:0:
176,125,119470,2,0,P|196:31|271:55,1,195.500003728867,12|0,0:0|0:0,0:0:0:0:
391,131,119905,1,0,0:0:0:0:
391,131,120050,2,0,P|444:151|492:137,1,97.7500018644333,8|0,0:0|0:0,0:0:0:0:
447,23,120340,5,4,0:2:0:0:
447,23,120485,1,0,0:0:0:0:
437,243,120630,2,0,L|433:343,1,97.7500018644333,8|0,0:0|0:0,0:0:0:0:
175,345,120920,1,0,0:0:0:0:
283,246,121065,1,0,0:0:0:0:
82,159,121210,2,0,B|130:136|162:156|162:156|181:139|181:139|221:168|279:139,1,195.500003728867,12|0,0:0|0:0,0:0:0:0:
356,72,121644,1,0,0:0:0:0:
206,14,121789,2,0,P|155:5|88:31,1,97.7500018644333,8|0,0:0|0:0,0:0:0:0:
0,155,122079,5,4,0:2:0:0:
0,155,122224,1,0,0:0:0:0:
117,302,122369,2,0,P|133:244|116:189,1,97.7500018644333,8|0,0:0|0:0,0:0:0:0:
10,370,122659,1,0,0:0:0:0:
216,343,122804,1,0,0:0:0:0:
152,92,122949,2,0,P|56:94|36:188,1,206.999993682861,12|0,0:0|0:0,2:0:0:0:
320,210,123384,1,0,0:0:0:0:
320,210,123529,2,0,L|318:86,1,103.499996841431,8|0,0:0|0:0,0:0:0:0:
406,324,123818,5,4,0:2:0:0:
406,324,123963,1,0,0:0:0:0:
199,187,124108,2,0,L|190:301,1,115,8|0,0:0|0:0,0:0:0:0:
402,113,124398,2,0,L|410:251,1,115,0|0,0:2|0:0,0:0:0:0:
190,86,124688,2,0,P|132:79|53:116,1,115,12|0,0:0|0:0,0:0:0:0:
367,337,124978,2,0,P|425:348|481:331,1,115
265,146,125268,1,8,0:0:0:0:
189,301,125412,1,0,0:0:0:0:
478,78,125558,6,0,B|484:192,1,115,12|0,0:2|0:0,0:0:0:0:
265,146,125847,1,0,0:0:0:0:
410,49,125992,1,8,0:0:0:0:
408,227,126137,1,0,0:0:0:0:
300,48,126282,1,0,0:0:0:0:
152,236,126427,6,0,P|136:296|150:352,1,115,12|0,0:0|0:0,0:0:0:0:
252,332,126717,1,0,0:0:0:0:
44,230,126862,1,8,0:0:0:0:
159,111,127007,2,0,P|173:56|156:-15,1,115
297,214,127297,6,0,B|345:234|345:234|411:226,1,115,12|0,0:2|0:0,0:0:0:0:
512,139,127586,1,0,0:0:0:0:
329,95,127732,1,8,0:0:0:0:
489,233,127877,1,0,0:0:0:0:
413,26,128022,1,0,0:0:0:0:
159,111,128167,6,0,L|162:241,1,115,12|0,0:0|0:0,0:0:0:0:
59,37,128456,1,0,0:0:0:0:
266,90,128601,1,8,0:0:0:0:
61,293,128746,2,0,L|58:173,1,115
307,207,129036,6,0,P|322:255|297:323,1,115,12|0,0:2|0:0,0:0:0:0:
202,228,129326,1,8,0:0:0:0:
430,192,129471,1,8,0:0:0:0:
250,113,129616,1,0,0:0:0:0:
415,304,129761,1,0,0:0:0:0:
319,66,129906,5,12,0:0:0:0:
303,315,130051,1,0,0:0:0:0:
167,108,130196,5,8,0:0:0:0:
239,359,130341,1,8,0:0:0:0:
404,69,130485,5,0,0:0:0:0:
223,288,130630,1,8,0:0:0:0:
115,45,130775,6,0,P|62:28|7:41,2,115,12|0|0,0:2|0:0|0:0,0:0:0:0:
396,332,131645,2,0,P|448:354|503:341,2,115,4|0|0,0:0|0:0|0:0,0:0:0:0:
36,350,132514,6,0,P|99:363|182:342,1,137.999995788574,6|0,0:2|0:0,0:0:0:0:
279,280,132803,1,10,0:0:0:0:
107,137,132948,2,0,L|105:284,1,137.999995788574,2|0,0:0|0:0,0:0:0:0:
220,168,133238,1,0,0:0:0:0:
153,39,133383,2,0,P|88:21|12:42,1,137.999995788574,8|0,0:0|0:0,0:0:0:0:
308,154,133673,6,0,P|368:174|454:142,1,137.999995788574,4|0,0:0|0:0,0:0:0:0:
369,63,133963,1,8,0:0:0:0:
361,290,134108,1,0,0:0:0:0:
371,317,134180,1,0,0:0:0:0:
389,341,134253,2,0,P|494:321|426:216,1,275.999991577149,0|8,0:0|0:0,0:0:0:0:
296,237,134688,1,0,0:0:0:0:
281,262,134760,1,0,0:0:0:0:
258,282,134833,6,0,P|205:297|115:274,1,137.999995788574,4|0,0:2|0:0,0:0:0:0:
7,106,135122,2,0,P|73:87|151:106,1,137.999995788574,10|0,0:0|0:0,0:0:0:0:
252,164,135412,1,2,0:0:0:0:
252,164,135557,1,2,0:0:0:0:
186,3,135702,1,8,0:0:0:0:
145,211,135847,1,0,0:0:0:0:
433,46,135992,6,0,P|338:113|400:240,1,275.999991577149,4|8,0:0|0:0,0:0:0:0:
499,179,136427,1,0,0:0:0:0:
479,156,136499,1,0,0:0:0:0:
453,139,136572,2,0,P|393:122|311:140,1,137.999995788574
215,219,136862,1,10,0:0:0:0:
444,275,137007,1,0,0:0:0:0:
444,275,137079,1,0,0:0:0:0:
444,275,137152,5,6,0:2:0:0:
304,361,137297,1,2,0:0:0:0:
271,159,137441,2,0,L|265:18,1,137.999995788574,10|0,0:0|0:0,0:0:0:0:
122,347,137731,2,0,P|176:302|194:226,1,137.999995788574
34,124,138021,2,0,P|43:185|95:242,1,137.999995788574,8|0,0:0|0:0,0:0:0:0:
271,159,138311,6,0,P|216:137|127:155,1,137.999995788574,6|0,0:0|0:0,0:0:0:0:
4,266,138601,1,8,0:0:0:0:
157,23,138746,1,0,0:0:0:0:
157,23,138818,1,0,0:0:0:0:
157,23,138891,2,0,L|156:162,1,137.999995788574
283,342,139181,1,10,0:0:0:0:
355,149,139326,1,0,0:0:0:0:
355,149,139398,1,0,0:0:0:0:
355,149,139470,5,6,0:2:0:0:
382,271,139615,1,0,0:0:0:0:
193,194,139760,1,8,0:0:0:0:
318,61,139905,1,0,0:0:0:0:
397,287,140050,5,0,0:0:0:0:
171,201,140195,1,0,0:0:0:0:
325,35,140340,1,8,0:0:0:0:
318,215,140485,1,0,0:0:0:0:
195,47,140630,5,6,0:0:0:0:
445,26,140775,1,0,3:0:0:0:
417,55,140847,1,0,3:0:0:0:
407,93,140919,1,0,3:0:0:0:
413,133,140992,1,0,3:0:0:0:
433,167,141064,1,0,3:0:0:0:
455,200,141137,1,0,3:0:0:0:
462,240,141210,6,0,P|465:278|446:328,1,77.6250002961159,0|0,3:0|0:0,3:0:0:0:
268,225,141355,2,0,P|308:214|346:221,1,77.6250002961159,8|0,0:0|0:0,0:0:0:0:
242,342,141500,1,8,0:0:0:0:
189,333,141572,1,8,0:0:0:0:
156,289,141645,1,8,0:0:0:0:
152,235,141717,1,8,0:0:0:0:
176,188,141790,6,0,B|216:99|178:10|178:10|151:60|166:102,1,275.999991577149,6|10,0:2|0:0,0:0:0:0:
295,136,142224,1,2,0:0:0:0:
96,0,142369,2,0,P|81:68|96:142,1,137.999995788574
172,224,142659,2,0,P|177:287|166:362,1,137.999995788574,8|0,0:0|0:0,0:0:0:0:
100,171,142949,6,0,P|223:150|231:294,1,275.999991577149,4|8,0:0|0:0,0:0:0:0:
42,359,143384,1,0,0:0:0:0:
42,359,143456,1,0,0:0:0:0:
42,359,143529,2,0,L|39:188,1,137.999995788574
208,44,143819,1,10,0:0:0:0:
316,259,143963,1,0,0:0:0:0:
297,289,144036,1,0,0:0:0:0:
271,323,144109,6,0,B|233:379|233:379|217:170,1,275.999991577149,6|8,0:2|0:0,0:0:0:0:
427,72,144543,2,0,L|356:196,1,137.999995788574
208,44,144833,1,0,0:0:0:0:
497,23,144978,2,0,P|520:85|500:165,1,137.999995788574,8|0,0:0|0:0,0:0:0:0:
423,328,145268,6,0,P|403:266|416:194,1,137.999995788574,6|0,0:0|0:0,0:0:0:0:
497,23,145558,1,8,0:0:0:0:
309,133,145703,1,0,0:0:0:0:
283,157,145775,1,0,0:0:0:0:
250,173,145848,2,0,B|208:183|156:159|156:159|122:175|122:175|43:182|43:182|86:132,1,275.999991577149,0|8,0:0|0:0,0:0:0:0:
177,62,146282,1,0,0:0:0:0:
177,62,146355,1,0,0:0:0:0:
177,62,146427,5,6,0:2:0:0:
160,239,146572,1,0,0:0:0:0:
83,29,146717,1,8,0:0:0:0:
283,31,146862,2,0,B|326:32|326:32|368:21|368:21|421:25,1,137.999995788574,2|0,0:0|0:0,0:0:0:0:
512,35,147152,1,0,0:0:0:0:
381,239,147297,2,0,L|373:95,1,137.999995788574,10|0,0:0|0:0,0:0:0:0:
498,284,147587,6,0,P|386:350|261:280,1,275.999991577149,6|8,0:0|0:0,0:0:0:0:
194,194,148022,1,0,0:0:0:0:
170,175,148094,1,0,0:0:0:0:
141,161,148167,2,0,P|79:140|2:167,1,137.999995788574
72,280,148457,1,8,0:0:0:0:
199,40,148601,1,0,0:0:0:0:
199,40,148674,1,0,0:0:0:0:
199,40,148746,5,6,0:2:0:0:
194,194,148891,1,0,0:0:0:0:
394,33,149036,2,0,L|401:172,1,137.999995788574,10|0,0:0|0:0,0:0:0:0:
114,0,149326,2,0,L|104:139,1,137.999995788574,2|0,0:0|0:0,0:0:0:0:
467,227,149616,2,0,P|494:174|482:98,1,137.999995788574,8|0,0:0|0:0,0:0:0:0:
341,17,149906,5,6,0:0:0:0:
195,145,150051,1,8,3:0:0:0:
195,145,150123,1,0,3:0:0:0:
195,145,150196,2,0,L|192:76,1,68.9999978942872,0|0,3:0|3:0,0:0:0:0:
376,264,150341,1,8,3:0:0:0:
376,264,150413,1,0,3:0:0:0:
376,264,150486,1,0,3:0:0:0:
400,140,150631,5,8,0:0:0:0:
345,137,150703,1,8,0:0:0:0:
294,158,150776,1,8,0:0:0:0:
256,197,150848,1,8,0:0:0:0:
243,250,150920,1,8,0:0:0:0:
249,305,150993,1,8,0:0:0:0:
280,358,151066,6,0,B|235:334|191:355|191:355|151:328|151:328|87:365|20:326,1,275.999991577149,6|10,0:2|0:0,0:0:0:0:
236,111,151500,1,2,0:0:0:0:
91,246,151645,2,0,L|93:90,1,137.999995788574
190,366,151935,1,8,0:0:0:0:
13,214,152080,1,0,0:0:0:0:
159,54,152225,6,0,P|253:20|316:158,1,275.999991577149,4|8,0:0|0:0,0:0:0:0:
236,298,152660,1,0,0:0:0:0:
235,274,152732,1,0,0:0:0:0:
236,249,152805,2,0,L|236:110,1,137.999995788574
343,18,153095,1,8,0:0:0:0:
375,215,153240,1,0,0:0:0:0:
375,215,153312,1,0,0:0:0:0:
375,215,153384,5,6,0:2:0:0:
261,86,153529,1,0,0:0:0:0:
487,73,153674,2,0,P|504:125|494:214,1,137.999995788574,8|2,0:0|0:0,0:0:0:0:
311,272,153964,2,0,P|295:210|313:137,1,137.999995788574
398,32,154254,1,8,0:0:0:0:
223,153,154399,1,0,0:0:0:0:
377,265,154544,6,0,B|431:262|431:262|468:276|468:276|514:275,1,137.999995788574,4|0,0:0|0:0,0:0:0:0:
390,142,154834,1,8,0:0:0:0:
238,359,154979,1,0,0:0:0:0:
238,359,155051,1,0,0:0:0:0:
238,359,155124,2,0,P|297:377|371:352,1,137.999995788574
223,153,155413,1,8,0:0:0:0:
112,361,155558,1,0,0:0:0:0:
112,361,155631,1,0,0:0:0:0:
112,361,155703,5,6,0:2:0:0:
234,253,155848,1,0,0:2:0:0:
137,132,155993,2,0,P|112:59|118:0,1,137.999995788574,8|2,0:0|0:0,0:0:0:0:
358,37,156283,2,0,L|369:180,1,137.999995788574
234,253,156573,2,0,L|242:103,1,137.999995788574,10|0,0:0|0:0,0:0:0:0:
464,247,156863,6,0,P|468:351|351:300,1,275.999991577149,4|8,0:0|0:0,0:0:0:0:
163,198,157298,1,0,0:0:0:0:
163,198,157370,1,0,0:0:0:0:
163,198,157443,2,0,P|141:262|162:342,1,137.999995788574
286,378,157732,1,8,0:0:0:0:
318,168,157877,1,0,0:0:0:0:
309,139,157950,1,0,0:0:0:0:
288,117,158022,6,0,B|201:49|111:106|111:106|172:98|204:119,1,275.999991577149,6|8,0:2|0:0,0:0:0:0:
243,218,158457,1,0,0:0:0:0:
49,156,158602,1,0,0:0:0:0:
264,18,158747,1,0,0:0:0:0:
252,255,158892,1,8,0:0:0:0:
21,161,159037,1,0,0:0:0:0:
281,0,159182,5,6,0:0:0:0:
244,291,159327,1,0,3:0:0:0:
199,307,159399,1,0,3:0:0:0:
152,302,159471,1,0,3:0:0:0:
122,264,159544,1,0,3:0:0:0:
118,217,159616,1,0,3:0:0:0:
143,176,159689,1,0,3:0:0:0:
172,138,159762,6,0,P|187:98|176:44,1,77.6250002961159,0|0,3:0|0:0,0:0:0:0:
102,5,159907,2,0,P|93:41|104:97,1,77.6250002961159,8|0,0:0|0:0,0:0:0:0:
243,207,160051,5,8,0:0:0:0:
293,223,160123,1,8,0:0:0:0:
346,219,160195,1,8,0:0:0:0:
391,188,160268,1,8,0:0:0:0:
422,151,160341,6,0,B|450:97|450:97|438:221|498:325,1,275.999991577149,6|8,0:2|0:0,0:0:0:0:
314,131,160776,1,0,0:0:0:0:
480,13,160921,2,0,L|484:157,1,137.999995788574
272,7,161211,1,8,0:0:0:0:
190,235,161356,1,0,0:0:0:0:
366,99,161501,6,0,B|307:66|256:111|256:111|240:85|240:85|180:142|109:92,1,275.999991577149,4|8,0:0|0:0,0:0:0:0:
25,13,161936,1,0,0:0:0:0:
25,13,162008,1,0,0:0:0:0:
25,13,162081,2,0,P|52:84|31:156,1,137.999995788574
0,269,162371,1,8,0:0:0:0:
137,109,162515,1,0,0:0:0:0:
137,109,162588,1,0,0:0:0:0:
137,109,162660,5,6,0:2:0:0:
127,318,162805,1,0,0:0:0:0:
28,194,162950,1,8,0:0:0:0:
224,213,163095,1,0,0:0:0:0:
47,352,163240,1,0,0:0:0:0:
126,196,163385,1,0,0:0:0:0:
352,281,163530,2,0,P|423:292|488:266,1,137.999995788574,8|0,0:0|0:0,0:0:0:0:
336,193,163820,6,0,P|267:254|369:375,1,275.999991577149,4|8,0:0|0:0,0:0:0:0:
444,168,164255,1,0,0:0:0:0:
424,145,164327,1,0,0:0:0:0:
400,125,164400,2,0,P|343:106|253:132,1,137.999995788574
131,261,164689,2,0,P|60:284|-2:249,1,137.999995788574,8|0,0:0|0:0,0:0:0:0:
63,167,164907,1,0,0:0:0:0:
72,191,164979,6,0,L|84:343,1,137.999995788574,6|0,0:2|0:0,0:0:0:0:
211,142,165269,2,0,L|222:2,1,137.999995788574,10|0,0:0|0:0,0:0:0:0:
343,244,165559,2,0,L|356:382,1,137.999995788574,2|0,0:0|0:0,0:0:0:0:
427,76,165849,1,8,0:0:0:0:
501,281,165994,1,0,0:0:0:0:
282,181,166139,6,0,P|258:254|276:310,1,137.999995788574,4|0,0:0|0:0,0:0:0:0:
297,23,166429,1,8,0:0:0:0:
189,178,166574,1,0,0:0:0:0:
189,178,166646,1,0,0:0:0:0:
189,178,166719,1,0,0:0:0:0:
340,122,166863,1,0,0:0:0:0:
116,3,167009,1,8,0:0:0:0:
42,221,167153,1,0,0:0:0:0:
42,251,167226,1,0,0:0:0:0:
51,279,167298,6,0,P|154:342|246:241,1,275.999991577149,6|8,0:2|0:0,0:0:0:0:
267,105,167733,1,0,0:0:0:0:
360,308,167878,1,0,0:0:0:0:
140,229,168023,1,0,0:0:0:0:
379,185,168168,1,8,0:0:0:0:
245,340,168313,1,0,0:0:0:0:
187,82,168458,5,6,0:0:0:0:
380,26,168603,1,0,3:0:0:0:
426,39,168675,1,0,3:0:0:0:
462,70,168747,1,0,3:0:0:0:
484,113,168820,1,0,3:0:0:0:
493,160,168892,1,0,3:0:0:0:
488,208,168965,1,0,3:0:0:0:
467,252,169038,1,0,3:0:0:0:
327,179,169183,5,8,0:0:0:0:
277,142,169255,1,8,0:0:0:0:
217,126,169327,1,8,0:0:0:0:
156,133,169400,1,8,0:0:0:0:
101,162,169473,1,8,0:0:0:0:
61,209,169545,1,8,0:0:0:0:
44,268,169617,6,0,P|169:282|202:152,1,275.999991577149,6|10,0:2|0:0,0:0:0:0:
157,30,170052,1,2,0:0:0:0:
389,54,170197,2,0,L|254:68,1,126.500003860474
487,15,170487,1,8,0:0:0:0:
468,205,170632,1,0,0:0:0:0:
281,147,170777,6,0,P|318:146|357:172,1,74.7499965782167,2|0,0:0|0:0,0:0:0:0:
356,321,170922,2,0,P|341:288|342:234,1,68.9999978942872
468,205,171067,6,0,P|429:205|400:219,1,57.5,10|0,0:0|0:0,0:0:0:0:
249,308,171212,2,0,L|191:290,1,46,2|0,0:0|0:0,0:0:0:0:
104,242,171357,6,0,P|90:267|93:301,1,38.5249981776811,2|0,0:0|0:0,0:0:0:0:
205,172,171501,2,0,P|210:151|205:125,1,31.6250009651184,2|0,0:0|0:0,0:0:0:0:
129,14,171646,6,0,L|128:47,2,17.2499994735718,8|0|0,0:0|0:0|0:0,0:0:0:0:
251,79,171936,5,4,0:2:0:0:
251,79,172081,2,0,P|215:70|163:78,1,86.2500032901765,0|8,0:0|0:0,0:0:0:0:
141,263,172371,5,0,0:0:0:0:
141,263,172516,2,0,P|171:315|231:331,1,115
355,266,172806,5,0,0:2:0:0:
355,266,172951,2,0,P|389:231|384:129,1,143.75,0|8,0:0|0:0,0:0:0:0:
309,341,173241,5,2,0:0:0:0:
253,180,173386,1,8,0:0:0:0:
342,44,173531,1,10,0:0:0:0:
242,291,173675,5,2,0:0:0:0:
197,162,173820,1,8,0:0:0:0:
268,53,173966,1,10,0:0:0:0:
51,284,174110,5,4,0:2:0:0:
381,63,183385,5,4,0:2:0:0:
381,63,183675,5,8,0:0:0:0:
304,148,183820,2,0,L|301:259,1,86.2500032901765
395,339,184110,1,0,0:0:0:0:
395,339,184183,1,0,0:0:0:0:
395,339,184255,1,8,0:0:0:0:
478,228,184400,1,0,0:0:0:0:
152,334,184690,5,0,0:0:0:0:
93,216,184835,1,8,0:0:0:0:
211,251,184980,1,0,0:0:0:0:
30,284,185125,2,0,B|10:209|10:209|25:140,1,129.375004935265
57,125,185415,2,0,P|64:76|50:34,1,86.2500032901765,8|0,0:0|0:0,0:0:0:0:
173,159,185704,6,0,P|221:166|267:151,1,86.2500032901765,4|0,0:0|0:0,0:0:0:0:
405,58,185994,1,8,0:0:0:0:
296,30,186139,1,0,0:0:0:0:
401,162,186284,2,0,L|398:258,1,86.2500032901765
397,265,186502,1,0,0:0:0:0:
395,282,186574,1,8,0:0:0:0:
501,202,186719,1,0,0:0:0:0:
501,202,187009,5,0,0:0:0:0:
435,351,187154,2,0,B|391:363|391:363|342:351,1,86.2500032901765,8|0,0:0|0:0,0:0:0:0:
121,307,187444,2,0,B|160:320|160:320|210:309,1,86.2500032901765
305,171,187734,2,0,B|266:156|266:156|211:171,1,86.2500032901765,8|0,0:0|0:0,0:0:0:0:
99,285,188023,6,0,L|94:406,1,86.2500032901765,4|0,0:0|0:0,0:0:0:0:
12,231,188313,1,8,0:0:0:0:
129,163,188458,1,0,0:0:0:0:
129,163,188603,1,0,0:0:0:0:
14,15,188748,1,0,0:0:0:0:
26,26,188821,1,0,0:0:0:0:
40,35,188893,2,0,B|79:50|79:50|134:35,1,86.2500032901765,8|0,0:0|0:0,0:0:0:0:
257,91,189183,6,0,P|337:65|415:97,1,172.500006580353,0|8,0:0|0:0,0:0:0:0:
278,302,189763,2,0,L|260:174,1,129.375004935265
322,296,190053,2,0,L|305:381,1,86.2500032901765,8|0,0:0|0:0,0:0:0:0:
371,86,190342,6,0,L|383:188,1,86.2500032901765,4|0,0:0|0:0,0:0:0:0:
462,289,190632,1,8,0:0:0:0:
505,170,190777,1,0,0:0:0:0:
449,41,190922,1,0,0:0:0:0:
260,174,191067,2,0,P|259:133|245:106,1,48.8750009322167
225,58,191212,2,0,L|105:53,1,97.7500018644333,8|0,0:0|0:0,0:0:0:0:
0,202,191502,6,0,B|62:213|62:213|114:190|114:190|188:209,1,195.500003728867,0|8,0:0|0:0,0:0:0:0:
290,244,191937,1,0,0:0:0:0:
207,301,192082,6,0,B|175:316|175:316|136:312,1,63.2500019302369,2|0,0:0|0:0,0:0:0:0:
353,191,192227,2,0,B|390:179|390:179|432:187,1,63.2500019302369,2|0,0:0|0:0,0:0:0:0:
187,208,192372,2,0,P|153:195|133:170,1,63.2500019302369,2|0,0:0|0:0,0:0:0:0:
360,280,192516,2,0,P|390:289|413:318,1,63.2500019302369,2|0,0:0|0:0,0:0:0:0:
237,106,192661,6,0,B|293:83|339:114|339:114|351:96|351:96|395:127|453:93,1,230,4|8,0:0|0:0,0:0:0:0:
394,23,193096,2,0,P|343:11|298:26,1,86.2500032901765
201,146,193386,2,0,L|206:201,2,43.1250016450883,0|0|8,0:0|0:0|0:0,0:0:0:0:
113,21,193676,1,0,0:0:0:0:
28,177,193821,6,0,L|17:262,1,86.2500032901765
140,346,194111,1,8,0:0:0:0:
140,346,194256,2,0,B|209:327|209:327|251:347|251:347|320:333,1,172.500006580353
437,272,194691,2,0,L|452:180,1,86.2500032901765,8|0,0:0|0:0,0:0:0:0:
258,159,194980,6,0,L|272:245,1,86.2500032901765,4|0,0:0|0:0,0:0:0:0:
313,30,195270,1,8,0:0:0:0:
224,141,195415,2,0,L|242:244,1,86.2500032901765
356,119,195705,1,0,0:0:0:0:
356,119,195778,1,0,0:0:0:0:
356,119,195850,1,8,0:0:0:0:
189,37,195995,1,0,0:0:0:0:
189,37,196140,6,0,P|140:27|95:43,1,86.2500032901765
9,160,196430,1,8,0:0:0:0:
140,117,196575,1,0,0:0:0:0:
140,117,196720,2,0,L|130:220,1,86.2500032901765
72,352,197009,6,0,P|155:382|245:331,1,172.500006580353,8|4,0:0|0:0,0:0:0:0:
367,230,197444,1,0,0:0:0:0:
367,230,197589,2,0,B|366:329,1,86.2500032901765,8|0,0:0|0:0,0:0:0:0:
487,210,197879,1,0,0:0:0:0:
345,125,198024,1,0,0:0:0:0:
345,125,198097,1,0,0:0:0:0:
345,125,198169,1,8,0:0:0:0:
255,205,198314,1,0,0:0:0:0:
165,125,198459,5,0,0:0:0:0:
75,205,198604,1,0,0:0:0:0:
165,125,198749,1,8,0:0:0:0:
75,205,198894,1,0,0:0:0:0:
165,285,199039,5,0,0:0:0:0:
255,365,199184,1,0,0:0:0:0:
347,285,199328,1,8,0:0:0:0:
437,365,199473,1,0,0:0:0:0:
461,247,199618,5,4,0:0:0:0:
372,168,199763,1,0,0:0:0:0:
486,130,199908,1,8,0:0:0:0:
397,51,200053,1,0,0:0:0:0:
372,168,200198,1,0,0:0:0:0:
466,254,200343,1,0,0:0:0:0:
466,254,200415,1,0,0:0:0:0:
466,254,200488,5,8,0:0:0:0:
375,358,200633,2,0,L|370:271,1,86.2500032901765
492,349,200923,1,0,0:0:0:0:
332,172,201068,5,8,0:0:0:0:
236,299,201213,1,0,0:0:0:0:
143,176,201358,1,0,3:0:0:0:
144,137,201430,1,0,3:0:0:0:
146,98,201503,1,0,3:0:0:0:
148,59,201575,1,0,3:0:0:0:
148,20,201647,1,0,3:0:0:0:
36,194,201792,1,0,0:0:0:0:
244,58,201937,6,0,P|339:61|316:180,1,230,4|8,0:0|0:0,0:0:0:0:
251,250,202372,2,0,P|242:292|252:353,1,86.2500032901765
146,318,202662,2,0,L|93:325,2,43.1250016450883,0|0|8,0:0|0:0|0:0,0:0:0:0:
333,295,202952,1,0,0:0:0:0:
146,318,203242,5,0,0:0:0:0:
57,217,203387,2,0,P|46:168|58:117,1,86.2500032901765,8|0,0:0|0:0,0:0:0:0:
259,65,203677,2,0,P|204:95|149:67,1,129.375004935265
119,37,203966,2,0,P|65:22|31:31,1,86.2500032901765,8|0,0:0|0:0,0:0:0:0:
213,190,204256,6,0,L|301:180,1,86.2500032901765,4|0,0:0|0:0,0:0:0:0:
482,118,204546,1,8,0:0:0:0:
482,118,204691,1,0,0:0:0:0:
366,17,204836,2,0,L|367:120,1,86.2500032901765
367,120,205053,1,0,0:0:0:0:
367,137,205126,1,8,0:0:0:0:
445,237,205271,1,0,0:0:0:0:
117,279,205561,5,0,0:0:0:0:
117,279,205706,2,0,P|127:333|120:375,1,86.2500032901765,8|0,0:0|0:0,0:0:0:0:
64,192,205996,2,0,P|112:181|155:192,1,86.2500032901765
235,225,206285,2,0,P|278:240|324:225,1,86.2500032901765,8|0,0:0|0:0,0:0:0:0:
285,62,206575,6,0,L|278:150,1,86.2500032901765,4|0,0:0|0:0,0:0:0:0:
266,315,206865,1,8,0:0:0:0:
405,222,207010,2,0,L|401:327,1,86.2500032901765
480,99,207300,1,0,0:0:0:0:
465,89,207372,1,0,0:0:0:0:
449,81,207445,2,0,P|406:73|365:84,1,86.2500032901765,8|0,0:0|0:0,0:0:0:0:
150,212,207735,6,0,B|225:242|225:242|320:229,1,172.500006580353,0|8,0:0|0:0,0:0:0:0:
485,311,208315,2,0,P|415:294|340:337,1,129.375004935265
326,344,208604,2,0,P|285:355|235:338,1,86.2500032901765,8|0,0:0|0:0,0:0:0:0:
152,212,208894,2,0,L|147:307,1,86.2500032901765,4|0,0:0|0:0,0:0:0:0:
252,233,209184,5,8,0:0:0:0:
210,124,209329,1,0,0:0:0:0:
259,16,209474,1,0,0:0:0:0:
114,125,209619,6,0,L|93:70,1,51.7499984207154
43,42,209764,2,0,L|30:167,1,103.499996841431,8|0,0:0|0:0,0:0:0:0:
46,300,210054,6,0,B|141:308|141:308|261:274,1,206.999993682861,0|8,0:0|0:0,0:0:0:0:
360,245,210489,1,0,0:0:0:0:
242,171,210634,2,0,B|205:168|205:168|155:185,1,63.2500019302369,2|0,0:0|0:0,0:0:0:0:
375,266,210778,2,0,B|410:267|410:267|440:250,1,63.2500019302369,2|0,0:0|0:0,0:0:0:0:
248,277,210923,2,0,P|247:310|272:345,1,63.2500019302369,2|0,0:0|0:0,0:0:0:0:
332,137,211068,2,0,P|333:104|308:69,1,63.2500019302369,2|0,0:0|0:0,0:0:0:0:
107,137,211213,6,0,B|106:220|106:220|145:277|145:277|145:358,1,230,4|8,0:0|0:0,0:0:0:0:
48,288,211648,2,0,B|20:245|20:245|19:194,1,86.2500032901765
27,76,211938,1,0,0:0:0:0:
27,76,212010,1,0,0:0:0:0:
27,76,212083,1,8,0:0:0:0:
139,25,212228,1,0,0:0:0:0:
248,147,212373,6,0,P|293:158|343:146,1,86.2500032901765
479,82,212663,1,8,0:0:0:0:
479,82,212808,2,0,B|497:130|478:162|478:162|490:185|490:185|470:216|489:266,1,172.500006580353
311,367,213242,2,0,P|296:322|307:274,1,86.2500032901765,8|0,0:0|0:0,0:0:0:0:
462,318,213532,6,0,L|365:319,1,86.2500032901765,4|0,0:0|0:0,0:0:0:0:
217,213,213822,1,8,0:0:0:0:
338,175,213967,1,0,0:0:0:0:
230,306,214112,2,0,L|121:304,1,86.2500032901765
126,304,214329,1,0,0:0:0:0:
108,303,214402,1,8,0:0:0:0:
40,205,214547,1,0,0:0:0:0:
159,103,214692,6,0,L|269:113,1,86.2500032901765
75,25,214982,1,8,0:0:0:0:
75,25,215127,1,0,0:0:0:0:
296,21,215272,2,0,L|210:28,1,86.2500032901765
404,127,215561,6,0,P|444:97|367:32,1,172.500006580353,8|4,0:0|0:0,0:0:0:0:
298,172,215996,1,0,0:0:0:0:
298,172,216141,2,0,P|291:220|305:257,1,86.2500032901765,8|0,0:0|0:0,0:0:0:0:
403,379,216431,1,0,0:0:0:0:
429,238,216576,1,0,0:0:0:0:
429,238,216648,1,0,0:0:0:0:
429,238,216721,1,8,0:0:0:0:
327,335,216866,1,0,0:0:0:0:
168,351,217011,5,0,0:0:0:0:
85,217,217156,1,0,0:0:0:0:
168,351,217301,1,8,0:0:0:0:
85,217,217446,1,0,0:0:0:0:
258,176,217590,2,0,L|350:182,1,86.2500032901765
263,11,217880,1,8,0:0:0:0:
174,112,218025,1,0,0:0:0:0:
442,38,218170,6,0,B|506:26|506:26|412:133,1,206.999993682861,4|8,0:0|0:0,0:0:0:0:
291,274,218605,1,0,0:0:0:0:
329,89,218750,1,0,0:0:0:0:
435,270,218895,1,0,0:0:0:0:
435,270,218967,1,0,0:0:0:0:
435,270,219040,1,8,0:0:0:0:
192,175,219185,1,0,0:0:0:0:
417,348,219330,6,0,P|492:326|490:209,1,206.999993682861,0|8,0:0|0:0,0:0:0:0:
344,63,219765,1,0,0:0:0:0:
220,308,219909,1,0,3:0:0:0:
176,335,219981,1,0,3:0:0:0:
124,339,220054,1,0,3:0:0:0:
75,321,220126,1,0,3:0:0:0:
39,282,220199,1,0,3:0:0:0:
161,63,220489,5,6,0:2:0:0:
388,205,220923,6,0,L|424:261,2,57.5
421,346,221358,2,0,B|430:273|430:273|384:196|384:196|395:100,1,258.75000987053,12|0,0:0|0:0,2:0:0:0:
423,16,221938,1,0,0:0:0:0:
465,167,222083,1,8,0:0:0:0:
465,167,222228,6,0,L|335:153,1,115,4|0,0:2|0:0,0:0:0:0:
127,235,222807,2,0,L|108:164,1,57.5
17,349,223097,2,0,L|35:290,2,57.5,4|0|8,0:0|0:0|0:0,0:0:0:0:
62,27,223677,2,0,L|79:84,1,57.5
167,319,223967,6,0,P|277:322|243:216,1,258.75000987053,4|0,0:2|0:0,2:0:0:0:
158,150,224546,1,0,0:0:0:0:
190,56,224691,1,0,0:0:0:0:
223,281,224836,2,0,P|349:308|391:182,1,258.75000987053,12|0,0:0|0:0,2:0:0:0:
335,67,225416,1,0,0:0:0:0:
304,181,225561,1,8,0:0:0:0:
465,134,225706,6,0,L|475:190,1,57.5,4|0,0:2|0:0,0:0:0:0:
322,30,225996,2,0,L|309:103,1,57.5
430,32,226286,1,0,0:0:0:0:
304,181,226431,1,0,0:0:0:0:
452,313,226576,2,0,P|463:273|441:214,1,86.2500032901765,4|0,0:0|0:0,0:0:0:0:
203,343,226866,2,0,P|194:306|203:255,1,86.2500032901765,8|0,0:0|0:0,0:0:0:0:
370,135,227155,1,8,0:0:0:0:
321,340,227300,1,8,0:0:0:0:
128,128,227445,6,0,P|80:115|33:134,1,86.2500032901765,4|0,0:2|0:0,0:0:0:0:
304,39,227880,1,0,0:0:0:0:
304,39,228025,2,0,L|295:126,1,86.2500032901765
328,271,228315,2,0,B|394:291|394:291|499:269,1,172.500006580353,12|0,0:0|0:0,0:0:0:0:
299,370,228750,1,0,0:0:0:0:
398,196,228895,2,0,L|404:85,1,86.2500032901765,8|0,0:0|0:0,0:0:0:0:
441,13,229185,5,4,0:2:0:0:
441,13,229330,1,0,0:0:0:0:
295,124,229475,2,0,P|252:138|199:118,1,86.2500032901765,8|0,0:0|0:0,0:0:0:0:
0,83,229764,1,0,0:0:0:0:
157,11,229909,1,0,0:0:0:0:
85,204,230054,2,0,B|42:136|109:103|70:37,1,172.500006580353,12|0,0:0|0:0,0:0:0:0:
43,285,230489,1,0,0:0:0:0:
43,285,230634,2,0,P|88:293|134:281,1,86.2500032901765,8|0,0:0|0:0,0:0:0:0:
310,204,230924,5,4,0:2:0:0:
310,204,230996,1,0,0:0:0:0:
310,204,231069,1,0,0:0:0:0:
220,370,231214,2,0,L|224:283,1,86.2500032901765,8|0,0:0|0:0,0:0:0:0:
265,75,231504,2,0,P|317:62|372:81,1,97.7500018644333,0|0,0:2|0:0,0:0:0:0:
502,196,231794,1,12,0:2:0:0:
414,287,231938,1,0,0:0:0:0:
414,287,232011,1,0,0:0:0:0:
414,287,232083,2,0,L|419:189,1,86.2500032901765
475,29,232373,1,8,0:0:0:0:
312,149,232518,1,0,0:0:0:0:
301,157,232591,1,0,0:0:0:0:
289,163,232663,6,0,P|242:173|185:159,1,86.2500032901765,4|0,0:2|0:0,0:0:0:0:
83,127,232953,1,8,0:0:0:0:
193,40,233098,1,0,0:0:0:0:
153,221,233243,1,0,0:0:0:0:
81,15,233388,1,0,0:0:0:0:
8,273,233533,2,0,P|57:284|104:269,1,86.2500032901765,12|0,0:0|0:0,0:0:0:0:
318,275,233823,2,0,P|270:286|223:274,1,86.2500032901765
55,199,234113,1,8,0:0:0:0:
157,343,234257,1,0,0:0:0:0:
278,120,234402,6,0,L|274:208,1,86.2500032901765,4|0,0:2|0:0,0:0:0:0:
362,345,234692,2,0,P|407:361|455:346,1,86.2500032901765,8|0,0:0|0:0,0:0:0:0:
485,174,234982,1,0,0:0:0:0:
274,206,235127,1,0,0:0:0:0:
419,25,235272,2,0,B|443:126|376:128|405:236,1,195.500003728867,12|0,0:0|0:0,0:0:0:0:
324,44,235706,1,0,0:0:0:0:
324,44,235852,2,0,P|271:32|215:47,1,97.7500018644333,8|0,0:0|0:0,0:0:0:0:
71,117,236141,5,4,0:2:0:0:
71,117,236286,1,0,0:0:0:0:
166,280,236431,2,0,L|163:169,1,97.7500018644333,8|0,0:0|0:0,0:0:0:0:
112,46,236721,1,0,0:0:0:0:
269,112,236866,1,0,0:0:0:0:
76,319,237011,2,0,P|154:365|246:326,1,195.500003728867,12|0,0:0|0:0,0:0:0:0:
330,221,237446,1,0,0:0:0:0:
440,372,237591,2,0,L|437:274,1,97.7500018644333,8|0,0:0|0:0,0:0:0:0:
438,146,237881,5,4,0:2:0:0:
438,146,238026,1,0,0:0:0:0:
258,90,238171,2,0,L|360:87,1,97.7500018644333,8|0,0:0|0:0,0:0:0:0:
460,49,238461,1,0,0:0:0:0:
496,215,238606,1,0,0:0:0:0:
228,15,238751,2,0,P|154:22|120:138,1,206.999993682861,12|0,0:0|0:0,0:0:0:0:
195,263,239185,1,0,0:0:0:0:
195,263,239330,2,0,P|205:318|186:373,1,103.499996841431,8|0,0:0|0:0,0:0:0:0:
285,282,239620,5,4,0:2:0:0:
114,316,239765,1,0,0:0:0:0:
285,176,239910,2,0,P|304:123|295:67,1,115,8|0,0:0|0:0,0:0:0:0:
52,260,240200,2,0,P|37:318|50:382,1,115
351,230,240490,2,0,L|465:233,1,115,12|0,0:0|0:0,0:0:0:0:
167,145,240780,2,0,P|152:75|176:18,1,115
465,233,241070,1,8,0:0:0:0:
275,323,241214,1,0,0:0:0:0:
481,136,241359,6,0,P|497:81|487:26,1,115,12|0,0:2|0:0,0:0:0:0:
392,295,241649,1,0,0:0:0:0:
328,128,241794,1,8,0:0:0:0:
275,323,241939,1,0,0:0:0:0:
496,220,242084,1,0,0:0:0:0:
341,27,242229,6,0,B|284:14|284:14|218:29,1,115,12|0,0:0|0:0,0:0:0:0:
84,104,242519,1,0,0:0:0:0:
232,146,242664,1,8,0:0:0:0:
9,32,242809,2,0,B|-5:96|-5:96|5:170,1,115
221,358,243099,6,0,L|222:237,1,115,12|0,0:2|0:0,0:0:0:0:
144,74,243388,1,0,0:0:0:0:
85,257,243533,1,8,0:0:0:0:
314,178,243678,1,0,0:0:0:0:
101,7,243823,1,0,0:0:0:0:
358,14,243968,6,0,L|479:25,1,115,12|0,0:0|0:0,0:0:0:0:
507,255,244258,1,0,0:0:0:0:
380,128,244403,1,8,0:0:0:0:
315,302,244548,2,0,P|266:313|202:296,1,115
142,29,244838,6,0,L|144:149,1,115,12|0,0:2|0:0,0:0:0:0:
97,332,245127,1,8,0:0:0:0:
272,207,245272,1,8,0:0:0:0:
37,172,245417,1,0,0:0:0:0:
185,363,245562,1,0,0:0:0:0:
237,118,245707,5,12,0:0:0:0:
404,280,245852,1,0,0:0:0:0:
388,46,245997,5,8,0:0:0:0:
205,269,246142,1,0,0:0:0:0:
262,29,246287,5,8,0:0:0:0:
329,369,246432,1,8,0:0:0:0:
493,118,246577,6,0,P|507:62|490:8,2,115,12|0|0,0:2|0:0|0:0,0:0:0:0:
18,265,247447,2,0,P|6:321|22:376,2,115
461,234,248316,6,0,P|388:248|313:232,1,137.999995788574,6|0,0:2|0:0,0:0:0:0:
164,145,248605,1,10,0:0:0:0:
91,338,248751,2,0,B|155:361|155:361|238:348,1,137.999995788574,2|0,0:0|0:0,0:0:0:0:
364,326,249040,1,0,0:0:0:0:
225,67,249186,2,0,P|167:52|73:79,1,137.999995788574,8|0,0:0|0:0,0:0:0:0:
326,237,249476,6,0,P|393:250|478:226,1,137.999995788574,4|0,0:0|0:0,0:0:0:0:
512,101,249765,1,8,0:0:0:0:
360,14,249910,1,0,0:0:0:0:
360,14,249982,1,0,0:0:0:0:
360,14,250055,2,0,L|357:160,1,137.999995788574
350,342,250345,1,8,0:0:0:0:
217,165,250490,1,0,0:0:0:0:
191,154,250562,1,0,0:0:0:0:
164,145,250635,6,0,P|106:133|9:165,1,137.999995788574,4|0,0:2|0:0,0:0:0:0:
84,357,250924,2,0,B|110:305|110:305|109:216,1,137.999995788574,10|0,0:0|0:0,0:0:0:0:
110,36,251214,1,2,0:0:0:0:
110,36,251359,1,2,0:0:0:0:
185,251,251505,1,8,0:0:0:0:
311,69,251650,1,0,0:0:0:0:
430,279,251794,6,0,P|316:300|349:189,1,275.999991577149,4|8,0:0|0:0,0:0:0:0:
452,155,252229,1,0,0:0:0:0:
470,145,252301,1,0,0:0:0:0:
488,135,252374,2,0,P|515:73|494:9,1,137.999995788574
349,189,252664,1,10,0:0:0:0:
401,11,252809,1,0,0:0:0:0:
401,11,252881,1,0,0:0:0:0:
401,11,252954,5,6,0:2:0:0:
505,227,253099,1,2,0:0:0:0:
311,69,253243,2,0,P|241:54|173:70,1,137.999995788574,10|0,0:0|0:0,0:0:0:0:
142,308,253534,2,0,L|125:157,1,137.999995788574
328,360,253824,2,0,L|345:219,1,137.999995788574,8|0,0:0|0:0,0:0:0:0:
40,376,254113,6,0,L|23:230,1,137.999995788574,6|0,0:0|0:0,0:0:0:0:
93,61,254403,1,8,0:0:0:0:
259,178,254548,1,0,0:0:0:0:
259,178,254620,1,0,0:0:0:0:
259,178,254693,2,0,B|241:317,1,137.999995788574
482,225,254983,1,10,0:0:0:0:
345,135,255128,1,0,0:0:0:0:
345,135,255200,1,0,0:0:0:0:
345,135,255272,5,6,0:2:0:0:
334,328,255417,1,0,0:0:0:0:
449,132,255562,1,8,0:0:0:0:
451,337,255707,1,0,0:0:0:0:
319,113,255852,5,0,0:0:0:0:
291,362,255997,1,0,0:0:0:0:
466,104,256142,1,8,0:0:0:0:
483,365,256287,1,0,0:0:0:0:
221,208,256433,5,6,0:0:0:0:
394,38,256577,1,0,3:0:0:0:
394,38,256649,1,0,0:0:0:0:
394,38,256722,1,0,3:0:0:0:
394,38,256794,1,0,3:0:0:0:
394,38,256867,1,0,3:0:0:0:
394,38,256939,1,0,3:0:0:0:
394,38,257012,6,0,L|386:117,1,77.6250002961159,0|0,3:0|0:0,0:0:0:0:
321,275,257157,2,0,L|308:180,1,77.6250002961159,8|0,0:0|0:0,0:0:0:0:
119,18,257302,1,8,0:0:0:0:
122,71,257374,1,8,0:0:0:0:
127,124,257446,1,8,0:0:0:0:
135,178,257519,1,8,0:0:0:0:
143,232,257592,6,0,B|197:272|263:217|263:217|308:241|308:241|362:201|429:236,1,275.999991577149,4|10,0:2|0:0,0:0:0:0:
506,297,258026,1,2,0:0:0:0:
270,350,258171,2,0,P|248:286|262:219,1,137.999995788574
466,104,258462,2,0,P|403:122|328:101,1,137.999995788574,8|0,0:0|0:0,0:0:0:0:
119,18,258751,6,0,L|135:172,1,137.999995788574,4|0,0:0|0:0,0:0:0:0:
152,327,259041,1,8,0:0:0:0:
28,191,259186,1,0,0:0:0:0:
28,191,259258,1,0,0:0:0:0:
28,191,259331,2,0,L|21:334,1,137.999995788574
286,220,259621,2,0,P|364:197|430:228,1,137.999995788574,10|0,0:0|0:0,0:0:0:0:
385,313,259838,1,0,0:0:0:0:
362,294,259910,6,0,B|322:217|376:159|376:159|422:104|391:26,1,275.999991577149,6|8,0:2|0:0,0:0:0:0:
190,78,260346,2,0,P|256:101|342:81,1,137.999995788574
491,41,260636,1,0,0:0:0:0:
167,26,260781,2,0,L|151:169,1,137.999995788574,8|0,0:0|0:0,0:0:0:0:
240,368,261070,6,0,L|224:222,1,137.999995788574,4|0,0:0|0:0,0:0:0:0:
76,87,261360,1,8,0:0:0:0:
64,283,261505,1,0,0:0:0:0:
86,299,261577,1,0,0:0:0:0:
111,311,261650,2,0,B|153:321|205:297|205:297|239:313|239:313|318:320|318:320|275:270,1,275.999991577149,0|8,0:0|0:0,0:0:0:0:
175,205,262084,1,0,0:0:0:0:
175,205,262157,1,0,0:0:0:0:
175,205,262229,5,6,0:2:0:0:
305,159,262374,1,0,0:0:0:0:
240,368,262520,1,8,0:0:0:0:
79,216,262665,2,0,P|57:146|82:77,1,137.999995788574,2|0,0:0|0:0,0:0:0:0:
174,5,262954,1,0,0:0:0:0:
384,156,263099,2,0,L|244:160,1,137.999995788574,10|0,0:0|0:0,0:0:0:0:
382,61,263389,6,0,P|472:152|399:261,1,275.999991577149,6|8,0:0|0:0,0:0:0:0:
211,339,263824,1,0,0:0:0:0:
211,339,263896,1,0,0:0:0:0:
211,339,263969,2,0,L|358:346,1,137.999995788574
176,207,264259,1,8,0:0:0:0:
73,335,264403,1,0,0:0:0:0:
73,335,264476,1,0,0:0:0:0:
73,335,264548,5,6,0:2:0:0:
248,243,264693,1,0,0:0:0:0:
8,136,264838,2,0,L|163:125,1,137.999995788574,10|0,0:0|0:0,0:0:0:0:
451,61,265128,2,0,L|296:50,1,137.999995788574,2|0,0:0|0:0,0:0:0:0:
188,323,265419,2,0,P|260:342|334:319,1,137.999995788574,8|0,0:0|0:0,0:0:0:0:
464,273,265708,5,4,0:0:0:0:
325,117,265853,1,0,3:0:0:0:
325,117,265925,1,0,3:0:0:0:
325,117,265998,2,0,L|246:123,1,68.9999978942872,0|0,3:0|3:0,3:0:0:0:
85,229,266143,1,0,3:0:0:0:
85,229,266215,1,0,3:0:0:0:
85,229,266288,1,0,3:0:0:0:
15,70,266433,5,8,0:0:0:0:
45,24,266505,1,8,0:0:0:0:
99,13,266578,1,8,0:0:0:0:
149,35,266650,1,8,0:0:0:0:
177,81,266722,1,8,0:0:0:0:
165,135,266795,1,8,0:0:0:0:
133,180,266868,6,0,B|105:253|152:345|152:345|190:290|173:228,1,275.999991577149,6|10,0:2|0:0,0:0:0:0:
96,92,267302,1,2,0:0:0:0:
275,54,267447,2,0,B|331:48|331:48|367:63|367:63|425:54,1,137.999995788574
495,224,267738,1,8,0:0:0:0:
226,155,267883,1,0,0:0:0:0:
403,314,268027,6,0,B|431:258|400:201|400:201|428:154|428:154|393:104|410:51,1,275.999991577149,4|8,0:0|0:0,0:0:0:0:
340,266,268462,1,0,0:0:0:0:
316,280,268534,1,0,0:0:0:0:
289,289,268607,2,0,P|210:306|152:283,1,137.999995788574
18,82,268897,1,8,0:0:0:0:
226,155,269042,1,0,0:0:0:0:
226,182,269114,1,0,0:0:0:0:
226,209,269187,6,0,L|222:355,1,137.999995788574,6|0,0:2|0:0,0:0:0:0:
35,231,269477,1,8,0:0:0:0:
187,50,269621,2,0,B|260:42|260:42|325:62,1,137.999995788574,2|0,0:0|0:0,0:0:0:0:
448,125,269911,1,0,0:0:0:0:
319,219,270057,1,8,0:0:0:0:
477,28,270201,1,0,0:0:0:0:
512,321,270346,6,0,L|501:183,1,137.999995788574,4|0,0:0|0:0,0:0:0:0:
353,20,270636,1,8,0:0:0:0:
319,219,270781,1,0,0:0:0:0:
319,219,270853,1,0,0:0:0:0:
319,219,270926,2,0,P|239:244|177:217,1,137.999995788574
69,125,271215,1,8,0:0:0:0:
84,366,271360,1,0,0:0:0:0:
84,366,271433,1,0,0:0:0:0:
84,366,271505,5,6,0:2:0:0:
257,308,271650,1,0,0:0:0:0:
455,367,271795,2,0,B|474:284|474:284|464:213,1,137.999995788574,8|2,0:0|0:0,0:0:0:0:
267,109,272086,2,0,P|332:85|399:117,1,137.999995788574
123,184,272376,2,0,P|94:126|108:46,1,137.999995788574,10|0,0:0|0:0,0:0:0:0:
327,272,272665,6,0,P|324:351|178:304,1,275.999991577149,4|8,0:0|0:0,0:0:0:0:
259,42,273100,1,0,0:0:0:0:
259,42,273172,1,0,0:0:0:0:
259,42,273245,2,0,B|257:185,1,137.999995788574
96,368,273534,1,8,0:0:0:0:
327,272,273679,1,0,0:0:0:0:
352,261,273752,1,0,0:0:0:0:
377,250,273824,6,0,B|484:203|484:203|504:122|504:122|412:157,1,275.999991577149,6|8,0:2|0:0,0:0:0:0:
405,355,274260,1,0,0:0:0:0:
325,171,274404,1,0,0:0:0:0:
501,292,274549,1,0,0:0:0:0:
339,82,274694,1,8,0:0:0:0:
305,321,274839,1,0,0:0:0:0:
448,47,274984,5,6,0:0:0:0:
200,0,275129,1,0,3:0:0:0:
161,38,275201,1,0,3:0:0:0:
144,89,275273,1,0,3:0:0:0:
143,143,275346,1,0,3:0:0:0:
158,194,275418,1,0,3:0:0:0:
201,227,275491,1,0,3:0:0:0:
254,238,275564,6,0,P|292:241|328:228,1,77.6250002961159,0|0,3:0|0:0,0:0:0:0:
299,103,275709,2,0,P|261:94|223:102,1,77.6250002961159,8|0,0:0|0:0,0:0:0:0:
90,186,275853,5,8,0:0:0:0:
56,237,275925,1,8,0:0:0:0:
56,298,275997,1,8,0:0:0:0:
84,353,276070,1,8,0:0:0:0:
135,376,276144,6,0,B|204:404|263:352|263:352|320:304|416:346,1,275.999991577149,6|8,0:2|0:0,0:0:0:0:
177,266,276578,1,0,0:0:0:0:
288,163,276723,2,0,P|358:142|436:175,1,137.999995788574
506,61,277014,1,8,0:0:0:0:
382,263,277158,1,0,0:0:0:0:
220,92,277303,6,0,B|173:42|173:42|394:51,1,275.999991577149,4|8,0:0|0:0,0:0:0:0:
411,293,277738,1,0,0:0:0:0:
395,277,277810,1,0,0:0:0:0:
382,263,277883,2,0,L|277:151,1,137.999995788574
132,4,278172,1,8,0:0:0:0:
7,205,278317,1,0,0:0:0:0:
7,205,278390,1,0,0:0:0:0:
7,205,278462,5,6,0:2:0:0:
181,108,278607,1,0,0:0:0:0:
120,264,278753,1,8,0:0:0:0:
35,105,278897,1,0,0:0:0:0:
243,275,279042,1,0,0:0:0:0:
35,337,279187,1,0,0:0:0:0:
313,214,279332,2,0,P|333:267|301:355,1,137.999995788574,8|0,0:0|0:0,0:0:0:0:
239,101,279622,6,0,P|311:82|394:115,1,137.999995788574,4|0,0:0|0:0,0:0:0:0:
509,221,279912,1,8,0:0:0:0:
311,342,280057,1,0,0:0:0:0:
293,352,280129,1,0,0:0:0:0:
273,359,280202,2,0,P|197:366|122:349,1,137.999995788574
0,153,280492,2,0,P|69:128|145:159,1,137.999995788574,8|0,0:0|0:0,0:0:0:0:
72,239,280709,1,0,0:0:0:0:
67,211,280781,6,0,L|81:54,1,137.999995788574,6|0,0:2|0:0,0:0:0:0:
407,208,281072,2,0,L|395:66,1,137.999995788574,10|0,0:0|0:0,0:0:0:0:
212,229,281362,2,0,L|198:366,1,137.999995788574,2|0,0:0|0:0,0:0:0:0:
491,167,281651,1,8,0:0:0:0:
378,343,281796,1,0,0:0:0:0:
277,140,281941,6,0,P|211:116|140:137,1,137.999995788574,4|0,0:0|0:0,0:0:0:0:
38,220,282231,1,8,0:0:0:0:
198,366,282376,1,0,0:0:0:0:
198,366,282448,1,0,0:0:0:0:
198,366,282521,1,0,0:0:0:0:
20,356,282665,1,0,0:0:0:0:
212,229,282811,1,8,0:0:0:0:
38,34,282956,1,0,0:0:0:0:
51,57,283028,1,0,0:0:0:0:
70,80,283101,6,0,B|123:124|191:86|191:86|275:33|324:84,1,275.999991577149,6|8,0:2|0:0,0:0:0:0:
411,214,283536,1,0,0:0:0:0:
241,209,283680,1,0,0:0:0:0:
438,85,283825,1,0,0:0:0:0:
448,331,283969,1,8,0:0:0:0:
209,211,284115,1,0,0:0:0:0:
454,205,284260,5,6,0:0:0:0:
250,350,284405,1,0,3:0:0:0:
204,364,284477,1,0,3:0:0:0:
156,362,284549,1,0,3:0:0:0:
111,342,284622,1,0,3:0:0:0:
80,305,284694,1,0,3:0:0:0:
66,258,284767,1,0,3:0:0:0:
66,209,284840,1,0,3:0:0:0:
250,62,284985,5,8,0:0:0:0:
289,97,285057,1,8,0:0:0:0:
310,148,285129,1,8,0:0:0:0:
301,201,285202,1,8,0:0:0:0:
269,246,285274,1,8,0:0:0:0:
220,269,285347,1,8,0:0:0:0:
165,265,285419,1,8,0:0:0:0:
177,257,292376,6,0,B|140:275|140:275|101:274,2,68.9999978942872,8|0|0,3:1|3:0|3:0,3:0:0:0:
249,89,292666,2,0,B|286:71|286:71|325:72,2,68.9999978942872,0|0|0,3:1|3:0|3:0,3:0:0:0:
359,236,292956,1,8,3:1:0:0:
22,116,293246,5,8,3:1:0:0:
89,129,293343,1,0,3:0:0:0:
146,167,293440,1,0,3:0:0:0:
173,230,293536,5,4,3:1:0:0:
141,283,293633,1,4,3:1:0:0:
165,340,293730,1,4,3:1:0:0:
224,354,293826,1,8,3:1:0:0:
300,60,294116,5,8,3:1:0:0:
338,99,294213,1,0,3:0:0:0:
360,148,294309,1,4,3:0:0:0:
361,203,294406,5,8,3:1:0:0:
316,149,294503,1,0,3:0:0:0:
330,81,294599,1,4,3:0:0:0:
373,26,294696,5,8,3:1:0:0:
425,79,294792,1,0,3:0:0:0:
440,153,294889,1,0,3:0:0:0:
438,229,294986,5,0,3:0:0:0:
415,286,295082,1,0,3:0:0:0:
367,325,295179,1,0,3:0:0:0:
308,344,295275,1,8,3:1:0:0:
154,53,295565,5,8,3:1:0:0:
149,115,295662,1,0,3:0:0:0:
182,167,295759,1,0,3:0:0:0:
241,183,295855,5,4,3:1:0:0:
282,157,295952,1,4,3:1:0:0:
329,146,296049,1,4,3:1:0:0:
373,163,296145,1,8,3:1:0:0:
57,317,296435,5,8,3:1:0:0:
112,288,296532,1,0,3:1:0:0:
173,286,296628,1,4,3:3:0:0:
226,317,296725,5,8,3:1:0:0:
295,347,296822,1,0,3:1:0:0:
362,312,296918,1,4,3:3:0:0:
383,238,297015,5,8,3:1:0:0:
309,256,297111,1,0,3:1:0:0:
309,332,297208,1,0,3:1:0:0:
376,366,297305,5,0,3:1:0:0:
433,343,297401,1,0,3:1:0:0:
461,287,297498,1,0,3:1:0:0:
468,225,297594,1,8,3:1:0:0:
181,39,297884,5,8,3:1:0:0:
232,73,297981,1,0,3:0:0:0:
249,132,298078,1,0,3:0:0:0:
223,187,298174,5,4,3:1:0:0:
207,240,298271,1,4,3:1:0:0:
220,293,298368,1,4,3:1:0:0:
259,331,298464,1,8,3:1:0:0:
411,170,298754,5,8,3:1:0:0:
345,193,298851,1,0,3:0:0:0:
276,193,298947,1,4,3:3:0:0:
213,162,299044,5,8,3:1:0:0:
287,146,299141,1,0,3:0:0:0:
354,179,299237,1,4,3:3:0:0:
399,240,299334,5,8,3:1:0:0:
471,221,299430,1,0,3:0:0:0:
492,147,299527,1,0,3:0:0:0:
438,93,299624,5,0,3:0:0:0:
376,101,299720,1,0,3:0:0:0:
315,86,299817,1,0,3:0:0:0:
281,33,299913,1,8,3:1:0:0:
78,279,300203,5,8,3:1:0:0:
136,257,300300,1,0,3:0:0:0:
198,260,300397,1,0,3:0:0:0:
255,283,300493,5,4,3:1:0:0:
302,312,300590,1,4,3:1:0:0:
356,320,300686,1,4,3:1:0:0:
409,305,300783,1,8,3:1:0:0:
419,108,301072,5,8,3:1:0:0:
353,146,301169,1,0,3:0:0:0:
280,123,301266,1,0,3:0:0:0:
269,48,301362,1,8,3:1:0:0:
308,120,301507,6,0,P|224:150|144:107,1,149.499993156433,4|4,0:0|0:0,0:0:0:0:
59,35,301942,2,0,L|57:128,1,74.7499965782167,0|0,0:0|0:0,2:0:0:0:
60,236,302232,1,8,0:0:0:0:
60,236,302304,1,0,0:0:0:0:
60,236,302377,1,0,0:0:0:0:
212,202,302522,5,0,0:0:0:0:
124,316,302667,1,0,0:0:0:0:
263,349,302812,2,0,L|356:345,1,74.7499965782167
463,246,303102,2,0,L|372:248,1,74.7499965782167
210,111,303392,5,8,0:0:0:0:
357,26,303536,1,0,0:0:0:0:
357,26,303681,2,0,L|351:129,1,74.7499965782167
113,212,303971,1,0,0:0:0:0:
124,20,304116,1,0,0:0:0:0:
124,20,304261,2,0,L|120:108,1,74.7499965782167
230,316,304551,5,8,0:0:0:0:
157,210,304696,2,0,L|96:213,1,43.1250016450883,2|0,0:0|2:0,0:0:0:0:
246,341,304841,2,0,L|300:338,1,43.1250016450883,2|0,0:0|2:0,0:0:0:0:
134,186,304986,2,0,L|72:190,1,43.1250016450883,2|0,0:0|2:0,0:0:0:0:
357,381,305131,2,0,P|372:336|362:288,1,86.2500032901765,2|0,0:0|0:0,0:0:0:0:
308,177,305421,2,0,P|297:132|307:81,1,86.2500032901765
469,94,305710,5,8,3:1:0:0:
469,119,305782,1,0,3:0:0:0:
469,144,305854,1,0,3:0:0:0:
470,169,305927,1,0,3:0:0:0:
470,195,306000,2,0,L|470:259,4,43.1250016450883
366,298,306435,5,0,0:0:0:0:
366,298,306580,2,0,P|316:310|265:296,1,86.2500032901765,0|0,0:0|0:0,2:0:0:0:
128,255,306870,1,8,0:1:0:0:
128,255,306943,1,0,0:0:0:0:
128,255,307015,1,0,0:0:0:0:
254,179,307160,5,0,0:0:0:0:
100,81,307305,1,0,0:0:0:0:
189,5,307450,2,0,L|184:95,1,86.2500032901765
178,223,307740,1,0,0:0:0:0:
178,223,307884,1,0,0:0:0:0:
315,65,308029,5,8,0:0:0:0:
416,191,308174,1,0,0:0:0:0:
416,191,308319,2,0,L|429:98,1,86.2500032901765
461,363,308609,1,0,0:0:0:0:
334,303,308754,1,0,0:0:0:0:
334,303,308899,2,0,L|318:211,1,86.2500032901765
180,354,309189,5,8,0:0:0:0:
131,163,309334,2,0,L|124:205,1,43.1250016450883,2|0,0:0|2:0,0:0:0:0:
21,342,309479,2,0,L|68:329,1,43.1250016450883,2|0,0:0|2:0,0:0:0:0:
249,274,309624,2,0,L|187:250,1,43.1250016450883,2|0,0:0|2:0,0:0:0:0:
39,118,309769,6,0,P|30:83|38:36,3,63.2500019302369,2|0|0|0,0:0|0:0|0:0|0:0,0:0:0:0:
208,258,310059,2,0,P|239:266|281:258,3,68.9999978942872
113,73,310348,2,0,P|110:35|119:0,3,74.7499965782167
324,244,310638,1,0,0:0:0:0:
356,203,310710,1,0,0:0:0:0:
361,151,310782,1,0,0:0:0:0:
344,101,310855,1,0,0:0:0:0:
310,67,310928,6,0,B|282:29|218:41|218:41|321:-1|381:47|381:47|421:87|489:73|489:73|423:101|391:177|391:177|450:152|511:183,1,632.500019302369,6|0,0:0|0:0,2:0:0:0:
496,384,311798,1,8,0:0:0:0:
496,384,311943,2,0,B|432:368|400:336|384:288|400:240|448:240|448:240|496:240|512:288|496:336|448:336|448:336|400:336|368:320|352:240|352:240|343:366|264:380|264:380|227:388|186:348|186:348|212:298|269:300,1,885.500027023316,2|8,0:0|0:0,2:0:0:0:
43,148,313247,6,0,P|28:182|30:218,3,74.7499965782167,6|0|0|0,0:3|0:0|0:0|0:0,0:0:0:0:
187,30,313537,2,0,P|149:27|114:39,3,74.7499965782167,8|0|0|0,0:0|0:0|0:0|0:0,0:0:0:0:
196,270,313826,1,0,0:0:0:0:
196,270,313898,1,0,0:0:0:0:
196,270,313972,2,0,L|203:180,1,74.7499965782167
308,28,314117,1,8,0:0:0:0:
308,28,314189,1,0,0:0:0:0:
308,28,314263,2,0,L|314:104,1,74.7499965782167
399,294,314407,5,6,0:3:0:0:
413,259,314479,1,0,0:0:0:0:
427,224,314552,2,0,L|428:123,1,74.7499965782167
187,30,314696,1,8,0:0:0:0:
159,74,314768,1,0,0:0:0:0:
153,125,314840,1,0,0:0:0:0:
166,175,314913,1,0,0:0:0:0:
200,213,314985,1,0,0:0:0:0:
209,265,315059,1,0,0:0:0:0:
194,315,315131,2,0,P|147:320|111:308,1,74.7499965782167
19,174,315276,2,0,P|12:137|18:100,3,74.7499965782167,8|0|0|0,0:0|0:0|0:0|0:0,0:0:0:0:
251,351,315567,6,0,P|323:255|247:177,1,241.499992630005,6|0,0:3|0:0,0:0:0:0:
209,265,315856,2,0,P|288:272|362:194,1,160.99999508667,8|0,0:0|0:0,0:0:0:0:
246,26,316146,2,0,B|246:68|246:68|274:122,1,74.7499965782167
465,144,316291,2,0,P|440:111|386:95,1,74.7499965782167
121,312,316436,2,0,P|151:228|121:132,1,160.99999508667,8|0,0:0|0:0,0:0:0:0:
29,28,316726,5,6,0:3:0:0:
61,55,316798,1,0,0:0:0:0:
103,63,316870,1,0,0:0:0:0:
144,50,316943,1,0,0:0:0:0:
183,34,317015,1,8,0:0:0:0:
225,34,317087,1,0,0:0:0:0:
266,44,317159,1,0,0:0:0:0:
303,65,317232,1,0,0:0:0:0:
325,102,317305,2,0,P|334:144|324:187,3,80.499997543335
207,360,317595,2,0,P|196:319|208:275,3,80.499997543335,8|0|0|0,0:0|0:0|0:0|0:0,0:0:0:0:
448,339,317886,6,0,B|461:271|461:271|426:185|426:185|442:86,1,241.499992630005,6|0,0:3|0:0,0:0:0:0:
509,170,318176,2,0,P|411:198|333:165,1,160.99999508667,8|0,0:0|0:0,0:0:0:0:
225,34,318465,2,0,L|230:127,1,74.7499965782167
73,344,318610,2,0,L|81:247,1,74.7499965782167
276,296,318755,2,0,P|191:273|188:200,1,160.99999508667,8|0,0:0|0:0,0:0:0:0:
339,348,319045,6,0,P|304:370|260:378,1,74.7499965782167,6|0,0:0|0:0,0:0:0:0:
376,133,319190,2,0,P|420:153|441:200,1,74.7499965782167,2|0,0:0|0:0,0:0:0:0:
161,118,319334,2,0,P|160:75|202:29,1,74.7499965782167,10|0,0:0|0:0,0:0:0:0:
417,295,319480,2,0,L|421:382,1,74.7499965782167,2|0,0:0|0:0,0:0:0:0:
84,167,319625,2,0,L|82:78,1,74.7499965782167,2|0,0:0|0:0,0:0:0:0:
446,17,319770,1,0,3:0:0:0:
446,17,319842,1,0,3:0:0:0:
446,17,319915,2,0,L|442:103,1,68.9999978942872,0|0,3:0|0:0,0:0:0:0:
360,229,320059,1,0,0:0:0:0:
161,118,320205,6,0,P|104:232|210:237,1,275.999991577149,6|8,0:0|0:0,2:0:0:0:
249,139,320639,1,2,0:0:0:0:
109,100,320784,2,0,P|116:269|241:242,1,321.99999017334,2|8,0:0|0:0,2:0:0:0:
468,203,321364,5,6,0:3:0:0:
430,180,321436,1,0,0:0:0:0:
388,179,321508,1,0,0:0:0:0:
349,197,321581,1,0,0:0:0:0:
325,232,321653,1,8,0:0:0:0:
319,274,321726,1,0,0:0:0:0:
335,314,321798,1,0,0:0:0:0:
368,342,321871,1,0,0:0:0:0:
410,350,321943,2,0,P|396:310|404:273,3,74.7499965782167
452,80,322233,2,0,P|460:116|450:152,3,74.7499965782167,8|0|0|0,0:0|0:0|0:0|0:0,0:0:0:0:
284,279,322524,6,0,B|238:303|188:273|188:273|161:287|161:287|113:261|51:296,1,224.24998973465,6|0,0:3|0:0,0:0:0:0:
116,374,322813,2,0,L|109:211,1,149.499993156433,8|0,0:0|0:0,0:0:0:0:
13,67,323103,2,0,P|53:79|104:64,1,74.7499965782167
210,18,323248,2,0,P|246:6|287:18,1,74.7499965782167,0|0,0:0|0:0,0:0:0:0:
482,62,323393,2,0,P|430:95|344:64,1,149.499993156433,8|0,0:0|0:0,0:0:0:0:
468,215,323683,5,6,0:3:0:0:
468,237,323755,1,0,0:0:0:0:
468,259,323827,1,0,0:0:0:0:
468,281,323900,1,0,0:0:0:0:
468,303,323972,1,8,0:0:0:0:
420,282,324044,1,0,0:0:0:0:
368,273,324116,1,0,0:0:0:0:
320,288,324189,1,0,0:0:0:0:
282,325,324262,1,0,0:0:0:0:
233,344,324335,1,0,0:0:0:0:
181,336,324407,1,0,0:0:0:0:
149,294,324479,1,0,0:0:0:0:
139,241,324553,2,0,P|143:197|164:156,3,74.7499965782167,8|0|0|0,0:0|0:0|0:0|0:0,0:0:0:0:
318,99,324843,6,0,P|284:116|239:109,3,74.7499965782167,6|0|0|0,0:3|0:3|0:3|0:3,0:3:0:0:
71,10,325132,2,0,B|93:44|91:91,3,74.7499965782167,8|0|0|0,0:0|0:0|0:0|0:0,0:0:0:0:
45,200,325421,1,0,0:0:0:0:
45,215,325494,1,0,0:0:0:0:
45,229,325566,1,0,0:0:0:0:
46,243,325639,1,0,0:0:0:0:
46,258,325712,1,8,0:0:0:0:
47,272,325784,1,0,0:0:0:0:
47,286,325856,1,0,0:0:0:0:
47,301,325929,1,0,0:0:0:0:
48,315,326002,6,0,B|116:341|165:314|165:314|221:278|281:312,1,224.24998973465,6|0,0:3|0:0,0:0:0:0:
225,378,326292,2,0,P|204:295|226:224,1,149.499993156433,8|0,0:0|0:0,0:0:0:0:
321,83,326581,2,0,P|333:32|326:-1,1,74.7499965782167
340,268,326726,2,0,P|382:280|420:273,1,74.7499965782167,0|0,0:0|0:0,0:0:0:0:
218,65,326871,1,8,0:0:0:0:
166,56,326943,1,0,0:0:0:0:
115,69,327015,1,0,0:0:0:0:
73,101,327088,1,0,0:0:0:0:
50,148,327160,5,6,0:3:0:0:
52,200,327233,1,0,0:0:0:0:
74,247,327306,2,0,P|80:290|65:327,1,74.7499965782167
298,242,327451,1,8,0:0:0:0:
257,209,327523,1,0,0:0:0:0:
208,225,327595,1,0,0:0:0:0:
197,276,327668,1,0,0:0:0:0:
232,313,327741,6,0,P|277:323|330:287,1,80.499997543335
448,110,327886,2,0,P|403:96|352:113,1,80.499997543335
464,355,328031,1,8,0:0:0:0:
464,355,328103,1,0,0:0:0:0:
464,355,328176,2,0,L|459:254,1,80.499997543335
270,26,328321,5,6,0:3:0:0:
270,26,328393,1,0,0:0:0:0:
270,26,328466,2,0,L|263:127,1,80.499997543335
108,367,328610,1,8,0:0:0:0:
108,367,328682,1,0,0:0:0:0:
108,367,328755,2,0,L|94:268,1,80.499997543335
15,88,328900,5,0,3:0:0:0:
74,73,328973,1,0,3:0:0:0:
132,93,329045,1,0,3:0:0:0:
168,141,329118,1,0,3:0:0:0:
185,198,329190,1,0,3:0:0:0:
219,247,329262,1,0,3:0:0:0:
278,257,329335,1,0,3:0:0:0:
336,241,329408,1,0,3:0:0:0:
381,209,329481,6,0,B|443:180|491:212|491:252|491:252|491:292|451:308|411:292|411:252|411:252|411:212|459:196|497:188|520:52|399:-1|399:-1|351:54|399:132|399:132,1,689.999978942872,6|0,0:3|0:0,2:0:0:0:
395,135,330350,1,8,0:0:0:0:
19,138,330640,6,0,P|70:154|152:128,1,126.500003860474,2|0,0:0|0:0,0:0:0:0:
276,30,330929,1,8,0:0:0:0:
276,30,331074,2,0,B|270:157,1,126.500003860474,2|0,0:0|0:0,0:0:0:0:
260,336,331364,1,0,0:0:0:0:
30,275,331510,2,0,P|101:253|160:270,1,126.500003860474,10|0,0:0|0:0,0:0:0:0:
366,239,331800,6,0,B|359:381,1,126.500003860474,6|0,0:0|0:0,0:0:0:0:
264,251,332089,1,8,0:0:0:0:
379,143,332234,2,0,P|439:128|498:151,1,126.500003860474,2|0,0:0|0:0,0:0:0:0:
472,268,332524,1,0,0:0:0:0:
351,54,332669,6,0,B|280:9|206:66|206:66|149:36|149:36|79:101|-11:38,1,379.500011581421,10|0,0:0|0:0,2:0:0:0:
145,141,333248,1,8,0:0:0:0:
145,141,333321,1,0,0:0:0:0:
145,141,333393,1,0,0:0:0:0:
56,243,333538,1,2,0:0:0:0:
0,11,333683,1,2,0:0:0:0:
282,110,333829,2,0,P|292:175|271:233,1,126.500003860474,10|0,0:0|0:0,0:0:0:0:
131,335,334119,6,0,B|257:335,1,126.500003860474,6|0,0:0|0:0,0:0:0:0:
426,279,334408,1,8,0:0:0:0:
231,366,334553,2,0,B|105:364,1,126.500003860474,2|0,0:0|0:0,0:0:0:0:
339,320,334843,1,0,0:0:0:0:
304,149,334988,2,0,P|246:127|188:148,1,126.500003860474,10|0,0:0|0:0,0:0:0:0:
467,345,335278,6,0,B|468:204,1,126.500003860474,2|0,0:0|0:0,0:0:0:0:
371,18,335567,1,8,0:0:0:0:
371,18,335713,2,0,P|312:-3|250:4,1,126.500003860474,2|0,0:0|0:0,0:0:0:0:
118,94,336002,1,0,0:0:0:0:
151,231,336148,2,0,P|209:253|268:233,1,126.500003860474,10|0,0:0|0:0,0:0:0:0:
36,50,336438,6,0,B|35:186,1,126.500003860474,6|0,0:0|0:0,0:0:0:0:
131,340,336727,1,8,0:0:0:0:
211,171,336872,2,0,B|223:45,1,126.500003860474,2|0,0:0|0:0,0:0:0:0:
408,362,337162,1,0,0:0:0:0:
408,362,337307,2,0,B|425:196,1,126.500003860474,10|0,0:0|0:0,0:0:0:0:
467,77,337597,6,0,P|410:97|325:76,1,126.500003860474,2|0,0:0|0:0,0:0:0:0:
151,11,337886,1,8,0:0:0:0:
211,171,338032,2,0,P|260:78|319:165,1,253.000007720947,2|0,0:0|0:0,0:0:0:0:
293,224,338467,5,8,0:0:0:0:
229,244,338563,5,8,0:0:0:0:
163,228,338660,5,8,0:0:0:0:
114,190,338757,6,0,B|100:156|112:116|112:116|25:170|94:232|94:232|109:261|141:301|109:341|77:341|77:341|45:341|13:301|45:261|77:261|77:261|109:261|158:294|165:366|165:366|228:313|260:390|296:401|326:395|356:376|367:337|352:290|277:295,1,920,6|0,0:0|0:0,2:0:0:0:
391,78,340206,6,0,L|318:81,1,68.9999978942872,10|0,0:0|0:0,0:0:0:0:
211,171,340351,2,0,L|280:169,1,68.9999978942872,2|0,0:0|0:0,0:0:0:0:
237,17,340496,2,0,L|239:86,1,68.9999978942872,2|0,0:0|0:0,0:0:0:0:
372,225,340641,2,0,L|369:134,1,68.9999978942872,2|0,0:0|0:0,0:0:0:0:
111,120,340786,2,0,P|85:177|111:260,1,149.499993156433,10|0,0:0|0:0,0:0:0:0:
373,333,341075,5,6,0:3:0:0:
411,304,341148,1,0,0:0:0:0:
429,260,341220,1,0,0:0:0:0:
422,213,341293,1,0,0:0:0:0:
391,177,341365,1,8,0:0:0:0:
346,162,341438,1,0,0:0:0:0:
299,173,341510,1,0,0:0:0:0:
265,206,341583,1,0,0:0:0:0:
254,252,341655,2,0,B|252:288|280:322,3,68.9999978942872
189,111,341945,2,0,B|161:87|124:89,3,68.9999978942872,8|0|0|0,0:0|0:0|0:0|0:0,0:0:0:0:
37,38,342234,5,6,0:3:0:0:
27,63,342306,1,0,0:0:0:0:
25,90,342378,1,0,0:0:0:0:
26,117,342451,1,0,0:0:0:0:
34,143,342523,1,8,0:0:0:0:
47,167,342596,1,0,0:0:0:0:
52,194,342669,1,0,0:0:0:0:
48,221,342741,1,0,0:0:0:0:
42,248,342814,2,0,P|30:286|11:306,3,68.9999978942872
224,283,343104,2,0,P|257:292|282:314,3,68.9999978942872,8|0|0|0,0:0|0:0|0:0|0:0,0:0:0:0:
188,94,343394,6,0,P|258:71|343:106,1,137.999995788574,6|0,0:3|0:0,0:0:0:0:
452,274,343684,6,0,L|469:363,1,74.7499965782167,10|0,0:0|0:0,0:0:0:0:
306,160,343829,2,0,L|321:65,1,74.7499965782167,2|0,0:0|0:0,0:0:0:0:
151,305,343974,2,0,L|136:378,1,74.7499965782167,2|0,0:0|0:0,0:0:0:0:
48,99,344119,2,0,L|31:8,1,74.7499965782167,2|0,0:0|0:0,0:0:0:0:
257,355,344264,2,0,P|296:309|271:228,1,149.499993156433,10|0,0:0|0:0,0:0:0:0:
188,94,344553,5,6,0:3:0:0:
232,75,344626,1,0,0:0:0:0:
279,74,344698,1,0,0:0:0:0:
323,93,344771,1,0,0:0:0:0:
357,126,344843,1,8,0:0:0:0:
400,148,344916,1,0,0:0:0:0:
447,142,344988,1,0,0:0:0:0:
478,105,345061,1,0,0:0:0:0:
467,58,345133,1,0,0:0:0:0:
423,37,345205,1,0,0:0:0:0:
375,49,345278,1,0,0:0:0:0:
342,85,345351,1,0,0:0:0:0:
318,126,345423,1,8,0:0:0:0:
277,151,345495,1,0,0:0:0:0:
229,161,345568,2,0,P|194:163|161:154,1,68.9999978942872
463,331,345713,6,0,P|417:362|392:239,1,230,12|0,0:2|0:0,2:0:0:0:
8,322,346148,2,0,P|108:367|128:259,1,253.000007720947,8|0,0:0|0:0,2:0:0:0:
257,7,346583,2,0,B|265:71|242:126|242:126|263:171|263:171|243:233|258:287,1,275.999991577149,8|0,0:0|0:0,2:0:0:0:
361,256,347162,5,8,0:0:0:0:
118,146,347307,1,8,0:0:0:0:
365,25,347452,1,8,0:0:0:0:
170,263,347597,1,8,0:0:0:0:
129,24,347742,5,12,0:3:0:0:
265,355,347887,1,12,0:3:0:0:
192,87,354988,5,4,0:3:0:0:
192,87,355061,1,0,0:0:0:0:
192,87,355133,1,0,0:0:0:0:
335,227,355278,1,8,0:0:0:0:
350,90,355423,1,0,0:0:0:0:
180,227,355568,2,0,P|129:232|65:220,1,97.7500018644333
181,69,355858,5,4,0:0:0:0:
181,69,355931,1,0,0:0:0:0:
181,69,356003,1,0,0:0:0:0:
342,240,356148,1,8,0:0:0:0:
356,77,356293,1,0,0:0:0:0:
185,247,356438,2,0,P|134:252|70:240,1,97.7500018644333
327,331,356728,5,4,0:3:0:0:
327,331,356801,1,0,0:0:0:0:
327,331,356873,1,0,0:0:0:0:
415,191,357018,1,8,0:0:0:0:
248,154,357163,1,0,0:0:0:0:
415,191,357307,1,0,0:0:0:0:
248,154,357452,1,0,0:0:0:0:
372,55,357597,5,4,0:0:0:0:
372,55,357670,1,0,0:0:0:0:
372,55,357742,1,0,0:0:0:0:
194,82,357887,1,8,0:0:0:0:
308,230,358032,1,0,0:0:0:0:
194,82,358177,1,4,0:3:0:0:
308,230,358322,1,4,0:3:0:0:
110,248,358467,5,4,0:3:0:0:
110,248,358540,1,0,0:0:0:0:
110,248,358612,1,0,0:0:0:0:
39,93,358757,1,8,0:0:0:0:
152,151,358902,1,0,0:0:0:0:
262,88,359047,1,0,0:0:0:0:
375,146,359192,1,0,0:0:0:0:
488,88,359337,6,0,L|485:136,1,48.8750009322167,4|0,0:0|0:0,0:0:0:0:
475,237,359481,1,0,0:0:0:0:
363,200,359626,1,8,0:0:0:0:
255,197,359771,1,0,0:0:0:0:
162,229,359916,1,4,0:3:0:0:
91,281,360061,1,4,0:3:0:0:
157,349,360206,5,4,0:3:0:0:
162,229,360351,1,0,0:0:0:0:
245,357,360496,1,8,0:0:0:0:
255,197,360641,1,0,0:0:0:0:
333,365,360786,1,0,0:0:0:0:
363,200,360931,1,0,0:0:0:0:
421,373,361076,6,0,L|430:266,1,97.7500018644333,4|0,0:0|0:0,0:0:0:0:
316,33,361366,2,0,L|307:140,1,97.7500018644333,8|0,0:0|0:0,0:0:0:0:
184,231,361656,1,4,0:3:0:0:
57,88,361800,1,4,0:3:0:0:
64,226,361945,5,4,0:3:0:0:
64,226,362018,1,0,0:0:0:0:
64,226,362090,1,0,0:0:0:0:
182,76,362235,1,8,0:0:0:0:
325,205,362380,1,0,0:0:0:0:
182,76,362525,1,0,0:0:0:0:
325,205,362670,1,0,0:0:0:0:
457,48,362815,5,4,0:0:0:0:
457,48,362888,1,0,0:0:0:0:
457,48,362960,1,0,0:0:0:0:
494,222,363105,2,0,P|440:235|388:226,1,97.7500018644333,8|0,0:0|0:0,2:0:0:0:
110,141,363395,2,0,P|158:135|204:149,1,97.7500018644333,4|4,0:3|0:3,2:3:0:0:
275,349,363685,5,4,0:3:0:0:
275,349,363758,1,0,0:0:0:0:
275,349,363830,1,0,0:0:0:0:
333,223,363975,1,8,0:0:0:0:
163,225,364120,1,0,0:0:0:0:
331,53,364265,1,0,0:0:0:0:
161,55,364410,1,0,0:0:0:0:
468,77,364554,5,4,0:0:0:0:
468,77,364627,1,0,0:0:0:0:
468,77,364699,1,0,0:0:0:0:
333,223,364844,1,8,0:0:0:0:
163,225,364989,1,0,0:0:0:0:
161,55,365134,1,4,0:3:0:0:
331,53,365279,1,4,0:3:0:0:
498,223,365424,6,0,L|494:174,2,48.8750009322167,4|0|0,0:3|0:0|0:0,0:0:0:0:
385,149,365714,1,8,0:0:0:0:
429,305,365859,1,0,0:0:0:0:
306,166,366004,1,0,0:0:0:0:
337,328,366149,1,0,0:0:0:0:
228,171,366294,6,0,L|233:232,1,48.8750009322167,4|0,0:0|0:0,0:0:0:0:
243,338,366438,1,0,0:0:0:0:
144,171,366583,1,8,0:0:0:0:
75,320,366728,1,0,0:0:0:0:
72,146,366873,1,4,0:3:0:0:
159,333,367018,1,4,0:3:0:0:
6,112,367163,5,4,0:3:0:0:
4,302,367308,1,0,0:0:0:0:
215,252,367453,1,8,0:0:0:0:
42,223,367598,1,0,0:0:0:0:
266,133,367743,1,0,0:0:0:0:
65,75,367888,1,0,0:0:0:0:
159,333,368033,2,0,B|234:343|234:343|315:317,1,146.62500279665,4|0,0:0|0:0,0:0:0:0:
379,270,368323,6,0,L|383:235,1,34.4999989471436,8|0,0:0|0:0,2:0:0:0:
449,162,368613,2,0,L|444:127,1,34.4999989471436,4|4,0:3|0:3,2:0:0:0:
309,55,368902,6,0,B|277:34|277:34|229:35,2,76.6666666666667,4|0|0,0:0|0:0|0:0,0:0:0:0:
330,199,369191,5,0,0:0:0:0:
273,175,369288,1,0,0:0:0:0:
212,185,369385,1,0,0:0:0:0:
163,233,369481,5,8,0:0:0:0:
175,301,369578,2,0,B|216:314|216:314|271:307,1,76.6666666666667,8|0,0:0|0:0,0:0:0:0:
34,238,369772,5,4,0:0:0:0:
51,179,369868,1,0,0:0:0:0:
58,117,369965,1,0,0:0:0:0:
40,58,370061,5,0,0:0:0:0:
88,96,370158,1,4,0:3:0:0:
149,88,370255,1,4,0:3:0:0:
199,53,370351,5,0,0:0:0:0:
251,41,370447,1,0,0:0:0:0:
304,49,370544,1,0,0:0:0:0:
357,92,370641,5,8,0:0:0:0:
411,134,370737,2,0,B|457:143|457:143|486:139,1,76.6666666666667,8|0,0:0|0:0,0:0:0:0:
310,320,370931,5,4,0:0:0:0:
318,275,371027,1,0,0:0:0:0:
324,229,371124,1,0,0:0:0:0:
328,183,371220,5,0,0:0:0:0:
273,211,371317,1,4,0:3:0:0:
211,216,371414,1,4,0:3:0:0:
163,177,371510,1,0,0:0:0:0:
102,165,371607,1,0,0:0:0:0:
45,188,371704,1,0,0:0:0:0:
28,254,371800,5,8,0:0:0:0:
80,298,371897,2,0,P|127:299|163:278,1,76.6666666666667
98,57,372090,5,4,0:0:0:0:
151,53,372186,1,0,0:0:0:0:
204,50,372283,1,0,0:0:0:0:
252,88,372380,5,4,0:0:0:0:
305,84,372476,1,0,0:0:0:0:
358,81,372573,1,0,0:0:0:0:
419,80,372670,5,0,0:0:0:0:
393,135,372766,1,4,0:3:0:0:
415,192,372863,1,4,0:3:0:0:
459,234,372960,5,0,0:0:0:0:
487,287,373056,1,0,0:0:0:0:
467,345,373153,1,0,0:0:0:0:
402,370,373250,5,8,0:0:0:0:
339,342,373346,2,0,P|323:307|327:269,1,76.6666666666667,8|0,0:0|0:0,0:0:0:0:
116,351,373540,5,4,0:0:0:0:
65,333,373636,1,4,0:0:0:0:
45,282,373733,1,0,0:0:0:0:
64,232,373829,5,0,0:0:0:0:
97,189,373926,1,4,0:3:0:0:
87,136,374023,1,4,0:3:0:0:
37,116,374119,5,0,0:0:0:0:
57,165,374216,1,0,0:0:0:0:
110,168,374312,1,0,0:0:0:0:
174,141,374409,5,8,0:0:0:0:
237,112,374506,2,0,B|284:107|326:110,1,76.6666666666667,8|0,0:0|0:0,0:0:0:0:
469,257,374699,5,4,0:0:0:0:
417,223,374796,1,0,0:0:0:0:
356,235,374893,1,0,0:0:0:0:
323,286,374989,5,8,0:0:0:0:
353,330,375086,1,0,0:0:0:0:
406,331,375182,1,0,0:0:0:0:
427,281,375279,5,4,1:3:0:0:
380,254,375376,1,4,1:3:0:0:
327,260,375472,1,0,0:0:0:0:
289,298,375569,5,8,0:0:0:0:
246,315,375666,1,0,0:0:0:0:
201,303,375762,1,0,0:0:0:0:
168,270,375858,5,4,1:3:0:0:
167,223,375955,1,4,1:3:0:0:
195,186,376052,1,0,0:0:0:0:
258,157,376149,5,8,0:0:0:0:
322,134,376245,1,8,0:0:0:0:
355,91,376342,1,0,0:0:0:0:
348,37,376439,5,0,0:0:0:0:
306,70,376535,1,4,0:3:0:0:
306,123,376632,1,4,0:3:0:0:
331,169,376728,5,4,0:0:0:0:
344,221,376825,1,0,0:0:0:0:
342,274,376922,1,0,0:0:0:0:
306,314,377018,5,0,0:0:0:0:
252,317,377115,1,0,0:0:0:0:
203,294,377212,1,0,0:0:0:0:
177,247,377308,5,8,0:0:0:0:
161,171,377405,1,8,0:0:0:0:
89,146,377501,1,8,0:0:0:0:
19,178,377598,5,8,0:0:0:0:
13,254,377695,1,8,0:0:0:0:
65,298,377791,1,0,0:0:0:0:
125,309,377888,5,0,0:0:0:0:
174,288,377985,1,4,0:3:0:0:
215,254,378081,1,4,0:3:0:0:
238,206,378177,6,0,P|249:150|235:94,1,115
104,232,378467,1,8,0:0:0:0:
104,232,378612,2,0,B|194:210|194:210|335:244,1,230
446,276,379047,1,8,0:0:0:0:
43,12,379337,6,0,B|121:120|228:68|228:68|351:13|412:101,1,413.999987365723,6|0,0:2|2:0,2:0:0:0:
488,299,381656,6,0,P|399:362|290:305,1,230,4|0,0:2|2:0,2:0:0:0:
45,116,382815,6,0,P|30:69|47:14,2,103.499996841431,4|8|4,0:2|0:0|0:2,2:0:0:0:
119,210,383975,2,0,P|207:233|286:116,1,230,4|0,0:2|2:0,2:0:0:0:
475,324,384989,6,0,L|481:363,2,28.75,0|0|8,0:0|0:0|0:0,0:0:0:0:
323,64,386294,6,0,P|249:9|123:61,1,230,4|0,0:2|2:0,2:0:0:0:
68,166,387163,2,0,L|62:288,1,115,0|0,0:0|0:0,2:0:0:0:
140,358,387743,1,0,0:0:0:0:
282,370,388033,1,0,0:0:0:0:
398,303,388323,1,0,0:0:0:0:
257,15,388467,5,4,0:3:0:0:
249,44,388540,1,4,0:3:0:0:
254,73,388613,2,0,P|290:122|377:72,1,172.500006580353,4|0,0:2|0:0,0:0:0:0:
495,299,389193,2,0,P|452:287|386:304,1,86.2500032901765,8|0,0:0|0:0,0:0:0:0:
282,370,389483,1,0,0:0:0:0:
322,233,389626,1,0,0:0:0:0:
185,332,389772,6,0,P|97:365|22:328,1,172.500006580353,4|0,0:0|0:0,0:0:0:0:
109,187,390206,1,0,0:0:0:0:
109,187,390352,2,0,L|105:281,1,86.2500032901765,8|0,0:0|0:0,0:0:0:0:
34,50,390641,1,0,0:0:0:0:
34,50,390786,1,0,0:0:0:0:
194,95,390932,6,0,B|240:105|280:77|280:77|320:49|371:58,1,172.500006580353,4|0,0:2|0:0,0:0:0:0:
462,302,391512,2,0,L|463:207,1,86.2500032901765,8|0,0:0|0:0,0:0:0:0:
468,99,391800,1,0,0:0:0:0:
343,177,391945,1,0,0:0:0:0:
106,74,392091,6,0,P|176:13|261:52,1,195.500003728867,4|0,0:0|0:0,0:0:0:0:
102,203,392525,1,0,0:0:0:0:
102,203,392671,2,0,L|111:308,1,97.7500018644333,8|0,0:0|0:0,0:0:0:0:
264,365,392961,2,0,L|272:243,1,97.7500018644333
292,96,393251,5,4,0:2:0:0:
292,96,393396,1,0,0:0:0:0:
397,169,393541,2,0,P|445:181|495:165,1,103.499996841431
423,357,393831,2,0,L|431:233,1,103.499996841431,8|0,0:0|0:0,0:0:0:0:
448,66,394119,1,0,0:0:0:0:
448,66,394264,1,0,0:0:0:0:
326,177,394410,6,0,B|282:192|282:192|227:176,1,103.499996841431,4|0,0:0|0:0,0:0:0:0:
67,101,394699,1,0,0:0:0:0:
206,32,394844,1,0,0:0:0:0:
101,245,394990,2,0,P|87:299|102:365,1,103.499996841431,8|0,0:0|0:0,0:0:0:0:
137,153,395280,2,0,P|152:98|124:31,1,115
282,302,395570,6,0,L|401:300,1,115,4|0,0:2|0:0,0:0:0:0:
266,148,395860,1,8,0:0:0:0:
181,298,396005,1,0,0:0:0:0:
370,199,396150,1,0,0:0:0:0:
180,88,396295,1,0,0:0:0:0:
411,47,396439,1,8,0:0:0:0:
223,227,396584,1,0,0:0:0:0:
294,3,396729,5,4,0:0:0:0:
113,260,396874,1,0,0:0:0:0:
370,199,397019,1,8,0:0:0:0:
161,8,397164,1,0,0:0:0:0:
42,201,397309,5,0,3:0:0:0:
42,201,397381,1,0,3:0:0:0:
42,201,397454,2,0,L|38:144,1,57.5,0|0,3:0|3:0,3:0:0:0:
121,312,397599,1,8,0:0:0:0:
165,286,397671,1,8,0:0:0:0:
215,277,397743,1,8,0:0:0:0:
266,285,397816,1,8,0:0:0:0:
305,313,397889,6,0,P|385:344|424:188,1,275.999991577149,6|10,0:2|0:0,0:0:0:0:
289,98,398324,1,2,0:0:0:0:
376,260,398469,2,0,P|402:198|381:133,1,137.999995788574
142,25,398758,2,0,L|128:169,1,137.999995788574,8|0,0:0|0:0,0:0:0:0:
66,368,399048,6,0,L|50:208,1,137.999995788574,4|0,0:0|0:0,0:0:0:0:
33,41,399338,1,8,0:0:0:0:
225,189,399483,1,0,0:0:0:0:
225,189,399556,1,0,0:0:0:0:
225,189,399628,2,0,P|296:206|374:181,1,137.999995788574
475,96,399918,1,10,0:0:0:0:
429,300,400063,1,0,0:0:0:0:
407,317,400135,1,0,0:0:0:0:
381,331,400208,6,0,B|329:352|275:318|275:318|234:334|234:334|173:305|107:336,1,275.999991577149,6|8,0:2|0:0,0:0:0:0:
338,244,400643,2,0,P|352:171|319:91,1,137.999995788574
262,18,400932,1,0,0:0:0:0:
166,243,401077,2,0,L|130:96,1,137.999995788574,8|0,0:0|0:0,0:0:0:0:
21,341,401367,6,0,L|44:187,1,137.999995788574,4|0,0:0|0:0,0:0:0:0:
68,26,401657,1,8,0:0:0:0:
241,164,401802,1,0,0:0:0:0:
262,181,401875,1,0,0:0:0:0:
285,191,401947,2,0,P|396:137|335:31,1,275.999991577149,0|8,0:0|0:0,0:0:0:0:
509,159,402382,1,0,0:0:0:0:
509,159,402454,1,0,0:0:0:0:
509,159,402527,5,6,0:2:0:0:
312,109,402672,1,0,0:0:0:0:
391,313,402817,1,8,0:0:0:0:
510,100,402962,2,0,L|503:237,1,137.999995788574,2|0,0:0|0:0,0:0:0:0:
327,374,403251,1,0,0:0:0:0:
156,199,403396,2,0,P|227:175|290:194,1,137.999995788574,10|0,0:0|0:0,0:0:0:0:
85,337,403686,6,0,B|57:280|91:235|91:235|71:196|71:196|116:138|75:71,1,275.999991577149,6|8,0:0|0:0,0:0:0:0:
223,270,404121,1,0,0:0:0:0:
223,270,404194,1,0,0:0:0:0:
223,270,404266,2,0,L|224:103,1,137.999995788574
320,348,404556,1,8,0:0:0:0:
375,135,404701,1,0,0:0:0:0:
375,135,404773,1,0,0:0:0:0:
375,135,404846,5,6,0:2:0:0:
414,313,404991,1,0,0:0:0:0:
158,128,405136,2,0,L|133:287,1,137.999995788574,10|0,0:0|0:0,0:0:0:0:
462,72,405426,2,0,L|483:226,1,137.999995788574,2|0,0:0|0:0,0:0:0:0:
226,65,405715,2,0,P|171:39|96:58,1,137.999995788574,8|0,0:0|0:0,0:0:0:0:
223,270,406005,5,4,0:0:0:0:
329,89,406150,1,0,3:0:0:0:
329,89,406222,1,0,3:0:0:0:
329,89,406295,2,0,L|333:19,1,68.9999978942872,0|0,3:0|3:0,3:0:0:0:
480,208,406439,1,0,3:0:0:0:
480,208,406512,1,0,3:0:0:0:
480,208,406585,1,0,3:0:0:0:
313,288,406730,5,8,0:0:0:0:
258,287,406802,1,8,0:0:0:0:
214,254,406875,1,8,0:0:0:0:
162,234,406947,1,8,0:0:0:0:
106,240,407020,1,8,0:0:0:0:
63,274,407092,1,8,0:0:0:0:
47,327,407165,6,0,B|102:391|175:353|175:353|249:314|319:351,1,275.999991577149,6|10,0:2|0:0,0:0:0:0:
290,175,407600,1,2,0:0:0:0:
445,366,407745,2,0,L|437:214,1,137.999995788574
293,14,408034,1,8,0:0:0:0:
488,79,408179,1,0,0:0:0:0:
290,175,408324,6,0,B|248:185|196:161|196:161|162:177|162:177|83:184|83:184|126:134,1,275.999991577149,4|8,0:0|0:0,0:0:0:0:
214,62,408759,1,0,0:0:0:0:
214,62,408832,1,0,0:0:0:0:
214,62,408904,2,0,L|212:214,1,137.999995788574
208,368,409195,1,8,0:0:0:0:
501,219,409340,1,0,0:0:0:0:
484,240,409411,1,0,0:0:0:0:
466,259,409485,6,0,P|391:277|312:248,1,137.999995788574,6|0,0:2|0:0,0:0:0:0:
211,135,409774,1,8,0:0:0:0:
402,54,409919,2,0,L|399:216,1,137.999995788574,2|0,0:0|0:0,0:0:0:0:
349,366,410209,1,0,0:0:0:0:
301,169,410353,1,8,0:0:0:0:
142,259,410498,1,0,0:0:0:0:
8,165,410644,6,0,P|-3:92|12:27,1,137.999995788574,4|0,0:0|0:0,0:0:0:0:
28,267,410934,1,8,0:0:0:0:
145,71,411078,1,0,0:0:0:0:
145,71,411151,1,0,0:0:0:0:
145,71,411223,2,0,P|207:45|277:66,1,137.999995788574
397,187,411513,1,8,0:0:0:0:
454,33,411658,1,0,0:0:0:0:
454,33,411730,1,0,0:0:0:0:
454,33,411804,5,6,0:2:0:0:
301,169,411949,1,0,0:0:0:0:
474,346,412093,2,0,P|487:266|462:186,1,137.999995788574,8|2,0:0|0:0,0:0:0:0:
215,46,412382,2,0,P|163:99|162:172,1,137.999995788574
371,274,412672,2,0,P|350:202|287:165,1,137.999995788574,10|0,0:0|0:0,0:0:0:0:
60,275,412963,6,0,P|132:366|179:254,1,275.999991577149,4|8,0:0|0:0,0:0:0:0:
68,178,413397,1,0,0:0:0:0:
50,166,413470,1,0,0:0:0:0:
39,148,413542,2,0,P|27:80|40:13,1,137.999995788574
125,296,413832,1,8,0:0:0:0:
247,121,413977,1,0,0:0:0:0:
260,105,414049,1,0,0:0:0:0:
276,92,414122,6,0,B|378:50|449:130|449:130|392:105|356:117,1,275.999991577149,6|8,0:2|0:0,0:0:0:0:
307,198,414557,1,0,0:0:0:0:
512,189,414701,1,0,0:0:0:0:
263,6,414846,1,0,0:0:0:0:
418,248,414992,1,8,0:0:0:0:
472,11,415137,1,0,0:0:0:0:
288,293,415282,5,6,0:0:0:0:
111,35,415426,1,0,3:0:0:0:
111,42,415498,1,0,3:0:0:0:
112,49,415570,1,0,3:0:0:0:
113,56,415643,1,0,3:0:0:0:
114,63,415715,1,0,3:0:0:0:
114,70,415788,1,0,3:0:0:0:
114,77,415862,6,0,L|123:161,1,77.6250002961159,0|0,3:0|0:0,2:0:0:0:
203,370,416006,2,0,L|210:293,1,77.6250002961159,8|0,0:0|0:0,0:0:0:0:
286,113,416152,5,8,0:0:0:0:
336,92,416224,1,8,0:0:0:0:
390,94,416297,1,8,0:0:0:0:
433,125,416369,1,8,0:0:0:0:
456,175,416442,6,0,P|373:261|245:186,1,275.999991577149,4|8,0:2|0:0,0:0:0:0:
193,40,416876,1,0,0:0:0:0:
353,169,417020,2,0,B|356:318,1,137.999995788574
472,328,417310,1,8,0:0:0:0:
448,55,417456,1,0,0:0:0:0:
249,198,417601,6,0,P|134:142|200:38,1,275.999991577149,4|0,0:0|0:0,0:0:0:0:
305,99,418036,1,0,0:0:0:0:
279,109,418107,1,0,0:0:0:0:
252,116,418180,2,0,L|111:131,1,137.999995788574
0,141,418470,1,8,0:0:0:0:
123,26,418615,1,0,0:0:0:0:
123,26,418687,1,0,0:0:0:0:
123,26,418760,5,6,0:2:0:0:
115,249,418905,1,0,0:0:0:0:
252,116,419050,1,8,0:0:0:0:
8,239,419195,1,0,0:0:0:0:
229,296,419339,1,0,0:0:0:0:
66,133,419484,1,0,0:0:0:0:
314,54,419630,2,0,P|341:115|322:180,1,137.999995788574,8|0,0:0|0:0,0:0:0:0:
164,361,419920,6,0,P|142:292|172:216,1,137.999995788574,4|0,0:0|0:0,0:0:0:0:
305,32,420210,1,8,0:0:0:0:
456,178,420355,1,0,0:0:0:0:
456,178,420426,1,0,0:0:0:0:
456,178,420500,2,0,P|383:192|311:175,1,137.999995788574
123,26,420790,2,0,P|152:87|119:156,1,137.999995788574,8|0,0:0|0:0,0:0:0:0:
49,98,421007,1,0,0:0:0:0:
69,89,421080,6,0,L|215:111,1,137.999995788574,6|0,0:2|0:0,0:0:0:0:
512,188,421369,2,0,L|363:210,1,137.999995788574,10|0,0:0|0:0,0:0:0:0:
0,264,421658,2,0,L|143:287,1,137.999995788574,2|0,0:0|0:0,0:0:0:0:
298,368,421949,1,8,0:0:0:0:
234,164,422094,1,0,0:0:0:0:
89,356,422238,6,0,P|65:276|102:200,1,137.999995788574,4|0,0:0|0:0,0:0:0:0:
179,86,422528,1,8,0:0:0:0:
216,261,422673,1,0,0:0:0:0:
216,261,422745,1,0,0:0:0:0:
216,261,422818,1,0,0:2:0:0:
90,152,422963,1,0,0:2:0:0:
303,59,423109,1,8,0:0:0:0:
479,244,423254,1,0,0:0:0:0:
479,244,423325,1,0,0:0:0:0:
479,244,423399,6,0,B|425:270|372:246|372:246|330:269|330:269|270:241|203:265,1,275.999991577149,4|8,0:2|0:0,0:0:0:0:
426,167,423833,1,0,0:0:0:0:
260,335,423978,1,0,0:0:0:0:
359,115,424123,1,0,0:0:0:0:
383,329,424267,1,8,0:0:0:0:
238,158,424412,1,0,0:0:0:0:
380,12,424558,5,4,0:0:0:0:
172,93,424702,1,0,3:0:0:0:
143,131,424774,1,0,3:0:0:0:
143,178,424846,1,0,3:0:0:0:
164,221,424919,1,0,3:0:0:0:
202,250,424991,1,0,3:0:0:0:
229,290,425064,1,0,3:0:0:0:
227,338,425137,1,0,3:0:0:0:
5,240,425283,5,8,0:0:0:0:
25,188,425355,1,8,0:0:0:0:
71,155,425428,1,8,0:0:0:0:
125,148,425500,1,8,0:0:0:0:
177,165,425573,1,8,0:0:0:0:
217,202,425645,1,8,0:0:0:0:
239,252,425718,6,0,P|304:315|399:194,1,275.999991577149,4|8,0:2|0:0,2:0:0:0:
323,48,426151,1,0,0:0:0:0:
323,48,426296,2,0,P|250:32|171:58,1,137.999995788574
71,155,426587,1,8,0:0:0:0:
255,120,426732,1,0,0:0:0:0:
197,307,426876,6,0,P|196:270|222:231,1,74.7499965782167,2|0,0:0|0:0,0:0:0:0:
371,232,427021,2,0,P|338:247|284:246,1,68.9999978942872
255,120,427166,6,0,P|255:159|269:188,1,57.5,10|0,0:0|0:0,0:0:0:0:
338,324,427311,2,0,L|403:322,1,46,2|0,0:0|0:0,0:0:0:0:
496,325,427456,6,0,P|511:352|508:386,1,38.5249981776811,2|0,0:0|0:0,0:0:0:0:
449,203,427601,2,0,P|444:182|448:159,1,31.6250009651184,2|0,0:0|0:0,0:0:0:0:
501,68,427746,2,0,L|498:97,2,17.2499994735718,8|0|0,0:0|0:0|0:0,0:0:0:0:
417,92,428036,5,4,0:2:0:0:
417,92,428181,2,0,P|372:106|315:94,1,92,0|8,0:0|0:0,0:0:0:0:
171,13,428470,5,4,0:2:0:0:
171,13,428615,2,0,P|178:71|154:141,1,115
66,286,428905,5,4,0:2:0:0:
66,286,429050,2,0,P|130:247|196:249,1,137.999995788574,0|8,0:0|0:0,0:0:0:0:
379,324,429340,5,0,0:2:0:0:
255,180,429485,1,8,0:2:0:0:
263,10,429630,1,8,0:2:0:0:
375,267,429775,5,0,0:2:0:0:
312,171,429920,1,8,0:2:0:0:
312,48,430065,1,0,0:2:0:0:
247,313,430210,6,0,P|194:328|128:309,1,97.7500018644333,4|0,0:3|0:0,0:0:0:0:
59,208,430499,2,0,L|55:107,1,97.7500018644333
135,9,430790,1,8,0:0:0:0:
135,9,430862,1,0,0:0:0:0:
135,9,430935,1,0,0:0:0:0:
213,109,431080,1,0,0:0:0:0:
222,125,431152,1,0,0:0:0:0:
237,136,431225,1,0,0:0:0:0:
256,139,431297,1,0,0:0:0:0:
274,134,431370,6,0,P|323:126|371:130,1,97.7500018644333,4|0,0:2|0:0,0:0:0:0:
490,70,431659,1,4,0:2:0:0:
490,70,431804,1,0,0:0:0:0:
430,304,431949,6,8,B|439:341|439:341|462:367,2,65.1666679096222
333,251,432239,6,8,B|324:214|324:214|301:188,2,65.1666679096222
260,349,432529,6,0,B|156:356|156:356|78:288,1,195.500003728867,4|0,0:2|0:0,2:0:0:0:
0,181,432963,1,0,0:0:0:0:
195,248,433109,1,8,0:0:0:0:
10,354,433253,1,0,0:0:0:0:
260,349,433399,1,8,0:0:0:0:
112,201,433544,2,0,B|103:128|103:128|125:87|125:87|113:23,1,172.500006580353,0|0,0:0|0:0,2:0:0:0:
31,65,433978,1,8,0:0:0:0:
31,65,434268,5,8,0:0:0:0:
245,185,434413,1,8,0:0:0:0:
245,185,434703,5,8,0:0:0:0:
407,22,434847,2,0,L|417:123,1,97.7500018644333,4|0,0:2|0:0,0:0:0:0:
473,234,435137,2,0,L|456:330,1,97.7500018644333
354,218,435428,1,8,0:0:0:0:
354,218,435500,1,0,0:0:0:0:
354,218,435572,1,0,0:0:0:0:
212,362,435717,2,0,L|220:302,3,48.8750009322167,0|0|0|0,3:0|3:0|3:0|3:0,3:0:0:0:
198,260,436008,6,0,P|152:242|87:260,1,97.7500018644333,4|0,0:2|0:0,0:0:0:0:
7,349,436297,2,0,L|7:242,1,97.7500018644333
24,113,436587,5,8,0:0:0:0:
91,134,436683,1,8,0:0:0:0:
158,108,436780,1,8,0:0:0:0:
159,36,436877,5,8,0:0:0:0:
118,94,436973,1,8,0:0:0:0:
151,157,437070,1,8,0:0:0:0:
222,152,437167,6,0,P|272:140|321:152,1,97.7500018644333,4|0,0:2|0:0,0:0:0:0:
407,22,437457,1,8,0:0:0:0:
276,44,437601,2,0,L|273:155,1,97.7500018644333
344,296,437891,2,0,L|336:340,2,43.1250016450883,0|0|8,3:0|3:0|3:1,3:0:0:0:
435,183,438182,1,0,0:0:0:0:
237,288,438327,5,12,0:2:0:0:
454,309,438471,1,0,0:0:0:0:
324,180,438616,1,0,0:0:0:0:
246,369,438761,1,0,0:0:0:0:
393,241,438906,1,0,0:0:0:0:
147,186,439051,2,0,B|114:147|136:100|136:100|161:51|125:3,1,195.500003728867,4|0,0:2|0:0,2:0:0:0:
55,66,439485,5,4,0:2:0:0:
55,66,439630,1,0,0:0:0:0:
204,133,439775,2,0,P|261:148|316:129,1,97.7500018644333
424,78,440066,1,8,0:0:0:0:
424,78,440138,1,0,0:0:0:0:
424,78,440211,1,0,0:0:0:0:
426,219,440356,1,0,0:0:0:0:
425,233,440428,1,0,0:0:0:0:
426,247,440501,1,0,0:0:0:0:
426,261,440573,1,0,0:0:0:0:
425,275,440646,6,0,P|372:292|319:276,1,97.7500018644333,4|0,0:2|0:0,0:0:0:0:
251,184,440935,2,0,L|254:72,1,97.7500018644333
125,285,441225,6,8,B|116:322|116:322|88:351,2,65.1666679096222
56,161,441515,6,8,B|47:124|47:124|24:98,2,65.1666679096222
282,276,441805,6,0,P|328:192|288:105,1,195.500003728867,4|0,0:2|0:0,2:0:0:0:
178,40,442239,1,0,0:0:0:0:
371,4,442385,1,8,0:0:0:0:
371,4,442530,1,0,0:0:0:0:
251,184,442675,1,8,0:0:0:0:
271,25,442820,1,4,0:3:0:0:
409,165,442965,5,4,0:2:0:0:
187,280,443109,1,4,0:3:0:0:
290,107,443254,1,4,0:3:0:0:
397,281,443399,1,4,0:3:0:0:
505,63,443544,5,8,0:0:0:0:
459,109,443640,1,8,0:0:0:0:
393,114,443737,1,8,0:0:0:0:
373,52,443834,5,8,0:0:0:0:
311,31,443930,1,8,0:0:0:0:
247,47,444027,1,8,0:0:0:0:
202,94,444123,6,0,P|112:140|146:14,1,293.2500055933,4|0,0:2|0:0,2:0:0:0:
288,223,444704,5,8,0:0:0:0:
315,288,444800,1,8,0:0:0:0:
285,352,444896,1,8,0:0:0:0:
212,344,444994,5,8,0:0:0:0:
189,276,445090,1,8,0:0:0:0:
202,206,445186,1,8,0:0:0:0:
268,184,445283,6,0,B|327:145|389:198|389:198|448:250|512:203,1,258.75000987053,4|0,0:2|0:0,2:0:0:0:
366,384,445863,5,8,0:0:0:0:
402,325,445959,1,8,0:0:0:0:
383,258,446056,1,8,0:0:0:0:
313,252,446153,5,8,0:0:0:0:
288,188,446249,1,8,0:0:0:0:
313,123,446346,1,8,0:0:0:0:
371,94,446443,6,0,P|383:42|369:-8,1,97.7500018644333,8|0,0:0|0:0,0:0:0:0:
426,221,446733,1,4,0:3:0:0:
258,254,446878,2,0,L|156:255,1,97.7500018644333,8|0,0:0|0:0,0:0:0:0:
448,180,447167,5,4,0:3:0:0:
239,285,447312,2,0,L|138:286,1,97.7500018644333,8|0,0:0|0:0,0:0:0:0:
478,141,447602,5,4,0:3:0:0:
219,316,447747,2,0,L|112:318,1,97.7500018644333,8|0,0:0|0:0,0:0:0:0:
483,79,448037,5,4,0:3:0:0:
365,350,448182,1,8,0:0:0:0:
256,136,448327,1,8,0:0:0:0:
512,262,448472,1,8,0:0:0:0:
228,332,448616,6,0,B|180:316|180:204|180:204|132:268|100:268|52:268|52:268|4:268|-12:220|4:172|52:172|52:172|100:172|116:220|100:268|52:300|82:365,1,655.499979995728,12|0,0:2|0:0,2:0:0:0:
