osu file format v14

[General]
AudioFilename: tutut.mp3
AudioLeadIn: 0
PreviewTime: 132466
Countdown: 0
SampleSet: Soft
StackLeniency: 0.7
Mode: 0
LetterboxInBreaks: 0
WidescreenStoryboard: 0

[Editor]
Bookmarks: 53,22121,44190,49708,55225,60742,66259,77294,88328,132466,135225,154535
DistanceSpacing: 1.2
BeatDivisor: 4
GridSize: 4
TimelineZoom: 1

[Metadata]
Title:Tale Of A Shooting Star (Feint Remix)
TitleUnicode:Tale Of A Shooting Star (Feint Remix)
Artist:Relay & Front
ArtistUnicode:Relay & Front
Creator:RyoKazuka
Version:Hard
Source:
Tags:and drum bass dnb soul directions -famous- left hootowlstar
BeatmapID:847694
BeatmapSetID:387252

[Difficulty]
HPDrainRate:5
CircleSize:4
OverallDifficulty:6
ApproachRate:7.5
SliderMultiplier:1.6
SliderTickRate:1

[Events]
//Background and Video events
0,0,"planet_impact-1920x1200.jpg",0,0
//Break Periods
//Storyboard Layer 0 (Background)
//Storyboard Layer 1 (Fail)
//Storyboard Layer 2 (Pass)
//Storyboard Layer 3 (Foreground)
//Storyboard Sound Samples

[TimingPoints]
53,344.827586206897,4,1,1,55,1,0
53,-111.111111111111,4,1,1,55,0,0
22121,-111.111111111111,4,1,1,55,0,1
22208,-111.111111111111,4,1,1,55,0,0
44190,-133.333333333333,4,2,1,40,0,0
65570,-133.333333333333,4,2,1,10,0,0
66259,-111.111111111111,4,2,1,40,0,1
66346,-111.111111111111,4,2,1,40,0,0
88328,-100,4,1,1,60,0,1
132466,-100,4,1,1,60,0,0
135225,-100,4,1,1,60,0,1
154535,-100,4,1,1,60,0,0

[Colours]
Combo1 : 164,67,53
Combo2 : 244,155,74
Combo3 : 255,255,128
Combo4 : 199,193,184
SliderBorder : 255,231,91

[HitObjects]
75,84,53,6,0,P|160:108|219:57,1,143.999995605469,6|8,0:0|0:0,0:0:0:0:
138,24,570,2,0,L|148:188,1,143.999995605469,0|0,0:0|0:0,0:0:0:0:
191,241,1087,1,8,0:0:0:0:
265,283,1259,1,0,0:0:0:0:
341,241,1432,6,0,P|402:239|432:230,1,71.9999978027344,0|0,0:0|0:0,0:0:0:0:
507,148,1777,2,0,P|471:147|436:153,1,71.9999978027344,8|0,0:0|0:0,0:0:0:0:
369,98,2121,1,0,0:0:0:0:
309,161,2294,1,0,0:0:0:0:
341,241,2466,2,0,P|365:288|388:301,1,71.9999978027344,8|0,0:0|0:0,0:0:0:0:
457,335,2811,6,0,L|294:357,1,143.999995605469,2|8,0:0|0:0,0:0:0:0:
264,283,3328,2,0,L|101:305,1,143.999995605469,0|0,0:0|0:0,0:0:0:0:
67,233,3846,2,0,P|105:191|114:159,1,71.9999978027344,8|0,0:0|0:0,0:0:0:0:
170,36,4190,6,0,P|143:60|127:92,1,71.9999978027344,0|0,0:0|0:0,0:0:0:0:
192,149,4535,1,8,0:0:0:0:
262,198,4708,1,0,0:0:0:0:
347,190,4880,2,0,B|396:175|396:175|416:152,1,71.9999978027344,0|0,0:0|0:0,0:0:0:0:
417,73,5225,2,0,B|368:88|368:88|348:111,1,71.9999978027344,8|0,0:0|0:0,0:0:0:0:
347,190,5570,6,0,P|358:274|359:352,1,143.999995605469,2|8,0:0|0:0,0:0:0:0:
276,361,6087,2,0,P|274:289|264:217,1,143.999995605469,0|0,0:0|0:0,0:0:0:0:
191,170,6604,1,8,0:0:0:0:
118,218,6777,1,0,0:0:0:0:
115,131,6949,6,0,P|112:79|116:54,1,71.9999978027344,0|0,0:0|0:0,0:0:0:0:
199,79,7294,2,0,P|220:31|236:11,1,71.9999978027344,8|0,0:0|0:0,0:0:0:0:
316,37,7639,1,0,0:0:0:0:
401,27,7811,1,0,0:0:0:0:
368,107,7984,2,0,P|369:167|375:202,1,71.9999978027344,8|0,0:0|0:0,0:0:0:0:
380,264,8328,6,0,P|268:267|240:303,1,143.999995605469,2|8,0:0|0:0,0:0:0:0:
172,320,8846,2,0,P|111:355|43:340,1,143.999995605469,0|0,0:0|0:0,0:0:0:0:
100,274,9363,2,0,P|142:241|180:239,1,71.9999978027344,8|0,0:0|0:0,0:0:0:0:
300,173,9708,6,0,P|274:198|241:210,1,71.9999978027344,0|0,0:0|0:0,0:0:0:0:
228,124,10053,1,8,0:0:0:0:
305,85,10225,1,0,0:0:0:0:
374,135,10397,2,0,P|385:178|374:216,1,71.9999978027344,0|0,0:0|0:0,0:0:0:0:
389,290,10742,1,8,0:0:0:0:
309,323,10915,1,8,0:0:0:0:
227,293,11087,6,0,P|153:268|89:313,1,143.999995605469,6|8,0:0|0:0,0:0:0:0:
166,352,11604,2,0,L|155:196,1,143.999995605469,0|0,0:0|0:0,0:0:0:0:
109,135,12121,2,0,P|63:153|24:144,1,71.9999978027344,8|0,0:0|0:0,0:0:0:0:
56,65,12466,6,0,P|102:47|141:56,1,71.9999978027344,0|0,0:0|0:0,0:0:0:0:
193,101,12811,1,8,0:0:0:0:
274,70,12984,1,0,0:0:0:0:
355,97,13156,2,0,L|451:85,1,71.9999978027344,0|0,0:0|0:0,0:0:0:0:
458,168,13501,2,0,L|386:176,1,71.9999978027344,8|0,0:0|0:0,0:0:0:0:
351,256,13846,6,0,P|276:310|223:299,1,143.999995605469,2|8,0:0|0:0,0:0:0:0:
184,228,14363,2,0,B|165:197|165:197|134:315,1,143.999995605469
51,313,14880,2,0,L|76:223,1,71.9999978027344,8|0,0:0|0:0,0:0:0:0:
74,157,15225,6,0,L|101:67,1,71.9999978027344,0|0,0:0|0:0,0:0:0:0:
173,52,15570,1,8,0:0:0:0:
248,94,15742,1,0,0:0:0:0:
333,110,15915,2,0,P|381:116|419:99,1,71.9999978027344,0|0,0:0|0:0,0:0:0:0:
436,29,16259,2,0,P|388:23|350:40,1,71.9999978027344,8|0,0:0|0:0,0:0:0:0:
333,110,16604,6,0,P|319:230|351:259,1,143.999995605469,2|8,0:0|0:0,0:0:0:0:
312,325,17121,2,0,P|241:295|162:334,1,143.999995605469,0|0,0:0|0:0,0:0:0:0:
93,324,17639,2,0,P|111:273|106:236,1,71.9999978027344,8|0,0:0|0:0,0:0:0:0:
100,104,17984,6,0,P|85:137|83:173,1,71.9999978027344,0|0,0:0|0:0,0:0:0:0:
167,158,18328,1,8,0:0:0:0:
181,72,18501,1,0,0:0:0:0:
249,124,18673,2,0,B|301:132|301:132|336:117,1,71.9999978027344,0|0,0:0|0:0,0:0:0:0:
375,59,19018,2,0,B|392:51|392:51|444:59,1,71.9999978027344,8|0,0:0|0:0,0:0:0:0:
432,144,19363,6,0,L|391:298,1,143.999995605469,2|8,0:0|0:0,0:0:0:0:
481,278,19880,2,0,P|421:203|353:205,1,143.999995605469,0|0,0:0|0:0,0:0:0:0:
302,239,20397,1,8,0:0:0:0:
226,195,20570,1,0,0:0:0:0:
153,148,20742,6,0,P|85:110|78:98,1,71.9999978027344,0|0,0:0|0:0,0:0:0:0:
95,40,21087,2,0,P|163:78|170:90,1,71.9999978027344,8|0,0:0|0:0,0:0:0:0:
289,143,21432,2,0,P|255:134|227:112,1,71.9999978027344,0|0,0:0|0:0,0:0:0:0:
294,56,21777,2,0,P|328:65|356:87,1,71.9999978027344,8|8,0:0|0:0,0:0:0:0:
375,171,22121,6,2,P|369:236|437:283,1,143.999995605469,6|8,0:0|0:0,0:0:0:0:
358,337,22639,2,2,B|301:342|301:342|265:337|265:337|202:342,1,143.999995605469,0|0,0:0|0:0,0:0:0:0:
136,302,23156,1,8,0:0:0:0:
127,216,23328,2,2,P|128:123|89:79,1,143.999995605469,0|0,0:0|0:0,0:0:0:0:
166,30,23846,6,2,P|226:67|296:58,1,143.999995605469,8|0,0:0|0:0,0:0:0:0:
376,25,24363,1,0,0:0:0:0:
370,110,24535,2,2,P|379:148|387:196,1,71.9999978027344,8|0,0:0|0:0,0:0:0:0:
398,266,24880,6,2,B|344:270|315:229|315:229|263:248,1,143.999995605469,2|8,0:0|0:0,0:0:0:0:
235,325,25397,2,2,P|183:266|201:194,1,143.999995605469,0|0,0:0|0:0,0:0:0:0:
262,154,25915,1,8,0:0:0:0:
185,114,26087,2,2,B|131:118|108:163|108:163|54:152,1,143.999995605469,0|0,0:0|0:0,0:0:0:0:
19,230,26604,6,2,B|102:247|102:247|122:302,1,143.999995605469,8|0,0:0|0:0,0:0:0:0:
197,345,27121,1,0,0:0:0:0:
273,303,27294,1,8,0:0:0:0:
273,303,27639,6,2,P|321:251|407:261,1,143.999995605469,2|8,0:0|0:0,0:0:0:0:
354,330,28156,2,2,L|287:179,1,143.999995605469,0|0,0:0|0:0,0:0:0:0:
323,116,28673,1,8,0:0:0:0:
245,77,28846,2,2,P|166:74|86:73,1,143.999995605469,0|0,0:0|0:0,0:0:0:0:
65,152,29363,6,2,P|136:153|208:155,1,143.999995605469,8|0,0:0|0:0,0:0:0:0:
245,77,29880,1,0,0:0:0:0:
323,116,30053,2,2,P|364:117|400:92,1,71.9999978027344,8|0,0:0|0:0,0:0:0:0:
458,49,30397,6,2,P|448:143|493:181,1,143.999995605469,2|8,0:0|0:0,0:0:0:0:
424,243,30915,2,2,P|353:259|284:279,1,143.999995605469,0|0,0:0|0:0,0:0:0:0:
216,333,31432,1,8,0:0:0:0:
148,279,31604,2,2,P|97:217|117:150,1,143.999995605469,0|0,0:0|0:0,0:0:0:0:
104,73,32121,6,2,B|161:76|184:120|184:120|230:120,1,143.999995605469,8|0,0:0|0:0,0:0:0:0:
313,147,32639,1,0,0:0:0:0:
394,120,32811,1,8,0:0:0:0:
394,120,33156,6,2,B|427:187|427:187|409:278,1,143.999995605469,6|8,0:0|0:0,0:0:0:0:
366,328,33673,2,2,B|333:261|333:261|351:170,1,143.999995605469,0|0,0:0|0:0,0:0:0:0:
269,153,34190,1,8,0:0:0:0:
182,145,34363,2,2,P|121:193|47:167,1,143.999995605469,0|0,0:0|0:0,0:0:0:0:
106,105,34880,6,2,P|167:57|241:83,1,143.999995605469,8|0,0:0|0:0,0:0:0:0:
300,117,35397,1,0,0:0:0:0:
381,145,35570,2,2,P|446:147|482:141,1,71.9999978027344,8|0,0:0|0:0,0:0:0:0:
484,226,35915,6,2,P|431:243|448:334,1,143.999995605469,2|8,0:0|0:0,0:0:0:0:
356,366,36432,2,2,B|324:312|333:267|333:267|277:267,1,143.999995605469,0|0,0:0|0:0,0:0:0:0:
206,267,36949,1,8,0:0:0:0:
147,203,37121,2,2,B|144:130|141:51,1,143.999995605469,0|0,0:0|0:0,0:0:0:0:
223,31,37639,6,2,B|225:101|228:174,1,143.999995605469,8|0,0:0|0:0,0:0:0:0:
301,222,38156,1,0,0:0:0:0:
375,179,38328,1,8,0:0:0:0:
375,179,38673,6,2,B|407:241|407:241|336:320,1,143.999995605469,2|8,0:0|0:0,0:0:0:0:
283,339,39190,2,2,B|251:277|251:277|322:198,1,143.999995605469,0|0,0:0|0:0,0:0:0:0:
290,135,39708,1,8,0:0:0:0:
215,92,39880,2,2,P|149:133|83:103,1,143.999995605469,0|0,0:0|0:0,0:0:0:0:
48,187,40397,6,2,B|56:240|56:240|72:276|72:276|82:331,1,143.999995605469,8|0,0:0|0:0,0:0:0:0:
164,351,40915,1,0,0:0:0:0:
250,349,41087,2,2,P|288:346|326:342,1,71.9999978027344,8|0,0:0|0:0,0:0:0:0:
405,320,41432,6,2,B|394:261|394:261|415:208|487:217,1,143.999995605469,2|8,0:0|0:0,0:0:0:0:
463,129,41949,2,2,B|411:133|376:156|376:156|336:112,1,143.999995605469,0|0,0:0|0:0,0:0:0:0:
277,58,42466,1,8,0:0:0:0:
193,83,42639,2,2,P|153:138|68:140,1,143.999995605469,0|0,0:0|0:0,0:0:0:0:
109,63,43156,6,2,L|183:199,1,143.999995605469,8|0,0:0|0:0,0:0:0:0:
231,257,43673,1,0,0:0:0:0:
314,234,43846,1,8,0:0:0:0:
314,234,44190,6,0,P|425:231|450:157,2,180.000006866455,6|2|2,0:0|0:0|0:0,0:0:0:0:
178,184,45570,2,0,P|171:248|164:313,1,120.000004577637,2|2,0:0|0:0,0:0:0:0:
39,232,46259,2,0,P|32:170|26:112,1,120.000004577637,2|2,0:0|0:0,0:0:0:0:
162,64,46949,6,0,B|281:86|281:86|360:64,2,180.000006866455,2|2|2,0:0|0:0|0:0,0:0:0:0:
84,185,48328,2,0,P|151:197|226:211,1,120.000004577637,2|2,0:0|0:0,0:0:0:0:
253,341,49018,2,0,P|186:329|111:315,1,120.000004577637,2|2,0:0|0:0,0:0:0:0:
84,185,49708,6,0,P|128:87|77:39,2,180.000006866455,2|2|2,0:0|0:0|0:0,0:0:0:0:
12,309,51087,2,0,P|88:302|145:341,1,120.000004577637,2|2,0:0|0:0,0:0:0:0:
269,328,51777,2,0,P|323:350|382:339,1,120.000004577637,2|2,0:0|0:0,0:0:0:0:
436,206,52466,6,0,B|380:168|403:98|403:98|337:63,2,180.000006866455,2|2|2,0:0|0:0|0:0,0:0:0:0:
299,253,53846,2,0,B|219:239|219:239|158:266,1,120.000004577637,2|2,0:0|0:0,0:0:0:0:
55,319,54535,2,0,P|61:256|36:187,1,120.000004577637,2|2,0:0|0:0,0:0:0:0:
103,70,55225,5,2,0:0:0:0:
103,70,55742,2,0,P|155:91|218:117,1,120.000004577637,2|0,0:0|0:0,0:0:0:0:
231,45,56259,2,0,P|283:66|346:92,1,120.000004577637,2|0,0:0|0:0,0:0:0:0:
309,155,56777,2,0,P|361:176|424:202,1,120.000004577637,2|0,0:0|0:0,0:0:0:0:
451,276,57294,1,4,0:0:0:0:
451,276,57639,1,2,0:0:0:0:
451,276,57984,6,0,P|415:328|343:318,1,120.000004577637,2|0,0:0|0:0,0:0:0:0:
380,259,58501,2,0,P|322:264|291:313,1,120.000004577637,2|0,0:0|0:0,0:0:0:0:
226,344,59018,2,0,B|161:349|161:349|141:345|141:345|86:349,1,120.000004577637,2|0,0:0|0:0,0:0:0:0:
55,296,59535,2,0,B|79:233|79:233|51:179,1,120.000004577637,2|0,0:0|0:0,0:0:0:0:
65,121,60053,1,4,0:0:0:0:
65,121,60397,1,2,0:0:0:0:
65,121,60742,6,0,B|135:105|135:105|192:123,1,120.000004577637,2|0,0:0|0:0,0:0:0:0:
229,172,61259,2,0,B|274:186|274:186|344:170,1,120.000004577637,2|0,0:0|0:0,0:0:0:0:
413,147,61777,1,2,0:0:0:0:
256,192,62121,12,0,65570,0:0:0:0:
441,47,66259,6,0,P|443:88|447:146,1,71.9999978027344,6|0,0:0|0:0,0:0:0:0:
415,200,66604,1,8,0:0:0:0:
341,245,66777,2,0,P|341:272|341:302,4,35.9999989013672,6|0|4|0|4,0:0|0:0|0:0|0:0|0:0,0:0:0:0:
340,158,67294,1,8,0:0:0:0:
265,200,67466,1,0,0:0:0:0:
265,113,67639,6,0,P|260:72|264:32,1,71.9999978027344,4|0,0:0|0:0,0:0:0:0:
179,14,67984,1,8,0:0:0:0:
107,61,68156,2,0,L|55:64,4,35.9999989013672,4|0|4|0|4,0:0|0:0|0:0|0:0|0:0,0:0:0:0:
151,135,68673,1,8,0:0:0:0:
107,210,68846,1,0,0:0:0:0:
192,216,69018,6,0,P|233:215|282:218,1,71.9999978027344,6|0,0:0|0:0,0:0:0:0:
326,276,69363,1,8,0:0:0:0:
412,271,69535,2,0,L|470:266,4,35.9999989013672,6|0|4|0|4,0:0|0:0|0:0|0:0|0:0,0:0:0:0:
371,193,70053,1,8,0:0:0:0:
412,117,70225,1,0,0:0:0:0:
348,58,70397,6,0,B|304:68|304:68|250:57,1,71.9999978027344,4|0,0:0|0:0,0:0:0:0:
201,21,70742,1,8,0:0:0:0:
126,65,70915,2,0,L|87:93,4,35.9999989013672,4|0|4|0|4,0:0|0:0|0:0|0:0|0:0,0:0:0:0:
201,108,71432,1,8,0:0:0:0:
201,194,71604,1,0,0:0:0:0:
166,273,71777,6,0,P|217:281|243:267,1,71.9999978027344,6|0,0:0|0:0,0:0:0:0:
305,225,72121,1,8,0:0:0:0:
376,273,72294,2,0,L|422:303,4,35.9999989013672,6|0|4|0|4,0:0|0:0|0:0|0:0|0:0,0:0:0:0:
305,225,72811,1,8,0:0:0:0:
369,167,72984,1,0,0:0:0:0:
287,139,73156,6,0,P|286:105|288:36,1,71.9999978027344,4|0,0:0|0:0,0:0:0:0:
367,36,73501,1,8,0:0:0:0:
449,60,73673,2,0,L|506:54,4,35.9999989013672,4|0|4|0|4,0:0|0:0|0:0|0:0|0:0,0:0:0:0:
367,36,74190,1,8,0:0:0:0:
286,67,74363,1,0,0:0:0:0:
200,57,74535,6,0,P|141:62|104:46,1,71.9999978027344,6|0,0:0|0:0,0:0:0:0:
50,23,74880,1,8,0:0:0:0:
60,109,75053,2,0,L|52:152,4,35.9999989013672,6|0|4|0|4,0:0|0:0|0:0|0:0|0:0,0:0:0:0:
129,58,75570,1,8,0:0:0:0:
165,136,75742,1,0,0:0:0:0:
240,179,75915,6,0,B|284:188|284:188|338:172,1,71.9999978027344,4|0,0:0|0:0,0:0:0:0:
392,156,76259,1,8,0:0:0:0:
445,223,76432,2,0,L|460:283,4,35.9999989013672,4|0|4|0|6,0:0|0:0|0:0|0:0|0:0,0:0:0:0:
392,156,76949,1,10,0:0:0:0:
445,88,77121,1,2,0:0:0:0:
359,76,77294,6,0,B|286:57|286:57|236:67,2,107.999996704102,2|2|2,0:0|0:0|0:0,0:0:0:0:
401,198,78070,1,2,0:0:0:0:
342,313,78328,1,2,0:0:0:0:
170,336,78673,2,0,L|135:186,1,143.999995605469,0|0,0:0|0:0,0:0:0:0:
71,138,79190,2,0,B|109:95|167:111|167:111|223:100,1,143.999995605469,0|0,0:0|0:0,0:0:0:0:
291,103,79708,2,0,P|326:98|363:82,1,71.9999978027344,0|2,0:0|0:0,0:0:0:0:
434,40,80053,6,0,B|428:116|428:116|442:167,2,107.999996704102,2|2|2,0:0|0:0|0:0,0:0:0:0:
306,20,80828,1,2,0:0:0:0:
177,40,81087,1,2,0:0:0:0:
80,183,81432,2,0,P|106:262|68:324,1,143.999995605469,0|0,0:0|0:0,0:0:0:0:
22,248,81949,2,0,L|191:257,1,143.999995605469,0|0,0:0|0:0,0:0:0:0:
252,262,82466,2,0,P|294:265|336:269,1,71.9999978027344,0|2,0:0|0:0,0:0:0:0:
409,279,82811,6,0,P|413:222|419:159,2,107.999996704102,2|2|2,0:0|0:0|0:0,0:0:0:0:
323,267,83501,2,0,P|327:210|333:147,2,107.999996704102,2|2|2,0:0|0:0|0:0,0:0:0:0:
237,253,84190,2,0,P|241:196|247:133,2,107.999996704102,2|2|2,0:0|0:0|0:0,0:0:0:0:
150,243,84880,2,0,P|154:186|160:123,2,107.999996704102,2|2|2,0:0|0:0|0:0,0:0:0:0:
198,314,85570,6,0,B|236:332|236:332|316:314,2,107.999996704102,2|2|2,0:0|0:0|0:0,0:0:0:0:
150,243,86259,2,0,B|112:225|112:225|32:243,2,107.999996704102,2|2|2,0:0|0:0|0:0,0:0:0:0:
241,257,86949,6,0,P|294:258|362:260,1,107.999996704102,8|0,0:0|0:0,0:0:0:0:
349,260,87294,2,0,P|347:208|350:174,1,71.9999978027344,8|0,0:0|0:0,0:0:0:0:
313,108,87639,2,0,L|290:58,2,35.9999989013672,8|0|0,0:0|0:0|0:0,0:0:0:0:
389,66,87984,2,0,L|393:17,2,35.9999989013672,8|0|0,0:0|0:0|0:0,0:0:0:0:
451,138,88328,6,0,P|456:239|459:325,1,160,6|8,0:0|0:0,0:0:0:0:
375,347,88846,2,0,P|301:328|234:381,1,160,0|0,0:0|0:0,0:0:0:0:
144,348,89363,1,8,0:0:0:0:
144,348,89708,6,0,P|141:278|135:242,1,80,0|0,0:0|0:0,0:0:0:0:
76,195,90053,1,8,0:0:0:0:
170,181,90225,2,0,B|215:202|228:243|228:243|300:228,1,160,0|0,0:0|0:0,0:0:0:0:
398,193,90742,2,0,P|398:140|396:110,1,80,8|0,0:0|0:0,0:0:0:0:
324,48,91087,6,0,B|280:16|251:16|216:16|176:48,1,160,2|8,0:0|0:0,0:0:0:0:
250,109,91604,2,0,B|210:140|180:140|146:140|102:108,1,160,0|0,0:0|0:0,0:0:0:0:
39,35,92121,1,8,0:0:0:0:
39,35,92466,6,0,P|6:94|6:120,1,80,0|0,0:0|0:0,0:0:0:0:
28,251,92811,2,0,P|52:220|61:182,1,80,8|0,0:0|0:0,0:0:0:0:
157,171,93156,2,0,P|194:223|304:192,1,160,0|8,0:0|0:0,0:0:0:0:
359,159,93673,1,0,0:0:0:0:
429,93,93846,6,0,B|460:62|460:62|475:185,1,160,2|8,0:0|0:0,0:0:0:0:
465,273,94363,2,0,B|429:269|397:237|397:237|373:269|325:273,1,160,0|0,0:0|0:0,0:0:0:0:
230,274,94880,1,8,0:0:0:0:
230,274,95225,6,0,P|170:273|131:278,1,80,0|0,0:0|0:0,0:0:0:0:
56,251,95570,1,8,0:0:0:0:
61,155,95742,2,0,P|103:83|78:10,1,160,0|0,0:0|0:0,0:0:0:0:
7,75,96259,2,0,L|107:89,1,80,8|0,0:0|0:0,0:0:0:0:
181,100,96604,6,0,B|272:111|272:111|289:73|330:68,1,160,2|8,0:0|0:0,0:0:0:0:
359,158,97121,2,0,P|366:249|373:354,1,160,0|0,0:0|0:0,0:0:0:0:
280,354,97639,1,8,0:0:0:0:
280,354,97984,6,0,P|210:358|182:349,1,80,0|0,0:0|0:0,0:0:0:0:
43,301,98328,2,0,P|82:295|122:300,1,80,8|0,0:0|0:0,0:0:0:0:
196,240,98673,2,0,P|159:157|187:96,1,160,0|8,0:0|0:0,0:0:0:0:
255,163,99190,1,8,0:0:0:0:
316,240,99363,6,0,P|353:157|325:96,1,160,6|8,0:0|0:0,0:0:0:0:
257,31,99880,2,0,B|220:19|191:35|191:35|163:21|163:21|136:37|85:29,1,160,0|0,0:0|0:0,0:0:0:0:
36,99,100397,1,8,0:0:0:0:
36,99,100742,6,0,P|39:141|43:191,1,80,0|0,0:0|0:0,0:0:0:0:
54,274,101087,1,8,0:0:0:0:
132,328,101259,2,0,P|227:331|303:339,1,160,0|0,0:0|0:0,0:0:0:0:
377,292,101777,1,8,0:0:0:0:
377,292,101949,1,0,0:0:0:0:
444,224,102121,6,0,B|426:142|426:142|433:105|459:68,1,160,2|8,0:0|0:0,0:0:0:0:
376,20,102639,2,0,B|340:36|312:68|312:68|288:40|240:20,1,160,0|0,0:0|0:0,0:0:0:0:
231,118,103156,1,8,0:0:0:0:
231,118,103501,6,0,P|220:177|237:218,1,80,0|0,0:0|0:0,0:0:0:0:
285,340,103846,2,0,P|297:302|292:263,1,80,8|0,0:0|0:0,0:0:0:0:
362,198,104190,2,0,P|432:208|500:146,1,160,0|8,0:0|0:0,0:0:0:0:
410,110,104708,1,0,0:0:0:0:
317,124,104880,6,0,P|272:192|306:277,1,160,2|8,0:0|0:0,0:0:0:0:
339,346,105397,2,0,P|220:356|161:362,1,160,0|0,0:0|0:0,0:0:0:0:
91,319,105915,1,8,0:0:0:0:
91,319,106259,6,0,L|79:217,1,80,0|0,0:0|0:0,0:0:0:0:
50,148,106604,1,8,0:0:0:0:
76,55,106777,2,0,B|124:72|139:115|139:115|217:107,1,160
304,98,107294,2,0,P|359:92|396:88,1,80,8|0,0:0|0:0,0:0:0:0:
443,164,107639,6,0,P|392:215|437:304,1,160,2|8,0:0|0:0,0:0:0:0:
341,353,108156,2,0,P|278:316|204:383,1,160,0|0,0:0|0:0,0:0:0:0:
115,343,108673,1,8,0:0:0:0:
115,343,109018,6,0,P|154:281|176:263,1,80,0|0,0:0|0:0,0:0:0:0:
281,156,109363,2,0,P|263:192|238:223,1,80,8|0,0:0|0:0,0:0:0:0:
186,141,109708,1,0,0:0:0:0:
375,174,110053,1,8,0:0:0:0:
375,174,110225,1,8,0:0:0:0:
399,266,110397,6,0,B|418:351|418:351|372:342|310:366,1,160,6|8,0:0|0:0,0:0:0:0:
249,365,110915,2,0,P|187:369|90:366,1,160,0|0,0:0|0:0,0:0:0:0:
44,280,111432,1,8,0:0:0:0:
44,280,111777,6,0,P|45:210|39:182,1,80,0|0,0:0|0:0,0:0:0:0:
45,104,112121,1,8,0:0:0:0:
138,127,112294,2,0,P|218:135|272:75,1,160,0|0,0:0|0:0,0:0:0:0:
182,41,112811,2,0,P|196:82|211:130,1,80,8|0,0:0|0:0,0:0:0:0:
241,207,113156,6,0,B|264:279|264:279|307:260|352:286,1,160,2|8,0:0|0:0,0:0:0:0:
301,368,113673,2,0,P|379:374|434:321,1,160,0|0,0:0|0:0,0:0:0:0:
425,224,114190,1,8,0:0:0:0:
425,224,114535,6,0,P|428:163|415:117,1,80,0|0,0:0|0:0,0:0:0:0:
340,15,114880,2,0,P|336:55|341:95,1,80,8|0,0:0|0:0,0:0:0:0:
292,178,115225,2,0,P|206:131|139:162,1,160,0|8,0:0|0:0,0:0:0:0:
214,230,115742,1,0,0:0:0:0:
214,230,115915,6,0,P|228:151|245:66,1,160,2|8,0:0|0:0,0:0:0:0:
158,27,116432,2,0,P|143:105|128:184,1,160,0|0,0:0|0:0,0:0:0:0:
56,248,116949,1,8,0:0:0:0:
56,248,117294,6,0,P|108:280|144:279,1,80,0|0,0:0|0:0,0:0:0:0:
215,248,117639,1,8,0:0:0:0:
294,193,117811,2,0,B|324:241|302:290|302:290|368:268,1,160,0|0,0:0|0:0,0:0:0:0:
437,219,118328,1,8,0:0:0:0:
437,219,118501,1,0,0:0:0:0:
372,148,118673,6,0,P|291:101|216:148,1,160,2|8,0:0|0:0,0:0:0:0:
171,195,119190,2,0,P|96:216|34:170,1,160,0|0,0:0|0:0,0:0:0:0:
119,119,119708,1,8,0:0:0:0:
119,119,120053,6,0,P|193:101|224:114,1,80,0|0,0:0|0:0,0:0:0:0:
346,140,120397,2,0,P|310:157|271:158,1,80,8|0,0:0|0:0,0:0:0:0:
302,67,120742,2,0,P|361:57|433:135,1,160,0|8,0:0|0:0,0:0:0:0:
407,214,121259,1,8,0:0:0:0:
378,306,121432,6,0,B|304:346|304:346|222:311,1,160,6|8,0:0|0:0,0:0:0:0:
147,273,121949,2,0,B|77:243|77:243|3:283,1,160,0|0,0:0|0:0,0:0:0:0:
83,346,122466,1,8,0:0:0:0:
83,346,122811,6,0,P|135:373|178:368,1,80,0|0,0:0|0:0,0:0:0:0:
245,340,123156,1,8,0:0:0:0:
328,293,123328,2,0,P|316:209|305:108,1,160,0|0,0:0|0:0,0:0:0:0:
223,85,123846,2,0,P|174:85|131:82,1,80,8|0,0:0|0:0,0:0:0:0:
47,78,124190,6,0,B|52:146|100:167|100:167|51:210,1,160,2|8,0:0|0:0,0:0:0:0:
75,296,124708,2,0,B|161:217|161:217|161:262,1,160,0|0,0:0|0:0,0:0:0:0:
151,356,125225,1,8,0:0:0:0:
151,356,125570,6,0,P|215:361|251:349,1,80,0|0,0:0|0:0,0:0:0:0:
389,306,125915,2,0,P|350:299|311:305,1,80,8|0,0:0|0:0,0:0:0:0:
229,255,126259,1,0,0:0:0:0:
45,312,126604,1,8,0:0:0:0:
45,312,126777,1,0,0:0:0:0:
43,216,126949,6,0,P|42:122|40:56,1,160,2|8,0:0|0:0,0:0:0:0:
135,41,127466,2,0,B|221:86|221:86|297:38,1,160
374,31,127984,1,8,0:0:0:0:
374,31,128328,6,0,P|378:89|375:123,1,80,0|0,0:0|0:0,0:0:0:0:
302,172,128673,1,8,0:0:0:0:
205,169,128846,2,0,B|110:151|110:151|113:179|91:211,1,160,0|0,0:0|0:0,0:0:0:0:
14,152,129363,2,0,P|36:89|69:70,1,80,8|0,0:0|0:0,0:0:0:0:
138,63,129708,6,0,L|194:43,3,40,2|0|0|0,0:0|0:0|0:0|0:0,0:0:0:0:
220,67,130053,2,0,L|276:47,3,40,8|0|0|0,0:0|0:0|0:0|0:0,0:0:0:0:
302,69,130397,2,0,L|358:49,3,40,0|0|0|0,0:0|0:0|0:0|0:0,0:0:0:0:
383,76,130742,2,0,L|439:56,3,40,8|0|0|0,0:0|0:0|0:0|0:0,0:0:0:0:
462,87,131087,6,0,L|474:239,1,120,0|0,0:0|0:0,0:0:0:0:
471,206,131432,2,0,P|424:213|371:223,1,80,8|0,0:0|0:0,0:0:0:0:
315,276,131777,2,0,L|276:323,2,40,0|0|0,0:0|0:0|0:0,0:0:0:0:
272,190,132121,2,0,L|210:182,2,40,8|0|8,0:0|0:0|0:0,0:0:0:0:
352,137,132466,6,0,B|362:61|362:61|349:9,2,120,2|2|2,0:0|0:0|0:0,0:0:0:0:
315,276,133242,1,2,0:0:0:0:
213,174,133501,1,2,0:0:0:0:
73,138,133759,2,0,B|63:62|63:62|76:10,2,120,2|2|2,0:0|0:0|0:0,0:0:0:0:
155,256,134535,6,0,L|148:303,2,40,2|0|2,0:0|0:0|0:0,0:0:0:0:
244,291,134880,2,2,L|262:334,2,40,10|0|0,0:0|0:0|0:0,0:0:0:0:
231,195,135225,6,2,P|249:115|337:85,1,160,2|8,0:0|0:0,0:0:0:0:
326,178,135742,2,2,L|184:73,1,160,0|0,0:0|0:0,0:0:0:0:
101,88,136259,1,8,0:0:0:0:
41,163,136432,2,2,B|56:243|56:243|29:332,1,160,0|0,0:0|0:0,0:0:0:0:
118,362,136949,6,2,B|147:263|147:263|180:309,1,160,8|0,0:0|0:0,0:0:0:0:
268,346,137466,1,0,0:0:0:0:
357,309,137639,1,8,0:0:0:0:
357,309,137984,6,2,P|393:222|349:152,1,160,2|8,0:0|0:0,0:0:0:0:
298,234,138501,2,2,P|271:160|308:92,1,160,0|0,0:0|0:0,0:0:0:0:
238,25,139018,1,8,0:0:0:0:
144,43,139190,2,2,B|36:68|36:68|86:98,1,160,0|0,0:0|0:0,0:0:0:0:
165,134,139708,6,2,B|207:159|207:159|99:184,1,160,8|0,0:0|0:0,0:0:0:0:
40,260,140225,1,0,0:0:0:0:
132,285,140397,2,2,P|176:275|221:265,1,80,8|0,0:0|0:0,0:0:0:0:
292,217,140742,6,2,B|316:262|294:311|294:311|356:333,1,160,2|8,0:0|0:0,0:0:0:0:
446,352,141259,2,2,B|454:302|426:275|426:275|456:248|439:191,1,160,0|0,0:0|0:0,0:0:0:0:
454,106,141777,1,8,0:0:0:0:
377,48,141949,2,2,P|300:94|228:64,1,160,0|0,0:0|0:0,0:0:0:0:
148,39,142466,6,2,P|72:20|9:64,1,160,8|0,0:0|0:0,0:0:0:0:
90,116,142984,1,0,0:0:0:0:
69,209,143156,1,8,0:0:0:0:
69,209,143328,1,0,0:0:0:0:
69,209,143501,6,2,P|156:225|240:241,1,160,6|8,0:0|0:0,0:0:0:0:
158,306,144018,2,2,P|245:322|329:338,1,160,0|0,0:0|0:0,0:0:0:0:
398,286,144535,1,8,0:0:0:0:
453,207,144708,2,2,B|467:127|445:97|445:97|385:82,1,160,0|0,0:0|0:0,0:0:0:0:
303,78,145225,6,2,B|289:158|311:188|311:188|371:203,1,160,8|0,0:0|0:0,0:0:0:0:
398,286,145742,1,0,0:0:0:0:
315,335,145915,2,2,P|251:320|214:311,1,80,8|0,0:0|0:0,0:0:0:0:
146,284,146259,6,2,P|112:221|158:131,1,160,2|8,0:0|0:0,0:0:0:0:
209,212,146777,2,2,P|239:140|204:70,1,160,0|0,0:0|0:0,0:0:0:0:
110,49,147294,1,8,0:0:0:0:
47,121,147466,2,2,P|55:199|66:293,1,160,0|0,0:0|0:0,0:0:0:0:
159,301,147984,6,2,P|150:222|141:142,1,160,8|0,0:0|0:0,0:0:0:0:
229,103,148501,1,0,0:0:0:0:
315,143,148673,1,8,0:0:0:0:
315,143,149018,6,2,B|326:202|392:214|392:214|370:269,1,160,2|8,0:0|0:0,0:0:0:0:
316,335,149535,2,2,B|305:276|239:264|239:264|261:209,1,160,0|0,0:0|0:0,0:0:0:0:
227,127,150053,1,8,0:0:0:0:
163,198,150225,2,2,B|126:292|126:292|61:238,1,160,0|0,0:0|0:0,0:0:0:0:
38,167,150742,6,2,B|75:73|75:73|140:127,1,160,8|0,0:0|0:0,0:0:0:0:
215,126,151259,1,0,0:0:0:0:
311,131,151432,2,2,P|376:131|404:123,1,80,8|0,0:0|0:0,0:0:0:0:
454,56,151777,6,2,P|422:147|482:212,1,160,2|8,0:0|0:0,0:0:0:0:
409,282,152294,2,2,B|341:278|341:278|299:271|299:271|229:269,1,160,0|0,0:0|0:0,0:0:0:0:
171,213,152811,1,8,0:0:0:0:
215,126,152984,1,0,0:0:0:0:
300,82,153156,6,2,P|344:75|400:93,1,80,0|0,0:0|0:0,0:0:0:0:
416,170,153501,2,2,P|372:177|316:159,1,80,8|0,0:0|0:0,0:0:0:0:
261,228,153846,2,0,P|268:267|274:306,1,80,0|0,0:0|0:0,0:0:0:0:
211,145,154190,2,2,P|203:105|197:66,1,80,8|8,0:0|0:0,0:0:0:0:
103,43,154535,5,4,0:0:0:0:
