osu file format v14

[General]
AudioFilename: tutut.mp3
AudioLeadIn: 0
PreviewTime: 132466
Countdown: 0
SampleSet: Normal
StackLeniency: 0.7
Mode: 0
LetterboxInBreaks: 0
WidescreenStoryboard: 0

[Editor]
Bookmarks: 53,22121,44190,49708,55225,60742,66259,77294,88328,132466,135225,154535
DistanceSpacing: 1.4
BeatDivisor: 4
GridSize: 4
TimelineZoom: 1

[Metadata]
Title:Tale Of A Shooting Star (Feint Remix)
TitleUnicode:Tale Of A Shooting Star (Feint Remix)
Artist:Relay & Front
ArtistUnicode:Relay & Front
Creator:RyoKazuka
Version:HOS' Advanced
Source:
Tags:and drum bass dnb soul directions -famous- left hootowlstar
BeatmapID:943182
BeatmapSetID:387252

[Difficulty]
HPDrainRate:4
CircleSize:3.7
OverallDifficulty:5
ApproachRate:6.5
SliderMultiplier:1.4
SliderTickRate:1

[Events]
//Background and Video events
0,0,"planet_impact-1920x1200.jpg",0,0
//Break Periods
//Storyboard Layer 0 (Background)
//Storyboard Layer 1 (Fail)
//Storyboard Layer 2 (Pass)
//Storyboard Layer 3 (Foreground)
//Storyboard Sound Samples

[TimingPoints]
53,344.827586206897,4,1,1,55,1,0
53,-111.111111111111,4,1,1,55,0,0
22121,-111.111111111111,4,1,1,55,0,1
22208,-111.111111111111,4,1,1,55,0,0
22984,-111.111111111111,4,2,1,15,0,0
23156,-111.111111111111,4,1,1,55,0,0
24190,-111.111111111111,4,2,1,15,0,0
24363,-111.111111111111,4,1,1,55,0,0
25742,-111.111111111111,4,2,1,15,0,0
25915,-111.111111111111,4,1,1,55,0,0
26949,-111.111111111111,4,2,1,15,0,0
27121,-111.111111111111,4,1,1,55,0,0
28501,-111.111111111111,4,2,1,15,0,0
28673,-111.111111111111,4,1,1,55,0,0
29708,-111.111111111111,4,2,1,15,0,0
29880,-111.111111111111,4,1,1,55,0,0
31259,-111.111111111111,4,2,1,15,0,0
31432,-111.111111111111,4,1,1,55,0,0
32466,-111.111111111111,4,2,1,15,0,0
32639,-111.111111111111,4,1,1,55,0,0
34018,-111.111111111111,4,2,1,15,0,0
34190,-111.111111111111,4,1,1,55,0,0
35225,-111.111111111111,4,2,1,15,0,0
35397,-111.111111111111,4,1,1,55,0,0
36777,-111.111111111111,4,2,1,15,0,0
36949,-111.111111111111,4,1,1,55,0,0
37984,-111.111111111111,4,2,1,15,0,0
38156,-111.111111111111,4,1,1,55,0,0
39535,-111.111111111111,4,2,1,15,0,0
39708,-111.111111111111,4,1,1,55,0,0
40742,-111.111111111111,4,2,1,15,0,0
40915,-111.111111111111,4,1,1,55,0,0
42294,-111.111111111111,4,2,1,15,0,0
42466,-111.111111111111,4,1,1,55,0,0
43501,-111.111111111111,4,2,1,15,0,0
43673,-111.111111111111,4,1,1,55,0,0
44190,-133.333333333333,4,2,1,40,0,0
65742,-111.111111111111,4,2,1,40,0,0
66259,-111.111111111111,4,2,1,40,0,1
66346,-111.111111111111,4,2,1,40,0,0
85742,-111.111111111111,4,2,1,43,0,0
85828,-111.111111111111,4,2,1,47,0,0
85915,-111.111111111111,4,2,1,50,0,0
86001,-111.111111111111,4,2,1,53,0,0
86087,-111.111111111111,4,2,1,55,0,0
86173,-111.111111111111,4,2,1,58,0,0
86259,-111.111111111111,4,2,1,60,0,0
86346,-111.111111111111,4,2,1,63,0,0
86432,-111.111111111111,4,2,1,65,0,0
86518,-111.111111111111,4,2,1,68,0,0
86604,-111.111111111111,4,2,1,70,0,0
86690,-111.111111111111,4,2,1,73,0,0
86777,-111.111111111111,4,2,1,75,0,0
86863,-111.111111111111,4,2,1,78,0,0
86949,-111.111111111111,4,2,1,80,0,0
87035,-111.111111111111,4,2,1,75,0,0
87121,-111.111111111111,4,2,1,70,0,0
87208,-111.111111111111,4,2,1,65,0,0
87294,-111.111111111111,4,2,1,60,0,0
87380,-111.111111111111,4,2,1,55,0,0
87466,-111.111111111111,4,2,1,50,0,0
87553,-111.111111111111,4,2,1,45,0,0
87639,-111.111111111111,4,2,1,40,0,0
87725,-111.111111111111,4,2,1,35,0,0
87811,-111.111111111111,4,2,1,30,0,0
87897,-111.111111111111,4,2,1,25,0,0
87984,-111.111111111111,4,2,1,20,0,0
88328,-100,4,1,1,60,0,1
132466,-100,4,1,1,60,0,0
135225,-100,4,1,1,60,0,1
136087,-100,4,2,1,15,0,1
136259,-100,4,1,1,60,0,1
137294,-100,4,2,1,15,0,1
137466,-100,4,1,1,60,0,1
138846,-100,4,2,1,15,0,1
139018,-100,4,1,1,60,0,1
140053,-100,4,2,1,15,0,1
140225,-100,4,1,1,60,0,1
141604,-100,4,2,1,15,0,1
141777,-100,4,1,1,60,0,1
142811,-100,4,2,1,15,0,1
142984,-100,4,1,1,60,0,1
144363,-100,4,2,1,15,0,1
144535,-100,4,1,1,60,0,1
145570,-100,4,2,1,15,0,1
145742,-100,4,1,1,60,0,1
147121,-100,4,2,1,15,0,1
147294,-100,4,1,1,60,0,1
148328,-100,4,2,1,15,0,1
148501,-100,4,1,1,60,0,1
149880,-100,4,2,1,15,0,1
150053,-100,4,1,1,60,0,1
151087,-100,4,2,1,15,0,1
151259,-100,4,1,1,60,0,1
152639,-100,4,2,1,15,0,1
152811,-100,4,1,1,60,0,1
154535,-100,4,1,1,60,0,0

[Colours]
Combo1 : 164,67,53
Combo2 : 244,155,74
Combo3 : 255,255,128
Combo4 : 199,193,184
SliderBorder : 255,231,91

[HitObjects]
32,80,53,6,0,L|20:164,1,62.9999980773926,6|0,0:0|0:0,0:0:0:0:
64,220,397,2,0,P|148:208|180:296,1,188.999994232178,0|0,0:0|0:0,0:0:0:0:
132,364,1087,1,8,0:0:0:0:
308,340,1432,2,0,L|396:328,1,62.9999980773926,0|0,0:0|0:0,0:0:0:0:
452,364,1777,2,0,B|464:300|464:300|444:248|444:248|456:160,1,188.999994232178,8|0,0:0|0:0,0:0:0:0:
508,112,2466,1,8,0:0:0:0:
348,32,2811,6,0,P|316:48|288:56,1,62.9999980773926,2|0,0:0|0:0,0:0:0:0:
204,44,3156,2,0,B|160:28|160:28|112:40|112:40|68:16|8:36,1,188.999994232178,8|0,0:0|0:0,0:0:0:0:
0,120,3846,2,0,L|8:192,1,62.9999980773926,8|0,0:0|0:0,0:0:0:0:
48,260,4190,2,0,L|40:332,1,62.9999980773926,0|0,0:0|0:0,0:0:0:0:
116,368,4535,2,0,P|140:304|264:320,1,188.999994232178,8|0,0:0|0:0,0:0:0:0:
304,368,5225,1,8,0:0:0:0:
472,308,5570,6,0,B|488:276|488:276|484:224,1,62.9999980773926,2|0,0:0|0:0,0:0:0:0:
424,188,5915,2,0,B|392:184|356:204|356:204|292:176|232:188,1,188.999994232178,0|0,0:0|0:0,0:0:0:0:
172,240,6604,1,8,0:0:0:0:
48,116,6949,2,0,P|40:56|40:36,1,62.9999980773926,0|0,0:0|0:0,0:0:0:0:
124,24,7294,2,0,L|312:40,1,188.999994232178,8|0,0:0|0:0,0:0:0:0:
400,24,7984,1,8,0:0:0:0:
484,176,8328,6,0,L|472:256,1,62.9999980773926,2|0,0:0|0:0,0:0:0:0:
412,300,8673,2,0,P|352:280|296:372,1,188.999994232178,8|0,0:0|0:0,0:0:0:0:
208,356,9363,2,0,P|156:332|136:328,1,62.9999980773926,8|0,0:0|0:0,0:0:0:0:
100,260,9708,2,0,P|129:250|157:234,1,62.9999980773926,0|0,0:0|0:0,0:0:0:0:
120,152,10053,2,0,L|0:136,2,94.499997116089,8|0|0,0:0|0:0|0:0,0:0:0:0:
204,120,10742,2,0,P|216:88|224:44,1,62.9999980773926,8|0,0:0|0:0,0:0:0:0:
300,16,11087,6,0,P|306:46|318:76,1,62.9999980773926,6|0,0:0|0:0,0:0:0:0:
396,120,11432,2,0,P|452:116|484:240,1,188.999994232178,0|0,0:0|0:0,0:0:0:0:
428,276,12121,1,8,0:0:0:0:
256,248,12466,2,0,L|164:236,1,62.9999980773926,0|0,0:0|0:0,0:0:0:0:
112,276,12811,2,0,B|88:224|88:224|112:92,1,188.999994232178,8|0,0:0|0:0,0:0:0:0:
176,36,13501,1,8,0:0:0:0:
240,200,13846,6,0,L|248:280,1,62.9999980773926,2|0,0:0|0:0,0:0:0:0:
276,344,14190,2,0,B|376:320|376:368|476:344,1,188.999994232178,8|0,0:0|0:0,0:0:0:0:
512,272,14880,2,0,P|512:232|500:192,1,62.9999980773926,8|0,0:0|0:0,0:0:0:0:
456,140,15225,2,0,P|456:100|468:60,1,62.9999980773926,0|0,0:0|0:0,0:0:0:0:
396,20,15570,2,0,B|360:24|328:44|328:44|280:16|204:20,1,188.999994232178,8|0,0:0|0:0,0:0:0:0:
132,52,16259,1,8,0:0:0:0:
172,224,16604,6,0,L|160:300,1,62.9999980773926,2|0,0:0|0:0,0:0:0:0:
216,356,16949,2,0,B|276:348|276:348|340:364|340:364|420:352,1,188.999994232178,0|0,0:0|0:0,0:0:0:0:
476,308,17639,1,8,0:0:0:0:
408,144,17984,2,0,P|396:108|396:64,1,62.9999980773926,0|0,0:0|0:0,0:0:0:0:
320,32,18328,2,0,L|300:224,1,188.999994232178,8|0,0:0|0:0,0:0:0:0:
252,296,19018,1,8,0:0:0:0:
412,368,19363,6,0,P|452:344|484:336,1,62.9999980773926,2|0,0:0|0:0,0:0:0:0:
508,260,19708,2,0,L|312:240,1,188.999994232178,8|0,0:0|0:0,0:0:0:0:
232,260,20397,2,0,P|208:304|200:328,1,62.9999980773926,8|0,0:0|0:0,0:0:0:0:
132,368,20742,2,0,P|119:338|103:312,1,62.9999980773926,0|0,0:0|0:0,0:0:0:0:
36,256,21087,2,0,L|48:152,1,94.499997116089,8|0,0:0|0:0,0:0:0:0:
112,48,21604,1,0,0:0:0:0:
184,100,21777,2,0,B|216:108|216:108|272:92,1,62.9999980773926,8|0,0:0|0:0,0:0:0:0:
320,56,22121,6,2,L|472:68,1,125.999996154785,6|0,0:0|0:0,0:0:0:0:
484,148,22639,2,2,P|408:160|408:280,1,188.999994232178,0|8,0:0|0:0,0:0:0:0:
396,344,23328,2,2,B|336:328|336:328|272:344,1,125.999996154785,0|0,0:0|0:0,0:0:0:0:
188,316,23846,2,2,B|200:256|200:256|180:196|180:196|190:132,1,188.999994232178,8|0,0:0|0:0,0:0:0:0:
128,68,24535,2,2,P|76:60|52:64,1,62.9999980773926,8|0,0:0|0:0,0:0:0:0:
16,132,24880,6,2,L|28:264,1,125.999996154785,2|0,0:0|0:0,0:0:0:0:
68,336,25397,2,2,P|132:304|216:380,1,188.999994232178,0|8,0:0|0:0,0:0:0:0:
296,336,26087,2,2,L|448:320,1,125.999996154785,0|0,0:0|0:0,0:0:0:0:
452,240,26604,2,2,B|384:228|384:228|332:240|332:240|244:224,1,188.999994232178,8|0,0:0|0:0,0:0:0:0:
192,180,27294,1,8,0:0:0:0:
296,36,27639,6,2,L|448:52,1,125.999996154785,2|0,0:0|0:0,0:0:0:0:
492,104,28156,2,2,B|503:151|503:151|491:199|491:199|512:256|479:315,1,188.999994232178,0|8,0:0|0:0,0:0:0:0:
404,280,28846,2,2,P|348:272|288:328,1,125.999996154785,0|0,0:0|0:0,0:0:0:0:
220,360,29363,2,2,B|144:340|144:340|88:372|36:356,1,188.999994232178,8|0,0:0|0:0,0:0:0:0:
0,276,30053,2,2,L|4:208,1,62.9999980773926,8|0,0:0|0:0,0:0:0:0:
32,132,30397,6,2,P|88:136|144:84,1,125.999996154785,2|0,0:0|0:0,0:0:0:0:
200,28,30915,2,2,P|304:28|304:120,1,188.999994232178,0|8,0:0|0:0,0:0:0:0:
268,168,31604,2,2,B|252:208|252:208|268:296,1,125.999996154785,0|0,0:0|0:0,0:0:0:0:
348,328,32121,2,2,L|460:316,2,94.499997116089,8|0|0,0:0|0:0|0:0,0:0:0:0:
272,376,32811,2,2,P|228:360|188:356,1,62.9999980773926,8|0,0:0|0:0,0:0:0:0:
124,375,33156,6,2,P|62:379|11:344,1,125.999996154785,6|0,0:0|0:0,0:0:0:0:
8,256,33673,2,2,B|17:192|17:192|4:136|4:136|16:56,1,188.999994232178,0|8,0:0|0:0,0:0:0:0:
84,12,34363,2,2,P|152:28|188:84,1,125.999996154785,0|0,0:0|0:0,0:0:0:0:
100,100,34880,2,2,L|292:84,1,188.999994232178,8|0,0:0|0:0,0:0:0:0:
372,108,35570,2,2,P|392:80|404:40,1,62.9999980773926,8|0,0:0|0:0,0:0:0:0:
484,24,35915,6,2,L|496:172,1,125.999996154785,2|0,0:0|0:0,0:0:0:0:
432,212,36432,2,2,B|332:236|332:188|232:212,1,188.999994232178,0|8,0:0|0:0,0:0:0:0:
164,240,37121,2,2,P|132:276|108:348,1,125.999996154785,0|0,0:0|0:0,0:0:0:0:
24,376,37639,2,2,B|16:312|16:312|32:264|32:264|8:224|11:193,1,188.999994232178,8|0,0:0|0:0,0:0:0:0:
60,120,38328,1,8,0:0:0:0:
220,196,38673,6,2,B|280:208|280:208|348:180,1,125.999996154785,2|0,0:0|0:0,0:0:0:0:
380,104,39190,2,2,L|368:296,1,188.999994232178,0|8,0:0|0:0,0:0:0:0:
316,364,39880,2,2,P|268:332|196:332,1,125.999996154785,0|0,0:0|0:0,0:0:0:0:
120,364,40397,2,2,P|200:308|184:228,1,188.999994232178,8|0,0:0|0:0,0:0:0:0:
104,192,41087,2,2,L|32:184,1,62.9999980773926,8|0,0:0|0:0,0:0:0:0:
0,108,41432,6,2,L|144:92,1,125.999996154785,2|0,0:0|0:0,0:0:0:0:
200,48,41949,2,2,P|232:104|352:104,1,188.999994232178,0|8,0:0|0:0,0:0:0:0:
432,84,42639,2,2,L|448:208,1,125.999996154785,0|0,0:0|0:0,0:0:0:0:
400,284,43156,2,2,L|388:377,2,94.499997116089,8|0|0,0:0|0:0|0:0,0:0:0:0:
356,208,43846,2,2,P|312:208|280:220,1,62.9999980773926,8|0,0:0|0:0,0:0:0:0:
220,260,44190,6,0,L|48:240,2,157.500006008148,6|0|0,0:0|0:0|0:0,0:0:0:0:
344,344,45570,2,0,P|436:314|431:217,1,210.000008010865,0|0,0:0|0:0,0:0:0:0:
312,132,46604,1,0,0:0:0:0:
192,216,46949,6,0,B|184:264|184:264|196:312|196:312|184:384,2,157.500006008148,0|0|0,0:0|0:0|0:0,0:0:0:0:
276,96,48328,2,0,P|328:124|372:132,1,105.000004005432,0|0,0:0|0:0,0:0:0:0:
488,228,49018,2,0,P|436:238|391:264,1,105.000004005432,0|0,0:0|0:0,0:0:0:0:
272,352,49708,6,0,P|220:368|136:296,2,157.500006008148,0|0|0,0:0|0:0|0:0,0:0:0:0:
391,264,51087,2,0,B|404:204|404:204|392:152|392:152|420:108|412:52,1,210.000008010865,0|0,0:0|0:0,0:0:0:0:
276,8,52121,1,0,0:0:0:0:
164,104,52466,6,0,L|0:116,1,157.500006008148,0|0,0:0|0:0,0:0:0:0:
216,180,53501,2,0,P|252:128|216:28,2,157.500006008148,0|0|0,0:0|0:0|0:0,0:0:0:0:
88,256,54880,1,0,0:0:0:0:
212,336,55225,6,0,B|264:328|264:328|316:340|316:340|384:328,2,157.500006008148,0|0|0,0:0|0:0|0:0,0:0:0:0:
62,335,56604,2,0,P|33:243|117:196,1,210.000008010865,0|0,0:0|0:0,0:0:0:0:
256,252,57639,1,0,0:0:0:0:
392,196,57984,6,0,L|408:36,2,157.500006008148,0|0|0,0:0|0:0|0:0,0:0:0:0:
320,324,59363,2,0,P|264:304|212:300,1,105.000004005432,0|0,0:0|0:0,0:0:0:0:
104,208,60053,2,0,L|208:196,1,105.000004005432,0|0,0:0|0:0,0:0:0:0:
344,136,60742,6,0,P|384:184|484:172,2,157.500006008148,0|0|0,0:0|0:0|0:0,0:0:0:0:
240,32,62121,2,0,B|232:104|232:104|244:156|244:156|231:239,1,210.000008010865,0|0,0:0|0:0,0:0:0:0:
136,352,63156,1,0,0:0:0:0:
40,240,63501,6,0,B|24:184|24:184|48:136|48:76,2,157.500006008148,0|0|0,0:0|0:0|0:0,0:0:0:0:
136,352,64880,2,0,B|188:340|188:340|240:352|240:352|296:336|304:280,1,210.000008010865,0|0,0:0|0:0,0:0:0:0:
248,212,65742,1,0,0:0:0:0:
304,144,65915,2,0,L|420:160,1,94.499997116089,0|0,0:0|0:0,0:0:0:0:
436,132,66259,6,0,P|434:199|480:268,1,125.999996154785,2|0,0:0|0:0,0:0:0:0:
432,336,66777,2,0,B|376:328|376:328|320:344|320:344|232:332,1,188.999994232178,0|0,0:0|0:0,0:0:0:0:
80,280,67639,2,0,P|24:312|0:380,2,125.999996154785,4|0|4,0:0|0:0|0:0,0:0:0:0:
156,324,68501,1,0,0:0:0:0:
232,280,68673,2,0,P|244:224|240:196,1,62.9999980773926,8|0,0:0|0:0,0:0:0:0:
180,156,69018,6,0,L|48:144,1,125.999996154785,6|0,0:0|0:0,0:0:0:0:
20,64,69535,2,0,B|76:56|76:56|148:68|148:68|212:56,1,188.999994232178,6|8,0:0|0:0,0:0:0:0:
380,20,70397,2,0,P|444:20|492:60,2,125.999996154785,4|0|0,0:0|0:0|0:0,0:0:0:0:
328,92,71259,1,4,0:0:0:0:
380,164,71432,2,0,P|388:208|388:244,1,62.9999980773926,8|0,0:0|0:0,0:0:0:0:
320,280,71777,6,0,L|172:288,1,125.999996154785,6|0,0:0|0:0,0:0:0:0:
112,260,72294,2,0,P|29:288|44:373,1,188.999994232178,6|8,0:0|0:0,0:0:0:0:
196,284,73156,2,0,L|208:140,1,125.999996154785,4|0,0:0|0:0,0:0:0:0:
340,40,73846,2,0,L|346:112,1,62.9999980773926,4|0,0:0|0:0,0:0:0:0:
380,184,74190,2,0,P|424:208|456:216,1,62.9999980773926,8|0,0:0|0:0,0:0:0:0:
488,284,74535,6,0,L|360:300,1,125.999996154785,6|0,0:0|0:0,0:0:0:0:
320,376,75053,2,0,P|328:296|224:312,1,188.999994232178,6|8,0:0|0:0,0:0:0:0:
84,372,75915,2,0,B|58:330|58:330|84:244,1,125.999996154785,4|0,0:0|0:0,0:0:0:0:
172,108,76604,2,0,L|160:35,1,62.9999980773926,0|6,0:0|0:0,0:0:0:0:
80,16,76949,2,0,L|68:89,1,62.9999980773926,10|2,0:0|0:0,0:0:0:0:
24,152,77294,6,0,P|72:180|96:228,1,94.499997116089,2|0,0:0|0:0,0:0:0:0:
68,344,77811,2,0,L|188:332,1,94.499997116089,2|0,0:0|0:0,0:0:0:0:
268,256,78328,2,0,L|148:244,1,94.499997116089,2|0,0:0|0:0,0:0:0:0:
40,256,78846,2,0,P|24:176|24:140,1,94.499997116089,2|0,0:0|0:0,0:0:0:0:
148,120,79363,2,0,P|164:40|164:4,2,94.499997116089,2|0|0,0:0|0:0|0:0,0:0:0:0:
116,204,80053,6,0,B|164:221|164:221|224:208,1,94.499997116089,2|0,0:0|0:0,0:0:0:0:
320,144,80570,2,0,B|368:126|368:126|428:140,1,94.499997116089,2|0,0:0|0:0,0:0:0:0:
496,236,81087,2,0,L|488:336,1,94.499997116089,2|0,0:0|0:0,0:0:0:0:
364,372,81604,2,0,L|356:272,1,94.499997116089,2|0,0:0|0:0,0:0:0:0:
300,156,82121,2,0,L|308:56,2,94.499997116089,2|0|0,0:0|0:0|0:0,0:0:0:0:
260,236,82811,6,0,P|200:260|116:180,1,188.999994232178,2|0,0:0|0:0,0:0:0:0:
80,104,83501,2,0,B|68:164|68:164|80:232|80:232|64:304,1,188.999994232178,2|0,0:0|0:0,0:0:0:0:
120,360,84190,2,0,B|220:340|220:380|320:360,1,188.999994232178,2|0,0:0|0:0,0:0:0:0:
396,348,84880,2,0,P|444:352|492:380,2,94.499997116089,2|0|0,0:0|0:0|0:0,0:0:0:0:
307,362,85570,5,2,0:0:0:0:
256,192,85656,12,0,87984,0:0:0:0:
307,362,88328,6,0,L|408:348,1,70,2|0,0:0|0:0,0:0:0:0:
448,284,88673,2,0,P|384:264|400:144,1,210,0|0,0:0|0:0,0:0:0:0:
468,76,89363,2,0,P|448:44|420:20,1,70,0|0,0:0|0:0,0:0:0:0:
328,32,89708,2,0,L|240:44,1,70,0|0,0:0|0:0,0:0:0:0:
160,32,90053,2,0,B|120:44|120:44|72:32|72:32|8:60|16:132,1,210,0|0,0:0|0:0,0:0:0:0:
52,216,90742,2,0,P|60:256|64:292,1,70,8|0,0:0|0:0,0:0:0:0:
144,340,91087,6,0,P|148:305|155:271,1,70,2|0,0:0|0:0,0:0:0:0:
236,216,91432,2,0,B|280:204|280:204|322:214|322:214|388:188|444:224,1,210,8|0,0:0|0:0,0:0:0:0:
488,136,92121,2,0,P|472:104|444:68,1,70,8|0,0:0|0:0,0:0:0:0:
364,32,92466,1,0,0:0:0:0:
272,72,92639,1,0,0:0:0:0:
184,32,92811,2,0,L|60:48,2,105,8|0|0,0:0|0:0|0:0,0:0:0:0:
272,72,93501,2,0,P|272:120|252:152,1,70,8|0,0:0|0:0,0:0:0:0:
204,220,93846,6,0,P|204:268|224:300,1,70,2|0,0:0|0:0,0:0:0:0:
272,364,94190,2,0,B|380:344|380:384|488:364,1,210,0|0,0:0|0:0,0:0:0:0:
512,272,94880,2,0,P|472:272|432:260,1,70,8|0,0:0|0:0,0:0:0:0:
348,240,95225,2,0,P|308:240|268:252,1,70,0|0,0:0|0:0,0:0:0:0:
204,312,95570,2,0,P|132:360|52:284,1,210,0|0,0:0|0:0,0:0:0:0:
60,188,96259,2,0,L|73:119,1,70,8|0,0:0|0:0,0:0:0:0:
152,60,96604,6,0,P|168:96|168:148,1,70,2|0,0:0|0:0,0:0:0:0:
156,224,96949,2,0,P|252:204|308:292,1,210,8|0,0:0|0:0,0:0:0:0:
256,372,97639,2,0,L|188:356,1,70,8|0,0:0|0:0,0:0:0:0:
92,344,97984,2,0,P|48:356|16:380,1,70,0|0,0:0|0:0,0:0:0:0:
4,276,98328,2,0,L|0:152,1,105,8|0,0:0|0:0,0:0:0:0:
52,32,98846,1,0,0:0:0:0:
140,76,99018,2,0,P|176:76|220:64,1,70,8|8,0:0|0:0,0:0:0:0:
300,32,99363,6,0,P|336:32|380:44,1,70,6|0,0:0|0:0,0:0:0:0:
448,96,99708,2,0,B|436:168|436:168|448:232|448:232|432:312,1,210,0|0,0:0|0:0,0:0:0:0:
360,364,100397,2,0,P|308:316|300:300,1,70,8|0,0:0|0:0,0:0:0:0:
232,260,100742,2,0,L|216:340,1,70,0|0,0:0|0:0,0:0:0:0:
128,364,101087,2,0,P|112:272|4:272,1,210,0|0,0:0|0:0,0:0:0:0:
31,172,101777,2,0,P|35:137|33:102,1,70,8|0,0:0|0:0,0:0:0:0:
104,36,102121,6,0,L|188:44,1,70,2|0,0:0|0:0,0:0:0:0:
256,100,102466,2,0,P|348:76|368:168,1,210,8|0,0:0|0:0,0:0:0:0:
320,252,103156,2,0,B|356:264|356:264|408:260,1,70,8|0,0:0|0:0,0:0:0:0:
468,204,103501,1,0,0:0:0:0:
504,296,103673,1,0,0:0:0:0:
424,356,103846,2,0,L|296:372,2,105,8|0|0,0:0|0:0|0:0,0:0:0:0:
504,296,104535,2,0,P|508:240|504:212,1,70,8|0,0:0|0:0,0:0:0:0:
456,144,104880,6,0,P|452:88|456:60,1,70,2|0,0:0|0:0,0:0:0:0:
368,28,105225,2,0,B|300:16|300:16|232:36|232:36|140:20,1,210,0|0,0:0|0:0,0:0:0:0:
64,35,105915,2,0,P|38:60|21:90,1,70,8|0,0:0|0:0,0:0:0:0:
20,188,106259,2,0,L|32:288,1,70,0|0,0:0|0:0,0:0:0:0:
68,348,106604,2,0,P|164:308|224:380,1,210,0|0,0:0|0:0,0:0:0:0:
316,348,107294,2,0,P|348:336|392:336,1,70,8|0,0:0|0:0,0:0:0:0:
436,252,107639,6,0,L|360:240,1,70,2|0,0:0|0:0,0:0:0:0:
276,208,107984,2,0,B|230:222|230:222|182:202|182:202|128:235|77:217,1,210,8|0,0:0|0:0,0:0:0:0:
20,296,108673,1,8,0:0:0:0:
80,372,108846,1,0,0:0:0:0:
80,372,109018,2,0,L|165:364,1,70,0|0,0:0|0:0,0:0:0:0:
248,356,109363,2,0,B|296:376|296:376|372:364,2,105,8|0|0,0:0|0:0|0:0,0:0:0:0:
192,276,110053,1,8,0:0:0:0:
248,88,110397,6,0,B|256:52|256:52|252:16,1,70,6|0,0:0|0:0,0:0:0:0:
160,52,110742,2,0,B|120:60|76:44|76:44|4:68|16:164,1,210,0|0,0:0|0:0,0:0:0:0:
40,236,111432,2,0,L|48:308,1,70,8|0,0:0|0:0,0:0:0:0:
116,376,111777,2,0,P|156:352|208:340,1,70,0|0,0:0|0:0,0:0:0:0:
272,376,112121,2,0,L|488:360,1,210,8|0,0:0|0:0,0:0:0:0:
512,268,112811,2,0,P|480:232|464:180,1,70,8|0,0:0|0:0,0:0:0:0:
396,148,113156,6,0,L|376:236,1,70,2|0,0:0|0:0,0:0:0:0:
300,276,113501,2,0,B|288:204|288:204|304:136|304:136|292:64,1,210,8|0,0:0|0:0,0:0:0:0:
212,16,114190,2,0,P|164:32|120:40,1,70,8|0,0:0|0:0,0:0:0:0:
52,8,114535,1,0,0:0:0:0:
0,92,114708,1,0,0:0:0:0:
56,172,114880,2,0,L|44:280,2,105,8|0|0,0:0|0:0|0:0,0:0:0:0:
144,132,115570,2,0,P|192:152|212:172,1,70,8|0,0:0|0:0,0:0:0:0:
236,256,115915,6,0,B|228:296|228:296|240:344,1,70,2|0,0:0|0:0,0:0:0:0:
328,360,116259,2,0,B|372:348|372:348|420:360|420:360|496:340|496:268,1,210,0|0,0:0|0:0,0:0:0:0:
476,188,116949,2,0,P|460:156|456:121,1,70,8|0,0:0|0:0,0:0:0:0:
384,56,117294,2,0,P|379:90|360:128,1,70,0|0,0:0|0:0,0:0:0:0:
284,64,117639,2,0,B|228:52|228:52|144:68|144:68|68:56,1,210,8|0,0:0|0:0,0:0:0:0:
0,116,118328,2,0,L|8:204,1,70,8|0,0:0|0:0,0:0:0:0:
24,284,118673,6,0,P|16:324|0:352,1,70,2|0,0:0|0:0,0:0:0:0:
96,372,119018,2,0,B|156:344|232:376|232:376|272:356|328:364,1,210,8|0,0:0|0:0,0:0:0:0:
396,372,119708,2,0,L|484:360,1,70,8|0,0:0|0:0,0:0:0:0:
508,272,120053,2,0,B|468:276|468:276|420:260,1,70,0|0,0:0|0:0,0:0:0:0:
384,188,120397,2,0,L|372:76,1,105,8|0,0:0|0:0,0:0:0:0:
244,12,120915,1,0,0:0:0:0:
152,48,121087,2,0,P|120:52|72:40,1,70,8|8,0:0|0:0,0:0:0:0:
12,112,121432,6,0,B|0:144|0:144|0:184,1,70,6|0,0:0|0:0,0:0:0:0:
35,272,121777,2,0,P|131:261|150:355,1,210,0|0,0:0|0:0,0:0:0:0:
248,332,122466,2,0,B|280:320|280:320|320:324,1,70,8|0,0:0|0:0,0:0:0:0:
408,356,122811,2,0,B|440:368|440:368|480:364,1,70,0|0,0:0|0:0,0:0:0:0:
512,272,123156,2,0,B|496:196|496:196|512:136|512:136|500:64,1,210,8|0,0:0|0:0,0:0:0:0:
416,16,123846,2,0,L|400:92,1,70,8|0,0:0|0:0,0:0:0:0:
316,128,124190,6,0,P|268:124|224:100,1,70,2|0,0:0|0:0,0:0:0:0:
172,56,124535,2,0,P|96:28|56:128,1,210,8|0,0:0|0:0,0:0:0:0:
116,208,125225,2,0,P|100:264|88:284,1,70,8|0,0:0|0:0,0:0:0:0:
0,300,125570,1,0,0:0:0:0:
56,380,125742,1,0,0:0:0:0:
152,352,125915,2,0,L|276:340,2,105,8|0|0,0:0|0:0|0:0,0:0:0:0:
94,273,126604,2,0,P|96:220|108:184,1,70,8|0,0:0|0:0,0:0:0:0:
148,116,126949,6,0,P|146:63|134:27,1,70,0|0,0:0|0:0,0:0:0:0:
44,32,127294,2,0,L|256:16,1,210,0|0,0:0|0:0,0:0:0:0:
348,48,127984,2,0,P|379:33|405:9,1,70,0|0,0:0|0:0,0:0:0:0:
500,36,128328,2,0,L|488:108,1,70,0|0,0:0|0:0,0:0:0:0:
416,172,128673,2,0,B|424:236|424:236|404:284|404:284|420:380,1,210,0|0,0:0|0:0,0:0:0:0:
328,340,129363,2,0,P|280:320|256:320,1,70,0|0,0:0|0:0,0:0:0:0:
164,332,129708,6,0,L|92:340,1,70,0|0,0:0|0:0,0:0:0:0:
28,268,130053,2,0,P|28:192|156:204,1,210,0|0,0:0|0:0,0:0:0:0:
228,220,130742,2,0,P|272:188|288:164,1,70,0|0,0:0|0:0,0:0:0:0:
356,112,131087,2,0,L|368:180,1,70,0|0,0:0|0:0,0:0:0:0:
424,260,131432,2,0,L|408:372,2,105,0|0|0,0:0|0:0|0:0,0:0:0:0:
480,180,132121,1,0,0:0:0:0:
480,180,132466,5,2,0:0:0:0:
480,180,134535,2,0,P|451:200|418:209,1,70,0|0,0:0|0:0,0:0:0:0:
348,276,134880,2,2,P|380:284|412:308,1,70,0|0,0:0|0:0,0:0:0:0:
340,376,135225,6,2,L|192:356,1,140,2|0,0:0|0:0,0:0:0:0:
104,376,135742,2,2,B|88:308|88:308|100:240|100:240|88:168,1,210,0|8,0:0|0:0,0:0:0:0:
136,84,136432,2,2,P|208:128|264:104,1,140,0|0,0:0|0:0,0:0:0:0:
332,48,136949,2,2,P|392:20|464:128,1,210,8|0,0:0|0:0,0:0:0:0:
392,180,137639,2,2,L|319:189,1,70,8|0,0:0|0:0,0:0:0:0:
272,272,137984,6,2,L|416:292,1,140,2|0,0:0|0:0,0:0:0:0:
488,356,138501,2,2,B|500:276|500:276|488:216|488:216|500:132,1,210,0|8,0:0|0:0,0:0:0:0:
444,68,139190,2,2,P|376:71|332:123,1,140,0|0,0:0|0:0,0:0:0:0:
331,223,139708,2,2,B|291:239|291:239|239:223|239:223|191:251|130:225,1,210,8|0,0:0|0:0,0:0:0:0:
51,283,140397,2,2,P|40:309|35:351,1,70,8|0,0:0|0:0,0:0:0:0:
131,379,140742,6,2,L|275:363,1,140,2|0,0:0|0:0,0:0:0:0:
367,379,141259,2,2,P|443:363|407:239,1,210,0|8,0:0|0:0,0:0:0:0:
340,272,141949,2,2,L|196:256,1,140,0|0,0:0|0:0,0:0:0:0:
104,272,142466,2,2,B|84:208|84:208|108:60,1,210,8|0,0:0|0:0,0:0:0:0:
188,8,143156,2,2,P|240:36|268:40,1,70,8|0,0:0|0:0,0:0:0:0:
348,44,143501,6,2,L|492:28,1,140,6|0,0:0|0:0,0:0:0:0:
512,124,144018,2,2,P|420:140|416:256,1,210,0|8,0:0|0:0,0:0:0:0:
412,340,144708,2,2,B|344:324|344:324|252:348,1,140,0|0,0:0|0:0,0:0:0:0:
180,356,145225,2,2,B|136:340|136:340|88:356|88:356|24:332|32:256,1,210,8|0,0:0|0:0,0:0:0:0:
48,172,145915,2,2,P|68:128|68:84,1,70,8|0,0:0|0:0,0:0:0:0:
124,28,146259,6,2,L|288:36,1,140,2|0,0:0|0:0,0:0:0:0:
360,60,146777,2,2,P|416:24|460:140,1,210,0|8,0:0|0:0,0:0:0:0:
436,212,147466,2,2,L|452:356,1,140,0|0,0:0|0:0,0:0:0:0:
356,376,147984,2,2,B|244:356|244:396|132:376,1,210,8|0,0:0|0:0,0:0:0:0:
52,352,148673,2,2,P|52:315|64:272,1,70,8|0,0:0|0:0,0:0:0:0:
96,192,149018,6,2,P|88:136|24:80,1,140,0|0,0:0|0:0,0:0:0:0:
104,20,149535,2,2,B|172:36|172:36|240:24|240:24|316:40,1,210,0|0,0:0|0:0,0:0:0:0:
400,76,150225,2,2,P|466:60|499:1,1,140,0|0,0:0|0:0,0:0:0:0:
500,100,150742,2,2,B|480:168|480:168|500:312,1,210,0|0,0:0|0:0,0:0:0:0:
420,364,151432,2,2,P|384:344|352:336,1,70,0|0,0:0|0:0,0:0:0:0:
260,348,151777,6,2,L|104:364,1,140,0|0,0:0|0:0,0:0:0:0:
24,348,152294,2,2,P|80:348|80:204,1,210,0|0,0:0|0:0,0:0:0:0:
48,144,152984,2,2,P|44:75|88:23,1,140,0|0,0:0|0:0,0:0:0:0:
188,36,153501,2,2,L|292:24,1,105,0|0,0:0|0:0,0:0:0:0:
428,80,154018,1,0,0:0:0:0:
348,140,154190,2,2,L|260:132,1,70,0|0,0:0|0:0,0:0:0:0:
212,204,154535,5,2,0:0:0:0:
