osu file format v14

[General]
AudioFilename: tutut.mp3
AudioLeadIn: 0
PreviewTime: 132466
Countdown: 0
SampleSet: Normal
StackLeniency: 0.3
Mode: 0
LetterboxInBreaks: 0
WidescreenStoryboard: 0

[Editor]
Bookmarks: 53,22121,44190,49708,55225,60742,66259,77294,88328,132466,135225,154535
DistanceSpacing: 1.3
BeatDivisor: 4
GridSize: 4
TimelineZoom: 2.2

[Metadata]
Title:Tale Of A Shooting Star (Feint Remix)
TitleUnicode:Tale Of A Shooting Star (Feint Remix)
Artist:Relay & Front
ArtistUnicode:Relay & Front
Creator:RyoKazuka
Version:Extra
Source:
Tags:and drum bass dnb soul directions -famous- left hootowlstar
BeatmapID:986308
BeatmapSetID:387252

[Difficulty]
HPDrainRate:5
CircleSize:3.8
OverallDifficulty:8.5
ApproachRate:9.3
SliderMultiplier:1.8
SliderTickRate:2

[Events]
//Background and Video events
0,0,"planet_impact-1920x1200.jpg",0,0
//Break Periods
//Storyboard Layer 0 (Background)
//Storyboard Layer 1 (Fail)
//Storyboard Layer 2 (Pass)
//Storyboard Layer 3 (Foreground)
//Storyboard Sound Samples

[TimingPoints]
53,344.827586206897,4,1,1,55,1,0
53,-111.111111111111,4,1,1,55,0,0
22121,-95.2380952380952,4,1,1,55,0,1
22208,-95.2380952380952,4,1,1,55,0,0
44190,-133.333333333333,4,2,1,40,0,0
66087,-133.333333333333,4,2,1,10,0,0
66259,-111.111111111111,4,2,1,40,0,1
66346,-111.111111111111,4,2,1,40,0,0
87639,-166.666666666666,4,2,1,37,0,0
87725,-166.666666666667,4,1,1,33,0,0
87811,-166.666666666667,4,1,1,26,0,0
87897,-166.666666666667,4,1,1,20,0,0
87984,-166.666666666667,4,1,1,15,0,0
88070,-166.666666666667,4,1,1,13,0,0
88328,-90.9090909090909,4,1,1,60,0,1
132466,-100,4,1,1,60,0,0
135225,-83.3333333333333,4,1,1,60,0,1
142984,-66.6666666666667,4,1,1,60,0,1
143070,-66.6666666666667,4,1,1,5,0,1
143156,-66.6666666666667,4,1,1,60,0,1
143242,-66.6666666666667,4,1,1,5,0,1
143328,-66.6666666666667,4,1,1,60,0,1
143415,-66.6666666666667,4,1,1,5,0,1
143501,-83.3333333333333,4,1,1,60,0,1
154535,-100,4,1,1,60,0,0

[Colours]
Combo1 : 164,67,53
Combo2 : 244,155,74
Combo3 : 255,255,128
Combo4 : 199,193,184
SliderBorder : 255,231,91

[HitObjects]
401,214,53,6,0,P|357:262|245:241,1,161.999995056153,6|8,0:0|0:0,0:0:0:0:
309,70,570,1,0,0:0:0:0:
309,70,656,2,0,P|319:132|320:176,1,80.9999975280763,0|0,0:0|0:0,0:0:0:0:
315,174,915,1,0,0:0:0:0:
85,105,1087,2,0,L|196:92,1,80.9999975280763,8|0,0:0|0:0,0:0:0:0:
211,291,1432,6,0,L|42:276,1,161.999995056153,0|8,0:0|0:0,0:0:0:0:
213,179,1949,1,0,0:0:0:0:
213,179,2035,2,0,P|257:167|313:169,1,80.9999975280763,0|0,0:0|0:0,0:0:0:0:
315,174,2294,1,0,0:0:0:0:
389,338,2466,2,0,P|348:336|309:325,1,80.9999975280763,8|0,0:0|0:0,0:0:0:0:
450,125,2811,6,0,P|461:205|469:289,1,161.999995056153,2|8,0:0|0:0,0:0:0:0:
315,174,3328,1,0,0:0:0:0:
315,174,3415,2,0,L|323:79,1,80.9999975280763,0|0,0:0|0:0,0:0:0:0:
340,78,3673,1,0,0:0:0:0:
149,43,3846,2,0,P|197:41|255:27,1,80.9999975280763,8|0,0:0|0:0,0:0:0:0:
210,210,4190,6,0,B|145:163|145:163|60:172,1,161.999995056153,0|8,0:0|0:0,0:0:0:0:
136,334,4708,1,0,0:0:0:0:
136,334,4794,2,0,L|233:327,1,80.9999975280763,0|0,0:0|0:0,0:0:0:0:
239,337,5053,1,0,0:0:0:0:
326,188,5225,2,0,B|341:227|341:227|331:289,1,80.9999975280763,8|0,0:0|0:0,0:0:0:0:
375,115,5570,6,0,B|322:137|322:137|192:110,1,161.999995056153,2|8,0:0|0:0,0:0:0:0:
72,47,6087,1,0,0:0:0:0:
72,47,6173,2,0,P|136:37|169:33,1,80.9999975280763,0|0,0:0|0:0,0:0:0:0:
176,37,6432,1,0,0:0:0:0:
100,201,6604,2,0,P|49:196|-2:160,1,80.9999975280763,8|0,0:0|0:0,0:0:0:0:
198,284,6949,6,0,P|270:251|375:267,1,161.999995056153,0|8,0:0|0:0,0:0:0:0:
240,70,7466,1,0,0:0:0:0:
240,70,7553,2,0,L|233:159,1,80.9999975280763,0|0,0:0|0:0,0:0:0:0:
244,172,7811,1,0,0:0:0:0:
423,116,7984,2,0,L|416:35,1,80.9999975280763,8|0,0:0|0:0,0:0:0:0:
342,211,8328,6,0,P|395:202|473:291,1,161.999995056153,2|8,0:0|0:0,0:0:0:0:
326,348,8846,1,0,0:0:0:0:
326,348,8932,2,0,P|271:345|226:336,1,80.9999975280763,0|0,0:0|0:0,0:0:0:0:
223,330,9190,1,0,0:0:0:0:
102,194,9363,2,0,L|210:188,1,80.9999975280763,8|0,0:0|0:0,0:0:0:0:
339,83,9708,6,0,B|289:85|289:85|233:59|233:59|156:62,1,161.999995056153,0|8,0:0|0:0,0:0:0:0:
442,79,10225,1,0,0:0:0:0:
442,79,10311,2,0,P|427:137|389:177,1,80.9999975280763,0|0,0:0|0:0,0:0:0:0:
399,171,10570,2,0,L|472:167,1,40.4999987640381,0|0,0:0|0:0,0:0:0:0:
272,184,10742,1,8,0:0:0:0:
435,274,10915,1,8,0:0:0:0:
250,319,11087,6,0,P|226:238|273:182,1,161.999995056153,6|8,0:0|0:0,0:0:0:0:
130,58,11604,1,0,0:0:0:0:
130,58,11690,2,0,P|156:114|127:184,1,121.499996292114,0|0,0:0|0:0,0:0:0:0:
335,94,12121,2,0,L|246:84,1,80.9999975280763,8|0,0:0|0:0,0:0:0:0:
307,258,12466,6,0,L|480:237,1,161.999995056153,0|8,0:0|0:0,0:0:0:0:
228,199,12984,1,0,0:0:0:0:
228,199,13070,2,0,P|209:261|243:333,1,121.499996292114,0|0,0:0|0:0,0:0:0:0:
346,144,13501,2,0,P|355:94|346:49,1,80.9999975280763,8|0,0:0|0:0,0:0:0:0:
96,105,13846,6,0,B|154:122|154:122|252:95,1,161.999995056153,2|8,0:0|0:0,0:0:0:0:
115,213,14363,1,0,0:0:0:0:
115,213,14449,2,0,L|134:344,1,121.499996292114,0|0,0:0|0:0,0:0:0:0:
255,197,14880,2,0,P|244:238|241:281,1,80.9999975280763,8|0,0:0|0:0,0:0:0:0:
444,307,15225,6,0,P|352:303|316:374,1,161.999995056153,0|8,0:0|0:0,0:0:0:0:
399,197,15742,1,0,0:0:0:0:
399,197,15828,2,0,P|462:191|532:181,1,121.499996292114,0|0,0:0|0:0,0:0:0:0:
393,58,16259,2,0,P|353:50|313:44,1,80.9999975280763,8|0,0:0|0:0,0:0:0:0:
318,241,16604,6,0,P|243:253|139:256,1,161.999995056153,2|8,0:0|0:0,0:0:0:0:
287,367,17121,1,0,0:0:0:0:
287,367,17208,2,0,P|354:331|406:338,1,121.499996292114,0|0,0:0|0:0,0:0:0:0:
246,142,17639,2,0,P|231:186|232:228,1,80.9999975280763,8|0,0:0|0:0,0:0:0:0:
439,190,17984,6,0,B|461:113|461:113|415:27,1,161.999995056153,0|8,0:0|0:0,0:0:0:0:
335,205,18501,1,0,0:0:0:0:
335,205,18587,2,0,L|349:346,1,121.499996292114,0|0,0:0|0:0,0:0:0:0:
164,325,19018,2,0,L|175:227,1,80.9999975280763,8|0,0:0|0:0,0:0:0:0:
245,100,19363,6,0,P|181:110|81:70,1,161.999995056153,2|8,0:0|0:0,0:0:0:0:
311,19,19880,1,0,0:0:0:0:
311,19,19966,2,0,L|443:15,1,121.499996292114,0|0,0:0|0:0,0:0:0:0:
326,197,20397,2,0,P|282:196|230:199,1,80.9999975280763,8|0,0:0|0:0,0:0:0:0:
429,329,20742,6,0,P|403:275|455:187,1,161.999995056153,0|8,0:0|0:0,0:0:0:0:
307,77,21259,1,0,0:0:0:0:
307,77,21346,2,0,P|318:136|325:196,1,121.499996292114,0|0,0:0|0:0,0:0:0:0:
322,220,21690,1,0,0:0:0:0:
317,244,21777,1,8,0:0:0:0:
108,140,21949,1,8,0:0:0:0:
66,255,22121,6,2,P|144:257|225:167,1,188.999994232178,6|8,0:0|0:0,0:0:0:0:
155,49,22639,1,0,0:0:0:0:
155,49,22725,1,0,0:0:0:0:
155,49,22811,1,0,0:0:0:0:
294,95,22984,1,0,0:0:0:0:
108,140,23156,2,2,P|57:135|8:125,1,94.499997116089,8|0,0:0|0:0,0:0:0:0:
197,256,23501,6,0,B|279:210|279:210|381:225,1,188.999994232178,0|8,0:0|0:0,0:0:0:0:
301,358,24018,1,0,0:0:0:0:
282,357,24104,1,0,0:0:0:0:
263,356,24190,1,0,0:0:0:0:
452,298,24363,1,0,0:0:0:0:
269,118,24535,2,2,L|283:227,1,94.499997116089,8|0,0:0|0:0,0:0:0:0:
465,132,24880,6,2,P|459:62|352:23,1,188.999994232178,2|8,0:0|0:0,0:0:0:0:
384,217,25397,2,0,L|446:219,2,47.2499985580445,0|0|0,0:0|0:0|0:0,0:0:0:0:
269,118,25742,1,0,0:0:0:0:
285,332,25915,1,8,0:0:0:0:
170,233,26087,6,2,P|219:225|277:211,1,94.499997116089,0|0,0:0|0:0,0:0:0:0:
70,158,26432,1,0,0:0:0:0:
155,350,26604,2,0,P|113:328|66:323,1,94.499997116089,8|0,0:0|0:0,0:0:0:0:
67,324,26863,1,0,0:0:0:0:
67,324,26949,1,0,0:0:0:0:
201,144,27121,1,0,0:0:0:0:
341,256,27294,2,0,L|328:359,1,94.499997116089,8|0,0:0|0:0,0:0:0:0:
133,224,27639,6,2,P|98:140|148:54,1,188.999994232178,2|8,0:0|0:0,0:0:0:0:
266,207,28156,1,0,0:0:0:0:
266,207,28242,1,0,0:0:0:0:
266,207,28328,2,0,P|257:267|241:315,1,94.499997116089,0|0,0:0|0:0,0:0:0:0:
365,116,28673,1,8,0:0:0:0:
229,91,28846,6,2,P|179:77|116:42,1,94.499997116089,0|0,0:0|0:0,0:0:0:0:
360,94,29190,1,0,0:0:0:0:
266,207,29363,2,0,P|228:243|167:280,1,94.499997116089,8|0,0:0|0:0,0:0:0:0:
193,267,29621,1,0,0:0:0:0:
193,267,29708,1,0,0:0:0:0:
355,72,29880,1,0,0:0:0:0:
384,232,30053,2,2,P|396:282|398:354,1,94.499997116089,8|0,0:0|0:0,0:0:0:0:
495,193,30397,6,2,P|479:100|497:8,1,188.999994232178,2|8,0:0|0:0,0:0:0:0:
365,116,30915,2,0,L|312:108,2,47.2499985580445,0|0|0,0:0|0:0|0:0,0:0:0:0:
241,9,31259,1,0,0:0:0:0:
139,254,31432,1,8,0:0:0:0:
100,95,31604,6,2,B|147:87|147:87|212:105,1,94.499997116089,0|0,0:0|0:0,0:0:0:0:
302,267,31949,1,0,0:0:0:0:
139,254,32121,2,0,L|37:240,1,94.499997116089,8|0,0:0|0:0,0:0:0:0:
27,248,32380,1,0,0:0:0:0:
9,255,32466,1,0,0:0:0:0:
170,363,32639,1,0,0:0:0:0:
217,358,32725,1,0,0:0:0:0:
264,353,32811,1,8,0:0:0:0:
139,254,32984,1,8,0:0:0:0:
306,153,33156,6,2,P|212:146|85:126,1,188.999994232178,6|8,0:0|0:0,0:0:0:0:
239,7,33673,1,0,0:0:0:0:
242,25,33759,1,0,0:0:0:0:
245,43,33846,1,0,0:0:0:0:
365,20,34018,1,0,0:0:0:0:
120,41,34190,1,8,0:0:0:0:
384,35,34363,6,2,P|442:35|488:20,1,94.499997116089,0|0,0:0|0:0,0:0:0:0:
297,130,34708,1,0,0:0:0:0:
430,227,34880,2,0,P|382:225|337:236,1,94.499997116089,8|0,0:0|0:0,0:0:0:0:
337,236,35139,1,0,0:0:0:0:
337,236,35225,1,0,0:0:0:0:
397,355,35397,1,0,0:0:0:0:
234,368,35570,2,0,L|118:358,1,94.499997116089,8|0,0:0|0:0,0:0:0:0:
36,201,35915,6,2,B|98:199|98:199|155:173|155:173|248:170,1,188.999994232178,2|8,0:0|0:0,0:0:0:0:
75,95,36432,1,0,0:0:0:0:
75,95,36518,1,0,0:0:0:0:
75,95,36604,1,0,0:0:0:0:
180,269,36777,1,0,0:0:0:0:
279,92,36949,1,8,0:0:0:0:
358,182,37121,6,2,P|356:236|336:294,1,94.499997116089,0|0,0:0|0:0,0:0:0:0:
256,82,37466,1,0,0:0:0:0:
154,182,37639,2,0,P|156:236|176:294,1,94.499997116089,8|0,0:0|0:0,0:0:0:0:
177,290,37897,1,0,0:0:0:0:
187,305,37984,1,0,0:0:0:0:
256,173,38156,1,0,0:0:0:0:
115,81,38328,2,0,P|51:71|3:68,1,94.499997116089,8|0,0:0|0:0,0:0:0:0:
267,17,38673,6,2,P|363:39|471:38,1,188.999994232178,2|8,0:0|0:0,0:0:0:0:
322,211,39190,1,0,0:0:0:0:
322,211,39277,1,0,0:0:0:0:
322,211,39363,2,0,P|320:161|310:94,1,94.499997116089,0|0,0:0|0:0,0:0:0:0:
442,210,39708,1,8,0:0:0:0:
261,299,39880,6,2,P|211:300|144:311,1,94.499997116089,0|0,0:0|0:0,0:0:0:0:
63,326,40225,1,0,0:0:0:0:
103,90,40397,1,8,0:0:0:0:
193,167,40570,2,0,L|186:219,2,47.2499985580445,0|0|0,0:0|0:0|0:0,0:0:0:0:
252,44,40915,1,0,0:0:0:0:
363,177,41087,2,0,P|372:233|396:286,1,94.499997116089,8|0,0:0|0:0,0:0:0:0:
150,345,41432,6,2,P|176:257|288:260,1,188.999994232178,2|8,0:0|0:0,0:0:0:0:
348,372,41949,1,0,0:0:0:0:
348,372,42035,1,0,0:0:0:0:
348,372,42121,2,0,P|300:368|254:358,1,94.499997116089,0|0,0:0|0:0,0:0:0:0:
385,267,42466,1,8,0:0:0:0:
321,161,42639,6,2,L|221:155,1,94.499997116089,0|0,0:0|0:0,0:0:0:0:
126,82,42984,1,0,0:0:0:0:
26,247,43156,2,0,P|90:243|126:219,1,94.499997116089,8|0,0:0|0:0,0:0:0:0:
115,228,43415,1,0,0:0:0:0:
115,228,43501,1,0,0:0:0:0:
263,63,43673,1,0,0:0:0:0:
267,110,43759,1,0,0:0:0:0:
271,157,43846,1,8,0:0:0:0:
126,82,44018,1,8,0:0:0:0:
54,160,44190,5,6,0:0:0:0:
54,160,44535,1,0,0:0:0:0:
30,75,44708,1,2,0:0:0:0:
30,75,45053,1,0,0:0:0:0:
115,94,45225,1,2,0:0:0:0:
186,43,45397,1,0,0:0:0:0:
186,43,45742,5,0,0:0:0:0:
196,130,45915,1,2,0:0:0:0:
196,130,46259,1,2,0:0:0:0:
275,167,46432,1,0,0:0:0:0:
350,138,46604,1,2,0:0:0:0:
385,72,46777,1,0,0:0:0:0:
453,99,46949,5,2,0:0:0:0:
453,99,47294,1,0,0:0:0:0:
470,171,47466,1,2,0:0:0:0:
470,171,47811,1,0,0:0:0:0:
434,236,47984,1,2,0:0:0:0:
362,255,48156,1,0,0:0:0:0:
362,255,48501,5,0,0:0:0:0:
335,324,48673,1,2,0:0:0:0:
335,324,49018,1,2,0:0:0:0:
270,304,49190,1,0,0:0:0:0:
218,342,49363,1,2,0:0:0:0:
218,342,49708,5,2,0:0:0:0:
218,342,50053,1,0,0:0:0:0:
158,331,50225,1,2,0:0:0:0:
158,331,50570,1,0,0:0:0:0:
149,277,50742,1,2,0:0:0:0:
140,223,50915,1,0,0:0:0:0:
140,223,51259,5,0,0:0:0:0:
170,186,51432,1,0,0:0:0:0:
170,186,51777,1,0,0:0:0:0:
154,148,51949,1,0,0:0:0:0:
154,114,52121,1,0,0:0:0:0:
165,89,52294,1,0,0:0:0:0:
181,77,52466,5,2,0:0:0:0:
181,77,52811,1,0,0:0:0:0:
200,71,52984,1,2,0:0:0:0:
200,71,53328,1,0,0:0:0:0:
219,75,53501,1,2,0:0:0:0:
238,80,53673,1,0,0:0:0:0:
238,80,54018,5,0,0:0:0:0:
257,75,54190,1,0,0:0:0:0:
257,75,54535,1,0,0:0:0:0:
269,80,54708,1,0,0:0:0:0:
275,79,54880,1,0,0:0:0:0:
275,79,55225,5,2,0:0:0:0:
275,79,55570,1,0,0:0:0:0:
275,79,55742,1,2,0:0:0:0:
275,79,56087,1,0,0:0:0:0:
275,79,56259,1,2,0:0:0:0:
275,79,56432,1,0,0:0:0:0:
275,79,56777,5,0,0:0:0:0:
275,79,56949,1,0,0:0:0:0:
275,79,57294,1,0,0:0:0:0:
275,79,57466,1,0,0:0:0:0:
275,79,57639,1,2,0:0:0:0:
275,79,57811,1,0,0:0:0:0:
275,79,57984,5,2,0:0:0:0:
275,79,58328,1,0,0:0:0:0:
275,79,58501,1,2,0:0:0:0:
275,79,58846,1,0,0:0:0:0:
275,79,59018,1,2,0:0:0:0:
275,79,59190,1,0,0:0:0:0:
275,79,59535,5,0,0:0:0:0:
275,79,59708,1,0,0:0:0:0:
275,79,60053,1,0,0:0:0:0:
275,79,60225,1,0,0:0:0:0:
275,79,60397,1,2,0:0:0:0:
275,79,60742,5,2,0:0:0:0:
275,79,61087,1,0,0:0:0:0:
278,84,61259,1,2,0:0:0:0:
278,84,61604,1,0,0:0:0:0:
284,95,61777,1,2,0:0:0:0:
288,114,61949,1,0,0:0:0:0:
288,114,62294,5,0,0:0:0:0:
285,140,62466,1,0,0:0:0:0:
285,140,62811,1,0,0:0:0:0:
290,173,62984,1,0,0:0:0:0:
280,212,63156,1,0,0:0:0:0:
294,256,63328,1,0,0:0:0:0:
274,306,63501,5,0,0:0:0:0:
274,306,63846,1,0,0:0:0:0:
214,315,64018,1,0,0:0:0:0:
150,294,64190,1,0,0:0:0:0:
107,232,64363,1,0,0:0:0:0:
111,151,64535,1,0,0:0:0:0:
174,89,64708,1,0,0:0:0:0:
174,89,65053,5,0,0:0:0:0:
257,132,65225,1,0,0:0:0:0:
257,132,65570,1,0,0:0:0:0:
344,81,65742,1,0,0:0:0:0:
393,177,65915,1,0,0:0:0:0:
474,69,66087,1,0,0:0:0:0:
377,199,66259,6,0,P|382:259|405:308,1,80.9999975280763,6|0,0:0|0:0,0:0:0:0:
496,159,66604,1,8,0:0:0:0:
327,118,66777,1,6,0:0:0:0:
298,120,66863,1,0,0:0:0:0:
270,116,66949,1,4,0:0:0:0:
244,105,67035,1,0,0:0:0:0:
221,88,67121,1,4,0:0:0:0:
73,205,67294,2,0,P|134:190|170:191,1,80.9999975280763,8|0,0:0|0:0,0:0:0:0:
215,346,67639,6,0,P|175:343|137:331,1,80.9999975280763,4|0,0:0|0:0,0:0:0:0:
253,202,67984,1,8,0:0:0:0:
390,260,68156,1,4,0:0:0:0:
388,288,68242,1,0,0:0:0:0:
387,316,68328,1,4,0:0:0:0:
386,344,68414,1,0,0:0:0:0:
384,373,68500,1,4,0:0:0:0:
253,202,68673,2,0,P|269:136|282:108,1,80.9999975280763,8|0,0:0|0:0,0:0:0:0:
384,161,69018,5,6,0:0:0:0:
256,294,69190,1,0,0:0:0:0:
128,161,69363,1,8,0:0:0:0:
237,90,69535,1,6,0:0:0:0:
241,118,69621,1,0,0:0:0:0:
245,146,69707,1,4,0:0:0:0:
249,174,69793,1,0,0:0:0:0:
253,202,69879,1,4,0:0:0:0:
427,108,70053,2,0,L|343:95,1,80.9999975280763,8|0,0:0|0:0,0:0:0:0:
297,325,70397,6,0,L|381:312,1,80.9999975280763,4|0,0:0|0:0,0:0:0:0:
253,202,70742,1,8,0:0:0:0:
154,295,70915,1,4,0:0:0:0:
125,298,71001,1,0,0:0:0:0:
98,293,71087,1,4,0:0:0:0:
72,280,71173,1,0,0:0:0:0:
52,261,71259,1,4,0:0:0:0:
109,100,71432,1,8,0:0:0:0:
130,196,71604,1,0,0:0:0:0:
284,66,71777,6,0,B|248:47|248:47|188:48,1,80.9999975280763,6|0,0:0|0:0,0:0:0:0:
253,202,72121,1,8,0:0:0:0:
400,153,72294,1,6,0:0:0:0:
415,129,72380,1,0,0:0:0:0:
425,102,72466,1,4,0:0:0:0:
429,74,72552,1,0,0:0:0:0:
427,46,72638,1,4,0:0:0:0:
253,202,72811,2,0,L|265:294,1,80.9999975280763,8|0,0:0|0:0,0:0:0:0:
134,168,73156,5,4,0:0:0:0:
358,228,73328,1,0,0:0:0:0:
155,268,73501,1,8,0:0:0:0:
337,128,73673,1,4,0:0:0:0:
365,130,73759,1,0,0:0:0:0:
393,132,73845,1,4,0:0:0:0:
421,134,73931,1,0,0:0:0:0:
450,137,74017,1,4,0:0:0:0:
270,53,74190,2,0,P|245:84|236:128,1,80.9999975280763,8|0,0:0|0:0,0:0:0:0:
402,292,74535,6,0,P|386:254|353:224,1,80.9999975280763,6|0,0:0|0:0,0:0:0:0:
130,287,74880,1,8,0:0:0:0:
233,374,75053,1,6,0:0:0:0:
261,371,75139,1,0,0:0:0:0:
289,369,75225,1,4,0:0:0:0:
317,367,75311,1,0,0:0:0:0:
346,365,75397,1,4,0:0:0:0:
243,189,75570,2,0,P|234:247|221:291,1,80.9999975280763,8|0,0:0|0:0,0:0:0:0:
369,77,75915,6,0,P|378:135|391:179,1,80.9999975280763,4|0,0:0|0:0,0:0:0:0:
475,97,76259,1,8,0:0:0:0:
271,108,76432,1,4,0:0:0:0:
242,107,76518,1,0,0:0:0:0:
215,100,76604,1,4,0:0:0:0:
191,86,76690,1,0,0:0:0:0:
171,65,76776,1,6,0:0:0:0:
185,225,76949,1,10,0:0:0:0:
159,38,77121,1,2,0:0:0:0:
11,155,77294,5,2,0:0:0:0:
68,278,77466,1,0,0:0:0:0:
68,278,77553,1,2,0:0:0:0:
142,134,77725,1,0,0:0:0:0:
142,134,77811,1,2,0:0:0:0:
199,257,77984,1,0,0:0:0:0:
199,257,78070,1,2,0:0:0:0:
273,113,78242,1,0,0:0:0:0:
273,113,78328,1,2,0:0:0:0:
330,236,78501,1,0,0:0:0:0:
330,236,78587,1,2,0:0:0:0:
404,92,78759,5,0,0:0:0:0:
404,92,78845,1,2,0:0:0:0:
461,215,79018,1,0,0:0:0:0:
461,215,79104,1,2,0:0:0:0:
273,113,79277,1,0,0:0:0:0:
273,113,79363,1,2,0:0:0:0:
199,257,79535,1,0,0:0:0:0:
199,257,79621,1,2,0:0:0:0:
11,155,79794,1,0,0:0:0:0:
11,155,79880,1,2,0:0:0:0:
68,278,80053,5,2,0:0:0:0:
199,257,80225,1,0,0:0:0:0:
199,257,80311,1,2,0:0:0:0:
330,236,80484,1,0,0:0:0:0:
330,236,80570,1,2,0:0:0:0:
461,215,80742,1,0,0:0:0:0:
461,215,80828,1,2,0:0:0:0:
404,92,81001,1,0,0:0:0:0:
404,92,81087,1,2,0:0:0:0:
273,113,81259,1,0,0:0:0:0:
273,113,81345,1,2,0:0:0:0:
142,134,81518,5,0,0:0:0:0:
142,134,81604,1,2,0:0:0:0:
11,155,81777,1,0,0:0:0:0:
11,155,81863,1,2,0:0:0:0:
199,257,82035,1,0,0:0:0:0:
199,257,82121,1,2,0:0:0:0:
273,113,82294,1,0,0:0:0:0:
273,113,82380,1,2,0:0:0:0:
461,215,82553,1,0,0:0:0:0:
461,215,82639,1,2,0:0:0:0:
404,92,82811,5,2,0:0:0:0:
404,92,82984,1,0,0:0:0:0:
330,236,83156,1,0,0:0:0:0:
149,92,83328,1,2,0:0:0:0:
185,88,83414,1,0,0:0:0:0:
221,92,83500,1,2,0:0:0:0:
254,106,83586,1,0,0:0:0:0:
284,127,83672,1,0,0:0:0:0:
159,235,83846,1,0,0:0:0:0:
268,345,84018,5,2,0:0:0:0:
304,342,84104,1,0,0:0:0:0:
340,339,84190,1,2,0:0:0:0:
377,336,84276,1,0,0:0:0:0:
413,333,84362,1,0,0:0:0:0:
500,192,84535,1,0,0:0:0:0:
413,50,84708,5,2,0:0:0:0:
377,47,84794,1,0,0:0:0:0:
340,44,84880,1,2,0:0:0:0:
304,41,84966,1,0,0:0:0:0:
268,39,85052,1,0,0:0:0:0:
154,156,85225,1,0,0:0:0:0:
313,197,85397,1,2,0:0:0:0:
313,197,85484,1,0,0:0:0:0:
313,197,85570,5,2,0:0:0:0:
202,260,85742,1,0,0:0:0:0:
418,189,85915,1,0,0:0:0:0:
241,118,86087,1,2,0:0:0:0:
280,308,86259,1,2,0:0:0:0:
481,254,86432,1,0,0:0:0:0:
347,104,86604,1,0,0:0:0:0:
386,346,86777,1,2,0:0:0:0:
418,189,86949,5,8,0:0:0:0:
390,183,87035,1,0,0:0:0:0:
361,183,87121,1,0,0:0:0:0:
333,191,87208,1,0,0:0:0:0:
311,209,87294,5,8,0:0:0:0:
280,228,87380,1,0,0:0:0:0:
245,238,87466,1,0,0:0:0:0:
208,235,87553,1,0,0:0:0:0:
177,215,87639,6,2,P|140:172|158:42,1,188.999994232178,8|0,0:0|0:0,1:1:0:0:
236,121,88328,6,0,L|24:152,1,198.000006042481,6|8,0:0|0:0,0:0:0:0:
66,17,88846,1,0,0:0:0:0:
66,17,88932,1,0,0:0:0:0:
66,17,89018,1,0,0:0:0:0:
156,215,89190,1,0,0:0:0:0:
297,78,89363,2,0,P|286:136|285:180,1,99.0000030212403,8|0,0:0|0:0,0:0:0:0:
458,334,89708,6,0,B|488:240|488:240|443:152,1,198.000006042481,0|8,0:0|0:0,0:0:0:0:
328,283,90225,1,0,0:0:0:0:
328,283,90311,1,0,0:0:0:0:
328,283,90397,1,0,0:0:0:0:
196,142,90570,1,0,0:0:0:0:
337,49,90742,2,0,L|456:41,1,99.0000030212403,8|0,0:0|0:0,0:0:0:0:
236,232,91087,6,0,P|140:221|106:111,1,198.000006042481,2|8,0:0|0:0,0:0:0:0:
242,33,91604,1,0,0:0:0:0:
244,53,91690,1,0,0:0:0:0:
246,73,91777,1,0,0:0:0:0:
45,34,91949,1,0,0:0:0:0:
196,142,92121,1,8,0:0:0:0:
336,25,92294,1,0,0:0:0:0:
372,170,92466,6,0,P|378:241|450:357,1,198.000006042481,0|8,0:0|0:0,0:0:0:0:
501,192,92984,2,0,L|505:126,2,49.5000015106202,0|0|0,0:0|0:0|0:0,0:0:0:0:
415,51,93328,1,0,0:0:0:0:
285,200,93501,2,0,B|236:199|236:199|192:174,1,99.0000030212403,8|0,0:0|0:0,0:0:0:0:
58,352,93846,6,0,B|126:346|126:346|180:320|180:320|249:314,1,198.000006042481,2|8,0:0|0:0,0:0:0:0:
85,154,94363,1,0,0:0:0:0:
85,154,94449,1,0,0:0:0:0:
85,154,94535,2,0,P|91:210|101:274,1,99.0000030212403,0|0,0:0|0:0,0:0:0:0:
249,132,94880,1,8,0:0:0:0:
85,53,95053,1,0,0:0:0:0:
279,147,95225,6,0,P|376:147|451:73,1,198.000006042481,0|8,0:0|0:0,0:0:0:0:
194,20,95742,1,0,0:0:0:0:
194,39,95828,1,0,0:0:0:0:
194,58,95915,1,0,0:0:0:0:
336,41,96087,1,0,0:0:0:0:
139,200,96259,2,0,P|188:200|232:222,1,99.0000030212403,8|0,0:0|0:0,0:0:0:0:
2,161,96604,6,0,P|24:65|110:13,1,198.000006042481,2|8,0:0|0:0,0:0:0:0:
139,200,97121,1,0,0:0:0:0:
139,200,97208,1,0,0:0:0:0:
139,200,97294,2,0,P|129:269|111:315,1,99.0000030212403,0|0,0:0|0:0,0:0:0:0:
260,155,97639,2,0,P|304:208|326:252,1,99.0000030212403,8|0,0:0|0:0,0:0:0:0:
307,34,97984,6,0,P|376:36|501:101,1,198.000006042481,0|8,0:0|0:0,0:0:0:0:
420,238,98501,1,0,0:0:0:0:
416,218,98587,1,0,0:0:0:0:
412,198,98673,1,0,0:0:0:0:
231,132,98846,1,0,0:0:0:0:
224,186,98932,1,0,0:0:0:0:
217,240,99018,1,8,0:0:0:0:
104,158,99190,1,8,0:0:0:0:
320,292,99363,6,0,P|216:280|139:369,1,198.000006042481,6|8,0:0|0:0,0:0:0:0:
413,352,99880,1,0,0:0:0:0:
413,352,99966,1,0,0:0:0:0:
413,352,100053,2,0,B|431:306|431:306|423:257,1,99.0000030212403,0|0,0:0|0:0,0:0:0:0:
234,91,100397,2,0,B|216:137|216:137|224:186,1,99.0000030212403,8|0,0:0|0:0,0:0:0:0:
499,187,100742,6,0,B|451:173|420:130|420:130|378:153|323:148,1,198.000006042481,0|8,0:0|0:0,0:0:0:0:
481,17,101259,2,0,L|487:78,2,49.5000015106202,0|0|0,0:0|0:0|0:0,0:0:0:0:
398,225,101604,1,0,0:0:0:0:
190,83,101777,2,0,P|257:73|308:60,1,99.0000030212403,8|0,0:0|0:0,0:0:0:0:
241,294,102121,6,0,B|160:239|160:239|17:259,1,198.000006042481,2|8,0:0|0:0,0:0:0:0:
273,194,102639,1,0,0:0:0:0:
292,193,102725,1,0,0:0:0:0:
311,192,102811,1,0,0:0:0:0:
190,83,102984,1,0,0:0:0:0:
423,28,103156,2,0,L|409:145,1,99.0000030212403,8|0,0:0|0:0,0:0:0:0:
328,314,103501,6,0,P|397:248|491:263,1,198.000006042481,0|8,0:0|0:0,0:0:0:0:
256,115,104018,1,0,0:0:0:0:
256,115,104104,1,0,0:0:0:0:
256,115,104190,1,0,0:0:0:0:
256,269,104363,1,0,0:0:0:0:
150,180,104535,1,8,0:0:0:0:
362,180,104708,1,0,0:0:0:0:
183,314,104880,6,0,P|114:248|20:263,1,198.000006042481,2|8,0:0|0:0,0:0:0:0:
123,95,105397,2,0,L|133:164,2,49.5000015106202,0|0|0,0:0|0:0|0:0,0:0:0:0:
256,205,105742,1,0,0:0:0:0:
380,54,105915,2,0,L|274:31,1,99.0000030212403,8|0,0:0|0:0,0:0:0:0:
219,313,106259,6,0,B|324:329|310:279|413:297,1,198.000006042481,0|8,0:0|0:0,0:0:0:0:
256,205,106777,1,0,0:0:0:0:
236,203,106863,1,0,0:0:0:0:
216,201,106949,1,0,0:0:0:0:
345,49,107121,1,0,0:0:0:0:
159,88,107294,1,8,0:0:0:0:
410,147,107466,1,0,0:0:0:0:
275,313,107639,6,0,P|350:257|459:256,1,198.000006042481,2|8,0:0|0:0,0:0:0:0:
297,83,108156,1,0,0:0:0:0:
297,83,108242,1,0,0:0:0:0:
297,83,108328,1,0,0:0:0:0:
156,190,108501,1,0,0:0:0:0:
102,185,108587,1,0,0:0:0:0:
48,180,108673,1,8,0:0:0:0:
138,26,108846,1,0,0:0:0:0:
263,171,109018,6,0,B|249:238|249:238|260:298|260:298|246:365,1,198.000006042481,0|8,0:0|0:0,0:0:0:0:
379,232,109535,1,0,0:0:0:0:
375,212,109621,1,0,0:0:0:0:
371,192,109708,1,0,0:0:0:0:
153,300,109880,1,0,0:0:0:0:
407,328,110053,1,8,0:0:0:0:
252,87,110225,1,8,0:0:0:0:
242,297,110397,6,0,B|283:335|283:335|265:193,1,198.000006042481,6|8,0:0|0:0,0:0:0:0:
134,95,110915,2,0,L|127:177,2,49.5000015106202,0|0|0,0:0|0:0|0:0,0:0:0:0:
2,199,111259,1,0,0:0:0:0:
161,280,111432,2,0,P|99:287|53:309,1,99.0000030212403,8|0,0:0|0:0,0:0:0:0:
293,344,111777,6,0,P|270:242|258:124,1,198.000006042481,0|8,0:0|0:0,0:0:0:0:
426,75,112294,1,0,0:0:0:0:
424,94,112380,1,0,0:0:0:0:
423,113,112466,1,0,0:0:0:0:
198,72,112639,1,0,0:0:0:0:
399,205,112811,2,0,B|449:204|449:204|490:179,1,99.0000030212403,8|0,0:0|0:0,0:0:0:0:
259,149,113156,6,0,P|270:247|293:344,1,198.000006042481,2|8,0:0|0:0,0:0:0:0:
135,220,113673,1,0,0:0:0:0:
135,220,113759,1,0,0:0:0:0:
135,220,113846,2,0,P|117:287|91:352,1,99.0000030212403,0|0,0:0|0:0,0:0:0:0:
259,149,114190,2,0,P|326:131|395:121,1,99.0000030212403,8|0,0:0|0:0,0:0:0:0:
463,324,114535,6,0,B|411:344|365:340|365:340|321:326|283:287,1,198.000006042481,0|8,0:0|0:0,0:0:0:0:
464,114,115053,1,0,0:0:0:0:
464,114,115139,1,0,0:0:0:0:
464,114,115225,2,0,L|474:224,1,99.0000030212403,0|0,0:0|0:0,0:0:0:0:
238,152,115570,1,8,0:0:0:0:
338,19,115742,1,0,0:0:0:0:
366,229,115915,6,0,P|293:293|176:290,1,198.000006042481,2|8,0:0|0:0,0:0:0:0:
94,147,116432,1,0,0:0:0:0:
113,145,116518,1,0,0:0:0:0:
132,143,116604,1,0,0:0:0:0:
24,279,116777,1,0,0:0:0:0:
241,132,116949,2,0,L|340:122,1,99.0000030212403,8|0,0:0|0:0,0:0:0:0:
159,47,117294,6,0,B|132:144|132:144|178:230,1,198.000006042481,0|8,0:0|0:0,0:0:0:0:
362,281,117811,2,0,L|419:270,2,49.5000015106202,0|0|0,0:0|0:0|0:0,0:0:0:0:
196,340,118156,1,0,0:0:0:0:
278,104,118328,2,0,P|293:158|297:229,1,99.0000030212403,8|0,0:0|0:0,0:0:0:0:
51,303,118673,6,0,L|70:78,1,198.000006042481,2|8,0:0|0:0,0:0:0:0:
203,217,119190,1,0,0:0:0:0:
203,217,119277,1,0,0:0:0:0:
203,217,119363,1,0,0:0:0:0:
231,43,119535,1,0,0:0:0:0:
44,128,119708,1,8,0:0:0:0:
231,225,119880,1,0,0:0:0:0:
222,15,120053,6,0,P|124:28|1:37,1,198.000006042481,0|8,0:0|0:0,0:0:0:0:
167,150,120570,1,0,0:0:0:0:
167,150,120656,1,0,0:0:0:0:
167,150,120742,2,0,P|238:139|276:135,1,99.0000030212403,0|0,0:0|0:0,0:0:0:0:
206,322,121087,2,0,P|135:333|97:337,1,99.0000030212403,8|8,0:0|0:0,0:0:0:0:
325,252,121432,6,0,P|423:239|495:325,1,198.000006042481,6|8,0:0|0:0,0:0:0:0:
417,147,121949,1,0,0:0:0:0:
414,127,122035,1,0,0:0:0:0:
411,107,122121,1,0,0:0:0:0:
389,338,122294,1,0,0:0:0:0:
242,147,122466,2,0,L|230:276,1,99.0000030212403,8|0,0:0|0:0,0:0:0:0:
79,95,122811,6,0,B|188:108|156:32|262:42,1,198.000006042481,0|8,0:0|0:0,0:0:0:0:
400,161,123328,2,0,L|406:216,2,49.5000015106202,0|0|0,0:0|0:0|0:0,0:0:0:0:
382,2,123673,1,0,0:0:0:0:
242,147,123846,2,0,P|233:202|230:276,1,99.0000030212403,8|0,0:0|0:0,0:0:0:0:
80,106,124190,6,0,L|114:344,1,198.000006042481,2|8,0:0|0:0,0:0:0:0:
256,356,124708,1,0,0:0:0:0:
256,356,124794,1,0,0:0:0:0:
256,356,124880,1,0,0:0:0:0:
331,163,125053,1,0,0:0:0:0:
181,163,125225,1,8,0:0:0:0:
404,302,125397,1,0,0:0:0:0:
355,77,125570,6,0,P|256:73|157:77,1,198.000006042481,0|8,0:0|0:0,0:0:0:0:
238,273,126087,1,0,0:0:0:0:
255,273,126173,1,0,0:0:0:0:
274,273,126259,1,0,0:0:0:0:
60,186,126432,1,0,0:0:0:0:
28,315,126604,2,0,P|96:312|141:295,1,99.0000030212403,8|0,0:0|0:0,0:0:0:0:
298,107,126949,5,2,0:0:0:0:
290,74,127035,1,0,0:0:0:0:
265,49,127121,1,0,0:0:0:0:
232,40,127207,1,0,0:0:0:0:
198,48,127293,1,8,0:0:0:0:
174,74,127380,1,0,0:0:0:0:
165,107,127466,1,0,0:0:0:0:
174,141,127552,1,0,0:0:0:0:
198,165,127638,5,0,0:0:0:0:
231,194,127725,1,0,0:0:0:0:
234,238,127811,1,0,0:0:0:0:
204,272,127898,1,0,0:0:0:0:
160,275,127984,1,8,0:0:0:0:
126,245,128070,1,0,0:0:0:0:
124,201,128156,1,0,0:0:0:0:
153,167,128242,1,0,0:0:0:0:
198,165,128328,5,0,0:0:0:0:
250,148,128415,1,0,0:0:0:0:
294,116,128501,1,0,0:0:0:0:
332,77,128587,1,0,0:0:0:0:
351,26,128673,1,8,0:0:0:0:
376,74,128759,1,0,0:0:0:0:
401,122,128846,1,0,0:0:0:0:
426,170,128932,1,0,0:0:0:0:
451,218,129018,5,0,0:0:0:0:
431,279,129104,1,0,0:0:0:0:
379,317,129190,1,0,0:0:0:0:
314,317,129277,1,0,0:0:0:0:
265,275,129363,1,8,0:0:0:0:
216,233,129449,1,0,0:0:0:0:
151,233,129535,1,0,0:0:0:0:
99,271,129621,1,0,0:0:0:0:
79,332,129708,6,0,L|151:345,1,49.5000015106202,2|0,0:0|0:0,0:0:0:0:
360,194,129880,2,0,L|311:202,1,49.5000015106202,0|0,0:0|0:0,0:0:0:0:
99,126,130053,6,0,L|171:139,1,49.5000015106202,8|0,0:0|0:0,0:0:0:0:
314,317,130225,2,0,L|265:325,1,49.5000015106202,0|0,0:0|0:0,0:0:0:0:
37,219,130397,6,0,L|111:234,1,49.5000015106202,0|0,0:0|0:0,0:0:0:0:
313,81,130570,2,0,L|264:89,1,49.5000015106202,0|0,0:0|0:0,0:0:0:0:
79,332,130742,6,0,L|151:345,1,49.5000015106202,8|0,0:0|0:0,0:0:0:0:
360,194,130915,2,0,L|311:202,1,49.5000015106202,0|0,0:0|0:0,0:0:0:0:
24,73,131087,6,0,P|99:62|180:175,1,198.000006042481,0|8,0:0|0:0,0:0:0:0:
37,219,131604,1,0,0:0:0:0:
37,219,131690,1,0,0:0:0:0:
37,219,131777,1,0,0:0:0:0:
226,264,131949,1,0,0:0:0:0:
101,360,132121,2,0,L|0:345,1,99.0000030212403,8|8,0:0|0:0,0:0:0:0:
241,239,132466,6,0,P|326:210|371:218,2,135,2|2|2,0:0|0:0|0:0,0:0:0:0:
303,16,133242,2,0,P|285:104|256:139,2,135,2|2|2,0:0|0:0|0:0,0:0:0:0:
465,181,134018,2,0,P|397:121|381:78,1,135,2|2,0:0|0:0,0:0:0:0:
401,341,134535,5,2,0:0:0:0:
221,240,134708,1,2,0:0:0:0:
270,234,134794,1,0,0:0:0:0:
319,228,134880,1,10,0:0:0:0:
179,369,135053,1,0,0:0:0:0:
28,211,135225,6,2,P|56:109|102:72,1,161.999995056153,2|0,0:0|0:0,0:0:0:0:
128,67,135570,2,0,L|236:84,1,107.999996704102,8|0,0:0|0:0,0:0:0:0:
256,80,135828,1,0,0:0:0:0:
277,75,135915,1,0,0:0:0:0:
155,191,136087,1,0,0:0:0:0:
390,235,136259,1,8,0:0:0:0:
229,318,136432,6,2,P|143:310|92:310,1,107.999996704102,0|0,0:0|0:0,0:0:0:0:
244,159,136777,1,0,0:0:0:0:
390,235,136949,2,0,P|443:232|497:226,1,107.999996704102,8|0,0:0|0:0,0:0:0:0:
497,226,137208,1,0,0:0:0:0:
497,226,137294,1,0,0:0:0:0:
381,73,137466,1,0,0:0:0:0:
244,159,137639,2,0,L|263:299,1,107.999996704102,8|0,0:0|0:0,0:0:0:0:
257,42,137984,6,2,P|168:70|131:174,1,161.999995056153,2|0,0:0|0:0,0:0:0:0:
132,158,138328,1,8,0:0:0:0:
362,197,138501,1,0,0:0:0:0:
359,175,138587,1,0,0:0:0:0:
356,153,138673,1,0,0:0:0:0:
258,266,138846,1,0,0:0:0:0:
432,330,139018,1,8,0:0:0:0:
502,166,139190,6,2,P|489:113|479:60,1,107.999996704102,0|0,0:0|0:0,0:0:0:0:
357,0,139535,1,0,0:0:0:0:
309,184,139708,2,0,P|299:237|286:289,1,107.999996704102,8|0,0:0|0:0,0:0:0:0:
286,289,139966,1,0,0:0:0:0:
286,289,140053,1,0,0:0:0:0:
152,189,140225,1,0,0:0:0:0:
277,75,140397,2,2,P|221:69|165:33,1,107.999996704102,8|0,0:0|0:0,0:0:0:0:
75,287,140742,6,2,P|161:225|259:230,1,161.999995056153,2|0,0:0|0:0,0:0:0:0:
246,228,141087,1,8,0:0:0:0:
204,374,141259,2,0,L|147:366,2,53.9999983520508,0|0|0,0:0|0:0|0:0,0:0:0:0:
386,313,141604,1,0,0:0:0:0:
249,113,141777,1,8,0:0:0:0:
160,227,141949,6,2,B|205:256|205:256|259:257,1,107.999996704102,0|0,0:0|0:0,0:0:0:0:
233,85,142294,1,0,0:0:0:0:
49,181,142466,2,2,L|62:302,1,107.999996704102,8|0,0:0|0:0,0:0:0:0:
78,300,142725,1,0,0:0:0:0:
95,312,142811,1,0,0:0:0:0:
324,209,142984,6,0,P|284:182|242:181,1,67.5000025749208,2|0,0:0|0:0,0:0:0:0:
274,361,143156,2,0,P|317:339|339:303,1,67.5000025749208,10|0,0:0|0:0,0:0:0:0:
167,241,143328,2,0,P|163:289|183:326,1,67.5000025749208,2|0,0:0|0:0,0:0:0:0:
414,259,143501,6,2,L|390:78,1,161.999995056153,6|0,0:0|0:0,0:0:0:0:
386,66,143846,2,0,P|446:88|500:86,1,107.999996704102,8|0,0:0|0:0,0:0:0:0:
489,87,144104,1,0,0:0:0:0:
489,87,144190,1,0,0:0:0:0:
256,2,144363,1,0,0:0:0:0:
256,208,144535,1,8,0:0:0:0:
22,87,144708,6,2,P|76:86|126:65,1,107.999996704102,0|0,0:0|0:0,0:0:0:0:
0,197,145053,1,0,0:0:0:0:
172,299,145225,2,0,L|40:287,1,107.999996704102,8|0,0:0|0:0,0:0:0:0:
44,298,145484,1,0,0:0:0:0:
24,307,145570,1,0,0:0:0:0:
199,148,145742,1,0,0:0:0:0:
340,299,145915,2,2,L|472:287,1,107.999996704102,8|0,0:0|0:0,0:0:0:0:
428,78,146259,6,2,B|360:37|360:37|277:42,1,161.999995056153,2|0,0:0|0:0,0:0:0:0:
245,45,146604,1,8,0:0:0:0:
347,205,146777,1,0,0:0:0:0:
368,203,146863,1,0,0:0:0:0:
389,201,146949,1,0,0:0:0:0:
199,148,147121,1,0,0:0:0:0:
250,352,147294,1,8,0:0:0:0:
436,306,147466,6,2,P|383:293|330:283,1,107.999996704102,0|0,0:0|0:0,0:0:0:0:
301,109,147811,1,0,0:0:0:0:
94,202,147984,2,2,P|106:286|134:332,1,107.999996704102,8|0,0:0|0:0,0:0:0:0:
115,305,148242,1,0,0:0:0:0:
115,305,148328,1,0,0:0:0:0:
231,230,148501,1,0,0:0:0:0:
135,96,148673,2,0,P|54:80|2:65,1,107.999996704102,8|0,0:0|0:0,0:0:0:0:
247,257,149018,5,2,0:0:0:0:
282,269,149104,1,0,0:0:0:0:
320,271,149190,1,0,0:0:0:0:
356,263,149276,1,0,0:0:0:0:
389,244,149362,1,8,0:0:0:0:
416,218,149449,1,0,0:0:0:0:
433,184,149535,1,0,0:0:0:0:
441,147,149621,1,0,0:0:0:0:
436,110,149708,5,0,0:0:0:0:
414,66,149794,1,0,0:0:0:0:
371,41,149880,1,0,0:0:0:0:
323,42,149967,1,0,0:0:0:0:
283,71,150053,1,8,0:0:0:0:
265,116,150139,1,0,0:0:0:0:
274,163,150225,1,0,0:0:0:0:
301,203,150311,1,0,0:0:0:0:
312,250,150397,5,0,0:0:0:0:
296,306,150484,1,0,0:0:0:0:
250,344,150570,1,0,0:0:0:0:
191,347,150656,1,0,0:0:0:0:
141,315,150742,1,8,0:0:0:0:
120,260,150828,1,0,0:0:0:0:
134,202,150915,1,0,0:0:0:0:
181,165,151001,1,0,0:0:0:0:
241,166,151087,5,0,0:0:0:0:
301,203,151173,1,0,0:0:0:0:
358,244,151259,1,0,0:0:0:0:
428,244,151346,1,0,0:0:0:0:
484,203,151432,1,8,0:0:0:0:
506,136,151518,1,0,0:0:0:0:
485,69,151604,1,0,0:0:0:0:
428,28,151690,1,0,0:0:0:0:
358,28,151777,6,0,L|278:35,1,53.9999983520508,2|0,0:0|0:0,0:0:0:0:
185,42,151949,2,0,L|105:49,1,53.9999983520508,0|0,0:0|0:0,0:0:0:0:
224,138,152121,6,0,L|304:145,1,53.9999983520508,8|0,0:0|0:0,0:0:0:0:
397,152,152293,2,0,L|477:159,1,53.9999983520508,0|0,0:0|0:0,0:0:0:0:
265,240,152466,6,0,L|185:247,1,53.9999983520508,0|0,0:0|0:0,0:0:0:0:
92,254,152638,2,0,L|12:261,1,53.9999983520508,0|0,0:0|0:0,0:0:0:0:
165,343,152811,6,4,L|245:350,1,53.9999983520508,8|0,0:0|0:0,0:0:0:0:
338,357,152983,2,0,L|418:364,1,53.9999983520508,0|0,0:0|0:0,0:0:0:0:
450,156,153156,6,2,P|350:111|283:125,1,161.999995056153,0|0,0:0|0:0,0:0:0:0:
270,127,153501,1,8,0:0:0:0:
346,253,153673,1,0,0:0:0:0:
346,253,153759,1,0,0:0:0:0:
346,253,153846,1,0,0:0:0:0:
143,176,154018,1,0,0:0:0:0:
186,352,154190,2,0,L|307:338,1,107.999996704102,8|8,0:0|0:0,0:0:0:0:
125,155,154535,5,4,0:0:0:0:
