osu file format v14

[General]
AudioFilename: audio.mp3
AudioLeadIn: 0
PreviewTime: 53168
Countdown: 0
SampleSet: Soft
StackLeniency: 0.2
Mode: 0
LetterboxInBreaks: 0
WidescreenStoryboard: 0

[Editor]
DistanceSpacing: 0.5
BeatDivisor: 4
GridSize: 32
TimelineZoom: 4.599998

[Metadata]
Title:Yorixiro
TitleUnicode:Yorixiro
Artist:Reku Mochizuki
ArtistUnicode:Reku Mochizuki
Creator:Yugu
Version:Upgrade
Source:
Tags:PABAT! 2020 Electronic Instrumental bms Oriental Hardcore fa featured artist mappers' guild mpg
BeatmapID:2960557
BeatmapSetID:1438879

[Difficulty]
HPDrainRate:6
CircleSize:5
OverallDifficulty:8.5
ApproachRate:9.5
SliderMultiplier:2.2
SliderTickRate:1

[Events]
//Background and Video events
0,0,"aa9d25cb-48ac-4b1d-8de5-263ee024c162.png",0,0
//Break Periods
2,32612,37076
//Storyboard Layer 0 (Background)
//Storyboard Layer 1 (Fail)
//Storyboard Layer 2 (Pass)
//Storyboard Layer 3 (Foreground)
//Storyboard Layer 4 (Overlay)
//Storyboard Sound Samples

[TimingPoints]
1277,324.324324324324,4,2,88,50,1,0
1277,-133.333333333333,4,2,88,50,0,0
3222,-250,4,2,88,50,0,0
3871,-133.333333333333,4,2,88,50,0,0
5817,-250,4,2,88,50,0,0
6141,-250,4,2,99,50,0,0
6466,-133.333333333333,4,2,1,70,0,0
7114,-105.263157894737,4,2,1,70,0,0
7763,-86.9565217391304,4,2,1,70,0,0
8412,-74.0740740740741,4,2,1,70,0,0
9060,-64.5161290322581,4,2,1,70,0,0
9709,-250,4,2,1,70,0,0
10358,-250,4,2,1,50,0,0
11655,-55.5555555555556,4,2,2,60,0,0
19763,-53.1914893617021,4,2,2,60,0,0
20087,-55.5555555555556,4,2,2,60,0,0
20736,-55.5555555555556,4,2,88,60,0,0
22033,-55.5555555555556,4,2,2,70,0,0
26249,-53.1914893617021,4,2,2,70,0,0
26574,-55.5555555555556,4,2,2,70,0,0
27547,-53.1914893617021,4,2,2,70,0,0
27871,-55.5555555555556,4,2,2,70,0,0
31114,-55.5555555555556,4,2,88,70,0,0
37601,-133.333333333333,4,2,88,50,0,0
42709,-133.333333333333,4,2,88,5,0,0
42790,-100,4,2,88,60,0,0
47979,-133.333333333333,4,2,1,70,0,0
48627,-105.263157894737,4,2,1,70,0,0
49276,-86.9565217391304,4,2,1,70,0,0
49925,-74.0740740740741,4,2,1,70,0,0
50574,-64.5161290322581,4,2,1,70,0,0
51222,-250,4,2,1,70,0,0
51871,-250,4,2,1,50,0,0
53168,-66.6666666666667,4,2,3,85,0,0
55114,-80,4,2,3,85,0,0
58033,-57.1428571428571,4,2,99,85,0,0
58114,-57.1428571428571,4,2,99,5,0,0
58358,-66.6666666666667,4,2,3,85,0,0
61276,-57.1428571428571,4,2,99,85,0,0
61439,-66.6666666666667,4,2,3,85,0,0
61925,-57.1428571428571,4,2,99,85,0,0
62088,-66.6666666666667,4,2,3,85,0,0
62249,-57.1428571428571,4,2,3,85,0,0
62412,-57.1428571428571,4,2,99,85,0,0
62574,-57.1428571428571,4,2,3,85,0,0
62736,-57.1428571428571,4,2,99,85,0,0
62898,-57.1428571428571,4,2,3,85,0,0
63060,-57.1428571428571,4,2,99,85,0,0
63385,-57.1428571428571,4,2,3,85,0,0
63547,-66.6666666666667,4,2,3,85,0,0
65493,-80,4,2,3,85,0,0
68412,-57.1428571428571,4,2,99,85,0,0
68493,-57.1428571428571,4,2,99,5,0,0
68736,-66.6666666666667,4,2,3,85,0,0
71331,-83.3333333333333,4,2,3,85,0,0
71655,-83.3333333333333,4,2,99,85,0,0
71817,-83.3333333333333,4,2,3,85,0,0
72304,-83.3333333333333,4,2,99,85,0,0
72466,-83.3333333333333,4,2,3,85,0,0
72790,-125,4,2,99,85,0,0
73601,-125,4,2,70,85,0,0
73925,-83.3333333333333,4,2,70,85,0,0
74574,-71.4285714285714,4,2,70,85,0,0
74898,-76.9230769230769,4,2,70,85,0,0
78790,-76.9230769230769,4,2,99,85,0,0
78871,-76.9230769230769,4,2,70,85,0,0
82033,-76.9230769230769,4,2,99,85,0,0
82195,-76.9230769230769,4,2,70,85,0,0
82682,-76.9230769230769,4,2,99,85,0,0
82844,-76.9230769230769,4,2,70,85,0,0
83168,-76.9230769230769,4,2,99,85,0,0
83331,-76.9230769230769,4,2,70,85,0,0
83493,-76.9230769230769,4,2,99,85,0,0
83656,-76.9230769230769,4,2,70,85,0,0
83736,-76.9230769230769,4,2,99,85,0,0
84060,-76.9230769230769,4,2,70,85,0,0
84304,-83.3333333333333,4,2,70,85,0,0
84952,-71.4285714285714,4,2,70,85,0,0
85276,-76.9230769230769,4,2,70,85,0,0
89168,-76.9230769230769,4,2,99,85,0,0
89249,-76.9230769230769,4,2,70,85,0,0
92087,-76.9230769230769,4,2,70,50,0,0
93385,-250,4,2,99,50,0,0
94358,-333.333333333333,4,2,99,50,0,0
94682,-55.5555555555556,4,2,2,60,0,0
103763,-55.5555555555556,4,2,88,60,0,0
105060,-55.5555555555556,4,2,2,60,0,0
109276,-53.1914893617021,4,2,2,60,0,0
109601,-55.5555555555556,4,2,2,60,0,0
112844,-55.5555555555556,4,2,2,70,0,0
114141,-55.5555555555556,4,2,88,70,0,0
115439,-333.333333333333,4,2,88,70,0,0

[Colours]
Combo1 : 48,97,169
Combo2 : 169,44,169

[HitObjects]
136,116,1277,5,14,1:2:0:0:
217,101,1439,1,2,0:0:0:0:
232,182,1601,1,10,0:0:0:0:
151,197,1763,2,0,L|62:183,1,82.5000031471254,2|8,0:0|0:0,0:0:0:0:
154,204,2087,2,0,L|65:190,1,82.5000031471254,2|8,0:0|0:0,0:0:0:0:
157,211,2412,2,0,L|68:197,1,82.5000031471254,2|10,0:0|0:0,0:0:0:0:
22,261,2736,1,2,2:3:0:0:
67,329,2898,1,10,0:0:0:0:
135,284,3060,1,2,0:0:0:0:
198,321,3222,6,0,L|256:311,3,44,8|0|8|0,0:0|0:0|0:0|0:0,0:0:0:0:
342,202,3871,5,10,0:0:0:0:
327,283,4033,1,2,0:0:0:0:
408,298,4195,1,10,0:0:0:0:
423,217,4358,2,0,L|414:125,1,82.5000031471254,2|8,0:0|0:0,0:0:0:0:
430,220,4682,2,0,L|421:128,1,82.5000031471254,2|8,0:0|0:0,0:0:0:0:
437,223,5006,2,0,L|428:131,1,82.5000031471254,2|8,0:0|0:0,0:0:0:0:
472,64,5331,1,2,2:3:0:0:
472,64,5493,1,10,0:0:0:0:
472,64,5655,1,2,0:0:0:0:
411,0,5817,6,0,B|393:11|393:11|403:74,1,66,8|0,0:0|0:0,0:0:0:0:
472,64,6141,1,8,0:3:0:0:
472,64,6466,5,12,0:0:0:0:
355,291,6628,2,0,P|347:271|335:254,1,41.2500015735627,2|0,3:2|0:0,0:0:0:0:
256,332,6790,1,2,0:0:0:0:
256,332,6952,2,0,P|264:313|268:293,1,41.2500015735627,2|0,3:2|0:0,0:0:0:0:
151,70,7114,5,12,0:0:0:0:
145,294,7276,2,0,P|170:285|192:271,1,52.2499986047745,2|0,3:2|0:0,0:0:0:0:
105,186,7439,1,2,0:0:0:0:
105,186,7601,2,0,P|129:197|154:202,1,52.2499986047745,2|0,3:2|0:0,0:0:0:0:
387,90,7763,5,12,0:0:0:0:
151,70,7925,2,0,P|158:101|175:128,1,63.250001206398,2|0,3:2|0:0,0:0:0:0:
268,32,8087,1,2,0:0:0:0:
268,32,8249,2,0,P|251:58|243:89,1,63.250001206398,2|0,3:2|0:0,0:0:0:0:
355,333,8412,1,12,0:0:0:0:
387,90,8574,2,0,P|350:93|318:111,1,74.2500002832413,2|0,3:2|0:0,0:0:0:0:
420,213,8736,1,2,0:0:0:0:
420,213,8898,2,0,P|392:189|357:178,1,74.2500002832413,2|0,3:2|0:0,0:0:0:0:
355,333,9060,6,0,P|356:291|337:253,1,85.2500006504059,12|2,3:2|0:0,0:0:0:0:
226,362,9222,2,0,P|256:333|270:293,1,85.2500006504059,2|2,3:2|0:0,0:0:0:0:
114,291,9385,2,0,P|156:292|194:273,1,85.2500006504059,12|2,3:2|0:0,0:0:0:0:
85,162,9547,2,0,P|114:192|154:206,1,85.2500006504059,2|2,3:2|0:0,0:0:0:0:
267,182,9709,5,12,3:2:0:0:
246,202,9790,1,2,3:2:0:0:
271,192,9871,5,2,3:2:0:0:
242,192,9952,1,2,3:2:0:0:
267,202,10033,5,12,3:2:0:0:
246,182,10114,1,2,3:2:0:0:
257,206,10195,5,2,3:2:0:0:
257,177,10276,1,2,3:2:0:0:
256,192,10358,5,2,0:0:0:0:
256,275,10520,1,0,1:0:0:0:
256,109,10682,1,0,1:0:0:0:
256,106,10763,1,0,1:0:0:0:
256,103,10844,1,0,1:0:0:0:
256,100,10925,1,0,1:0:0:0:
256,97,11006,2,0,L|296:90,1,22,8|0,0:0|1:0,0:0:0:0:
324,28,11168,5,2,1:2:0:0:
256,15,11249,1,2,1:2:0:0:
187,1,11331,1,8,0:0:0:0:
45,234,11655,6,0,B|0:215|0:215|41:190,1,98.9999969787599,6|0,1:2|0:0,0:0:0:0:
175,179,11817,2,0,B|220:197|220:197|179:223,1,98.9999969787599,2|0,0:0|0:0,0:0:0:0:
118,293,11979,6,0,B|109:285|109:285|110:301|110:301|126:300|126:300|125:284|125:284|117:284|117:284|110:204|110:204|103:124|103:124|95:124|95:124|93:108|93:108|109:107|109:107|111:123|111:123|102:116|102:116,1,296.99999093628,2|0,0:1|0:0,0:0:0:0:
102,116,12304,6,0,B|111:123|111:123|109:107|109:107|93:108|93:108|95:124|95:124|103:124|103:124|110:204|110:204|117:284|117:284|125:284|125:284|126:300|126:300|110:301|110:301|109:285|109:285|118:293,1,296.99999093628,2|0,1:1|0:0,0:0:0:0:
214,277,12628,6,0,L|205:375,1,98.9999969787599,2|0,0:3|0:0,0:0:0:0:
254,172,12790,2,0,B|258:175|258:175|257:167|257:167|249:168|249:168|250:176|250:176|254:176|254:176|256:192|256:192|257:207|257:207|261:207|261:207|262:215|262:215|254:216|254:216|253:208|253:208|257:211,1,98.9999969787599,2|0,0:1|0:0,0:0:0:0:
445,264,12952,6,0,B|488:237|488:237|443:219,1,98.9999969787599,2|0,1:2|0:0,0:0:0:0:
287,284,13114,2,0,L|278:382,1,98.9999969787599,2|0,0:3|0:0,0:0:0:0:
328,23,13276,2,0,B|322:29|322:29|321:17|321:17|333:16|333:16|334:28|334:28|328:28|328:28|332:79|332:79|337:130|337:130|331:131|331:131|332:142|332:142|344:141|344:141|343:130|343:130|337:136,1,197.99999395752,2|2,0:1|0:1,0:0:0:0:
59,361,13601,6,0,L|68:263,1,98.9999969787599,2|0,1:3|0:0,0:0:0:0:
141,270,13763,2,0,L|132:368,1,98.9999969787599,2|0,0:3|0:0,0:0:0:0:
194,60,13925,5,2,1:1:0:0:
242,55,14006,1,2,1:1:0:0:
247,104,14087,1,2,1:3:0:0:
198,108,14168,1,0,1:0:0:0:
221,82,14249,6,0,B|266:100|266:100|225:126,1,98.9999969787599,2|0,1:2|0:0,0:0:0:0:
91,137,14412,2,0,B|46:118|46:118|87:93,1,98.9999969787599,2|0,0:0|0:0,0:0:0:0:
148,19,14574,2,0,B|156:26|156:26|155:10|155:10|139:11|139:11|140:27|140:27|148:27|148:27|155:107|155:107|162:187|162:187|170:187|170:187|172:203|172:203|156:204|156:204|154:188|154:188|163:195|163:195,1,296.99999093628,2|0,0:1|0:0,0:0:0:0:
225,71,14898,6,0,L|252:366,1,296.99999093628,2|0,1:3|0:0,0:0:0:0:
298,160,15222,2,0,L|307:258,1,98.9999969787599,2|0,0:3|0:0,0:0:0:0:
372,255,15385,2,0,L|363:157,1,98.9999969787599,2|0,0:3|0:0,0:0:0:0:
368,30,15547,6,0,B|323:48|323:48|364:74,1,98.9999969787599,2|0,1:2|0:0,0:0:0:0:
498,85,15710,2,0,B|543:66|543:66|502:41,1,98.9999969787599,2|0,0:2|0:0,0:0:0:0:
438,0,15871,2,0,B|431:5|431:5|432:-5|432:-5|444:-4|444:-4|443:6|443:6|436:5|436:5|432:59|432:59|427:113|427:113|422:113|422:113|421:123|421:123|431:124|431:124|432:114|432:114|426:119,2,197.99999395752,2|0|2,0:1|0:0|1:3,0:0:0:0:
504,181,16358,1,0,1:0:0:0:
256,0,16520,1,8,0:0:0:0:
67,256,16844,6,0,B|94:298|94:298|112:253,1,98.9999969787599,6|0,1:2|0:0,0:0:0:0:
102,121,17007,2,0,B|75:78|75:78|56:123,1,98.9999969787599,2|0,0:0|0:0,0:0:0:0:
0,195,17168,2,0,B|7:187|7:187|-9:188|-9:188|-8:204|-8:204|8:203|8:203|8:195|8:195|88:188|88:188|168:181|168:181|168:173|168:173|184:171|184:171|185:187|185:187|169:189|169:189|176:180|176:180,1,296.99999093628,2|0,1:1|0:0,0:0:0:0:
342,134,17493,6,0,L|244:125,1,98.9999969787599,2|0,1:3|0:0,0:0:0:0:
348,71,17655,2,0,L|250:62,1,98.9999969787599,2|0,0:3|0:0,0:0:0:0:
354,8,17817,2,0,L|256:0,1,98.9999969787599,2|0,1:3|0:0,0:0:0:0:
429,240,17979,6,0,B|471:213|471:213|426:195,1,98.9999969787599,2|0,0:0|0:0,0:0:0:0:
294,205,18141,2,0,B|251:232|251:232|296:251,1,98.9999969787599,2|0,1:2|0:0,0:0:0:0:
375,366,18304,2,0,L|347:70,1,296.99999093628,2|0,0:3|0:0,0:0:0:0:
422,169,18628,6,0,L|431:267,1,98.9999969787599,2|0,0:3|0:0,0:0:0:0:
141,141,18790,2,0,B|138:138|138:138|144:138|144:138|145:145|145:145|138:145|138:145|138:142|138:142|117:144|117:144|97:145|97:145|97:142|97:142|90:142|90:142|91:149|91:149|97:149|97:149|94:146|94:146,1,98.9999969787599,2|0,1:1|0:0,0:0:0:0:
99,222,18952,2,0,B|102:225|102:225|96:225|96:225|95:218|95:218|102:218|102:218|102:221|102:221|123:219|123:219|143:218|143:218|143:221|143:221|150:221|150:221|149:214|149:214|143:214|143:214|146:217|146:217,1,98.9999969787599,2|0,0:1|0:0,0:0:0:0:
113,76,19114,1,2,1:2:0:0:
127,287,19276,1,2,0:0:0:0:
324,70,19439,6,0,B|367:91|367:91|324:114,1,98.9999969787599,2|0,1:2|0:0,0:0:0:0:
189,113,19602,2,0,B|145:90|145:90|188:68,1,98.9999969787599,2|0,0:0|0:0,0:0:0:0:
256,0,19763,2,0,B|264:8|264:8|264:-8|264:-8|248:-8|248:-8|248:8|248:8|256:8|256:8|256:96|256:96|256:184|256:184|264:184|264:184|264:200|264:200|248:200|248:200|248:184|248:184|256:192,1,310.199995266724,2|0,1:1|0:0,0:0:0:0:
256,384,20087,6,0,L|256:87,1,296.99999093628,2|0,1:3|0:0,0:0:0:0:
352,288,20412,2,0,L|352:189,1,98.9999969787599,2|0,1:3|0:0,0:0:0:0:
160,288,20574,2,0,L|160:189,1,98.9999969787599,2|0,0:3|0:0,0:0:0:0:
64,192,20736,5,2,1:2:0:0:
45,120,20898,1,2,3:2:0:0:
448,192,21060,1,2,3:2:0:0:
467,120,21222,1,2,3:2:0:0:
45,120,21385,5,2,1:2:0:0:
26,48,21547,1,2,3:2:0:0:
467,120,21709,1,2,1:2:0:0:
486,48,21871,1,2,0:0:0:0:
256,0,22033,5,8,1:3:0:0:
256,0,22195,5,0,1:0:0:0:
183,192,22358,6,0,B|194:181|194:181|173:181|173:181|173:201|173:201|194:201|194:201|194:192|194:192|256:192|256:192|316:192|316:192|316:181|316:181|337:181|337:181|337:201|337:201|316:201|316:201|327:192|327:192,1,296.99999093628,6|0,1:1|0:0,0:0:0:0:
327,192,22682,6,0,B|316:201|316:201|337:201|337:201|337:181|337:181|316:181|316:181|316:192|316:192|256:192|256:192|194:192|194:192|194:201|194:201|173:201|173:201|173:181|173:181|194:181|194:181|183:192,1,296.99999093628,2|0,1:1|0:0,0:0:0:0:
256,120,23006,5,2,1:3:0:0:
256,264,23168,1,2,0:3:0:0:
404,156,23331,6,0,B|439:191|439:191|404:227,1,98.9999969787599,2|0,1:2|0:0,0:0:0:0:
108,227,23493,2,0,B|72:191|72:191|108:156,1,98.9999969787599,2|0,0:0|0:0,0:0:0:0:
279,192,23655,6,0,B|275:188|275:188|282:188|282:188|282:195|282:195|275:195|275:195|275:192|275:192|256:192|256:192|235:192|235:192|235:188|235:188|228:188|228:188|228:195|228:195|235:195|235:195|232:192|232:192,1,98.9999969787599,2|0,1:1|0:0,0:0:0:0:
232,192,23817,6,0,B|235:195|235:195|228:195|228:195|228:188|228:188|235:188|235:188|235:192|235:192|256:192|256:192|275:192|275:192|275:195|275:195|282:195|282:195|282:188|282:188|275:188|275:188|279:192,1,98.9999969787599,2|0,0:1|0:0,0:0:0:0:
356,192,23979,5,2,1:3:0:0:
156,192,24141,1,2,0:3:0:0:
326,264,24304,5,0,1:0:0:0:
256,264,24385,1,0,1:0:0:0:
186,264,24466,1,0,1:0:0:0:
356,336,24628,5,2,1:2:0:0:
156,336,24790,1,2,0:0:0:0:
329,192,24952,6,0,B|318:181|318:181|339:181|339:181|339:201|339:201|318:201|318:201|318:192|318:192|256:192|256:192|196:192|196:192|196:181|196:181|175:181|175:181|175:201|175:201|196:201|196:201|185:192|185:192,1,296.99999093628,2|0,1:1|0:0,0:0:0:0:
108,116,25276,2,0,B|256:116|256:116|405:116,1,296.99999093628,2|0,1:3|0:0,0:0:0:0:
392,44,25601,2,0,B|293:44,1,98.9999969787599,2|0,1:3|0:0,0:0:0:0:
120,44,25763,2,0,B|218:44,1,98.9999969787599,2|0,0:3|0:0,0:0:0:0:
462,8,25925,6,0,B|497:43|497:43|462:79,1,98.9999969787599,2|0,1:2|0:0,0:0:0:0:
50,79,26087,6,0,B|15:43|15:43|50:8,1,98.9999969787599,2|0,0:0|0:0,0:0:0:0:
256,0,26249,6,0,B|264:8|264:8|264:-8|264:-8|248:-8|248:-8|248:8|248:8|256:8|256:8|256:96|256:96|256:184|256:184|264:184|264:184|264:200|264:200|248:200|248:200|248:184|248:184|256:192,1,310.199995266724,2|0,1:1|0:0,0:0:0:0:
256,384,26574,1,2,1:3:0:0:
256,384,26736,1,2,1:3:0:0:
256,0,26898,1,8,0:0:0:0:
256,0,27222,5,6,1:2:0:0:
357,64,27385,1,2,0:0:0:0:
155,64,27547,6,0,B|147:72|147:72|147:56|147:56|163:56|163:56|163:72|163:72|155:72|155:72|155:160|155:160|155:248|155:248|147:248|147:248|147:264|147:264|163:264|163:264|163:248|163:248|155:256,1,310.199995266724,2|0,1:1|0:0,0:0:0:0:
357,64,27871,2,0,B|357:113|357:113|357:162,1,98.9999969787599,2|0,1:3|0:0,0:0:0:0:
256,143,28033,2,0,B|256:192|256:192|256:241,1,98.9999969787599,2|0,0:3|0:0,0:0:0:0:
458,143,28195,2,0,B|458:341,1,197.99999395752,2|0,1:3|0:0,0:0:0:0:
291,354,28439,5,0,0:0:0:0:
291,354,28520,2,0,B|255:389|255:389|220:354,1,98.9999969787599,2|0,1:2|0:0,0:0:0:0:
54,341,28682,2,0,B|54:201|54:201|54:44,1,296.99999093628,2|0,0:3|0:0,0:0:0:0:
155,64,29006,2,0,B|155:113|155:113|155:162,1,98.9999969787599,2|0,0:3|0:0,0:0:0:0:
233,273,29168,6,0,B|237:269|237:269|230:269|230:269|230:276|230:276|237:276|237:276|237:273|237:273|256:273|256:273|277:273|277:273|277:269|277:269|284:269|284:269|284:276|284:276|277:276|277:276|280:273|280:273,1,98.9999969787599,2|0,1:1|0:0,0:0:0:0:
279,111,29331,2,0,B|275:115|275:115|282:115|282:115|282:108|282:108|275:108|275:108|275:111|275:111|256:111|256:111|235:111|235:111|235:115|235:115|228:115|228:115|228:108|228:108|235:108|235:108|232:111|232:111,1,98.9999969787599,2|0,0:1|0:0,0:0:0:0:
256,192,29493,1,2,1:2:0:0:
256,192,29655,1,2,0:0:0:0:
96,232,29817,5,2,1:2:0:0:
16,232,29979,1,2,1:2:0:0:
16,152,30141,1,2,1:1:0:0:
96,152,30304,1,0,1:0:0:0:
416,232,30466,5,2,1:3:0:0:
496,232,30628,1,0,1:0:0:0:
496,152,30790,1,2,1:3:0:0:
416,152,30953,1,2,1:3:0:0:
256,272,31114,5,2,1:2:0:0:
336,192,31276,1,2,3:2:0:0:
256,112,31439,1,2,3:2:0:0:
176,192,31601,1,2,3:2:0:0:
179,115,31763,5,2,1:2:0:0:
332,115,31925,1,2,3:2:0:0:
332,268,32088,1,6,1:2:0:0:
179,268,32250,1,2,0:0:0:0:
256,192,32412,5,4,0:0:0:0:
256,192,37601,5,10,0:0:0:0:
173,185,37763,1,2,0:0:0:0:
90,178,37925,1,10,0:0:0:0:
178,91,38087,6,0,P|218:82|257:69,1,82.5000031471254,2|8,0:0|0:0,0:0:0:0:
347,30,38412,2,0,P|334:70|326:110,1,82.5000031471254,2|8,0:0|0:0,0:0:0:0:
314,207,38736,2,0,P|285:177|254:150,1,82.5000031471254,2|10,0:0|0:0,0:0:0:0:
235,290,39060,5,2,0:0:0:0:
318,283,39222,1,10,0:0:0:0:
401,276,39384,1,2,0:0:0:0:
401,276,40195,5,10,0:0:0:0:
440,203,40358,1,2,0:0:0:0:
387,139,40520,1,10,0:0:0:0:
476,16,40682,6,0,P|476:57|453:90,1,82.5000031471254,2|8,0:0|0:0,0:0:0:0:
307,133,41006,2,0,P|266:133|233:109,1,82.5000031471254,2|8,0:0|0:0,0:0:0:0:
124,50,41331,2,0,L|42:61,1,82.5000031471254,2|8,0:0|0:0,0:0:0:0:
98,167,41655,5,2,0:0:0:0:
98,167,41817,1,10,0:0:0:0:
98,167,41979,1,2,0:0:0:0:
256,192,42060,12,0,42709,0:0:0:0:
195,246,42790,6,0,P|163:204|182:155,2,110,6|2|2,1:2|0:0|1:2,0:0:0:0:
323,146,43276,2,0,P|291:105|238:111,1,110,2|0,0:0|1:0,0:0:0:0:
261,273,43601,2,0,P|313:265|333:217,1,110,2|0,0:0|1:0,0:0:0:0:
256,192,43925,1,2,1:2:0:0:
256,192,44006,1,0,1:0:0:0:
256,192,44087,5,6,1:2:0:0:
238,111,44249,1,2,0:0:0:0:
335,216,44412,1,2,1:2:0:0:
194,248,44574,1,2,0:0:0:0:
256,192,44736,1,0,1:0:0:0:
212,348,44898,2,0,P|132:325|52:307,1,165,6|0,0:0|0:0,0:0:0:0:
8,364,45222,1,0,1:0:0:0:
8,364,45304,1,0,1:0:0:0:
8,364,45385,6,0,P|56:342|62:289,2,110,6|2|2,1:2|0:0|1:2,0:0:0:0:
109,209,45871,2,0,P|162:205|194:248,1,110,2|0,0:0|1:0,0:0:0:0:
228,130,46195,2,0,P|231:77|189:45,1,110,2|0,0:0|1:0,0:0:0:0:
88,66,46520,1,2,1:2:0:0:
88,66,46601,1,0,1:0:0:0:
88,66,46682,5,4,1:0:0:0:
269,7,46844,1,2,0:0:0:0:
269,7,47006,1,2,1:2:0:0:
269,7,47168,1,2,0:0:0:0:
228,130,47331,1,0,1:0:0:0:
228,130,47493,1,0,1:0:0:0:
40,64,47655,1,2,0:3:0:0:
40,64,47979,5,12,0:0:0:0:
157,291,48141,2,0,P|165:271|177:254,1,41.2500015735627,2|0,3:2|0:0,0:0:0:0:
256,332,48303,1,2,0:0:0:0:
256,332,48465,2,0,P|248:313|244:293,1,41.2500015735627,2|0,3:2|0:0,0:0:0:0:
361,70,48627,5,12,0:0:0:0:
367,294,48789,2,0,P|342:285|320:271,1,52.2499986047745,2|0,3:2|0:0,0:0:0:0:
407,186,48952,1,2,0:0:0:0:
407,186,49114,2,0,P|383:197|358:202,1,52.2499986047745,2|0,3:2|0:0,0:0:0:0:
125,90,49276,5,12,0:0:0:0:
361,70,49438,2,0,P|354:101|337:128,1,63.250001206398,2|0,3:2|0:0,0:0:0:0:
244,32,49600,1,2,0:0:0:0:
244,32,49762,2,0,P|261:58|269:89,1,63.250001206398,2|0,3:2|0:0,0:0:0:0:
157,333,49925,5,12,0:0:0:0:
125,90,50087,2,0,P|162:93|194:111,1,74.2500002832413,2|0,3:2|0:0,0:0:0:0:
92,213,50249,1,2,0:0:0:0:
92,213,50411,2,0,P|120:189|155:178,1,74.2500002832413,2|0,3:2|0:0,0:0:0:0:
157,333,50574,6,0,P|156:291|175:253,1,85.2500006504059,12|2,3:2|0:0,0:0:0:0:
286,362,50736,2,0,P|256:333|242:293,1,85.2500006504059,2|2,3:2|0:0,0:0:0:0:
398,291,50898,2,0,P|356:292|318:273,1,85.2500006504059,12|2,3:2|0:0,0:0:0:0:
427,162,51060,2,0,P|398:192|358:206,1,85.2500006504059,2|2,3:2|0:0,0:0:0:0:
245,182,51222,5,12,3:2:0:0:
266,202,51303,1,2,3:2:0:0:
241,192,51384,5,2,3:2:0:0:
270,192,51465,1,2,3:2:0:0:
245,202,51546,5,12,3:2:0:0:
266,182,51627,1,2,3:2:0:0:
255,206,51708,5,2,3:2:0:0:
255,177,51789,1,2,3:2:0:0:
256,192,51871,5,2,0:0:0:0:
256,275,52033,1,0,1:0:0:0:
256,109,52195,1,0,1:0:0:0:
256,106,52276,1,0,1:0:0:0:
256,103,52357,1,0,1:0:0:0:
256,100,52438,1,0,1:0:0:0:
256,97,52519,2,0,L|216:90,1,22,8|0,0:0|1:0,0:0:0:0:
188,28,52681,5,2,1:2:0:0:
256,15,52762,1,2,1:2:0:0:
325,1,52844,1,8,0:0:0:0:
240,357,53168,6,0,P|352:342|355:228,1,247.500009441376,6|0,1:2|0:0,0:0:0:0:
293,176,53493,2,0,B|263:183|263:183|255:211|285:224,1,82.5000031471254,2|0,1:2|0:0,0:0:0:0:
444,274,53655,1,2,0:0:0:0:
451,271,53736,1,2,0:0:0:0:
457,267,53817,2,0,P|465:227|475:187,1,82.5000031471254,2|0,1:2|0:0,0:0:0:0:
240,357,53979,2,0,P|232:316|222:276,1,82.5000031471254,2|0,0:0|0:0,0:0:0:0:
472,354,54141,2,0,L|391:334,1,82.5000031471254,2|0,1:2|0:0,0:0:0:0:
145,220,54304,2,0,L|225:200,1,82.5000031471254,2|0,0:0|0:0,0:0:0:0:
396,93,54466,5,2,1:2:0:0:
135,36,54628,1,2,0:0:0:0:
293,176,54790,1,2,1:2:0:0:
222,276,54952,1,2,0:0:0:0:
275,20,55114,6,0,B|293:74|250:113|250:113|206:151|225:206,1,206.25,2|0,1:2|0:0,0:0:0:0:
151,289,55439,2,0,P|89:268|74:204,1,137.5,2|2,1:2|0:0,0:0:0:0:
6,57,55682,1,0,0:0:0:0:
9,50,55763,6,0,P|106:47|146:136,1,206.25,2|0,1:2|0:0,0:0:0:0:
74,203,56087,2,0,P|40:209|16:232,1,68.75,2|0,1:2|0:0,0:0:0:0:
216,363,56249,1,2,0:0:0:0:
223,360,56331,1,2,0:0:0:0:
229,356,56412,6,0,P|231:321|236:287,1,68.75,2|0,1:2|0:0,0:0:0:0:
390,228,56574,2,0,P|392:262|397:296,1,68.75,2|0,0:0|0:0,0:0:0:0:
303,364,56736,2,0,P|305:329|310:295,1,68.75,2|0,1:2|0:0,0:0:0:0:
464,220,56898,2,0,P|466:254|471:288,1,68.75,2|0,0:0|0:0,0:0:0:0:
441,354,57060,5,2,1:2:0:0:
477,148,57222,1,2,0:0:0:0:
455,359,57385,1,2,1:2:0:0:
283,234,57547,1,2,0:0:0:0:
477,148,57709,5,2,1:2:0:0:
203,244,58033,6,0,P|205:212|206:244,1,96.2500009179115,8|0,0:3|0:0,0:0:0:0:
204,229,58358,6,0,B|161:171|221:123|221:123|295:94|268:23,1,247.500009441376,6|0,1:2|0:0,0:0:0:0:
194,0,58682,2,0,P|163:25|164:65,1,82.5000031471254,2|0,1:2|0:0,0:0:0:0:
277,268,58844,1,2,0:0:0:0:
280,275,58925,1,2,0:0:0:0:
283,282,59006,2,0,P|284:321|253:347,1,82.5000031471254,2|0,1:2|0:0,0:0:0:0:
378,201,59168,2,0,P|418:193|459:188,1,82.5000031471254,2|0,0:0|0:0,0:0:0:0:
179,377,59331,2,0,P|148:351|148:311,1,82.5000031471254,2|0,1:2|0:0,0:0:0:0:
297,176,59493,2,0,P|289:135|284:94,1,82.5000031471254,2|0,0:0|0:0,0:0:0:0:
392,290,59655,5,2,1:2:0:0:
126,232,59817,1,2,0:0:0:0:
359,127,59979,1,2,1:2:0:0:
330,339,60141,1,2,0:0:0:0:
96,161,60304,5,2,1:2:0:0:
421,78,60466,1,2,0:0:0:0:
322,353,60628,1,2,1:2:0:0:
289,47,60790,1,2,0:0:0:0:
418,292,60952,6,0,P|462:204|368:231,1,247.500009441376,2|0,1:2|0:0,0:0:0:0:
322,353,61276,6,0,P|307:313|348:296,1,96.2500009179115,8|0,0:3|0:0,0:0:0:0:
497,337,61439,1,2,0:0:0:0:
94,292,61601,6,0,P|50:204|144:231,1,247.500009441376,2|0,1:2|0:0,0:0:0:0:
190,353,61925,6,0,P|205:313|164:296,1,96.2500009179115,8|0,0:3|0:0,0:0:0:0:
15,337,62087,1,2,0:0:0:0:
256,384,62249,5,2,1:2:0:0:
94,292,62412,2,0,P|112:252|153:269,1,96.2500009179115,8|0,0:3|0:0,0:0:0:0:
256,384,62574,5,0,1:0:0:0:
418,292,62736,2,0,P|399:252|358:269,1,96.2500009179115,8|0,0:3|0:0,0:0:0:0:
256,384,62898,5,0,1:0:0:0:
256,196,63060,2,0,B|280:192|280:192|256:188|256:188|231:192|231:192|256:196,1,96.2500009179115,8|8,0:3|0:0,0:0:0:0:
256,288,63222,2,0,L|256:95,1,192.500001835823,8|0,0:3|0:0,0:0:0:0:
108,3,63547,6,0,B|52:11|52:11|97:71|116:135|116:135|65:143,1,247.500009441376,6|0,1:2|0:0,0:0:0:0:
76,215,63871,2,0,P|56:251|44:290,1,82.5000031471254,2|0,1:2|0:0,0:0:0:0:
181,88,64033,1,2,0:0:0:0:
189,86,64114,1,2,0:0:0:0:
197,84,64195,2,0,P|237:88|277:100,1,82.5000031471254,2|0,1:2|0:0,0:0:0:0:
147,251,64358,2,0,P|147:292|157:332,1,82.5000031471254,2|0,0:0|0:0,0:0:0:0:
328,161,64520,2,0,L|408:143,1,82.5000031471254,2|0,1:2|0:0,0:0:0:0:
275,311,64682,2,0,P|247:281|226:246,1,82.5000031471254,2|0,0:0|0:0,0:0:0:0:
408,142,64844,5,2,1:2:0:0:
434,345,65006,1,2,0:0:0:0:
488,123,65168,1,2,1:2:0:0:
355,292,65331,1,2,0:0:0:0:
344,25,65493,6,0,B|380:12|380:12|414:119|301:64|334:211,1,206.25,2|0,1:2|0:0,0:0:0:0:
237,187,65817,2,0,P|194:139|233:90,1,137.5,2|2,1:2|0:0,0:0:0:0:
401,231,66060,1,0,0:0:0:0:
397,238,66141,6,0,P|303:244|308:342,1,206.25,2|0,1:2|0:0,0:0:0:0:
456,359,66466,2,0,P|452:324|441:292,1,68.75,2|0,1:2|0:0,0:0:0:0:
237,187,66628,1,2,0:0:0:0:
230,189,66709,1,2,0:0:0:0:
222,190,66790,6,0,P|225:155|236:123,1,68.75,2|0,1:2|0:0,0:0:0:0:
145,277,66952,2,0,P|148:312|159:344,1,68.75,2|0,0:0|0:0,0:0:0:0:
152,173,67114,2,0,P|155:138|166:106,1,68.75,2|0,1:2|0:0,0:0:0:0:
73,297,67276,2,0,P|76:332|87:364,1,68.75,2|0,0:0|0:0,0:0:0:0:
82,156,67439,5,2,1:2:0:0:
222,295,67601,1,2,0:0:0:0:
7,363,67763,1,2,1:2:0:0:
229,283,67925,1,2,0:0:0:0:
12,139,68087,5,2,1:2:0:0:
289,213,68412,6,0,P|312:235|286:217,1,96.2500009179115,8|0,0:3|0:0,0:0:0:0:
300,223,68736,6,0,B|441:193|441:193|414:343,1,247.500009441376,6|0,1:2|0:0,0:0:0:0:
439,375,69060,2,0,P|398:375|362:346,1,82.5000031471254,2|0,1:2|0:0,0:0:0:0:
228,256,69222,1,2,0:0:0:0:
220,253,69304,1,2,0:0:0:0:
212,250,69385,6,0,P|171:249|135:279,1,82.5000031471254,2|0,1:2|0:0,0:0:0:0:
422,293,69547,2,0,P|463:294|499:264,1,82.5000031471254,2|0,0:0|0:0,0:0:0:0:
326,111,69709,2,0,L|316:29,1,82.5000031471254,2|0,1:2|0:0,0:0:0:0:
293,299,69871,2,0,L|302:380,1,82.5000031471254,2|0,0:0|0:0,0:0:0:0:
389,72,70033,5,2,1:2:0:0:
356,260,70195,1,2,0:0:0:0:
186,127,70358,1,2,1:2:0:0:
359,335,70520,1,2,0:0:0:0:
405,80,70682,5,2,1:2:0:0:
196,317,70844,1,2,0:0:0:0:
117,93,71006,1,2,1:2:0:0:
296,374,71168,1,2,0:0:0:0:
225,136,71331,6,0,P|198:154|192:186,1,65.9999979858399,2|0,1:2|0:0,0:0:0:0:
287,248,71493,2,0,P|313:229|319:197,1,65.9999979858399,0|0,1:0|0:0,0:0:0:0:
189,151,71655,6,0,P|175:180|186:211,1,65.9999979858399,8|0,1:3|0:0,0:0:0:0:
323,233,71817,2,0,P|336:203|325:172,1,65.9999979858399,2|0,1:2|0:0,0:0:0:0:
165,181,71979,6,0,P|168:213|192:234,1,65.9999979858399,2|0,1:2|0:0,0:0:0:0:
347,203,72141,2,0,P|343:170|319:149,1,65.9999979858399,0|0,1:0|0:0,0:0:0:0:
159,218,72304,6,0,P|177:244|209:250,1,65.9999979858399,8|0,1:3|0:0,0:0:0:0:
353,166,72466,2,0,P|334:139|302:133,1,65.9999979858399,2|0,1:2|0:0,0:0:0:0:
256,192,72628,5,2,1:2:0:0:
339,130,72790,6,0,P|320:118|298:116,1,44,8|0,0:3|0:0,0:0:0:0:
152,193,72952,2,0,P|160:213|177:227,1,44,8|8,0:3|0:0,0:0:0:0:
340,251,73114,2,0,P|346:230|340:209,1,44,8|8,0:3|0:0,0:0:0:0:
222,93,73276,2,0,P|205:107|197:127,1,44,8|8,3:3|0:0,0:0:0:0:
225,290,73439,2,0,P|247:289|265:278,1,44,8|8,0:3|0:0,0:0:0:0:
256,173,73601,5,2,0:0:0:0:
237,192,73682,1,2,0:0:0:0:
256,210,73763,1,2,0:0:0:0:
274,192,73844,1,2,0:0:0:0:
256,192,73925,6,0,B|224:239|252:278|256:286|259:293|287:333|256:381,1,197.99999395752,6|0,1:2|0:0,0:0:0:0:
164,309,74249,2,0,P|191:291|224:289,1,65.9999979858399,2|0,1:2|0:0,0:0:0:0:
329,237,74412,2,0,P|361:235|390:250,1,65.9999979858399,2|0,0:0|0:0,0:0:0:0:
309,126,74574,6,0,P|277:105|239:102,1,76.9999976501466,2|0,1:2|0:0,0:0:0:0:
118,42,74736,2,0,P|80:39|46:56,1,76.9999976501466,2|0,0:0|0:0,0:0:0:0:
80,146,74898,6,0,P|114:143|146:159,1,71.4999967269899,2|0,1:2|0:0,0:0:0:0:
236,90,75060,2,0,P|266:75|286:45,1,71.4999967269899,2|0,0:0|0:0,0:0:0:0:
380,0,75222,5,2,1:2:0:0:
219,19,75385,1,2,0:0:0:0:
324,121,75547,1,2,1:2:0:0:
485,140,75709,1,2,0:0:0:0:
394,6,75871,2,0,L|411:225,1,214.49999018097,2|0,1:2|0:0,0:0:0:0:
471,360,76195,5,2,1:2:0:0:
457,335,76276,5,2,0:0:0:0:
430,323,76358,5,2,0:0:0:0:
401,326,76439,5,2,0:0:0:0:
342,366,76520,6,0,B|281:378|252:324|252:324|222:269|162:282,1,214.49999018097,2|0,0:2|0:0,0:0:0:0:
15,239,76844,5,2,1:2:0:0:
5,211,76925,5,2,0:0:0:0:
13,183,77006,5,2,0:0:0:0:
35,165,77087,5,2,0:0:0:0:
108,163,77168,6,0,B|134:252|77:231|98:309|98:309|68:312|67:278|97:269,1,214.49999018097,2|0,1:2|0:0,0:0:0:0:
143,99,77493,5,2,1:2:0:0:
163,281,77655,1,2,0:0:0:0:
15,239,77817,5,2,1:2:0:0:
220,208,77979,1,2,0:0:0:0:
220,208,78141,1,2,1:2:0:0:
143,99,78304,5,2,0:0:0:0:
163,281,78466,1,2,1:2:0:0:
163,281,78628,1,2,0:0:0:0:
255,354,78790,5,8,0:3:0:0:
269,329,78871,5,2,0:0:0:0:
293,314,78952,5,2,0:0:0:0:
321,312,79033,5,2,0:0:0:0:
383,343,79114,5,6,1:2:0:0:
512,278,79276,1,2,0:0:0:0:
409,151,79439,1,2,1:2:0:0:
280,86,79601,1,2,0:0:0:0:
280,86,79682,1,2,0:0:0:0:
280,86,79763,5,2,1:2:0:0:
245,60,79844,5,2,0:0:0:0:
202,58,79925,5,2,0:0:0:0:
165,80,80006,5,2,0:0:0:0:
149,104,80087,5,2,1:2:0:0:
124,118,80168,5,2,0:0:0:0:
95,121,80249,5,2,0:0:0:0:
67,111,80331,5,2,0:0:0:0:
44,43,80412,5,2,1:2:0:0:
223,130,80574,1,2,0:0:0:0:
69,222,80736,1,2,1:2:0:0:
209,261,80898,1,2,0:0:0:0:
84,383,81060,2,0,B|64:326|109:286|109:286|154:246|135:190,1,214.49999018097,2|0,1:2|0:0,0:0:0:0:
95,121,81385,1,2,1:2:0:0:
167,338,81547,1,2,0:0:0:0:
376,227,81709,5,2,1:2:0:0:
267,195,81871,1,2,0:0:0:0:
401,374,82033,2,0,P|423:346|425:311,1,71.4999967269899,8|0,0:3|0:0,0:0:0:0:
338,156,82195,1,2,0:0:0:0:
306,266,82358,5,2,1:2:0:0:
338,156,82520,1,2,0:0:0:0:
233,323,82682,2,0,P|211:295|209:260,1,71.4999967269899,8|0,0:3|0:0,0:0:0:0:
338,156,82844,1,2,0:0:0:0:
438,365,83006,5,2,1:2:0:0:
416,231,83168,2,0,P|406:198|425:169,1,71.4999967269899,8|0,0:3|0:0,0:0:0:0:
438,365,83331,1,0,1:0:0:0:
490,240,83493,2,0,P|507:210|495:177,1,71.4999967269899,8|8,0:3|0:0,0:0:0:0:
476,47,83655,1,2,1:2:0:0:
476,47,83736,1,8,0:0:0:0:
476,47,83817,1,8,0:3:0:0:
476,47,83898,1,8,0:0:0:0:
476,47,83979,5,8,0:3:0:0:
439,24,84060,5,2,0:0:0:0:
396,28,84141,5,2,0:0:0:0:
366,59,84222,5,2,0:0:0:0:
339,125,84304,6,0,P|247:143|200:63,1,197.99999395752,6|0,1:2|0:0,0:0:0:0:
287,6,84628,2,0,P|291:39|280:70,1,65.9999979858399,2|0,1:2|0:0,0:0:0:0:
146,154,84790,2,0,P|113:157|82:146,1,65.9999979858399,2|0,0:0|0:0,0:0:0:0:
305,223,84952,6,0,P|326:254|327:292,1,76.9999976501466,2|0,1:2|0:0,0:0:0:0:
122,86,85114,2,0,P|122:48|143:16,1,76.9999976501466,2|0,0:0|0:0,0:0:0:0:
251,316,85276,6,0,P|254:351|242:383,1,71.4999967269899,2|0,1:2|0:0,0:0:0:0:
48,215,85439,1,2,1:2:0:0:
48,215,85520,1,0,1:0:0:0:
48,215,85601,5,2,1:2:0:0:
225,162,85763,1,2,0:0:0:0:
241,384,85925,1,2,1:2:0:0:
64,331,86087,1,2,0:0:0:0:
87,148,86249,6,0,P|103:116|122:86,1,71.4999967269899,2|0,1:2|0:0,0:0:0:0:
174,257,86412,2,0,P|190:288|208:319,1,71.4999967269899,0|0,1:0|0:0,0:0:0:0:
198,78,86574,5,2,1:2:0:0:
212,53,86655,5,2,0:0:0:0:
239,41,86736,5,2,1:2:0:0:
268,44,86817,5,2,1:2:0:0:
328,82,86898,6,0,B|392:111|446:129|446:129|409:146|367:168,1,214.49999018097,2|0,1:2|0:0,0:0:0:0:
258,242,87222,5,2,1:2:0:0:
244,267,87304,5,2,0:0:0:0:
243,295,87385,5,2,0:0:0:0:
258,319,87466,5,2,0:0:0:0:
318,356,87547,6,0,P|216:329|121:375,1,214.49999018097,2|0,1:2|0:0,0:0:0:0:
59,329,87871,5,2,1:2:0:0:
325,279,88033,1,2,1:2:0:0:
82,165,88195,5,2,1:2:0:0:
294,205,88357,1,2,0:0:0:0:
294,205,88520,1,2,1:2:0:0:
113,91,88682,5,2,0:0:0:0:
325,51,88844,1,2,1:2:0:0:
325,51,89006,1,2,1:2:0:0:
175,264,89168,5,8,0:3:0:0:
166,244,89249,5,2,0:0:0:0:
166,222,89331,5,2,0:0:0:0:
175,202,89412,5,2,0:0:0:0:
233,160,89493,6,0,L|224:85,1,71.4999967269899,14|0,1:2|0:0,0:0:0:0:
42,105,89655,2,0,L|51:30,1,71.4999967269899,8|0,0:0|0:0,0:0:0:0:
294,205,89817,6,0,L|302:275,1,71.4999967269899,10|0,1:2|0:0,0:0:0:0:
67,258,89979,2,0,L|59:329,1,71.4999967269899,10|2,0:2|0:0,0:0:0:0:
377,307,90141,5,10,1:2:0:0:
377,307,90222,1,2,0:0:0:0:
377,307,90304,2,0,L|368:232,1,71.4999967269899,10|2,0:2|0:0,0:0:0:0:
141,289,90466,1,10,1:2:0:0:
141,289,90547,1,2,0:0:0:0:
141,289,90628,2,0,L|133:360,1,71.4999967269899,10|2,0:2|0:0,0:0:0:0:
256,384,90790,5,10,1:2:0:0:
282,334,90871,1,8,0:0:0:0:
315,289,90952,1,10,0:0:0:0:
283,242,91033,1,8,0:0:0:0:
256,192,91114,1,10,1:2:0:0:
229,142,91195,1,8,0:0:0:0:
197,95,91276,1,10,0:0:0:0:
230,50,91358,1,8,0:0:0:0:
256,0,91439,1,10,1:2:0:0:
282,50,91520,1,8,0:0:0:0:
315,95,91601,1,8,0:0:0:0:
283,142,91682,1,8,0:0:0:0:
256,192,91763,1,10,1:2:0:0:
229,242,91844,1,8,0:0:0:0:
197,289,91925,1,10,0:0:0:0:
230,334,92006,1,8,0:0:0:0:
256,384,92087,5,2,3:2:0:0:
315,289,92736,1,2,3:0:0:0:
256,192,93385,6,0,L|234:186,1,22,8|0,0:3|0:0,0:0:0:0:
291,129,93547,1,8,0:0:0:0:
253,67,93709,6,0,L|236:83,1,22,8|8,0:3|0:0,0:0:0:0:
206,12,93871,1,8,0:0:0:0:
206,12,93952,1,8,0:0:0:0:
136,30,94033,6,0,L|141:52,1,22,8|8,0:3|0:0,0:0:0:0:
291,129,94195,2,0,L|285:151,1,22,8|8,0:3|0:0,0:0:0:0:
220,329,94358,6,0,L|214:276,1,49.4999984893799,8|0,0:3|0:0,0:0:0:0:
144,118,94682,6,0,B|118:125|97:109|97:109|75:93|50:101,1,98.9999969787599,6|0,1:2|0:0,0:0:0:0:
24,251,94844,2,0,B|45:266|70:259|70:259|96:251|117:267,1,98.9999969787599,2|0,0:0|0:0,0:0:0:0:
170,200,95006,6,0,B|160:206|160:206|177:209|177:209|180:191|180:191|162:188|162:188|161:196|161:196|85:183|85:183|8:170|8:170|7:178|7:178|-8:175|-8:175|-5:158|-5:158|10:161|10:161|1:168,1,296.99999093628,2|0,0:1|0:0,0:0:0:0:
1,168,95331,6,0,B|10:160|10:160|-6:157|-6:157|-9:175|-9:175|7:178|7:178|8:170|8:170|84:183|84:183|161:196|161:196|162:188|162:188|179:191|179:191|176:208|176:208|160:205|160:205|169:199,1,296.99999093628,2|0,1:1|0:0,0:0:0:0:
270,97,95655,2,0,L|287:0,1,98.9999969787599,2|0,0:3|0:0,0:0:0:0:
252,172,95817,2,0,B|249:177|249:177|247:169|247:169|255:167|255:167|257:175|257:175|253:176|253:176|256:192|256:192|258:207|258:207|254:208|254:208|256:216|256:216|264:214|264:214|262:206|262:206|259:211,1,98.9999969787599,2|0,0:1|0:0,0:0:0:0:
346,111,95979,6,0,B|361:90|354:65|354:65|346:39|362:18,1,98.9999969787599,2|0,1:2|0:0,0:0:0:0:
242,287,96141,2,0,L|224:384,1,98.9999969787599,2|0,0:3|0:0,0:0:0:0:
462,316,96304,2,0,B|457:322|457:322|468:320|468:320|466:309|466:309|455:311|455:311|456:316|456:316|406:325|406:325|356:334|356:334|357:340|357:340|345:342|345:342|343:331|343:331|355:329|355:329|350:335,1,197.99999395752,2|2,0:1|0:1,0:0:0:0:
43,106,96628,2,0,L|169:128,1,98.9999969787599,2|0,1:3|0:0,0:0:0:0:
151,57,96790,2,0,L|53:39,1,98.9999969787599,2|0,0:3|0:0,0:0:0:0:
349,153,96952,5,2,1:1:0:0:
398,144,97033,1,2,1:1:0:0:
389,95,97114,1,2,1:3:0:0:
340,104,97195,1,0,1:0:0:0:
369,124,97276,6,0,B|395:131|416:115|416:115|438:99|463:107,1,98.9999969787599,2|0,1:2|0:0,0:0:0:0:
489,257,97439,2,0,B|468:272|443:265|443:265|417:257|396:273,1,98.9999969787599,2|0,0:0|0:0,0:0:0:0:
343,206,97601,2,0,B|352:212|352:212|335:215|335:215|332:197|332:197|350:194|350:194|351:202|351:202|427:189|427:189|504:176|504:176|505:184|505:184|521:181|521:181|518:164|518:164|502:167|502:167|511:174,1,296.99999093628,2|0,0:1|0:0,0:0:0:0:
462,106,97925,6,0,L|170:159,1,296.99999093628,2|0,1:3|0:0,0:0:0:0:
353,62,98249,2,0,L|256:80,1,98.9999969787599,2|0,0:3|0:0,0:0:0:0:
343,0,98412,2,0,L|245:17,1,98.9999969787599,2|0,0:3|0:0,0:0:0:0:
169,159,98574,6,0,B|153:138|161:112|161:112|168:87|153:66,1,98.9999969787599,2|0,1:2|0:0,0:0:0:0:
3,92,98736,2,0,B|-5:117|11:139|11:139|27:160|20:186,1,98.9999969787599,2|0,0:2|0:0,0:0:0:0:
95,183,98898,2,0,B|89:178|89:178|91:190|91:190|102:188|102:188|100:176|100:176|94:177|94:177|85:127|85:127|76:77|76:77|71:78|71:78|69:67|69:67|80:65|80:65|82:76|82:76|76:72,2,197.99999395752,2|0|2,0:1|0:0|1:3,0:0:0:0:
256,0,99385,1,0,1:0:0:0:
415,183,99547,1,8,0:0:0:0:
150,327,99871,6,0,B|143:301|159:280|159:280|175:258|167:233,1,98.9999969787599,6|0,1:2|0:0,0:0:0:0:
17,207,100033,2,0,B|2:228|9:253|9:253|17:279|1:300,1,98.9999969787599,2|0,0:0|0:0,0:0:0:0:
67,354,100195,2,0,B|60:344|60:344|57:361|57:361|75:364|75:364|78:346|78:346|70:345|70:345|83:269|83:269|96:192|96:192|88:191|88:191|91:175|91:175|108:178|108:178|105:194|105:194|98:185,1,296.99999093628,2|0,1:1|0:0,0:0:0:0:
202,29,100520,6,0,L|224:155,1,98.9999969787599,2|0,1:3|0:0,0:0:0:0:
267,19,100682,2,0,L|289:145,1,98.9999969787599,2|0,0:3|0:0,0:0:0:0:
332,9,100844,2,0,L|354:135,1,98.9999969787599,2|0,1:3|0:0,0:0:0:0:
337,219,101006,6,0,B|352:197|345:172|345:172|337:147|353:125,1,98.9999969787599,2|0,0:0|0:0,0:0:0:0:
512,154,101168,2,0,B|519:179|503:200|503:200|488:221|495:247,1,98.9999969787599,2|0,1:2|0:0,0:0:0:0:
396,345,101331,2,0,B|421:199|421:199|447:53,1,296.99999093628,2|0,0:3|0:0,0:0:0:0:
431,248,101655,6,0,B|422:199|422:199|413:150,1,98.9999969787599,2|0,0:3|0:0,0:0:0:0:
202,29,101817,2,0,B|204:32|204:32|205:26|205:26|198:24|198:24|197:31|197:31|200:31|200:31|196:52|196:52|194:72|194:72|197:72|197:72|196:79|196:79|189:78|189:78|190:72|190:72|192:75|192:75,1,98.9999969787599,2|0,1:1|0:0,0:0:0:0:
117,63,101979,2,0,B|114:59|114:59|113:65|113:65|120:67|120:67|121:60|121:60|118:60|118:60|122:39|122:39|124:19|124:19|121:19|121:19|122:12|122:12|129:13|129:13|128:19|128:19|126:16|126:16,1,98.9999969787599,2|0,0:1|0:0,0:0:0:0:
264,62,102141,1,2,1:2:0:0:
55,30,102303,1,2,0:0:0:0:
340,134,102466,6,0,B|316:122|292:134|292:134|268:145|244:134,1,98.9999969787599,2|0,1:2|0:0,0:0:0:0:
244,280,102628,2,0,B|267:268|291:280|291:280|315:291|339:280,1,98.9999969787599,2|0,0:0|0:0,0:0:0:0:
378,207,102790,2,0,B|369:198|369:198|386:198|386:198|386:215|386:215|369:215|369:215|369:207|369:207|292:207|292:207|215:207|215:207|215:198|215:198|198:198|198:198|198:215|198:215|215:215|215:215|206:207,1,296.99999093628,2|0,1:1|0:0,0:0:0:0:
3,216,103114,6,0,L|300:216,1,296.99999093628,2|0,1:3|0:0,0:0:0:0:
373,223,103439,2,0,L|274:223,1,98.9999969787599,2|0,1:3|0:0,0:0:0:0:
42,151,103601,2,0,L|141:151,1,98.9999969787599,2|0,0:3|0:0,0:0:0:0:
233,299,103763,5,2,1:2:0:0:
153,299,103925,1,2,3:2:0:0:
153,85,104087,1,2,3:2:0:0:
233,85,104249,1,2,3:2:0:0:
233,372,104412,5,2,1:2:0:0:
153,372,104574,1,2,3:2:0:0:
153,12,104736,1,2,1:2:0:0:
233,12,104898,1,2,0:0:0:0:
512,192,105060,5,8,1:3:0:0:
512,192,105222,5,0,1:0:0:0:
183,192,105385,6,0,B|194:181|194:181|173:181|173:181|173:201|173:201|194:201|194:201|194:192|194:192|256:192|256:192|316:192|316:192|316:181|316:181|337:181|337:181|337:201|337:201|316:201|316:201|327:192|327:192,1,296.99999093628,2|0,1:1|0:0,0:0:0:0:
256,121,105709,6,0,B|265:132|265:132|265:111|265:111|245:111|245:111|245:132|245:132|256:132|256:132|256:192|256:192|256:254|256:254|265:254|265:254|265:275|265:275|245:275|245:275|245:254|245:254|256:265,1,296.99999093628,2|0,1:1|0:0,0:0:0:0:
256,32,106033,5,2,1:3:0:0:
256,343,106195,1,2,0:3:0:0:
105,192,106358,6,0,B|81:204|57:192|57:192|33:181|9:192,1,98.9999969787599,2|0,1:2|0:0,0:0:0:0:
407,192,106520,2,0,B|431:204|455:192|455:192|479:181|503:192,1,98.9999969787599,2|0,0:0|0:0,0:0:0:0:
149,85,106682,2,0,B|144:84|144:84|149:89|149:89|153:84|153:84|148:80|148:80|146:82|146:82|132:68|132:68|117:53|117:53|115:55|115:55|110:51|110:51|115:46|115:46|119:51|119:51|115:51,1,98.9999969787599,2|0,1:1|0:0,0:0:0:0:
363,299,106844,2,0,B|367:299|367:299|363:294|363:294|358:299|358:299|363:303|363:303|365:301|365:301|379:315|379:315|394:330|394:330|396:328|396:328|401:332|401:332|396:337|396:337|392:332|392:332|396:332,1,98.9999969787599,2|0,0:1|0:0,0:0:0:0:
363,85,107006,5,2,1:3:0:0:
149,299,107168,1,2,0:3:0:0:
304,143,107331,5,0,1:0:0:0:
256,192,107412,1,0,1:0:0:0:
207,240,107493,1,0,1:0:0:0:
407,192,107655,5,2,1:2:0:0:
105,192,107817,1,2,0:0:0:0:
329,192,107979,6,0,B|318:181|318:181|339:181|339:181|339:201|339:201|318:201|318:201|318:192|318:192|256:192|256:192|196:192|196:192|196:181|196:181|175:181|175:181|175:201|175:201|196:201|196:201|185:192|185:192,1,296.99999093628,2|0,1:1|0:0,0:0:0:0:
256,44,108303,2,0,B|256:192|256:192|256:341,1,296.99999093628,2|0,1:3|0:0,0:0:0:0:
183,291,108628,2,0,B|183:192,1,98.9999969787599,2|0,1:3|0:0,0:0:0:0:
329,192,108790,2,0,B|329:291,1,98.9999969787599,2|0,0:3|0:0,0:0:0:0:
115,240,108952,6,0,B|91:228|67:240|67:240|43:251|20:240,1,98.9999969787599,2|0,1:2|0:0,0:0:0:0:
397,240,109114,2,0,B|420:228|444:240|444:240|468:251|491:240,1,98.9999969787599,2|0,0:0|0:0,0:0:0:0:
256,384,109276,6,0,B|264:376|264:376|264:392|264:392|248:392|248:392|248:376|248:376|256:376|256:376|256:288|256:288|256:200|256:200|264:200|264:200|264:184|264:184|248:184|248:184|248:200|248:200|256:192,1,310.199995266724,2|0,1:1|0:0,0:0:0:0:
256,0,109601,1,2,1:3:0:0:
256,0,109763,1,2,1:3:0:0:
256,384,109925,1,8,0:0:0:0:
256,384,110249,5,6,1:2:0:0:
357,320,110412,1,2,0:0:0:0:
353,126,110574,6,0,B|347:120|347:120|359:120|359:120|359:133|359:133|347:133|347:133|347:126|347:126|256:85|166:126|166:126|166:120|166:120|152:120|152:120|152:133|152:133|166:133|166:133|158:126|158:126,1,296.99999093628,2|0,1:1|0:0,0:0:0:0:
206,278,110898,2,0,P|255:285|304:278,1,98.9999969787599,2|0,1:3|0:0,0:0:0:0:
304,106,111060,2,0,P|255:98|206:105,1,98.9999969787599,2|0,0:3|0:0,0:0:0:0:
161,267,111222,2,0,P|255:292|350:267,1,197.99999395752,2|0,1:3|0:0,0:0:0:0:
464,192,111466,1,0,0:0:0:0:
464,192,111547,6,0,B|440:180|416:192|416:192|392:203|369:192,1,98.9999969787599,2|0,1:2|0:0,0:0:0:0:
0,192,111709,2,0,B|140:192|140:192|297:192,1,296.99999093628,2|0,0:3|0:0,0:0:0:0:
305,342,112033,2,0,B|256:342|256:342|207:342,1,98.9999969787599,2|0,0:3|0:0,0:0:0:0:
233,111,112195,6,0,B|237:115|237:115|230:115|230:115|230:108|230:108|237:108|237:108|237:111|237:111|256:111|256:111|277:111|277:111|277:115|277:115|284:115|284:115|284:108|284:108|277:108|277:108|280:111|280:111,1,98.9999969787599,2|0,1:1|0:0,0:0:0:0:
279,273,112358,2,0,B|275:269|275:269|282:269|282:269|282:276|282:276|275:276|275:276|275:273|275:273|256:273|256:273|235:273|235:273|235:269|235:269|228:269|228:269|228:276|228:276|235:276|235:276|232:273|232:273,1,98.9999969787599,2|0,0:1|0:0,0:0:0:0:
256,192,112520,1,2,1:2:0:0:
256,192,112682,1,2,0:0:0:0:
256,192,112844,5,2,1:2:0:0:
256,249,112925,1,0,3:0:0:0:
199,249,113006,1,2,1:2:0:0:
142,249,113087,1,0,3:0:0:0:
142,192,113168,1,2,1:1:0:0:
142,135,113249,1,0,3:0:0:0:
199,135,113331,1,0,1:0:0:0:
256,135,113412,1,0,3:0:0:0:
256,192,113493,5,2,1:3:0:0:
256,249,113574,1,0,3:0:0:0:
313,249,113655,1,0,1:0:0:0:
370,249,113736,1,0,3:0:0:0:
370,192,113817,1,2,1:3:0:0:
370,135,113898,1,0,3:0:0:0:
313,135,113979,1,2,1:3:0:0:
256,135,114060,1,0,3:0:0:0:
256,192,114141,5,2,1:2:0:0:
370,192,114304,1,2,3:2:0:0:
256,192,114466,1,2,3:2:0:0:
142,192,114628,1,2,3:2:0:0:
370,192,114790,5,2,1:2:0:0:
484,192,114953,1,2,3:2:0:0:
142,192,115114,1,6,1:2:0:0:
28,192,115277,1,2,0:0:0:0:
256,192,115439,5,4,0:0:0:0:
