osu file format v14

[General]
AudioFilename: audio.mp3
AudioLeadIn: 0
PreviewTime: 53168
Countdown: 0
SampleSet: Soft
StackLeniency: 0.7
Mode: 0
LetterboxInBreaks: 0
WidescreenStoryboard: 1

[Editor]
Bookmarks: 66141
DistanceSpacing: 1.1
BeatDivisor: 4
GridSize: 32
TimelineZoom: 3.099999

[Metadata]
Title:Yorixiro
TitleUnicode:Yorixiro
Artist:Reku Mochizuki
ArtistUnicode:Reku Mochizuki
Creator:Yugu
Version:Hard
Source:
Tags:PABAT! 2020 Electronic Instrumental bms Oriental Hardcore fa featured artist mappers' guild mpg
BeatmapID:2960559
BeatmapSetID:1438879

[Difficulty]
HPDrainRate:5
CircleSize:4
OverallDifficulty:6
ApproachRate:8
SliderMultiplier:1.4
SliderTickRate:1

[Events]
//Background and Video events
0,0,"aa9d25cb-48ac-4b1d-8de5-263ee024c162.png",0,0
//Break Periods
2,32612,36851
//Storyboard Layer 0 (Background)
//Storyboard Layer 1 (Fail)
//Storyboard Layer 2 (Pass)
//Storyboard Layer 3 (Foreground)
//Storyboard Layer 4 (Overlay)
//Storyboard Sound Samples

[TimingPoints]
1277,324.324324324324,4,2,88,50,1,0
1277,-100,4,2,88,50,0,0
6141,-100,4,2,99,50,0,0
6466,-100,4,2,1,70,0,0
10358,-100,4,2,1,50,0,0
11655,-100,4,2,2,60,0,0
20736,-100,4,2,88,60,0,0
22033,-100,4,2,2,70,0,0
31114,-100,4,2,88,70,0,0
37601,-100,4,2,88,50,0,0
42790,-100,4,2,88,60,0,0
47979,-100,4,2,1,70,0,0
51871,-100,4,2,1,50,0,0
53168,-100,4,2,3,85,0,0
58033,-100,4,2,99,85,0,0
58358,-100,4,2,3,85,0,0
59655,-100,4,2,3,85,0,0
60304,-100,4,2,3,85,0,0
60952,-100,4,2,3,85,0,0
61276,-100,4,2,99,85,0,0
61439,-100,4,2,3,85,0,0
62412,-100,4,2,99,85,0,0
62574,-100,4,2,3,85,0,0
62736,-100,4,2,99,85,0,0
62898,-100,4,2,3,85,0,0
63060,-100,4,2,99,85,0,0
63385,-100,4,2,3,85,0,0
68412,-100,4,2,99,85,0,0
68736,-100,4,2,3,85,0,0
70033,-100,4,2,3,85,0,0
70682,-100,4,2,3,85,0,0
71331,-100,4,2,3,85,0,0
71655,-100,4,2,99,85,0,0
71817,-100,4,2,3,85,0,0
72304,-100,4,2,99,85,0,0
72466,-100,4,2,3,85,0,0
72790,-100,4,2,99,85,0,0
78790,-100,4,2,99,85,0,0
78871,-100,4,2,70,85,0,0
82033,-100,4,2,99,85,0,0
82195,-100,4,2,70,85,0,0
82682,-100,4,2,99,85,0,0
82844,-100,4,2,70,85,0,0
83168,-100,4,2,99,85,0,0
83331,-100,4,2,70,85,0,0
83493,-100,4,2,99,85,0,0
83655,-100,4,2,70,85,0,0
83736,-100,4,2,99,85,0,0
84060,-100,4,2,70,85,0,0
89168,-100,4,2,99,85,0,0
89249,-100,4,2,70,85,0,0
89493,-100,4,2,70,85,0,0
92087,-100,4,2,70,50,0,0
93385,-100,4,2,99,50,0,0
94358,-100,4,2,99,50,0,0
94682,-100,4,2,2,60,0,0
103763,-100,4,2,88,60,0,0
105060,-100,4,2,2,60,0,0
112844,-100,4,2,2,70,0,0
114141,-100,4,2,88,70,0,0

[Colours]
Combo1 : 48,97,169
Combo2 : 169,44,169

[HitObjects]
167,107,1277,6,0,L|177:37,2,70,14|2|10,1:2|0:0|0:0,0:0:0:0:
220,162,1763,2,0,B|256:149|256:149|322:162|322:162|354:151,1,140,2|2,0:0|0:0,0:0:0:0:
477,245,2412,1,2,0:0:0:0:
477,245,2574,2,0,B|482:282|482:282|472:313,2,70,10|2|10,0:0|2:3|0:0,0:0:0:0:
431,183,3060,2,0,P|436:113|442:43,1,140,2|0,0:0|0:0,0:0:0:0:
211,61,3871,6,0,L|130:47,2,70,10|2|10,0:0|0:0|0:0,0:0:0:0:
277,21,4358,2,0,P|299:85|275:150,1,140,2|2,0:0|0:0,0:0:0:0:
151,240,5006,1,2,0:0:0:0:
275,330,5331,2,0,P|309:324|344:320,2,70,2|10|2,2:3|0:0|0:0,0:0:0:0:
211,372,5817,2,0,P|143:370|106:314,1,140,8|8,0:0|0:3,0:0:0:0:
36,177,6466,5,12,0:0:0:0:
36,177,6628,1,2,3:2:0:0:
36,177,6790,2,0,P|46:144|50:109,1,70,2|2,0:0|3:2,0:0:0:0:
112,63,7114,1,12,0:0:0:0:
112,63,7276,1,2,3:2:0:0:
112,63,7439,2,0,P|145:73|180:77,1,70,2|2,0:0|3:2,0:0:0:0:
248,42,7763,6,0,L|262:118,1,70,12|2,0:0|3:2,0:0:0:0:
322,156,8087,2,0,L|398:142,1,70,2|2,0:0|3:2,0:0:0:0:
465,189,8412,1,12,0:0:0:0:
465,189,8574,1,2,3:2:0:0:
465,189,8736,2,0,P|467:223|466:258,1,70,2|2,0:0|3:2,0:0:0:0:
403,302,9060,6,0,P|400:336|401:371,2,70,12|2|12,3:2|3:2|3:2,0:0:0:0:
354,242,9547,1,2,3:2:0:0:
287,280,9709,1,12,3:2:0:0:
287,280,9790,1,2,3:2:0:0:
287,280,9871,2,0,L|220:271,4,35,2|2|12|2|2,3:2|3:2|3:2|3:2|3:2,0:0:0:0:
354,242,10358,6,0,P|359:207|365:172,2,70,2|0|0,0:0|1:0|1:0,0:0:0:0:
287,280,10844,1,0,1:0:0:0:
287,280,10925,1,0,1:0:0:0:
287,280,11006,2,0,L|220:271,1,35,8|0,0:0|1:0,0:0:0:0:
225,303,11168,2,0,L|234:370,2,35,2|2|8,1:2|1:2|0:0,0:0:0:0:
133,181,11655,6,0,P|98:175|63:169,1,70,6|2,1:2|0:0,0:0:0:0:
23,103,11979,2,0,B|19:60|19:60|75:35,1,105,2|0,0:1|0:0,0:0:0:0:
102,11,12304,2,0,L|150:126,1,105,2|0,1:1|0:0,0:0:0:0:
175,118,12628,2,0,B|239:89,1,70,2|2,0:3|0:1,0:0:0:0:
290,32,12952,5,2,1:2:0:0:
361,59,13114,1,2,0:3:0:0:
334,130,13276,2,0,L|345:215,1,70,2|2,0:1|0:1,0:0:0:0:
391,260,13601,1,2,1:3:0:0:
315,272,13763,1,2,0:3:0:0:
239,284,13925,2,0,L|243:318,2,35,2|2|2,1:1|1:1|1:3,0:0:0:0:
183,231,14249,6,0,L|113:219,1,70,2|2,1:2|0:0,0:0:0:0:
62,161,14574,2,0,B|31:170|31:170|17:241,1,105,2|0,0:1|0:0,0:0:0:0:
24,275,14898,2,0,L|127:292,1,105,2|0,1:3|0:0,0:0:0:0:
159,306,15222,2,0,B|172:377,1,70,2|2,0:3|0:3,0:0:0:0:
244,349,15547,5,2,1:2:0:0:
318,367,15709,1,2,0:2:0:0:
382,325,15871,2,0,L|393:220,1,105,2|0,0:1|0:0,0:0:0:0:
412,191,16195,2,0,B|405:152|405:152|383:130,2,70,2|0|8,1:3|1:0|0:0,0:0:0:0:
262,230,16844,6,0,L|188:222,1,70,6|2,1:2|0:0,0:0:0:0:
123,256,17168,2,0,B|114:216|114:216|139:140,1,105,2|0,1:1|0:0,0:0:0:0:
146,122,17493,2,0,L|72:114,2,70,2|2|2,1:3|0:3|1:3,0:0:0:0:
191,60,17979,1,2,0:0:0:0:
258,97,18141,5,2,1:2:0:0:
306,36,18304,2,0,L|444:21,1,105,2|0,0:3|0:0,0:0:0:0:
410,24,18628,1,2,0:3:0:0:
481,54,18790,2,0,B|501:75|501:75|492:115,1,70,2|2,1:1|0:1,0:0:0:0:
422,147,19114,2,0,B|402:168|402:168|410:208,1,70,2|2,1:2|0:0,0:0:0:0:
377,278,19439,6,0,L|308:268,1,70,2|2,1:2|0:0,0:0:0:0:
246,314,19763,2,0,B|204:343|204:343|153:326,1,105,2|0,1:1|0:0,0:0:0:0:
127,301,20087,2,0,L|157:191,1,105,2|0,1:3|0:0,0:0:0:0:
143,166,20412,2,0,B|71:142,1,70,2|2,1:3|0:3,0:0:0:0:
42,74,20736,6,0,P|65:47|97:34,1,70,2|2,1:2|3:2,0:0:0:0:
169,8,21060,2,0,P|203:13|230:35,1,70,2|2,3:2|3:2,0:0:0:0:
301,67,21385,2,0,L|293:143,1,70,2|2,1:2|3:2,0:0:0:0:
237,189,21709,2,0,L|245:265,1,70,2|2,1:2|0:0,0:0:0:0:
257,334,22033,5,8,1:3:0:0:
257,334,22195,1,0,1:0:0:0:
325,370,22358,2,0,B|365:367|365:367|397:312|397:312|384:277,2,140,6|2|2,1:1|1:1|1:3,0:0:0:0:
257,334,23168,1,2,0:3:0:0:
195,381,23331,6,0,L|109:364,1,70,2|2,1:2|0:0,0:0:0:0:
84,303,23655,1,2,1:1:0:0:
137,247,23817,1,2,0:1:0:0:
89,186,23979,2,0,L|3:169,1,70,2|2,1:3|0:3,0:0:0:0:
8,95,24304,1,0,1:0:0:0:
8,95,24385,1,0,1:0:0:0:
8,95,24466,1,0,1:0:0:0:
67,45,24628,5,2,1:2:0:0:
67,45,24790,1,2,0:0:0:0:
128,91,24952,2,0,B|162:96|162:96|228:49|228:49|232:25,2,140,2|2|2,1:1|1:3|1:3,0:0:0:0:
69,141,25763,1,2,0:3:0:0:
130,187,25925,6,0,L|140:262,1,70,2|2,1:2|0:0,0:0:0:0:
205,295,26249,2,0,B|222:269|222:269|293:248,1,105,2|0,1:1|0:0,0:0:0:0:
331,245,26574,1,2,1:3:0:0:
331,245,26736,1,2,1:3:0:0:
390,293,26898,1,8,0:0:0:0:
474,164,27222,6,0,L|466:75,1,70,6|2,1:2|0:0,0:0:0:0:
415,37,27547,2,0,B|370:26|370:26|313:43,1,105,2|0,1:1|0:0,0:0:0:0:
287,66,27871,2,0,L|205:55,2,70,2|2|2,1:3|0:3|1:3,0:0:0:0:
333,128,28358,1,0,0:0:0:0:
282,186,28520,5,2,1:2:0:0:
333,128,28682,2,0,B|361:170|361:170|346:268,1,140,2|2,0:3|0:3,0:0:0:0:
296,316,29168,2,0,L|220:327,1,70,2|2,1:1|0:1,0:0:0:0:
159,364,29493,2,0,L|148:288,1,70,2|2,1:2|0:0,0:0:0:0:
89,245,29817,5,2,1:2:0:0:
89,245,29979,1,2,1:2:0:0:
38,187,30141,2,0,B|68:165|68:165|152:181,1,105,2|0,1:1|0:0,0:0:0:0:
166,161,30466,1,2,1:3:0:0:
166,161,30628,1,0,1:0:0:0:
219,105,30790,1,2,1:3:0:0:
219,105,30952,1,2,1:3:0:0:
184,36,31114,6,0,P|150:27|115:27,1,70,2|2,1:2|3:2,0:0:0:0:
41,53,31439,2,0,P|17:78|0:108,1,70,2|2,3:2|3:2,0:0:0:0:
34,178,31763,2,0,P|67:186|102:186,1,70,2|2,1:2|3:2,0:0:0:0:
177,161,32087,2,0,P|201:134|219:105,1,70,6|2,1:2|0:0,0:0:0:0:
289,73,32412,5,4,0:0:0:0:
345,107,37601,6,0,L|335:37,2,70,10|2|10,0:0|0:0|0:0,0:0:0:0:
292,162,38087,2,0,B|256:149|256:149|190:162|190:162|158:151,1,140,2|2,0:0|0:0,0:0:0:0:
35,245,38736,1,2,0:0:0:0:
35,245,38898,2,0,B|30:282|30:282|40:313,2,70,10|2|10,0:0|0:0|0:0,0:0:0:0:
81,183,39385,2,0,P|76:113|70:43,1,140,2|0,0:0|0:0,0:0:0:0:
301,61,40195,6,0,L|382:47,2,70,10|2|10,0:0|0:0|0:0,0:0:0:0:
235,21,40682,2,0,P|213:85|237:150,1,140,2|2,0:0|0:0,0:0:0:0:
361,240,41331,1,2,0:0:0:0:
237,330,41655,2,0,P|203:324|168:320,2,70,2|10|2,0:0|0:0|0:0,0:0:0:0:
301,372,42141,2,0,P|369:370|406:314,1,140,8|8,0:0|0:0,0:0:0:0:
456,255,42628,1,8,0:0:0:0:
392,211,42790,6,0,B|371:154|415:127|415:127|453:105,1,140,6|2,1:2|1:2,0:0:0:0:
311,43,43439,2,0,L|158:23,1,140,0|0,1:0|1:0,0:0:0:0:
123,84,43925,1,2,1:2:0:0:
123,84,44006,1,0,1:0:0:0:
123,84,44087,6,0,L|182:226,1,140,6|2,1:2|1:2,0:0:0:0:
311,288,44736,1,0,1:0:0:0:
251,239,44898,2,0,L|210:335,1,105,6|0,0:0|0:0,0:0:0:0:
196,367,45222,1,0,1:0:0:0:
196,367,45304,1,0,1:0:0:0:
196,367,45385,6,0,B|139:388|112:344|112:344|90:306,1,140,6|2,1:2|1:2,0:0:0:0:
54,156,46033,2,0,P|123:163|192:173,1,140,0|0,1:0|1:0,0:0:0:0:
261,138,46520,1,2,1:2:0:0:
261,138,46601,1,0,1:0:0:0:
261,138,46682,6,0,P|268:68|278:0,1,140,4|2,1:0|1:2,0:0:0:0:
428,31,47331,2,0,P|461:21|496:17,2,70,0|0|2,1:0|1:0|0:3,0:0:0:0:
476,177,47979,5,12,0:0:0:0:
476,177,48141,1,2,3:2:0:0:
476,176,48303,2,0,P|466:143|462:108,1,70,2|2,0:0|3:2,0:0:0:0:
400,63,48628,1,12,0:0:0:0:
400,63,48789,1,2,3:2:0:0:
400,63,48952,2,0,P|367:73|332:77,1,70,2|2,0:0|3:2,0:0:0:0:
264,42,49276,6,0,L|250:118,1,70,12|2,0:0|3:2,0:0:0:0:
190,156,49600,2,0,L|114:142,1,70,2|2,0:0|3:2,0:0:0:0:
53,180,49925,1,12,0:0:0:0:
53,180,50087,1,2,3:2:0:0:
53,180,50249,2,0,P|51:214|52:249,1,70,2|2,0:0|3:2,0:0:0:0:
109,302,50573,6,0,P|112:336|111:371,2,70,12|2|12,3:2|3:2|3:2,0:0:0:0:
158,242,51060,1,2,3:2:0:0:
231,288,51222,1,12,3:2:0:0:
231,288,51303,1,2,3:2:0:0:
231,288,51384,2,0,L|298:279,4,35,2|2|12|2|2,3:2|3:2|3:2|3:2|3:2,0:0:0:0:
158,242,51871,6,0,P|153:207|147:172,2,70,2|0|0,0:0|1:0|1:0,0:0:0:0:
231,288,52357,1,0,1:0:0:0:
231,288,52438,1,0,1:0:0:0:
231,288,52519,2,0,L|298:279,1,35,8|0,0:0|1:0,0:0:0:0:
299,301,52681,2,0,L|290:368,2,35,2|2|8,1:2|1:2|0:0,0:0:0:0:
429,216,53168,6,0,B|449:154|449:154|388:109,1,140,6|2,1:2|1:2,0:0:0:0:
336,52,53655,1,2,0:0:0:0:
336,52,53736,1,2,0:0:0:0:
336,52,53817,2,0,L|234:69,1,70,2|2,1:2|0:0,0:0:0:0:
205,109,54141,2,0,L|103:92,1,70,2|2,1:2|0:0,0:0:0:0:
80,43,54466,5,2,1:2:0:0:
33,103,54628,1,2,0:0:0:0:
88,157,54790,1,2,1:2:0:0:
135,97,54952,1,2,0:0:0:0:
80,43,55114,2,0,P|110:24|144:19,1,70,2|0,1:2|0:0,0:0:0:0:
205,67,55439,2,0,P|211:101|201:134,1,70,2|2,1:2|0:0,0:0:0:0:
236,202,55763,6,0,B|267:224|267:224|282:352,1,140,2|2,1:2|1:2,0:0:0:0:
354,368,56249,1,2,0:0:0:0:
354,368,56331,1,2,0:0:0:0:
354,368,56412,2,0,L|442:341,1,70,2|2,1:2|0:0,0:0:0:0:
440,273,56736,2,0,L|352:246,1,70,2|2,1:2|0:0,0:0:0:0:
354,178,57060,5,2,1:2:0:0:
427,156,57222,1,2,0:0:0:0:
446,81,57385,1,2,1:2:0:0:
373,59,57547,1,2,0:0:0:0:
300,37,57709,2,0,L|212:64,2,70,2|0|8,1:2|0:0|0:3,0:0:0:0:
229,174,58358,6,0,B|216:238|216:238|288:284,1,140,6|2,1:2|1:2,0:0:0:0:
361,263,58844,1,2,0:0:0:0:
361,263,58925,1,2,0:0:0:0:
361,263,59006,2,0,L|367:167,1,70,2|2,1:2|0:0,0:0:0:0:
371,116,59331,2,0,L|275:110,1,70,2|2,1:2|0:0,0:0:0:0:
238,66,59655,5,2,1:2:0:0:
166,93,59817,1,2,0:0:0:0:
122,29,59979,1,2,1:2:0:0:
194,2,60141,1,2,0:0:0:0:
238,66,60304,2,0,L|334:60,1,70,2|2,1:2|0:0,0:0:0:0:
382,42,60628,2,0,L|388:138,1,70,2|2,1:2|0:0,0:0:0:0:
452,150,60952,6,0,P|465:198|433:236,1,105,2|0,1:2|0:0,0:0:0:0:
398,234,61276,1,8,0:3:0:0:
320,227,61439,1,2,0:0:0:0:
283,294,61601,2,0,P|248:330|198:320,1,105,2|0,1:2|0:0,0:0:0:0:
183,289,61925,1,8,0:3:0:0:
105,282,62087,1,2,0:0:0:0:
66,348,62249,5,2,1:2:0:0:
105,282,62412,2,0,P|86:253|91:219,1,70,8|0,0:3|1:0,0:0:0:0:
149,169,62736,2,0,P|167:140|162:106,1,70,8|0,0:3|1:0,0:0:0:0:
136,83,62979,1,8,0:0:0:0:
136,83,63060,1,8,0:3:0:0:
61,62,63222,1,8,0:3:0:0:
48,215,63547,6,0,B|120:199|120:199|180:228,1,140,6|2,1:2|1:2,0:0:0:0:
226,303,64033,1,2,0:0:0:0:
226,303,64114,1,2,0:0:0:0:
226,303,64195,2,0,L|310:285,1,70,2|2,1:2|0:0,0:0:0:0:
366,317,64520,2,0,P|373:283|363:250,1,70,2|2,1:2|0:0,0:0:0:0:
317,188,64844,5,2,1:2:0:0:
342,115,65006,1,2,0:0:0:0:
418,104,65168,1,2,1:2:0:0:
393,177,65331,1,2,0:0:0:0:
317,188,65493,2,0,L|236:172,1,70,2|0,1:2|0:0,0:0:0:0:
172,161,65817,2,0,L|156:242,1,70,2|2,1:2|0:0,0:0:0:0:
228,261,66141,6,0,B|259:283|259:283|274:411,1,140,2|2,1:2|1:2,0:0:0:0:
354,378,66628,1,2,0:0:0:0:
354,378,66709,1,2,0:0:0:0:
354,378,66790,2,0,L|442:351,1,70,2|2,1:2|0:0,0:0:0:0:
494,336,67114,2,0,P|498:301|483:270,1,70,2|2,1:2|0:0,0:0:0:0:
438,207,67439,5,2,1:2:0:0:
362,223,67601,1,2,0:0:0:0:
303,173,67763,1,2,1:2:0:0:
227,157,67925,1,2,0:0:0:0:
168,207,68087,2,0,B|156:228|156:228|163:285,2,70,2|0|8,1:2|0:0|0:3,0:0:0:0:
211,58,68736,6,0,L|45:30,1,140,6|2,1:2|1:2,0:0:0:0:
16,84,69222,1,2,0:0:0:0:
16,84,69304,1,2,0:0:0:0:
16,84,69385,2,0,P|8:117|18:150,1,70,2|2,1:2|0:0,0:0:0:0:
69,208,69709,2,0,P|79:241|71:274,1,70,2|2,1:2|0:0,0:0:0:0:
33,341,70033,5,2,1:2:0:0:
105,366,70195,1,2,0:0:0:0:
163,316,70358,1,2,1:2:0:0:
236,341,70520,1,2,0:0:0:0:
294,291,70682,2,0,L|307:197,1,70,2|2,1:2|0:0,0:0:0:0:
355,165,71006,2,0,P|325:146|290:144,1,70,2|2,1:2|0:0,0:0:0:0:
221,111,71331,6,0,B|206:83|206:83|220:28,2,70,2|0|8,1:2|1:0|1:3,0:0:0:0:
290,144,71817,1,2,1:2:0:0:
359,177,71979,2,0,B|374:205|374:205|360:260,2,70,2|0|8,1:2|1:0|1:3,0:0:0:0:
290,144,72466,1,2,1:2:0:0:
257,213,72628,5,2,1:2:0:0:
188,180,72790,2,0,L|91:197,2,70,8|8|8,0:3|0:3|0:3,0:0:0:0:
257,213,73276,2,0,L|354:196,1,70,8|8,3:3|0:3,0:0:0:0:
396,168,73601,1,2,0:0:0:0:
396,168,73682,1,2,0:0:0:0:
396,168,73763,2,0,L|408:219,1,35,2|2,0:0|0:0,0:0:0:0:
415,239,73925,6,0,P|430:298|360:343,1,140,6|2,1:2|1:2,0:0:0:0:
302,372,74412,1,2,0:0:0:0:
249,315,74574,2,0,P|215:306|182:317,1,70,2|2,1:2|0:0,0:0:0:0:
114,282,74898,2,0,P|111:247|90:219,1,70,2|2,1:2|0:0,0:0:0:0:
103,143,75222,2,0,P|134:129|155:101,1,70,2|2,1:2|0:0,0:0:0:0:
231,89,75547,2,0,P|253:115|286:125,1,70,2|2,1:2|0:0,0:0:0:0:
321,194,75871,2,0,P|302:223|303:258,1,70,2|0,1:2|0:0,0:0:0:0:
366,318,76195,5,2,1:2:0:0:
366,318,76276,1,2,0:0:0:0:
366,318,76358,2,0,L|429:325,2,35,2|2|2,0:0|0:0|0:2,0:0:0:0:
223,362,76844,5,2,1:2:0:0:
223,362,76925,1,2,0:0:0:0:
223,362,77006,2,0,L|160:369,2,35,2|2|2,0:0|0:0|1:2,1:2:0:0:
77,314,77493,5,2,1:2:0:0:
51,241,77655,1,2,0:0:0:0:
97,179,77817,2,0,L|188:168,2,70,2|2|2,1:2|0:0|1:2,0:0:0:0:
71,106,78304,2,0,L|-20:95,2,70,2|2|2,0:0|1:2|0:0,0:0:0:0:
66,29,78790,1,8,0:3:0:0:
66,29,78871,1,2,0:0:0:0:
66,29,78952,2,0,L|118:19,1,35,2|2,0:0|0:0,0:0:0:0:
135,39,79114,6,0,P|170:44|204:52,1,70,6|2,1:2|0:0,0:0:0:0:
278,30,79439,1,2,1:2:0:0:
342,89,79601,1,2,0:0:0:0:
342,89,79682,1,2,0:0:0:0:
342,89,79763,2,0,L|332:140,3,35,2|2|2|2,1:2|0:0|0:0|0:0,0:0:0:0:
403,42,80087,2,0,L|393:-9,3,35,2|2|2|2,1:2|0:0|0:0|0:0,0:0:0:0:
463,88,80412,6,0,P|467:123|462:158,1,70,2|2,1:2|0:0,0:0:0:0:
455,234,80736,2,0,P|426:254|394:267,1,70,2|2,1:2|0:0,0:0:0:0:
330,310,81060,1,2,1:2:0:0:
290,246,81222,1,0,0:0:0:0:
221,215,81385,1,2,1:2:0:0:
146,227,81547,1,2,0:0:0:0:
89,278,81709,6,0,P|94:311|122:331,1,70,2|2,1:2|0:0,0:0:0:0:
195,307,82033,1,8,0:3:0:0:
303,196,82358,2,0,P|308:163|336:143,1,70,2|2,1:2|0:0,0:0:0:0:
409,167,82682,1,8,0:3:0:0:
484,300,83006,5,2,1:2:0:0:
429,354,83168,2,0,P|395:345|360:340,1,70,8|0,0:3|1:0,0:0:0:0:
298,293,83493,2,0,P|264:301|229:306,1,70,8|2,0:3|1:2,0:0:0:0:
165,349,83817,1,8,0:3:0:0:
89,332,83979,1,8,0:3:0:0:
89,332,84060,1,2,0:0:0:0:
89,332,84141,2,0,P|86:314|90:297,1,35,2|2,0:0|0:0,0:0:0:0:
122,276,84304,6,0,P|129:214|119:132,1,140,6|2,1:2|1:2,0:0:0:0:
51,103,84790,1,2,0:0:0:0:
105,49,84952,2,0,L|192:32,1,70,2|2,1:2|0:0,0:0:0:0:
247,15,85276,2,0,L|290:92,1,70,2|2,1:2|1:2,0:0:0:0:
323,139,85601,2,0,L|262:203,1,70,2|2,1:2|0:0,0:0:0:0:
228,249,85925,2,0,L|147:211,1,70,2|2,1:2|0:0,0:0:0:0:
94,192,86249,2,0,L|104:104,1,70,2|0,1:2|1:0,0:0:0:0:
85,46,86574,5,2,1:2:0:0:
85,46,86655,1,2,0:0:0:0:
85,46,86736,2,0,L|136:38,2,35,2|2|2,1:2|1:2|1:2,0:0:0:0:
236,70,87222,5,2,1:2:0:0:
236,70,87304,1,2,0:0:0:0:
236,70,87385,2,0,L|287:62,2,35,2|2|2,0:0|0:0|1:2,0:0:0:0:
387,94,87871,5,2,1:2:0:0:
425,160,88033,1,2,1:2:0:0:
363,205,88195,2,0,P|348:237|341:271,2,70,2|2|2,1:2|0:0|1:2,0:0:0:0:
425,160,88682,2,0,P|439:191|446:225,2,70,2|2|2,0:0|1:2|1:2,0:0:0:0:
439,84,89168,1,8,0:3:0:0:
439,84,89249,1,2,0:0:0:0:
439,84,89331,2,0,L|387:73,1,35,2|2,0:0|0:0,0:0:0:0:
367,86,89493,6,0,L|285:95,1,70,14|8,1:2|0:0,0:0:0:0:
229,57,89817,1,10,1:2:0:0:
177,114,89979,1,10,0:2:0:0:
177,114,90060,1,2,0:0:0:0:
177,114,90141,2,0,L|127:123,2,35,10|2|10,1:2|0:0|0:2,0:0:0:0:
224,174,90466,2,0,L|274:183,2,35,10|2|10,1:2|0:0|0:2,0:0:0:0:
177,233,90790,6,0,P|157:262|151:297,1,70,10|10,1:2|0:0,0:0:0:0:
82,330,91114,2,0,P|97:361|123:383,1,70,10|10,1:2|0:0,0:0:0:0:
200,372,91439,1,10,1:2:0:0:
206,370,91520,1,8,0:0:0:0:
212,368,91601,1,8,0:0:0:0:
274,323,91763,1,10,1:2:0:0:
280,325,91844,1,8,0:0:0:0:
286,327,91925,1,10,0:0:0:0:
347,373,92087,5,2,3:2:0:0:
511,220,92736,1,2,3:0:0:0:
297,155,93385,5,8,0:3:0:0:
229,118,93547,1,8,0:0:0:0:
175,173,93709,2,0,P|172:190|171:207,3,35,8|8|8|8,0:3|0:0|0:0|0:0,0:0:0:0:
150,240,94033,2,0,L|70:245,2,70,8|8|8,0:3|0:3|0:3,0:0:0:0:
305,257,94682,6,0,L|385:252,1,70,6|2,1:2|0:0,0:0:0:0:
441,215,95006,2,0,B|468:192|468:192|449:97,1,105,2|0,0:1|0:0,0:0:0:0:
442,90,95331,2,0,L|324:82,1,105,2|0,1:1|0:0,0:0:0:0:
302,86,95655,2,0,B|283:-9,1,70,2|2,0:3|0:1,0:0:0:0:
211,3,95979,5,2,1:2:0:0:
154,54,96141,1,2,0:3:0:0:
178,126,96304,2,0,B|159:221,1,70,2|2,0:1|0:1,0:0:0:0:
117,255,96628,1,2,1:3:0:0:
193,267,96790,1,2,0:3:0:0:
269,279,96952,2,0,L|265:313,2,35,2|2|2,1:1|1:1|1:3,0:0:0:0:
326,227,97276,6,0,L|396:215,1,70,2|2,1:2|0:0,0:0:0:0:
453,163,97601,2,0,B|484:172|484:172|498:243,1,105,2|0,0:1|0:0,0:0:0:0:
485,275,97925,2,0,L|382:292,1,105,2|0,1:3|0:0,0:0:0:0:
347,300,98249,2,0,B|334:371,1,70,2|2,0:3|0:3,0:0:0:0:
264,334,98574,5,2,1:2:0:0:
194,367,98736,1,2,0:2:0:0:
130,325,98898,2,0,L|119:220,1,105,2|0,0:1|0:0,0:0:0:0:
100,191,99222,2,0,B|107:152|107:152|129:130,2,70,2|0|8,1:3|1:0|0:0,0:0:0:0:
250,230,99871,6,0,L|324:222,1,70,6|2,1:2|0:0,0:0:0:0:
389,256,100195,2,0,B|398:216|398:216|373:140,1,105,2|0,1:1|0:0,0:0:0:0:
366,122,100520,2,0,L|440:114,2,70,2|2|2,1:3|0:3|1:3,0:0:0:0:
321,60,101006,1,2,0:0:0:0:
254,97,101168,5,2,1:2:0:0:
206,36,101331,2,0,L|68:21,1,105,2|0,0:3|0:0,0:0:0:0:
101,24,101655,1,2,0:3:0:0:
31,54,101817,2,0,B|11:75|11:75|20:115,1,70,2|2,1:1|0:1,0:0:0:0:
90,147,102141,2,0,B|110:168|110:168|102:208,1,70,2|2,1:2|0:0,0:0:0:0:
135,278,102466,6,0,L|204:268,1,70,2|2,1:2|0:0,0:0:0:0:
266,314,102790,2,0,B|308:343|308:343|359:326,1,105,2|0,1:1|0:0,0:0:0:0:
385,301,103114,2,0,L|355:191,1,105,2|0,1:3|0:0,0:0:0:0:
369,166,103439,2,0,B|441:142,1,70,2|2,1:3|0:3,0:0:0:0:
470,74,103763,6,0,P|447:47|415:34,1,70,2|2,1:2|3:2,0:0:0:0:
343,8,104087,2,0,P|309:13|282:35,1,70,2|2,3:2|3:2,0:0:0:0:
211,67,104412,2,0,L|219:143,1,70,2|2,1:2|3:2,0:0:0:0:
275,189,104736,2,0,L|267:265,1,70,2|2,1:2|0:0,0:0:0:0:
255,334,105060,5,8,1:3:0:0:
255,334,105222,1,0,1:0:0:0:
187,370,105385,2,0,B|147:367|147:367|115:312|115:312|128:277,2,140,2|2|2,1:1|1:1|1:3,0:0:0:0:
255,334,106195,1,2,0:3:0:0:
317,381,106358,6,0,L|403:364,1,70,2|2,1:2|0:0,0:0:0:0:
428,303,106682,1,2,1:1:0:0:
375,247,106844,1,2,0:1:0:0:
423,186,107006,2,0,L|509:169,1,70,2|2,1:3|0:3,0:0:0:0:
504,95,107331,1,0,1:0:0:0:
504,95,107412,1,0,1:0:0:0:
504,95,107493,1,0,1:0:0:0:
445,45,107655,5,2,1:2:0:0:
445,45,107817,1,2,0:0:0:0:
384,91,107979,2,0,B|350:96|350:96|284:49|284:49|280:25,2,140,2|2|2,1:1|1:3|1:3,0:0:0:0:
443,141,108790,1,2,0:3:0:0:
382,187,108952,6,0,L|372:262,1,70,2|2,1:2|0:0,0:0:0:0:
307,295,109276,2,0,B|290:269|290:269|219:248,1,105,2|0,1:1|0:0,0:0:0:0:
181,245,109601,1,2,1:3:0:0:
181,245,109763,1,2,1:3:0:0:
122,293,109925,1,8,0:0:0:0:
38,164,110249,6,0,L|46:75,1,70,6|2,1:2|0:0,0:0:0:0:
97,37,110574,2,0,B|142:26|142:26|199:43,1,105,2|0,1:1|0:0,0:0:0:0:
225,66,110898,2,0,L|307:55,2,70,2|2|2,1:3|0:3|1:3,0:0:0:0:
179,128,111385,1,0,0:0:0:0:
230,186,111547,5,2,1:2:0:0:
179,128,111709,2,0,B|151:170|151:170|166:268,1,140,2|2,0:3|0:3,0:0:0:0:
216,316,112195,2,0,L|292:327,1,70,2|2,1:1|0:1,0:0:0:0:
353,364,112520,2,0,L|364:288,1,70,2|2,1:2|0:0,0:0:0:0:
423,245,112844,5,2,1:2:0:0:
423,245,112925,1,0,0:0:0:0:
423,245,113006,1,2,1:2:0:0:
467,182,113168,2,0,B|437:160|437:160|353:176,1,105,2|0,1:1|0:0,0:0:0:0:
338,158,113493,2,0,L|327:114,2,35,2|0|0,1:3|0:0|1:0,0:0:0:0:
256,100,113817,2,0,L|245:56,2,35,2|0|2,1:3|0:0|1:3,0:0:0:0:
305,13,114141,6,0,L|380:19,1,70,2|2,1:2|3:2,0:0:0:0:
451,24,114466,2,0,L|445:99,1,70,2|2,3:2|3:2,0:0:0:0:
440,170,114790,2,0,L|365:164,1,70,2|2,1:2|3:2,0:0:0:0:
294,159,115114,2,0,L|300:84,1,70,6|2,1:2|0:0,0:0:0:0:
305,13,115439,5,4,0:0:0:0:
