osu file format v14

[General]
AudioFilename: audio.mp3
AudioLeadIn: 0
PreviewTime: 53168
Countdown: 0
SampleSet: Soft
StackLeniency: 0.2
Mode: 0
LetterboxInBreaks: 0
WidescreenStoryboard: 1

[Editor]
DistanceSpacing: 1
BeatDivisor: 4
GridSize: 32
TimelineZoom: 4.799998

[Metadata]
Title:Yorixiro
TitleUnicode:Yorixiro
Artist:Reku Mochizuki
ArtistUnicode:Reku Mochizuki
Creator:Yugu
Version:Extra
Source:
Tags:PABAT! 2020 Electronic Instrumental bms Oriental Hardcore fa featured artist mappers' guild mpg
BeatmapID:2960558
BeatmapSetID:1438879

[Difficulty]
HPDrainRate:6
CircleSize:5
OverallDifficulty:8
ApproachRate:9
SliderMultiplier:1.6
SliderTickRate:1

[Events]
//Background and Video events
0,0,"aa9d25cb-48ac-4b1d-8de5-263ee024c162.png",0,0
//Break Periods
2,32612,37001
//Storyboard Layer 0 (Background)
//Storyboard Layer 1 (Fail)
//Storyboard Layer 2 (Pass)
//Storyboard Layer 3 (Foreground)
//Storyboard Layer 4 (Overlay)
//Storyboard Sound Samples

[TimingPoints]
1277,324.324324324324,4,2,88,50,1,0
1763,-125,4,2,88,50,0,0
6141,-125,4,2,99,50,0,0
6466,-100,4,2,1,70,0,0
10358,-100,4,2,1,50,0,0
11655,-100,4,2,2,60,0,0
20736,-100,4,2,88,60,0,0
22033,-100,4,2,2,70,0,0
31114,-100,4,2,88,70,0,0
37601,-125,4,2,88,50,0,0
42790,-111.111111111111,4,2,88,60,0,0
47979,-100,4,2,1,70,0,0
51871,-100,4,2,1,50,0,0
53168,-83.3333333333333,4,2,3,85,0,0
58033,-83.3333333333333,4,2,99,85,0,0
58358,-83.3333333333333,4,2,3,85,0,0
59655,-76.9230769230769,4,2,3,85,0,0
60304,-71.4285714285714,4,2,3,85,0,0
60952,-83.3333333333333,4,2,3,85,0,0
61276,-83.3333333333333,4,2,99,85,0,0
61439,-83.3333333333333,4,2,3,85,0,0
61925,-83.3333333333333,4,2,99,85,0,0
62087,-83.3333333333333,4,2,3,85,0,0
62412,-83.3333333333333,4,2,99,85,0,0
62574,-83.3333333333333,4,2,3,85,0,0
62736,-83.3333333333333,4,2,99,85,0,0
62898,-83.3333333333333,4,2,3,85,0,0
63060,-83.3333333333333,4,2,99,85,0,0
63385,-83.3333333333333,4,2,3,85,0,0
68412,-83.3333333333333,4,2,99,85,0,0
68736,-83.3333333333333,4,2,3,85,0,0
70033,-76.9230769230769,4,2,3,85,0,0
70682,-71.4285714285714,4,2,3,85,0,0
71331,-83.3333333333333,4,2,3,85,0,0
71655,-83.3333333333333,4,2,99,85,0,0
71817,-83.3333333333333,4,2,3,85,0,0
72304,-83.3333333333333,4,2,99,85,0,0
72466,-83.3333333333333,4,2,3,85,0,0
72790,-83.3333333333333,4,2,99,85,0,0
73601,-83.3333333333333,4,2,70,85,0,0
78790,-83.3333333333333,4,2,99,85,0,0
78871,-83.3333333333333,4,2,70,85,0,0
82033,-83.3333333333333,4,2,99,85,0,0
82195,-83.3333333333333,4,2,70,85,0,0
82682,-83.3333333333333,4,2,99,85,0,0
82844,-83.3333333333333,4,2,70,85,0,0
83168,-83.3333333333333,4,2,99,85,0,0
83330,-83.3333333333333,4,2,70,85,0,0
83493,-83.3333333333333,4,2,99,85,0,0
83655,-83.3333333333333,4,2,70,85,0,0
83736,-83.3333333333333,4,2,99,85,0,0
84060,-83.3333333333333,4,2,70,85,0,0
89168,-83.3333333333333,4,2,99,85,0,0
89249,-83.3333333333333,4,2,70,85,0,0
92087,-83.3333333333333,4,2,70,50,0,0
93385,-250,4,2,99,50,0,0
94358,-751.87969924812,4,2,99,50,0,0
94682,-100,4,2,2,60,0,0
103763,-100,4,2,88,60,0,0
105060,-100,4,2,2,60,0,0
112844,-100,4,2,2,70,0,0
114141,-100,4,2,88,70,0,0

[Colours]
Combo1 : 48,97,169
Combo2 : 169,44,169

[HitObjects]
256,64,1277,5,14,1:2:0:0:
256,64,1439,1,2,0:0:0:0:
256,64,1601,1,10,0:0:0:0:
207,123,1763,2,0,B|163:112|163:112|134:71|77:79,2,128,2|2|2,0:0|0:0|0:0,0:0:0:0:
256,182,2574,1,10,0:0:0:0:
305,123,2736,2,0,B|366:107,2,64,2|10|2,2:3|0:0|0:0,0:0:0:0:
442,89,3222,2,0,B|424:150,1,64,8|0,0:0|0:0,0:0:0:0:
402,224,3547,2,0,B|357:178,1,64,8|0,0:0|0:0,0:0:0:0:
305,123,3871,5,10,0:0:0:0:
305,123,4033,1,2,0:0:0:0:
305,123,4195,1,10,0:0:0:0:
256,182,4358,2,0,B|271:212|256:243|256:243|240:274|256:305,1,128,2|2,0:0|0:0,0:0:0:0:
256,64,5006,1,2,0:0:0:0:
255,305,5331,1,2,2:3:0:0:
255,305,5493,1,10,0:0:0:0:
255,305,5655,1,2,0:0:0:0:
201,360,5817,2,0,P|138:366|112:294,1,128,8|8,0:0|0:3,0:0:0:0:
107,316,6466,5,12,0:0:0:0:
68,246,6628,2,0,L|119:232,1,40,2|0,3:2|0:0,0:0:0:0:
148,167,6790,1,2,0:0:0:0:
148,167,6952,2,0,L|199:180,1,40,2|0,3:2|0:0,0:0:0:0:
241,59,7114,5,12,0:0:0:0:
256,138,7276,2,0,L|293:175,1,40,2|0,3:2|0:0,0:0:0:0:
364,166,7439,1,2,0:0:0:0:
364,166,7601,2,0,L|377:217,1,40,2|0,3:2|0:0,0:0:0:0:
512,201,7763,5,12,0:0:0:0:
443,244,7925,2,0,L|429:295,1,40,2|0,3:2|0:0,0:0:0:0:
472,351,8087,1,2,0:0:0:0:
472,351,8249,2,0,L|434:388,1,40,2|0,3:2|0:0,0:0:0:0:
279,273,8412,5,12,0:0:0:0:
356,293,8574,2,0,L|369:344,1,40,2|0,3:2|0:0,0:0:0:0:
432,282,8736,1,2,0:0:0:0:
432,282,8898,2,0,L|443:244,1,40,2|0,3:2|0:0,0:0:0:0:
493,131,9060,6,0,L|454:141,1,40,12|2,3:2|0:0,0:0:0:0:
331,154,9222,2,0,L|359:182,1,40,2|2,3:2|0:0,0:0:0:0:
432,282,9385,2,0,L|443:244,1,40,12|2,3:2|0:0,0:0:0:0:
493,131,9547,2,0,L|454:141,1,40,2|2,3:2|0:0,0:0:0:0:
273,90,9709,5,12,3:2:0:0:
240,69,9790,1,2,3:2:0:0:
202,56,9871,1,2,3:2:0:0:
162,52,9952,1,2,3:2:0:0:
123,56,10033,1,12,3:2:0:0:
85,69,10114,1,2,3:2:0:0:
51,90,10195,1,2,3:2:0:0:
22,118,10276,1,2,3:2:0:0:
1,151,10357,5,2,0:0:0:0:
69,193,10520,1,0,1:0:0:0:
22,257,10682,5,0,1:0:0:0:
22,257,10763,1,0,1:0:0:0:
22,257,10844,1,0,1:0:0:0:
22,257,10925,1,0,1:0:0:0:
22,257,11006,1,8,0:0:0:0:
70,320,11168,5,2,1:2:0:0:
117,313,11249,1,2,1:2:0:0:
166,307,11331,2,0,B|247:318|196:341|274:351,1,120,8|0,0:0|0:0,0:0:0:0:
274,351,11655,6,0,L|282:297,1,40,6|0,1:2|0:0,0:0:0:0:
347,336,11817,2,0,L|354:281,1,40,2|0,0:0|0:0,0:0:0:0:
419,320,11979,2,0,L|430:240,1,80,2|0,0:1|0:0,0:0:0:0:
227,193,12304,2,0,L|215:113,1,80,2|0,1:1|0:0,0:0:0:0:
347,336,12628,2,0,L|354:281,1,40,2|0,0:3|0:0,0:0:0:0:
299,209,12790,2,0,L|291:154,1,40,2|0,0:1|0:0,0:0:0:0:
382,60,12952,6,0,L|342:54,1,40,2|0,1:2|0:0,0:0:0:0:
287,7,13114,2,0,L|247:12,1,40,2|0,0:3|0:0,0:0:0:0:
435,8,13276,1,2,0:1:0:0:
185,54,13439,1,2,0:1:0:0:
365,185,13601,2,0,L|371:225,1,40,2|0,1:3|0:0,0:0:0:0:
434,112,13763,2,0,L|429:152,1,40,2|0,0:3|0:0,0:0:0:0:
395,343,13925,5,2,1:1:0:0:
395,343,14006,1,2,1:1:0:0:
347,336,14087,5,2,1:3:0:0:
347,336,14168,1,0,1:0:0:0:
299,329,14249,6,0,L|259:334,1,40,2|0,1:2|0:0,0:0:0:0:
271,261,14412,2,0,L|231:266,1,40,2|0,0:0|0:0,0:0:0:0:
243,193,14574,2,0,L|163:204,1,80,2|0,0:1|0:0,0:0:0:0:
144,368,14898,2,0,L|64:356,1,80,2|0,1:3|0:0,0:0:0:0:
271,261,15222,2,0,L|231:266,1,40,2|0,0:3|0:0,0:0:0:0:
135,298,15385,2,0,L|95:293,1,40,2|0,0:3|0:0,0:0:0:0:
32,169,15547,6,0,L|37:209,1,40,2|0,1:2|0:0,0:0:0:0:
90,120,15709,2,0,L|85:80,1,40,2|0,0:2|0:0,0:0:0:0:
165,132,15871,2,0,L|175:216,1,80,2|0,0:1|0:0,0:0:0:0:
281,45,16195,1,2,1:3:0:0:
256,192,16358,1,0,1:0:0:0:
231,339,16520,1,8,0:0:0:0:
231,339,16844,6,0,L|271:334,1,40,6|0,1:2|0:0,0:0:0:0:
313,275,17006,2,0,L|353:270,1,40,2|0,0:0|0:0,0:0:0:0:
395,211,17168,2,0,L|477:200,1,80,2|0,1:1|0:0,0:0:0:0:
281,339,17493,6,0,L|241:334,1,40,2|0,1:3|0:0,0:0:0:0:
199,275,17655,2,0,L|159:270,1,40,2|0,0:3|0:0,0:0:0:0:
117,211,17817,2,0,L|34:200,1,80,2|2,1:3|0:0,0:0:0:0:
311,102,18141,6,0,L|351:97,1,40,2|0,1:2|0:0,0:0:0:0:
478,32,18304,2,0,L|399:42,1,80,2|0,0:3|1:0,0:0:0:0:
201,102,18628,6,0,L|161:97,1,40,2|0,0:3|0:0,0:0:0:0:
73,37,18790,2,0,L|113:42,1,40,2|0,1:1|0:0,0:0:0:0:
260,9,18952,2,0,L|256:49,1,40,2|0,0:1|0:0,0:0:0:0:
184,169,19114,2,0,L|144:164,1,40,2|0,1:2|0:0,0:0:0:0:
95,108,19276,2,0,L|56:104,1,40,2|0,0:0|0:0,0:0:0:0:
256,155,19439,6,0,L|260:194,1,40,2|0,1:2|0:0,0:0:0:0:
328,169,19601,2,0,L|324:208,1,40,2|0,0:0|0:0,0:0:0:0:
400,183,19763,2,0,L|408:262,1,80,2|0,1:1|0:0,0:0:0:0:
478,94,20087,2,0,L|486:14,1,80,2|0,1:3|0:0,0:0:0:0:
472,304,20412,6,0,L|511:300,1,40,2|0,1:3|0:0,0:0:0:0:
421,354,20574,2,0,L|382:350,1,40,2|0,0:3|0:0,0:0:0:0:
317,316,20736,5,2,1:2:0:0:
175,342,20898,1,2,3:2:0:0:
130,285,21060,5,2,3:2:0:0:
272,259,21222,1,2,3:2:0:0:
295,190,21385,5,2,1:2:0:0:
153,216,21547,1,2,3:2:0:0:
108,159,21709,5,2,1:2:0:0:
250,133,21871,1,2,0:0:0:0:
157,24,22033,5,8,1:3:0:0:
157,24,22195,1,0,1:0:0:0:
259,53,22358,2,0,L|250:133,1,80,6|0,1:1|0:0,0:0:0:0:
358,24,22682,2,0,L|348:103,1,80,2|0,1:1|0:0,0:0:0:0:
456,56,23006,2,0,L|450:105,1,40,2|0,1:3|0:0,0:0:0:0:
405,151,23168,2,0,L|410:200,1,40,2|0,0:3|0:0,0:0:0:0:
487,256,23331,6,0,L|448:252,1,40,2|0,1:2|0:0,0:0:0:0:
477,327,23493,2,0,L|438:323,1,40,2|0,0:0|0:0,0:0:0:0:
352,288,23655,6,0,L|312:292,1,40,2|0,1:1|0:0,0:0:0:0:
322,363,23817,2,0,L|361:358,1,40,2|0,0:1|0:0,0:0:0:0:
240,247,23979,6,0,L|200:242,1,40,2|0,1:3|0:0,0:0:0:0:
230,318,24141,2,0,L|190:313,1,40,2|0,0:3|0:0,0:0:0:0:
103,287,24304,5,0,1:0:0:0:
103,287,24385,1,0,1:0:0:0:
103,287,24466,2,0,L|63:291,1,40,0|0,1:0|1:0,0:0:0:0:
73,362,24628,5,2,1:2:0:0:
73,362,24790,1,2,0:0:0:0:
31,206,24952,2,0,L|110:213,1,80,2|0,1:1|0:0,0:0:0:0:
190,313,25276,2,0,L|269:320,1,80,2|0,1:3|0:0,0:0:0:0:
110,213,25601,2,0,L|149:216,1,40,2|0,1:3|0:0,0:0:0:0:
221,244,25763,2,0,L|224:205,1,40,2|0,0:3|0:0,0:0:0:0:
169,101,25925,6,0,L|130:104,1,40,2|0,1:2|0:0,0:0:0:0:
164,31,26087,2,0,L|125:34,1,40,2|0,0:0|0:0,0:0:0:0:
298,137,26249,6,0,L|259:134,1,40,2|0,1:1|0:0,0:0:0:0:
264,64,26412,2,0,L|303:67,1,40,0|0,0:0|0:0,0:0:0:0:
439,93,26574,6,0,L|400:96,1,40,2|0,1:3|0:0,0:0:0:0:
434,23,26736,2,0,L|395:26,1,40,2|0,1:3|0:0,0:0:0:0:
444,163,26898,5,8,0:0:0:0:
444,163,27222,5,6,1:2:0:0:
444,163,27385,1,2,0:0:0:0:
357,220,27547,2,0,L|370:298,1,80,2|0,1:1|0:0,0:0:0:0:
230,272,27871,2,0,L|223:311,1,40,2|0,1:3|0:0,0:0:0:0:
152,325,28033,2,0,L|158:364,1,40,2|0,0:3|0:0,0:0:0:0:
294,316,28195,2,0,L|287:355,1,40,2|0,1:3|0:0,0:0:0:0:
80,330,28358,1,0,0:0:0:0:
230,272,28520,5,2,1:2:0:0:
80,330,28682,2,0,L|107:172,1,160,2|2,0:3|0:3,0:0:0:0:
47,65,29168,2,0,L|54:104,1,40,2|0,1:1|0:0,0:0:0:0:
118,51,29331,2,0,L|125:90,1,40,2|0,0:1|0:0,0:0:0:0:
229,120,29493,2,0,L|222:81,1,40,2|0,1:2|0:0,0:0:0:0:
293,67,29656,2,0,L|300:106,1,40,2|0,0:0|0:0,0:0:0:0:
191,181,29817,5,2,1:2:0:0:
295,222,29979,1,2,1:2:0:0:
180,183,30141,5,2,1:1:0:0:
306,220,30304,1,0,1:0:0:0:
169,185,30466,5,2,1:3:0:0:
317,218,30628,1,0,1:0:0:0:
158,187,30790,5,2,1:3:0:0:
328,216,30952,1,2,1:3:0:0:
238,366,31114,6,0,L|234:318,1,40,2|0,1:2|0:0,0:0:0:0:
229,254,31276,1,2,3:2:0:0:
319,325,31439,6,0,L|327:277,1,40,2|0,3:2|3:0,0:0:0:0:
339,214,31601,1,2,3:2:0:0:
147,189,31763,6,0,L|126:145,1,40,2|0,1:2|3:0,0:0:0:0:
98,86,31925,1,2,3:2:0:0:
374,110,32087,6,0,L|405:73,1,40,6|0,1:2|0:0,0:0:0:0:
447,23,32249,1,2,0:0:0:0:
41,6,32412,5,4,0:0:0:0:
256,192,37601,5,10,0:0:0:0:
256,192,37763,1,2,0:0:0:0:
256,192,37925,1,10,0:0:0:0:
211,254,38087,2,0,B|170:264|170:264|76:238,2,128,2|2|2,0:0|0:0|0:0,0:0:0:0:
256,192,38898,1,10,0:0:0:0:
301,254,39060,2,0,B|374:272,2,64,2|10|2,0:0|0:0|0:0,0:0:0:0:
368,196,39547,2,0,B|441:214,1,64,8|0,0:0|0:0,0:0:0:0:
435,138,39871,2,0,B|508:156,1,64,8|0,0:0|0:0,0:0:0:0:
365,48,40195,5,10,0:0:0:0:
365,48,40358,1,2,0:0:0:0:
365,48,40520,1,10,0:0:0:0:
303,94,40682,2,0,P|241:88|198:42,1,128,2|2,0:0|0:0,0:0:0:0:
20,12,41331,1,2,0:0:0:0:
198,42,41655,1,2,0:0:0:0:
198,42,41817,1,10,0:0:0:0:
198,42,41979,1,2,0:0:0:0:
130,6,42141,2,0,P|104:62|122:123,1,128,8|8,0:0|0:0,0:0:0:0:
189,159,42628,1,8,0:0:0:0:
94,238,42790,6,0,P|64:217|30:204,1,71.9999978027344,6|2,1:2|0:0,0:0:0:0:
172,309,43114,2,0,P|142:329|108:342,1,71.9999978027344,2|2,1:2|0:0,0:0:0:0:
250,238,43439,2,0,P|220:217|186:204,1,71.9999978027344,0|2,1:0|0:0,0:0:0:0:
328,309,43763,1,0,1:0:0:0:
108,342,43925,1,2,1:2:0:0:
108,342,44006,1,0,1:0:0:0:
108,342,44087,6,0,P|142:329|172:309,1,71.9999978027344,6|2,1:2|0:0,0:0:0:0:
330,384,44412,2,0,P|296:371|266:350,1,71.9999978027344,2|2,1:2|0:0,0:0:0:0:
328,309,44736,1,0,1:0:0:0:
197,333,44898,2,0,P|191:297|194:261,1,71.9999978027344,6|0,0:0|1:0,0:0:0:0:
32,353,45222,1,0,1:0:0:0:
32,353,45304,1,0,1:0:0:0:
32,353,45385,6,0,P|26:317|29:281,1,71.9999978027344,6|2,1:2|0:0,0:0:0:0:
138,210,45709,2,0,P|143:174|140:138,1,71.9999978027344,2|2,1:2|0:0,0:0:0:0:
275,292,46033,2,0,P|269:256|272:220,1,71.9999978027344,0|2,1:0|0:0,0:0:0:0:
353,170,46358,1,0,1:0:0:0:
140,138,46520,1,2,1:2:0:0:
140,138,46601,1,0,1:0:0:0:
140,138,46682,6,0,P|143:174|138:210,1,71.9999978027344,4|2,1:0|0:0,0:0:0:0:
152,44,47006,2,0,P|184:59|212:82,1,71.9999978027344,2|2,1:2|0:0,0:0:0:0:
264,7,47331,1,0,1:0:0:0:
80,21,47493,1,0,1:0:0:0:
284,114,47655,2,0,P|316:98|344:75,1,71.9999978027344,2|0,0:3|0:0,0:0:0:0:
426,322,47979,5,12,0:0:0:0:
465,252,48141,2,0,L|414:238,1,40,2|0,3:2|0:0,0:0:0:0:
385,173,48303,1,2,0:0:0:0:
385,173,48465,2,0,L|334:186,1,40,2|0,3:2|0:0,0:0:0:0:
292,65,48627,5,12,0:0:0:0:
277,144,48789,2,0,L|240:181,1,40,2|0,3:2|0:0,0:0:0:0:
169,172,48952,1,2,0:0:0:0:
169,172,49114,2,0,L|156:223,1,40,2|0,3:2|0:0,0:0:0:0:
22,207,49276,5,12,0:0:0:0:
90,250,49438,2,0,L|104:301,1,40,2|0,3:2|0:0,0:0:0:0:
61,357,49600,1,2,0:0:0:0:
61,357,49762,2,0,L|99:394,1,40,2|0,3:2|0:0,0:0:0:0:
254,279,49925,5,12,0:0:0:0:
177,299,50087,2,0,L|164:350,1,40,2|0,3:2|0:0,0:0:0:0:
101,288,50249,1,2,0:0:0:0:
101,288,50412,2,0,L|90:250,1,40,2|0,3:2|0:0,0:0:0:0:
49,131,50574,6,0,L|38:169,1,40,12|2,3:2|0:0,0:0:0:0:
114,285,50736,2,0,L|103:247,1,40,2|2,3:2|0:0,0:0:0:0:
62,128,50898,2,0,L|51:166,1,40,12|2,3:2|0:0,0:0:0:0:
127,282,51060,2,0,L|116:244,1,40,2|2,3:2|0:0,0:0:0:0:
95,60,51222,5,12,3:2:0:0:
103,20,51304,1,2,3:2:0:0:
141,8,51385,1,2,3:2:0:0:
176,26,51466,1,2,3:2:0:0:
176,65,51547,1,12,3:2:0:0:
161,102,51628,1,2,3:2:0:0:
171,140,51709,1,2,3:2:0:0:
207,156,51790,1,2,3:2:0:0:
244,143,51871,5,2,0:0:0:0:
281,72,52033,1,0,1:0:0:0:
347,116,52195,5,0,1:0:0:0:
351,118,52276,1,0,1:0:0:0:
355,120,52358,1,0,1:0:0:0:
359,122,52439,1,0,1:0:0:0:
363,124,52520,1,8,0:0:0:0:
438,96,52682,5,2,1:2:0:0:
445,143,52763,1,2,1:2:0:0:
453,190,52844,2,0,B|470:266|427:235|441:305,1,120,8|0,0:0|0:0,0:0:0:0:
505,339,53168,6,0,P|441:314|392:362,1,143.999995605469,6|0,1:2|0:0,0:0:0:0:
321,380,53493,2,0,P|297:375|280:359,1,47.9999985351563,2|0,1:2|0:0,0:0:0:0:
107,267,53655,1,2,0:0:0:0:
88,261,53736,1,2,0:0:0:0:
69,255,53817,6,0,L|131:239,1,47.9999985351563,2|0,1:2|0:0,0:0:0:0:
254,207,53979,2,0,L|208:219,1,47.9999985351563,2|0,0:0|0:0,0:0:0:0:
137,139,54141,2,0,L|153:201,1,47.9999985351563,2|0,1:2|0:0,0:0:0:0:
184,324,54304,2,0,L|172:277,1,47.9999985351563,2|0,0:0|0:0,0:0:0:0:
144,130,54466,5,2,1:2:0:0:
177,333,54628,1,2,0:0:0:0:
151,121,54790,1,2,1:2:0:0:
170,342,54952,1,2,0:0:0:0:
254,207,55114,6,0,B|292:195|319:224|319:224|346:253|385:242,1,143.999995605469,2|0,1:2|0:0,0:0:0:0:
449,280,55439,2,0,P|452:232|460:184,1,95.9999970703126,2|2,1:2|0:0,0:0:0:0:
344,28,55763,6,0,L|200:42,1,143.999995605469,2|0,1:2|0:0,0:0:0:0:
132,19,56087,2,0,P|127:42|131:66,1,47.9999985351563,2|0,1:2|0:0,0:0:0:0:
190,246,56249,1,2,0:0:0:0:
196,264,56331,1,2,0:0:0:0:
197,283,56412,6,0,L|149:274,1,47.9999985351563,2|0,1:2|0:0,0:0:0:0:
7,249,56574,2,0,L|54:257,1,47.9999985351563,2|0,0:0|0:0,0:0:0:0:
208,268,56736,2,0,L|160:259,1,47.9999985351563,2|0,1:2|0:0,0:0:0:0:
2,232,56898,2,0,L|49:240,1,47.9999985351563,2|0,0:0|0:0,0:0:0:0:
88,345,57061,5,2,1:2:0:0:
119,171,57222,1,2,0:0:0:0:
85,361,57385,1,2,1:2:0:0:
122,155,57547,1,2,0:0:0:0:
82,377,57709,5,2,1:2:0:0:
125,139,58033,5,8,0:3:0:0:
0,59,58358,6,0,B|22:29|22:29|127:15,1,143.999995605469,6|0,1:2|0:0,0:0:0:0:
192,46,58682,2,0,L|207:91,1,47.9999985351563,2|0,1:2|0:0,0:0:0:0:
363,11,58844,1,2,0:0:0:0:
381,14,58925,1,2,0:0:0:0:
399,17,59006,6,0,L|384:62,1,47.9999985351563,2|0,1:2|0:0,0:0:0:0:
467,111,59168,2,0,L|431:143,1,47.9999985351563,2|0,0:0|0:0,0:0:0:0:
479,228,59331,2,0,L|432:237,1,47.9999985351563,2|0,1:2|0:0,0:0:0:0:
431,335,59493,2,0,L|386:320,1,47.9999985351563,2|0,0:0|0:0,0:0:0:0:
275,363,59655,6,0,L|258:314,1,51.999997619629,2|0,1:2|0:0,0:0:0:0:
348,260,59817,2,0,L|309:226,1,51.999997619629,2|0,0:0|0:0,0:0:0:0:
361,135,59979,2,0,L|310:124,1,51.999997619629,2|0,1:2|0:0,0:0:0:0:
309,20,60142,2,0,L|260:36,1,51.999997619629,2|0,0:0|0:0,0:0:0:0:
149,0,60304,6,0,L|131:52,1,55.9999982910157,2|0,1:2|0:0,0:0:0:0:
227,111,60466,2,0,L|185:147,1,55.9999982910157,2|0,0:0|0:0,0:0:0:0:
241,245,60629,2,0,L|187:256,1,55.9999982910157,2|0,1:2|0:0,0:0:0:0:
185,369,60791,2,0,L|132:351,1,55.9999982910157,2|0,0:0|0:0,0:0:0:0:
29,375,60952,6,0,B|52:286|75:342|95:250,1,143.999995605469,2|0,1:2|0:0,0:0:0:0:
53,71,61276,1,8,0:3:0:0:
25,138,61439,1,2,0:0:0:0:
241,245,61601,6,0,B|218:156|195:212|175:120,1,143.999995605469,2|0,1:2|0:0,0:0:0:0:
265,6,61925,1,8,0:3:0:0:
293,73,62088,1,2,0:0:0:0:
356,38,62249,5,2,1:2:0:0:
323,287,62412,2,0,P|355:252|393:223,1,95.9999970703126,8|0,0:3|1:0,0:0:0:0:
176,377,62736,2,0,P|143:341|105:312,1,95.9999970703126,8|0,0:3|1:0,0:0:0:0:
418,296,63060,1,8,0:3:0:0:
177,377,63222,2,0,L|186:281,1,95.9999970703126,8|0,0:3|0:0,0:0:0:0:
97,13,63547,6,0,B|105:70|105:70|122:90|122:90|133:149,1,143.999995605469,6|0,1:2|0:0,0:0:0:0:
152,218,63871,2,0,L|156:170,1,47.9999985351563,2|0,1:2|0:0,0:0:0:0:
262,7,64033,5,2,0:0:0:0:
281,9,64114,1,2,0:0:0:0:
300,11,64195,6,0,L|347:16,1,47.9999985351563,2|0,1:2|0:0,0:0:0:0:
472,63,64358,2,0,L|424:57,1,47.9999985351563,2|0,0:0|0:0,0:0:0:0:
292,83,64520,2,0,L|339:88,1,47.9999985351563,2|0,1:2|0:0,0:0:0:0:
464,135,64682,2,0,L|416:129,1,47.9999985351563,2|0,0:0|0:0,0:0:0:0:
284,155,64844,5,2,1:2:0:0:
456,207,65006,1,2,0:0:0:0:
276,227,65168,1,2,1:2:0:0:
448,279,65331,1,2,0:0:0:0:
327,384,65493,6,0,B|315:346|344:319|344:319|373:292|362:253,1,143.999995605469,2|0,1:2|0:0,0:0:0:0:
276,227,65817,2,0,P|229:230|181:235,1,95.9999970703126,2|2,1:2|0:0,0:0:0:0:
292,83,66141,6,0,P|220:88|149:96,1,143.999995605469,2|0,1:2|0:0,0:0:0:0:
78,115,66466,2,0,P|78:91|81:67,1,47.9999985351563,2|0,1:2|0:0,0:0:0:0:
180,235,66628,1,2,0:0:0:0:
182,254,66709,1,2,0:0:0:0:
183,273,66790,6,0,L|135:264,1,47.9999985351563,2|0,1:2|0:0,0:0:0:0:
329,273,66952,2,0,L|377:264,1,47.9999985351563,2|0,0:0|0:0,0:0:0:0:
182,292,67114,2,0,L|134:283,1,47.9999985351563,2|0,1:2|0:0,0:0:0:0:
330,292,67276,2,0,L|378:283,1,47.9999985351563,2|0,0:0|0:0,0:0:0:0:
256,352,67439,5,2,1:2:0:0:
256,160,67601,1,2,0:0:0:0:
256,365,67763,1,2,1:2:0:0:
256,147,67925,1,2,0:0:0:0:
256,378,68087,5,2,1:2:0:0:
256,134,68412,5,8,0:3:0:0:
77,365,68736,6,0,B|43:358|40:320|40:320|34:239,1,143.999995605469,6|0,1:2|0:0,0:0:0:0:
103,220,69060,2,0,B|106:172,1,47.9999985351563,2|0,1:2|0:0,0:0:0:0:
18,86,69222,1,2,0:0:0:0:
16,66,69303,1,2,0:0:0:0:
15,46,69385,6,0,P|38:45|61:53,1,47.9999985351563,2|0,1:2|0:0,0:0:0:0:
139,0,69547,2,0,P|159:11|174:29,1,47.9999985351563,2|0,0:0|0:0,0:0:0:0:
269,22,69709,2,0,P|281:42|285:65,1,47.9999985351563,2|0,1:2|0:0,0:0:0:0:
370,106,69871,2,0,P|370:129|362:152,1,47.9999985351563,2|0,0:0|0:0,0:0:0:0:
426,217,70033,6,0,P|400:216|376:225,1,51.999997619629,2|0,1:2|0:0,0:0:0:0:
293,167,70195,2,0,P|270:179|254:198,1,51.999997619629,2|0,0:0|0:0,0:0:0:0:
154,191,70358,2,0,P|140:212|136:237,1,51.999997619629,2|0,1:2|0:0,0:0:0:0:
46,281,70520,2,0,P|45:306|54:330,1,51.999997619629,2|0,0:0|0:0,0:0:0:0:
29,163,70682,6,0,P|56:162|82:172,1,55.9999982910157,2|0,1:2|0:0,0:0:0:0:
172,109,70844,2,0,P|196:122|213:143,1,55.9999982910157,2|0,0:0|0:0,0:0:0:0:
322,134,71006,2,0,P|336:157|340:184,1,55.9999982910157,2|0,1:2|0:0,0:0:0:0:
439,232,71168,2,0,P|439:259|429:285,1,55.9999982910157,2|0,0:0|0:0,0:0:0:0:
302,344,71331,5,2,1:2:0:0:
251,233,71493,1,0,1:0:0:0:
322,134,71655,1,8,1:3:0:0:
373,245,71817,1,2,1:2:0:0:
304,331,71979,5,2,1:2:0:0:
238,231,72141,1,0,1:0:0:0:
320,147,72303,1,8,1:3:0:0:
386,247,72465,1,2,1:2:0:0:
306,318,72628,5,2,1:2:0:0:
225,229,72790,2,0,L|177:223,1,47.9999985351563,8|0,0:3|0:0,0:0:0:0:
318,160,72952,2,0,L|323:112,1,47.9999985351563,8|8,0:3|0:0,0:0:0:0:
399,249,73114,2,0,L|446:254,1,47.9999985351563,8|8,0:3|0:0,0:0:0:0:
306,318,73276,5,8,3:3:0:0:
261,337,73358,1,8,0:0:0:0:
213,340,73439,1,8,0:3:0:0:
167,325,73520,1,8,0:0:0:0:
130,293,73601,6,0,L|139:268,1,23.9999992675781,2|0,0:0|0:0,0:0:0:0:
110,293,73682,2,0,L|112:266,1,23.9999992675781,2|0,0:0|0:0,0:0:0:0:
92,300,73763,2,0,L|87:273,1,23.9999992675781,2|0,0:0|0:0,0:0:0:0:
78,312,73844,2,0,L|66:287,1,23.9999992675781,2|0,0:0|0:0,0:0:0:0:
63,356,73925,6,0,B|75:281|14:293|44:188,1,143.999995605469,6|0,1:2|0:0,0:0:0:0:
13,153,74249,2,0,P|59:150|95:181,1,95.9999970703126,2|2,1:2|0:0,0:0:0:0:
207,263,74493,1,0,0:0:0:0:
207,263,74574,2,0,P|253:265|289:234,1,95.9999970703126,2|2,1:2|0:0,0:0:0:0:
404,122,74898,1,2,1:2:0:0:
432,265,75060,1,2,0:0:0:0:
237,189,75222,6,0,P|216:175|203:156,1,47.9999985351563,2|0,1:2|0:0,0:0:0:0:
294,52,75385,2,0,P|314:65|327:84,1,47.9999985351563,2|0,0:0|0:0,0:0:0:0:
137,161,75547,2,0,P|138:137|148:115,1,47.9999985351563,2|0,1:2|0:0,0:0:0:0:
294,52,75709,2,0,P|292:75|282:97,1,47.9999985351563,2|0,0:0|0:0,0:0:0:0:
70,129,75871,2,0,P|25:114|4:72,1,95.9999970703126,2|0,1:2|0:0,0:0:0:0:
170,1,76195,5,2,1:2:0:0:
174,39,76276,5,2,0:0:0:0:
187,7,76358,5,2,0:0:0:0:
191,45,76439,5,2,0:0:0:0:
204,13,76520,6,0,B|199:94|248:68|241:148,1,143.999995605469,2|0,0:2|0:0,0:0:0:0:
364,255,76844,5,2,1:2:0:0:
368,217,76925,5,2,0:0:0:0:
381,249,77007,5,2,0:0:0:0:
385,211,77088,5,2,0:0:0:0:
398,243,77169,6,0,B|393:162|442:188|435:107,1,143.999995605469,2|0,1:2|0:0,0:0:0:0:
367,32,77493,5,2,1:2:0:0:
241,147,77655,1,2,0:0:0:0:
465,225,77817,6,0,P|488:219|512:215,1,47.9999985351563,2|0,1:2|0:0,0:0:0:0:
388,316,77979,2,0,P|371:298|356:279,1,47.9999985351563,2|0,0:0|0:0,0:0:0:0:
506,337,78141,2,0,P|498:359|490:382,1,47.9999985351563,2|0,1:2|0:0,0:0:0:0:
465,235,78304,6,0,P|488:229|512:225,1,47.9999985351563,2|0,0:0|0:0,0:0:0:0:
396,310,78466,2,0,P|379:292|364:273,1,47.9999985351563,2|0,1:2|0:0,0:0:0:0:
497,332,78628,2,0,P|489:354|481:377,1,47.9999985351563,2|0,0:0|0:0,0:0:0:0:
309,363,78790,2,0,L|328:339,1,23.9999992675781,8|0,0:3|0:0,0:0:0:0:
294,350,78871,2,0,L|306:321,1,23.9999992675781,2|0,0:0|0:0,0:0:0:0:
275,344,78952,2,0,L|279:313,1,23.9999992675781,2|0,0:0|0:0,0:0:0:0:
255,344,79033,2,0,L|251:313,1,23.9999992675781,2|0,0:0|0:0,0:0:0:0:
216,372,79114,6,0,P|194:366|176:350,1,47.9999985351563,6|0,1:2|0:0,0:0:0:0:
164,233,79276,2,0,P|141:239|123:255,1,47.9999985351563,2|0,0:0|0:0,0:0:0:0:
33,340,79439,2,0,P|26:316|32:293,1,47.9999985351563,2|0,1:2|0:0,0:0:0:0:
118,82,79601,5,2,0:0:0:0:
147,106,79682,1,2,0:0:0:0:
159,80,79763,5,2,1:2:0:0:
176,104,79844,1,2,0:0:0:0:
195,90,79925,5,2,0:0:0:0:
203,112,80006,1,2,0:0:0:0:
226,107,80087,5,2,1:2:0:0:
256,119,80168,1,2,0:0:0:0:
290,121,80249,1,2,0:0:0:0:
322,111,80331,1,2,0:0:0:0:
348,90,80412,6,0,P|393:73|439:60,1,95.9999970703126,2|2,1:2|0:0,0:0:0:0:
122,213,80736,2,0,P|76:196|30:183,1,95.9999970703126,2|2,1:2|0:0,0:0:0:0:
299,280,81060,1,2,1:2:0:0:
171,357,81222,1,0,0:0:0:0:
354,337,81385,1,2,1:2:0:0:
110,288,81547,1,2,0:0:0:0:
240,384,81709,6,0,B|259:322|206:303|237:240,1,143.999995605469,2|0,1:2|0:0,0:0:0:0:
195,57,82033,1,8,0:3:0:0:
241,116,82195,1,2,0:0:0:0:
356,6,82358,6,0,B|375:67|322:86|353:149,1,143.999995605469,2|0,1:2|0:0,0:0:0:0:
311,333,82682,1,8,0:3:0:0:
357,274,82844,1,2,0:0:0:0:
162,297,83006,6,0,P|183:307|206:315,1,47.9999985351563,2|0,1:2|0:0,0:0:0:0:
341,199,83168,1,8,0:3:0:0:
365,113,83331,6,0,P|343:123|320:131,1,47.9999985351563,0|0,1:0|0:0,0:0:0:0:
155,66,83493,1,8,0:3:0:0:
256,0,83655,5,2,1:2:0:0:
256,0,83736,1,8,0:0:0:0:
256,0,83817,1,8,0:3:0:0:
256,0,83898,1,8,0:0:0:0:
256,0,83979,6,0,L|278:-7,1,23.9999992675781,8|0,0:3|0:0,0:0:0:0:
265,16,84060,2,0,L|288:14,1,23.9999992675781,2|0,0:0|0:0,0:0:0:0:
269,34,84141,2,0,L|291:38,1,23.9999992675781,2|0,0:0|0:0,0:0:0:0:
268,53,84222,2,0,L|288:63,1,23.9999992675781,2|0,0:0|0:0,0:0:0:0:
241,94,84304,6,0,B|209:163|283:175|242:260,1,143.999995605469,6|0,1:2|0:0,0:0:0:0:
222,296,84628,2,0,P|233:252|278:247,1,95.9999970703126,2|2,1:2|0:0,0:0:0:0:
397,247,84871,1,0,0:0:0:0:
397,247,84952,2,0,P|441:242|453:198,1,95.9999970703126,2|2,1:2|0:0,0:0:0:0:
355,113,85276,1,2,1:2:0:0:
390,329,85439,1,2,1:2:0:0:
390,329,85520,1,0,1:0:0:0:
390,329,85601,6,0,P|413:334|436:330,1,47.9999985351563,2|0,1:2|0:0,0:0:0:0:
278,247,85763,2,0,P|254:241|231:245,1,47.9999985351563,2|0,0:0|0:0,0:0:0:0:
390,329,85925,2,0,P|406:311|414:289,1,47.9999985351563,2|0,1:2|0:0,0:0:0:0:
189,190,86087,2,0,P|172:207|164:229,1,47.9999985351563,2|0,0:0|0:0,0:0:0:0:
313,374,86249,1,2,1:2:0:0:
313,374,86412,1,0,1:0:0:0:
153,299,86574,5,2,1:2:0:0:
148,336,86655,5,2,0:0:0:0:
137,302,86736,5,2,1:2:0:0:
133,339,86817,5,2,1:2:0:0:
121,307,86898,6,0,B|38:314|84:362|-1:368,1,143.999995605469,2|0,1:2|0:0,0:0:0:0:
89,186,87222,5,2,1:2:0:0:
94,223,87303,5,2,0:0:0:0:
105,189,87384,5,2,0:0:0:0:
109,226,87465,5,2,0:0:0:0:
120,194,87546,6,0,B|203:200|157:248|243:255,1,143.999995605469,2|0,1:2|0:0,0:0:0:0:
402,199,87871,5,2,1:2:0:0:
280,70,88033,1,2,1:2:0:0:
243,255,88195,6,0,P|237:278|233:302,1,47.9999985351563,2|0,1:2|0:0,0:0:0:0:
334,178,88357,2,0,P|316:161|297:146,1,47.9999985351563,2|0,0:0|0:0,0:0:0:0:
355,296,88520,2,0,P|377:288|400:280,1,47.9999985351563,2|0,1:2|0:0,0:0:0:0:
328,186,88682,6,0,P|310:169|291:154,1,47.9999985351563,2|0,0:0|0:0,0:0:0:0:
253,255,88844,2,0,P|247:278|243:302,1,47.9999985351563,2|0,1:2|0:0,0:0:0:0:
350,287,89006,2,0,P|372:279|395:271,1,47.9999985351563,2|0,1:2|0:0,0:0:0:0:
223,140,89168,6,0,L|227:109,1,23.9999992675781,8|0,0:3|0:0,0:0:0:0:
203,136,89249,2,0,L|198:104,1,23.9999992675781,2|0,0:0|0:0,0:0:0:0:
184,140,89331,2,0,L|171:111,1,23.9999992675781,2|0,0:0|0:0,0:0:0:0:
166,150,89412,2,0,L|147:125,1,23.9999992675781,2|0,0:0|0:0,0:0:0:0:
145,194,89493,6,0,P|98:197|59:171,1,95.9999970703126,14|8,1:2|0:0,0:0:0:0:
350,287,89817,2,0,P|397:290|436:264,1,95.9999970703126,10|10,1:2|0:2,0:0:0:0:
107,363,90141,2,0,P|59:366|20:340,1,95.9999970703126,10|10,1:2|0:2,0:0:0:0:
426,250,90466,2,0,P|473:246|512:272,1,95.9999970703126,10|10,1:2|0:2,0:0:0:0:
238,332,90790,5,10,1:2:0:0:
242,284,90871,1,8,0:0:0:0:
246,236,90952,1,10,0:0:0:0:
250,188,91033,1,8,0:0:0:0:
261,196,91114,5,10,1:2:0:0:
265,148,91195,1,8,0:0:0:0:
269,100,91276,1,10,0:0:0:0:
273,52,91357,1,8,0:0:0:0:
262,44,91439,5,10,1:2:0:0:
219,64,91520,1,8,0:0:0:0:
175,85,91601,1,8,0:0:0:0:
132,106,91682,1,8,0:0:0:0:
129,119,91763,5,10,1:2:0:0:
168,146,91844,1,8,0:0:0:0:
208,173,91925,1,10,0:0:0:0:
248,200,92006,1,8,0:0:0:0:
261,196,92087,5,2,3:2:0:0:
329,160,92736,5,2,3:0:0:0:
23,268,93385,6,0,L|35:288,1,16,8|0,0:3|0:0,0:0:0:0:
84,231,93547,1,8,0:0:0:0:
138,281,93709,2,0,L|150:301,1,16,8|8,0:3|0:0,0:0:0:0:
253,294,93871,1,8,0:0:0:0:
253,294,93952,1,8,0:0:0:0:
253,294,94033,6,0,L|265:314,1,16,8|8,0:3|0:0,0:0:0:0:
368,307,94195,2,0,L|380:327,1,16,8|8,0:3|0:0,0:0:0:0:
483,320,94358,6,0,L|492:336,1,15.9599999902588,8|0,0:3|0:0,0:0:0:0:
412,367,94682,6,0,L|418:312,1,40,6|0,1:2|0:0,0:0:0:0:
339,352,94844,2,0,L|345:297,1,40,2|0,0:0|0:0,0:0:0:0:
267,336,95006,2,0,L|187:344,1,80,2|0,0:1|0:0,0:0:0:0:
176,211,95331,2,0,L|96:219,1,80,2|0,1:1|0:0,0:0:0:0:
339,352,95655,2,0,L|345:297,1,40,2|0,0:3|0:0,0:0:0:0:
248,227,95817,2,0,L|242:172,1,40,2|0,0:1|0:0,0:0:0:0:
187,344,95979,6,0,L|147:348,1,40,2|0,1:2|0:0,0:0:0:0:
87,308,96141,2,0,L|47:303,1,40,2|0,0:3|0:0,0:0:0:0:
254,304,96304,1,2,0:1:0:0:
83,380,96466,1,2,0:1:0:0:
176,211,96628,2,0,L|180:250,1,40,2|0,1:3|0:0,0:0:0:0:
248,227,96790,2,0,L|252:187,1,40,2|0,0:3|0:0,0:0:0:0:
265,68,96952,5,2,1:1:0:0:
265,68,97033,1,2,1:1:0:0:
218,58,97114,5,2,1:3:0:0:
218,58,97195,1,0,1:0:0:0:
171,48,97276,6,0,L|166:8,1,40,2|0,1:2|0:0,0:0:0:0:
100,61,97439,2,0,L|95:21,1,40,2|0,0:0|0:0,0:0:0:0:
29,74,97601,2,0,L|108:82,1,80,2|0,0:1|0:0,0:0:0:0:
176,211,97925,2,0,L|96:219,1,80,2|0,1:3|0:0,0:0:0:0:
100,61,98249,2,0,L|95:21,1,40,2|0,0:3|0:0,0:0:0:0:
167,232,98412,2,0,L|162:271,1,40,2|0,0:3|0:0,0:0:0:0:
171,48,98574,6,0,L|175:87,1,40,2|0,1:2|0:0,0:0:0:0:
238,245,98736,2,0,L|242:205,1,40,2|0,0:2|0:0,0:0:0:0:
317,124,98898,2,0,L|238:133,1,80,2|0,0:1|0:0,0:0:0:0:
309,258,99222,1,2,1:3:0:0:
167,232,99385,1,0,1:0:0:0:
25,206,99547,1,8,0:0:0:0:
307,369,99871,6,0,L|311:329,1,40,6|0,1:2|0:0,0:0:0:0:
383,324,100033,2,0,L|387:284,1,40,2|0,0:0|0:0,0:0:0:0:
459,279,100195,2,0,L|472:171,1,80,2|0,1:1|0:0,0:0:0:0:
205,369,100520,6,0,L|200:329,1,40,2|0,1:3|0:0,0:0:0:0:
129,324,100682,2,0,L|124:284,1,40,2|0,0:3|0:0,0:0:0:0:
53,279,100844,2,0,L|39:171,1,80,2|2,1:3|0:0,0:0:0:0:
392,244,101168,6,0,L|396:204,1,40,2|0,1:2|0:0,0:0:0:0:
468,199,101330,2,0,L|481:91,1,80,2|0,0:3|1:0,0:0:0:0:
120,244,101655,6,0,L|116:204,1,40,2|0,0:3|0:0,0:0:0:0:
44,199,101817,2,0,L|39:159,1,40,2|0,1:1|0:0,0:0:0:0:
182,128,101979,2,0,L|178:168,1,40,2|0,0:1|0:0,0:0:0:0:
196,289,102141,2,0,L|192:249,1,40,2|0,1:2|0:0,0:0:0:0:
266,189,102304,2,0,L|261:228,1,40,2|0,0:0|0:0,0:0:0:0:
382,273,102466,6,0,L|421:278,1,40,2|0,1:2|0:0,0:0:0:0:
390,201,102628,2,0,L|429:197,1,40,2|0,0:0|0:0,0:0:0:0:
398,129,102790,2,0,L|387:43,1,80,2|0,1:1|0:0,0:0:0:0:
108,100,103114,2,0,L|119:14,1,80,2|0,1:3|0:0,0:0:0:0:
332,159,103439,2,0,L|328:120,1,40,2|0,1:3|0:0,0:0:0:0:
174,130,103601,2,0,L|178:91,1,40,2|0,0:3|0:0,0:0:0:0:
266,189,103763,5,2,1:2:0:0:
123,207,103925,1,2,3:2:0:0:
91,271,104087,5,2,3:2:0:0:
234,289,104249,1,2,3:2:0:0:
266,353,104412,5,2,1:2:0:0:
123,371,104574,1,2,3:2:0:0:
60,336,104736,5,2,1:2:0:0:
194,362,104898,1,2,0:0:0:0:
338,344,105060,5,8,1:3:0:0:
338,344,105222,1,0,1:0:0:0:
403,262,105385,2,0,L|392:176,1,80,2|0,1:1|0:0,0:0:0:0:
314,114,105709,2,0,L|303:28,1,80,2|0,1:1|0:0,0:0:0:0:
458,149,106033,2,0,L|463:109,1,40,2|0,1:3|0:0,0:0:0:0:
413,56,106195,2,0,L|407:16,1,40,2|0,0:3|0:0,0:0:0:0:
314,114,106358,6,0,L|308:153,1,40,2|0,1:2|0:0,0:0:0:0:
242,103,106520,2,0,L|236:142,1,40,2|0,0:0|0:0,0:0:0:0:
130,220,106682,6,0,L|135:259,1,40,2|0,1:1|0:0,0:0:0:0:
207,248,106844,2,0,L|201:208,1,40,2|0,0:1|0:0,0:0:0:0:
313,325,107006,6,0,L|307:364,1,40,2|0,1:3|0:0,0:0:0:0:
241,313,107168,2,0,L|236:353,1,40,2|0,0:3|0:0,0:0:0:0:
151,296,107331,5,0,1:0:0:0:
151,296,107412,1,0,1:0:0:0:
151,296,107493,2,0,L|145:335,1,40,0|0,1:0|1:0,0:0:0:0:
79,284,107655,5,2,1:2:0:0:
79,284,107817,1,2,0:0:0:0:
207,248,107979,2,0,L|197:168,1,80,2|0,1:1|0:0,0:0:0:0:
47,159,108304,2,0,L|56:79,1,80,2|0,1:3|0:0,0:0:0:0:
197,168,108628,2,0,L|192:128,1,40,2|0,1:3|0:0,0:0:0:0:
160,63,108790,2,0,L|199:58,1,40,2|0,0:3|0:0,0:0:0:0:
276,10,108952,6,0,L|271:50,1,40,2|0,1:2|0:0,0:0:0:0:
348,22,109114,2,0,L|342:61,1,40,2|0,0:0|0:0,0:0:0:0:
448,122,109276,6,0,L|453:162,1,40,2|0,1:1|0:0,0:0:0:0:
382,173,109439,2,0,L|376:134,1,40,0|0,0:0|0:0,0:0:0:0:
275,233,109601,6,0,L|270:273,1,40,2|0,1:3|0:0,0:0:0:0:
347,245,109763,2,0,L|341:284,1,40,2|0,1:3|0:0,0:0:0:0:
203,221,109925,5,8,0:0:0:0:
203,221,110249,5,6,1:2:0:0:
203,221,110412,1,2,0:0:0:0:
109,266,110574,2,0,L|118:345,1,80,2|0,1:1|0:0,0:0:0:0:
203,221,110898,6,0,L|207:181,1,40,2|0,1:3|0:0,0:0:0:0:
136,180,111060,2,0,L|131:140,1,40,2|0,0:3|0:0,0:0:0:0:
272,148,111222,2,0,L|276:108,1,40,2|0,1:3|0:0,0:0:0:0:
203,221,111385,1,0,0:0:0:0:
251,40,111547,5,2,1:2:0:0:
203,221,111709,2,0,L|373:242,1,160,2|2,0:3|0:3,0:0:0:0:
454,265,112195,2,0,L|494:260,1,40,2|0,1:1|0:0,0:0:0:0:
443,194,112358,2,0,L|482:188,1,40,2|0,0:1|0:0,0:0:0:0:
363,111,112520,2,0,L|402:117,1,40,2|0,1:2|0:0,0:0:0:0:
414,45,112682,2,0,L|374:40,1,40,2|0,0:0|0:0,0:0:0:0:
256,0,112844,5,2,1:2:0:0:
248,14,112925,1,0,3:0:0:0:
245,29,113006,1,2,1:2:0:0:
247,44,113087,1,0,3:0:0:0:
256,74,113168,5,2,1:1:0:0:
264,88,113249,1,0,3:0:0:0:
267,103,113330,1,0,1:0:0:0:
265,118,113411,1,0,3:0:0:0:
256,149,113493,5,2,1:3:0:0:
248,163,113574,1,0,3:0:0:0:
245,178,113655,1,0,1:0:0:0:
247,193,113736,1,0,3:0:0:0:
256,223,113817,5,2,1:3:0:0:
264,237,113898,1,0,3:0:0:0:
267,252,113979,1,2,1:3:0:0:
265,267,114060,1,0,3:0:0:0:
255,297,114141,6,0,P|252:316|254:336,1,40,2|0,1:2|0:0,0:0:0:0:
325,318,114304,1,2,3:2:0:0:
387,207,114466,6,0,P|390:187|388:167,1,40,2|0,3:2|3:0,0:0:0:0:
317,186,114629,1,2,3:2:0:0:
126,90,114790,6,0,P|122:109|124:129,1,40,2|0,1:2|3:0,0:0:0:0:
195,110,114952,1,2,3:2:0:0:
386,58,115114,6,0,P|389:38|387:18,1,40,6|0,1:2|0:0,0:0:0:0:
316,37,115276,1,2,0:0:0:0:
459,2,115439,5,4,0:0:0:0:
