osu file format v14

[General]
AudioFilename: audio.mp3
AudioLeadIn: 0
PreviewTime: 63133
Countdown: 0
SampleSet: Normal
StackLeniency: 0.7
Mode: 1
LetterboxInBreaks: 0
WidescreenStoryboard: 0

[Editor]
DistanceSpacing: 1.6
BeatDivisor: 4
GridSize: 8
TimelineZoom: 2.2

[Metadata]
Title:VEZZELiX
TitleUnicode:VEZZELiX
Artist:Reku Mochizuki
ArtistUnicode:Reku Mochizuki
Creator:Idealism
Version:Neo-Futurism
Source:
Tags:BOFXVI BMS of fighters xvi 16 -NEO DYSTOPIA- neo dystopia hardcore j-core jcore arcadecore electronic instrumental re94c rekumzck neofuturism
BeatmapID:2899632
BeatmapSetID:1406171

[Difficulty]
HPDrainRate:6
CircleSize:5
OverallDifficulty:6
ApproachRate:5
SliderMultiplier:1.4
SliderTickRate:1

[Events]
//Background and Video events
0,0,"VEZZELiX.png",0,0
//Break Periods
//Storyboard Layer 0 (Background)
//Storyboard Layer 1 (Fail)
//Storyboard Layer 2 (Pass)
//Storyboard Layer 3 (Foreground)
//Storyboard Layer 4 (Overlay)
//Storyboard Sound Samples

[TimingPoints]
1295,315.789473684211,4,1,0,65,1,0
1295,-111.111111111111,4,1,0,65,0,0
2558,-100,4,1,0,80,0,0
12663,-100,4,1,0,65,0,0
12979,-100,4,1,0,80,0,0
32873,-111.111111111111,4,1,0,65,0,0
42979,-100,4,1,0,80,0,0
63189,-86.9565217391304,4,1,0,90,0,1
83400,-111.111111111111,4,1,0,65,0,0
88452,-111.111111111111,4,1,0,80,0,0
93189,-100,4,1,0,80,0,0
103768,-95.2380952380952,4,1,0,80,0,0
103847,-90.9090909090909,4,1,0,80,0,0
103926,-86.9565217391304,4,1,0,90,0,1
106137,-86.9565217391304,4,1,0,90,0,0
108663,-86.9565217391304,4,1,0,90,0,1
111189,-86.9565217391304,4,1,0,90,0,0
113716,-86.9565217391304,4,1,0,90,0,1
123821,-86.9565217391304,4,1,0,90,0,0

[HitObjects]
250,189,1295,5,8,0:0:0:0:
250,189,1452,1,0,0:0:0:0:
250,189,1531,1,0,0:0:0:0:
250,189,1610,1,8,0:0:0:0:
250,189,1768,1,8,0:0:0:0:
250,189,1847,1,0,0:0:0:0:
250,189,1926,1,8,0:0:0:0:
250,189,2084,1,0,0:0:0:0:
250,189,2242,1,8,0:0:0:0:
250,189,2558,1,12,0:0:0:0:
250,189,2716,1,0,0:0:0:0:
244,191,2873,1,0,0:0:0:0:
244,191,2952,1,8,0:0:0:0:
244,191,3031,1,0,0:0:0:0:
244,191,3110,1,0,0:0:0:0:
244,191,3189,1,8,0:0:0:0:
244,191,3347,1,0,0:0:0:0:
243,191,3426,1,8,0:0:0:0:
243,191,3584,1,0,0:0:0:0:
243,191,3663,1,8,0:0:0:0:
245,196,3821,1,8,0:0:0:0:
245,196,3979,1,8,0:0:0:0:
245,196,4058,1,0,0:0:0:0:
245,196,4216,1,0,0:0:0:0:
245,196,4295,1,0,0:0:0:0:
245,196,4452,1,8,0:0:0:0:
245,196,4610,1,0,0:0:0:0:
245,196,4689,1,0,0:0:0:0:
245,196,4768,1,8,0:0:0:0:
245,196,4847,1,0,0:0:0:0:
245,196,4926,1,8,0:0:0:0:
245,196,5084,1,12,0:0:0:0:
245,196,5242,1,0,0:0:0:0:
245,196,5400,1,0,0:0:0:0:
245,196,5479,1,8,0:0:0:0:
245,196,5558,1,0,0:0:0:0:
245,196,5637,1,0,0:0:0:0:
245,196,5716,1,8,0:0:0:0:
245,196,5873,1,0,0:0:0:0:
245,196,5952,1,8,0:0:0:0:
245,196,6110,1,0,0:0:0:0:
245,196,6189,1,8,0:0:0:0:
245,196,6347,1,8,0:0:0:0:
245,196,6505,1,0,0:0:0:0:
245,196,6584,1,0,0:0:0:0:
245,196,6663,1,8,0:0:0:0:
245,196,6821,1,0,0:0:0:0:
245,196,6979,1,8,0:0:0:0:
232,200,7137,1,8,0:0:0:0:
232,200,7216,1,0,0:0:0:0:
232,200,7295,1,8,0:0:0:0:
232,200,7373,1,8,0:0:0:0:
232,200,7452,1,0,0:0:0:0:
231,200,7610,1,12,0:0:0:0:
226,197,7768,1,0,0:0:0:0:
226,197,7926,1,0,0:0:0:0:
226,197,8005,1,8,0:0:0:0:
226,197,8084,1,0,0:0:0:0:
226,197,8163,1,0,0:0:0:0:
226,197,8242,1,8,0:0:0:0:
225,197,8400,1,0,0:0:0:0:
225,197,8479,1,8,0:0:0:0:
224,197,8637,1,0,0:0:0:0:
226,197,8716,1,8,0:0:0:0:
226,197,8873,1,0,0:0:0:0:
226,197,9031,1,0,0:0:0:0:
226,197,9110,1,8,0:0:0:0:
226,197,9268,1,8,0:0:0:0:
225,197,9347,1,0,0:0:0:0:
225,197,9505,1,8,0:0:0:0:
224,197,9663,1,0,0:0:0:0:
226,197,9742,1,0,0:0:0:0:
226,197,9900,1,0,0:0:0:0:
226,197,9979,1,8,0:0:0:0:
226,197,10137,1,8,0:0:0:0:
226,197,10216,1,0,0:0:0:0:
226,197,10295,1,8,0:0:0:0:
225,197,10373,1,8,0:0:0:0:
225,197,10452,1,0,0:0:0:0:
225,197,10531,1,8,0:0:0:0:
224,197,10610,1,0,0:0:0:0:
224,197,10689,1,0,0:0:0:0:
226,197,10768,1,8,0:0:0:0:
226,197,10847,1,0,0:0:0:0:
221,196,10926,1,8,0:0:0:0:
221,196,10979,1,8,0:0:0:0:
226,197,11031,1,8,0:0:0:0:
226,197,11084,1,0,0:0:0:0:
226,197,11163,1,0,0:0:0:0:
226,197,11242,1,8,0:0:0:0:
226,197,11295,1,8,0:0:0:0:
225,197,11347,1,8,0:0:0:0:
225,197,11400,1,0,0:0:0:0:
220,197,11558,1,0,0:0:0:0:
224,197,11716,1,8,0:0:0:0:
220,197,11873,1,0,0:0:0:0:
224,197,11952,1,0,0:0:0:0:
216,196,12031,1,8,0:0:0:0:
224,201,12110,1,0,0:0:0:0:
209,202,12268,1,0,0:0:0:0:
225,197,12347,1,8,0:0:0:0:
226,202,12663,1,0,0:0:0:0:
221,202,12821,1,0,0:0:0:0:
221,202,12900,1,0,0:0:0:0:
221,202,12979,1,12,0:0:0:0:
224,201,13137,1,8,0:0:0:0:
224,201,13216,1,0,0:0:0:0:
226,202,13295,1,8,0:0:0:0:
226,202,13452,1,8,0:0:0:0:
226,202,13531,1,0,0:0:0:0:
226,202,13610,1,8,0:0:0:0:
226,202,13689,1,8,0:0:0:0:
226,202,13768,1,0,0:0:0:0:
221,202,13847,1,0,0:0:0:0:
221,202,13926,1,8,0:0:0:0:
215,202,14084,1,8,0:0:0:0:
215,202,14163,1,0,0:0:0:0:
215,202,14242,1,8,0:0:0:0:
215,202,14400,1,0,0:0:0:0:
214,202,14558,1,8,0:0:0:0:
213,202,14637,1,8,0:0:0:0:
213,202,14716,1,0,0:0:0:0:
213,202,14795,1,0,0:0:0:0:
212,201,14873,1,8,0:0:0:0:
212,201,14952,1,8,0:0:0:0:
215,202,15031,1,0,0:0:0:0:
215,202,15110,1,0,0:0:0:0:
215,202,15189,1,8,0:0:0:0:
210,203,15347,1,0,0:0:0:0:
210,203,15426,1,0,0:0:0:0:
214,202,15505,1,8,0:0:0:0:
200,200,15663,1,8,0:0:0:0:
200,200,15742,1,0,0:0:0:0:
213,202,15821,1,8,0:0:0:0:
199,200,15979,1,0,0:0:0:0:
197,199,16137,1,8,0:0:0:0:
197,199,16216,1,8,0:0:0:0:
197,199,16295,1,0,0:0:0:0:
197,199,16452,1,8,0:0:0:0:
193,197,16610,1,0,0:0:0:0:
193,197,16689,1,0,0:0:0:0:
193,197,16768,1,8,0:0:0:0:
193,197,16926,1,0,0:0:0:0:
197,199,17084,1,8,0:0:0:0:
192,197,17163,1,8,0:0:0:0:
192,197,17242,1,8,0:0:0:0:
192,197,17321,1,8,0:0:0:0:
192,197,17400,1,0,0:0:0:0:
192,197,17479,1,8,0:0:0:0:
193,197,17558,1,0,0:0:0:0:
193,197,17637,1,0,0:0:0:0:
193,197,17716,1,8,0:0:0:0:
193,197,17873,1,0,0:0:0:0:
193,197,17952,1,0,0:0:0:0:
191,193,18031,1,8,0:0:0:0:
192,197,18189,1,8,0:0:0:0:
192,197,18268,1,0,0:0:0:0:
192,197,18347,1,8,0:0:0:0:
192,197,18505,1,8,0:0:0:0:
189,192,18663,1,8,0:0:0:0:
189,192,18742,1,8,0:0:0:0:
189,192,18821,1,0,0:0:0:0:
189,192,18979,1,8,0:0:0:0:
186,191,19137,1,0,0:0:0:0:
186,191,19216,1,0,0:0:0:0:
186,191,19295,1,8,0:0:0:0:
186,191,19452,1,0,0:0:0:0:
196,194,19610,1,8,0:0:0:0:
194,193,19689,1,8,0:0:0:0:
194,193,19768,1,0,0:0:0:0:
194,193,19847,1,0,0:0:0:0:
189,192,19926,1,8,0:0:0:0:
189,192,20005,1,8,0:0:0:0:
191,192,20084,1,0,0:0:0:0:
186,191,20163,1,0,0:0:0:0:
186,191,20242,1,8,0:0:0:0:
192,183,20321,1,8,0:0:0:0:
192,183,20400,1,8,0:0:0:0:
192,183,20479,1,8,0:0:0:0:
192,183,20558,1,0,0:0:0:0:
186,177,20716,1,0,0:0:0:0:
186,177,20795,1,0,0:0:0:0:
186,177,20873,1,8,0:0:0:0:
186,177,20952,1,8,0:0:0:0:
186,177,21031,1,8,0:0:0:0:
185,177,21110,1,8,0:0:0:0:
185,177,21189,1,0,0:0:0:0:
176,182,21347,1,0,0:0:0:0:
176,182,21426,1,0,0:0:0:0:
176,182,21505,1,8,0:0:0:0:
177,182,21663,1,8,0:0:0:0:
177,182,21742,1,0,0:0:0:0:
177,182,21821,1,8,0:0:0:0:
177,182,21979,1,0,0:0:0:0:
173,182,22058,1,0,0:0:0:0:
176,182,22137,1,8,0:0:0:0:
172,180,22216,1,0,0:0:0:0:
176,182,22295,1,8,0:0:0:0:
176,182,22373,1,0,0:0:0:0:
176,182,22452,1,8,0:0:0:0:
176,182,22531,1,8,0:0:0:0:
177,182,22610,1,0,0:0:0:0:
177,182,22689,1,0,0:0:0:0:
177,182,22768,1,12,0:0:0:0:
178,175,22926,1,0,0:0:0:0:
178,175,23005,1,0,0:0:0:0:
178,176,23084,1,8,0:0:0:0:
178,176,23163,1,8,0:0:0:0:
178,176,23242,1,0,0:0:0:0:
178,176,23400,1,8,0:0:0:0:
160,167,23558,1,8,0:0:0:0:
164,169,23637,1,0,0:0:0:0:
164,169,23716,1,8,0:0:0:0:
164,169,23795,1,8,0:0:0:0:
164,169,23873,1,0,0:0:0:0:
164,169,23952,1,0,0:0:0:0:
164,169,24031,1,8,0:0:0:0:
164,169,24189,1,8,0:0:0:0:
164,169,24268,1,0,0:0:0:0:
164,169,24347,1,8,0:0:0:0:
164,169,24426,1,8,0:0:0:0:
164,169,24505,1,0,0:0:0:0:
164,169,24663,1,8,0:0:0:0:
164,169,24821,1,8,0:0:0:0:
164,169,24900,1,8,0:0:0:0:
164,169,24979,1,0,0:0:0:0:
164,169,25058,1,8,0:0:0:0:
164,169,25137,1,0,0:0:0:0:
164,169,25216,1,0,0:0:0:0:
164,169,25295,1,8,0:0:0:0:
166,173,25452,1,0,0:0:0:0:
166,173,25531,1,0,0:0:0:0:
166,173,25610,1,8,0:0:0:0:
159,173,25689,1,8,0:0:0:0:
166,173,25768,1,0,0:0:0:0:
164,169,25926,1,0,0:0:0:0:
164,169,26084,1,8,0:0:0:0:
164,169,26163,1,0,0:0:0:0:
164,169,26242,1,8,0:0:0:0:
164,169,26321,1,8,0:0:0:0:
160,171,26400,1,0,0:0:0:0:
164,169,26479,1,0,0:0:0:0:
160,171,26558,1,8,0:0:0:0:
158,181,26716,1,0,0:0:0:0:
159,181,26795,1,8,0:0:0:0:
159,182,26952,1,8,0:0:0:0:
159,182,27031,1,0,0:0:0:0:
160,182,27189,1,8,0:0:0:0:
160,182,27268,1,0,0:0:0:0:
160,182,27347,1,8,0:0:0:0:
160,182,27426,1,0,0:0:0:0:
160,182,27505,1,8,0:0:0:0:
160,182,27584,1,0,0:0:0:0:
158,181,27663,1,0,0:0:0:0:
158,181,27742,1,0,0:0:0:0:
159,181,27821,1,12,0:0:0:0:
154,183,27979,1,0,0:0:0:0:
154,183,28058,1,0,0:0:0:0:
154,183,28137,1,8,0:0:0:0:
154,183,28295,1,0,0:0:0:0:
154,183,28452,1,12,0:0:0:0:
154,183,28610,1,8,0:0:0:0:
158,181,28689,1,0,0:0:0:0:
158,181,28768,1,8,0:0:0:0:
154,183,28847,1,8,0:0:0:0:
154,183,28926,1,8,0:0:0:0:
154,183,29084,1,12,0:0:0:0:
160,172,29242,1,8,0:0:0:0:
160,172,29321,1,8,0:0:0:0:
160,172,29400,1,0,0:0:0:0:
160,172,29479,1,8,0:0:0:0:
160,172,29558,1,0,0:0:0:0:
160,172,29716,1,12,0:0:0:0:
159,172,29873,1,0,0:0:0:0:
160,172,29952,1,8,0:0:0:0:
160,172,30110,1,8,0:0:0:0:
159,172,30189,1,0,0:0:0:0:
160,172,30347,1,4,0:0:0:0:
160,172,30505,1,0,0:0:0:0:
160,172,30584,1,8,0:0:0:0:
160,172,30742,1,0,0:0:0:0:
160,172,30821,1,8,0:0:0:0:
159,172,30979,1,0,0:0:0:0:
159,172,31137,1,8,0:0:0:0:
160,172,31295,1,0,0:0:0:0:
160,172,31452,1,0,0:0:0:0:
160,172,31610,1,12,0:0:0:0:
151,167,31768,1,8,0:0:0:0:
160,172,31847,1,0,0:0:0:0:
151,167,32005,1,0,0:0:0:0:
159,172,32084,1,0,0:0:0:0:
160,172,32242,1,8,0:0:0:0:
154,173,32400,1,0,0:0:0:0:
154,173,32479,1,0,0:0:0:0:
154,173,32558,1,8,0:0:0:0:
151,167,32873,1,12,0:0:0:0:
155,175,33031,1,0,0:0:0:0:
167,171,33189,1,0,0:0:0:0:
154,173,33347,1,0,0:0:0:0:
154,173,33426,1,0,0:0:0:0:
154,173,33505,1,8,0:0:0:0:
152,172,33742,1,8,0:0:0:0:
155,175,33979,1,8,0:0:0:0:
154,173,34137,1,0,0:0:0:0:
152,172,34610,1,0,0:0:0:0:
152,172,34689,1,0,0:0:0:0:
155,175,34768,1,8,0:0:0:0:
155,175,34926,1,8,0:0:0:0:
154,173,35084,1,0,0:0:0:0:
152,172,35242,1,8,0:0:0:0:
152,172,35400,1,0,0:0:0:0:
149,181,35873,1,8,0:0:0:0:
150,181,36189,1,8,0:0:0:0:
150,181,36347,1,8,0:0:0:0:
149,181,36505,1,0,0:0:0:0:
155,183,37137,1,0,0:0:0:0:
150,181,37295,1,8,0:0:0:0:
149,181,37452,1,8,0:0:0:0:
149,184,37610,1,8,0:0:0:0:
149,184,37689,1,8,0:0:0:0:
149,184,37768,1,0,0:0:0:0:
149,184,37847,1,0,0:0:0:0:
155,183,37926,1,8,0:0:0:0:
155,183,38084,1,0,0:0:0:0:
154,183,38242,1,0,0:0:0:0:
154,183,38321,1,8,0:0:0:0:
154,183,38400,1,0,0:0:0:0:
154,183,38479,1,0,0:0:0:0:
154,183,38558,1,8,0:0:0:0:
149,184,38795,1,8,0:0:0:0:
155,183,39031,1,8,0:0:0:0:
154,183,39189,1,0,0:0:0:0:
176,186,39663,1,0,0:0:0:0:
176,186,39742,1,0,0:0:0:0:
176,186,39821,1,8,0:0:0:0:
176,186,39979,1,8,0:0:0:0:
176,186,40137,1,0,0:0:0:0:
176,186,40295,1,8,0:0:0:0:
176,186,40452,1,8,0:0:0:0:
172,179,40610,1,8,0:0:0:0:
172,179,40768,1,0,0:0:0:0:
171,179,40926,1,8,0:0:0:0:
171,179,41084,1,8,0:0:0:0:
170,179,41321,1,0,0:0:0:0:
172,179,41558,1,0,0:0:0:0:
172,179,41716,1,8,0:0:0:0:
179,177,41873,1,0,0:0:0:0:
179,177,42031,1,8,0:0:0:0:
176,176,42189,1,8,0:0:0:0:
176,176,42268,1,8,0:0:0:0:
176,176,42347,1,0,0:0:0:0:
176,176,42426,1,8,0:0:0:0:
173,174,42505,1,0,0:0:0:0:
173,174,42584,1,0,0:0:0:0:
173,174,42663,1,12,0:0:0:0:
172,174,42979,1,12,0:0:0:0:
166,175,43137,1,0,0:0:0:0:
166,175,43295,1,0,0:0:0:0:
164,172,43373,1,8,0:0:0:0:
167,173,43452,1,0,0:0:0:0:
167,173,43531,1,0,0:0:0:0:
167,173,43610,1,8,0:0:0:0:
166,172,43768,1,0,0:0:0:0:
166,172,43847,1,8,0:0:0:0:
166,172,44005,1,8,0:0:0:0:
166,175,44084,1,0,0:0:0:0:
166,175,44242,1,8,0:0:0:0:
164,172,44400,1,8,0:0:0:0:
167,173,44479,1,0,0:0:0:0:
167,173,44637,1,0,0:0:0:0:
166,172,44716,1,0,0:0:0:0:
166,172,44873,1,8,0:0:0:0:
160,175,45189,1,0,0:0:0:0:
160,175,45268,1,0,0:0:0:0:
160,175,45347,1,8,0:0:0:0:
157,173,45426,1,0,0:0:0:0:
156,173,45505,1,8,0:0:0:0:
156,180,45663,1,0,0:0:0:0:
160,175,45821,1,0,0:0:0:0:
160,175,45900,1,8,0:0:0:0:
160,175,45979,1,0,0:0:0:0:
160,175,46058,1,0,0:0:0:0:
160,175,46137,1,8,0:0:0:0:
160,175,46295,1,0,0:0:0:0:
160,175,46373,1,8,0:0:0:0:
156,173,46531,1,8,0:0:0:0:
158,174,46610,1,8,0:0:0:0:
160,175,46768,1,8,0:0:0:0:
160,175,46847,1,8,0:0:0:0:
160,175,46926,1,8,0:0:0:0:
160,175,47005,1,0,0:0:0:0:
160,175,47163,1,0,0:0:0:0:
160,175,47242,1,8,0:0:0:0:
160,175,47400,1,0,0:0:0:0:
160,175,47716,1,8,0:0:0:0:
160,175,47795,1,8,0:0:0:0:
160,175,47873,1,0,0:0:0:0:
160,175,47952,1,0,0:0:0:0:
160,175,48031,1,8,0:0:0:0:
160,175,48189,1,0,0:0:0:0:
152,173,48347,1,0,0:0:0:0:
152,173,48426,1,8,0:0:0:0:
156,173,48505,1,0,0:0:0:0:
156,173,48584,1,0,0:0:0:0:
152,173,48663,1,8,0:0:0:0:
152,173,48821,1,0,0:0:0:0:
151,173,48900,1,8,0:0:0:0:
151,172,49058,1,0,0:0:0:0:
151,172,49137,1,8,0:0:0:0:
152,173,49295,1,8,0:0:0:0:
139,172,49452,1,8,0:0:0:0:
139,173,49531,1,0,0:0:0:0:
139,173,49689,1,0,0:0:0:0:
139,173,49768,1,0,0:0:0:0:
139,173,49926,1,8,0:0:0:0:
152,173,50242,1,8,0:0:0:0:
152,173,50321,1,8,0:0:0:0:
147,173,50400,1,0,0:0:0:0:
154,175,50558,1,0,0:0:0:0:
154,175,50716,1,8,0:0:0:0:
154,175,50873,1,0,0:0:0:0:
154,175,50952,1,8,0:0:0:0:
151,172,51031,1,0,0:0:0:0:
151,172,51110,1,0,0:0:0:0:
151,172,51189,1,8,0:0:0:0:
152,173,51347,1,0,0:0:0:0:
154,175,51505,1,8,0:0:0:0:
154,175,51584,1,8,0:0:0:0:
154,175,51663,1,0,0:0:0:0:
154,175,51821,1,4,0:0:0:0:
154,175,52610,1,0,0:0:0:0:
154,175,52768,1,12,0:0:0:0:
154,175,53084,1,12,0:0:0:0:
151,181,53242,1,4,0:0:0:0:
152,181,53558,1,0,0:0:0:0:
152,181,53637,1,0,0:0:0:0:
152,181,53716,1,12,0:0:0:0:
151,181,53873,1,0,0:0:0:0:
152,181,53952,1,12,0:0:0:0:
151,181,54110,1,0,0:0:0:0:
150,181,54189,1,12,0:0:0:0:
152,181,54347,1,8,0:0:0:0:
152,181,54584,1,0,0:0:0:0:
151,181,54821,1,0,0:0:0:0:
152,181,54979,1,8,0:0:0:0:
145,178,55137,1,8,0:0:0:0:
146,178,55216,1,8,0:0:0:0:
146,178,55295,1,0,0:0:0:0:
146,178,55373,1,8,0:0:0:0:
146,178,55452,1,0,0:0:0:0:
146,178,55531,1,0,0:0:0:0:
146,178,55610,1,12,0:0:0:0:
131,188,55768,1,0,0:0:0:0:
129,188,56084,1,0,0:0:0:0:
129,188,56163,1,0,0:0:0:0:
138,184,56242,1,12,0:0:0:0:
134,191,56400,1,0,0:0:0:0:
137,184,56479,1,12,0:0:0:0:
132,191,56637,1,0,0:0:0:0:
131,188,56716,1,12,0:0:0:0:
129,188,56873,1,8,0:0:0:0:
129,188,57031,1,0,0:0:0:0:
129,188,57110,1,0,0:0:0:0:
129,188,57189,1,8,0:0:0:0:
134,191,57347,1,0,0:0:0:0:
132,191,57505,1,8,0:0:0:0:
131,188,57663,1,8,0:0:0:0:
129,188,57742,1,0,0:0:0:0:
131,188,57821,1,8,0:0:0:0:
129,188,58137,1,12,0:0:0:0:
129,187,58295,1,0,0:0:0:0:
129,187,58452,1,0,0:0:0:0:
129,187,58531,1,8,0:0:0:0:
131,188,58610,1,0,0:0:0:0:
131,188,58689,1,0,0:0:0:0:
129,188,58768,1,8,0:0:0:0:
129,188,58926,1,0,0:0:0:0:
129,188,59005,1,8,0:0:0:0:
129,188,59163,1,0,0:0:0:0:
129,187,59242,1,8,0:0:0:0:
129,187,59400,1,8,0:0:0:0:
129,187,59558,1,0,0:0:0:0:
126,185,59716,1,8,0:0:0:0:
129,188,59795,1,8,0:0:0:0:
129,188,59873,1,8,0:0:0:0:
129,188,59952,1,0,0:0:0:0:
129,188,60031,1,8,0:0:0:0:
129,188,60189,1,0,0:0:0:0:
129,187,60268,1,8,0:0:0:0:
129,187,60426,1,8,0:0:0:0:
129,187,60505,1,8,0:0:0:0:
126,185,60663,1,8,0:0:0:0:
136,185,60821,1,0,0:0:0:0:
134,185,60900,1,0,0:0:0:0:
119,182,60979,1,8,0:0:0:0:
120,182,61137,1,0,0:0:0:0:
120,182,61216,1,0,0:0:0:0:
120,182,61295,1,8,0:0:0:0:
120,182,61373,1,0,0:0:0:0:
124,186,61452,1,8,0:0:0:0:
122,182,61505,1,8,0:0:0:0:
124,186,61558,1,8,0:0:0:0:
126,185,61610,1,0,0:0:0:0:
126,185,61689,1,0,0:0:0:0:
124,186,61768,1,8,0:0:0:0:
124,186,61821,1,8,0:0:0:0:
126,182,61873,1,8,0:0:0:0:
124,186,61926,1,0,0:0:0:0:
141,189,62084,1,0,0:0:0:0:
143,190,62242,1,8,0:0:0:0:
143,190,62400,1,0,0:0:0:0:
143,190,62479,1,0,0:0:0:0:
143,190,62558,1,8,0:0:0:0:
143,190,62716,1,0,0:0:0:0:
143,190,62873,1,8,0:0:0:0:
143,190,63189,1,12,0:0:0:0:
143,190,63347,1,0,0:0:0:0:
143,190,63505,1,0,0:0:0:0:
143,190,63584,1,8,0:0:0:0:
143,190,63663,1,0,0:0:0:0:
143,190,63742,1,0,0:0:0:0:
143,190,63821,1,8,0:0:0:0:
143,190,63979,1,0,0:0:0:0:
143,190,64058,1,8,0:0:0:0:
143,190,64216,1,8,0:0:0:0:
143,190,64295,1,0,0:0:0:0:
143,190,64452,1,8,0:0:0:0:
143,190,64531,1,0,0:0:0:0:
143,190,64610,1,0,0:0:0:0:
143,190,64689,1,8,0:0:0:0:
143,190,64847,1,8,0:0:0:0:
143,190,64926,1,0,0:0:0:0:
143,190,65084,1,8,0:0:0:0:
159,182,65242,1,0,0:0:0:0:
159,182,65321,1,8,0:0:0:0:
159,182,65400,1,0,0:0:0:0:
159,182,65479,1,0,0:0:0:0:
159,182,65558,1,8,0:0:0:0:
159,182,65637,1,8,0:0:0:0:
159,182,65716,1,8,0:0:0:0:
161,183,65873,1,0,0:0:0:0:
161,183,66031,1,8,0:0:0:0:
161,183,66110,1,8,0:0:0:0:
159,182,66189,1,0,0:0:0:0:
159,182,66268,1,8,0:0:0:0:
159,182,66347,1,0,0:0:0:0:
159,182,66505,1,0,0:0:0:0:
159,182,66584,1,8,0:0:0:0:
159,182,66742,1,8,0:0:0:0:
161,183,66821,1,8,0:0:0:0:
161,183,66979,1,8,0:0:0:0:
161,183,67058,1,8,0:0:0:0:
161,183,67137,1,8,0:0:0:0:
159,182,67216,1,0,0:0:0:0:
154,187,67373,1,0,0:0:0:0:
155,188,67452,1,8,0:0:0:0:
155,188,67531,1,8,0:0:0:0:
155,188,67610,1,0,0:0:0:0:
155,188,67768,1,0,0:0:0:0:
155,188,67847,1,0,0:0:0:0:
155,188,67926,1,8,0:0:0:0:
155,188,68005,1,0,0:0:0:0:
155,188,68084,1,8,0:0:0:0:
155,188,68163,1,8,0:0:0:0:
155,188,68242,1,8,0:0:0:0:
154,187,68400,1,0,0:0:0:0:
155,188,68558,1,0,0:0:0:0:
155,188,68637,1,8,0:0:0:0:
155,188,68716,1,0,0:0:0:0:
155,188,68795,1,0,0:0:0:0:
155,188,68873,1,8,0:0:0:0:
155,188,69031,1,0,0:0:0:0:
155,188,69110,1,8,0:0:0:0:
155,188,69268,1,8,0:0:0:0:
145,198,69347,1,0,0:0:0:0:
152,176,69505,1,8,0:0:0:0:
152,176,69584,1,8,0:0:0:0:
152,176,69663,1,8,0:0:0:0:
152,176,69742,1,0,0:0:0:0:
152,176,69900,1,0,0:0:0:0:
152,176,69979,1,8,0:0:0:0:
152,176,70058,1,8,0:0:0:0:
152,176,70137,1,0,0:0:0:0:
152,176,70295,1,8,0:0:0:0:
152,176,70373,1,0,0:0:0:0:
152,176,70452,1,8,0:0:0:0:
152,176,70531,1,8,0:0:0:0:
152,176,70610,1,0,0:0:0:0:
152,176,70689,1,8,0:0:0:0:
152,176,70768,1,0,0:0:0:0:
152,176,70926,1,8,0:0:0:0:
152,176,71084,1,0,0:0:0:0:
152,176,71163,1,0,0:0:0:0:
152,176,71242,1,8,0:0:0:0:
152,176,71321,1,0,0:0:0:0:
152,176,71400,1,8,0:0:0:0:
152,176,71558,1,0,0:0:0:0:
152,176,71637,1,8,0:0:0:0:
152,176,71795,1,8,0:0:0:0:
152,176,71873,1,0,0:0:0:0:
152,176,72031,1,12,0:0:0:0:
152,176,72189,1,0,0:0:0:0:
152,176,72268,1,0,0:0:0:0:
152,176,72347,1,8,0:0:0:0:
152,176,72505,1,8,0:0:0:0:
152,176,72663,1,8,0:0:0:0:
152,176,72742,1,8,0:0:0:0:
152,176,72821,1,0,0:0:0:0:
152,176,72900,1,0,0:0:0:0:
152,176,72979,1,8,0:0:0:0:
152,176,73137,1,0,0:0:0:0:
152,176,73216,1,0,0:0:0:0:
152,176,73295,1,12,0:0:0:0:
143,190,73452,1,0,0:0:0:0:
143,190,73610,1,0,0:0:0:0:
143,190,73689,1,8,0:0:0:0:
143,190,73768,1,0,0:0:0:0:
143,190,73847,1,0,0:0:0:0:
143,190,73926,1,8,0:0:0:0:
143,190,74084,1,0,0:0:0:0:
143,190,74163,1,8,0:0:0:0:
143,190,74321,1,8,0:0:0:0:
143,190,74400,1,0,0:0:0:0:
143,190,74557,1,8,0:0:0:0:
143,190,74636,1,0,0:0:0:0:
143,190,74715,1,0,0:0:0:0:
143,190,74794,1,8,0:0:0:0:
143,190,74952,1,8,0:0:0:0:
143,190,75031,1,0,0:0:0:0:
143,190,75189,1,8,0:0:0:0:
159,182,75347,1,0,0:0:0:0:
159,182,75426,1,8,0:0:0:0:
159,182,75505,1,0,0:0:0:0:
159,182,75584,1,0,0:0:0:0:
159,182,75663,1,8,0:0:0:0:
159,182,75742,1,8,0:0:0:0:
159,182,75821,1,8,0:0:0:0:
161,183,75978,1,0,0:0:0:0:
161,183,76136,1,8,0:0:0:0:
161,183,76215,1,8,0:0:0:0:
159,182,76294,1,0,0:0:0:0:
159,182,76373,1,8,0:0:0:0:
159,182,76452,1,0,0:0:0:0:
159,182,76610,1,0,0:0:0:0:
159,182,76689,1,8,0:0:0:0:
159,182,76847,1,8,0:0:0:0:
161,183,76926,1,8,0:0:0:0:
161,183,77084,1,8,0:0:0:0:
161,183,77163,1,8,0:0:0:0:
161,183,77242,1,8,0:0:0:0:
159,182,77321,1,0,0:0:0:0:
154,187,77478,1,0,0:0:0:0:
155,188,77557,1,8,0:0:0:0:
155,188,77636,1,8,0:0:0:0:
155,188,77715,1,0,0:0:0:0:
155,188,77873,1,0,0:0:0:0:
155,188,77952,1,0,0:0:0:0:
155,188,78031,1,8,0:0:0:0:
155,188,78110,1,0,0:0:0:0:
155,188,78189,1,8,0:0:0:0:
155,188,78268,1,8,0:0:0:0:
155,188,78347,1,8,0:0:0:0:
154,187,78505,1,0,0:0:0:0:
155,188,78663,1,0,0:0:0:0:
155,188,78742,1,8,0:0:0:0:
155,188,78821,1,0,0:0:0:0:
155,188,78900,1,0,0:0:0:0:
155,188,78978,1,8,0:0:0:0:
155,188,79136,1,0,0:0:0:0:
155,188,79215,1,8,0:0:0:0:
155,188,79373,1,8,0:0:0:0:
145,198,79452,1,0,0:0:0:0:
152,176,79610,1,8,0:0:0:0:
152,176,79689,1,0,0:0:0:0:
152,176,79768,1,0,0:0:0:0:
152,176,79847,1,8,0:0:0:0:
152,176,80005,1,8,0:0:0:0:
152,176,80084,1,0,0:0:0:0:
152,176,80242,1,8,0:0:0:0:
152,176,80400,1,8,0:0:0:0:
152,176,80479,1,8,0:0:0:0:
152,176,80557,1,0,0:0:0:0:
152,176,80636,1,8,0:0:0:0:
152,176,80715,1,0,0:0:0:0:
152,176,80794,1,0,0:0:0:0:
152,176,80873,1,8,0:0:0:0:
152,176,81031,1,8,0:0:0:0:
152,176,81189,1,0,0:0:0:0:
152,176,81268,1,0,0:0:0:0:
152,176,81347,1,8,0:0:0:0:
152,176,81426,1,0,0:0:0:0:
152,176,81505,1,8,0:0:0:0:
152,176,81663,1,0,0:0:0:0:
152,176,81742,1,8,0:0:0:0:
152,176,81900,1,8,0:0:0:0:
152,176,81978,1,0,0:0:0:0:
158,180,82137,1,8,0:0:0:0:
157,180,82295,1,0,0:0:0:0:
157,180,82452,1,8,0:0:0:0:
157,180,82610,1,8,0:0:0:0:
157,180,82689,1,8,0:0:0:0:
157,180,82768,1,0,0:0:0:0:
157,180,82847,1,8,0:0:0:0:
157,180,82926,1,0,0:0:0:0:
158,180,83084,1,12,0:0:0:0:
157,180,83400,1,8,0:0:0:0:
157,180,83558,1,0,0:0:0:0:
153,188,83716,1,0,0:0:0:0:
157,180,83873,1,0,0:0:0:0:
157,180,83952,1,0,0:0:0:0:
158,180,84031,1,8,0:0:0:0:
157,180,84268,1,8,0:0:0:0:
157,180,84505,1,8,0:0:0:0:
157,180,84663,1,0,0:0:0:0:
157,180,85137,1,0,0:0:0:0:
158,180,85216,1,0,0:0:0:0:
157,180,85295,1,8,0:0:0:0:
157,180,85453,1,8,0:0:0:0:
157,180,85610,1,0,0:0:0:0:
157,180,85768,1,8,0:0:0:0:
157,180,85926,1,0,0:0:0:0:
168,174,86400,1,8,0:0:0:0:
170,175,86716,1,8,0:0:0:0:
171,175,86873,1,8,0:0:0:0:
168,174,87031,1,0,0:0:0:0:
170,175,87663,1,0,0:0:0:0:
171,175,87821,1,8,0:0:0:0:
168,174,87979,1,0,0:0:0:0:
170,175,88137,1,0,0:0:0:0:
170,175,88295,1,0,0:0:0:0:
170,175,88373,1,0,0:0:0:0:
170,175,88452,1,12,0:0:0:0:
170,175,88610,1,8,0:0:0:0:
171,175,88768,1,0,0:0:0:0:
168,174,88926,1,0,0:0:0:0:
168,174,89005,1,0,0:0:0:0:
170,175,89084,1,8,0:0:0:0:
180,182,89321,1,8,0:0:0:0:
180,182,89558,1,8,0:0:0:0:
180,182,89716,1,0,0:0:0:0:
180,182,90189,1,0,0:0:0:0:
180,182,90268,1,0,0:0:0:0:
180,182,90347,1,8,0:0:0:0:
180,182,90505,1,0,0:0:0:0:
180,182,90663,1,8,0:0:0:0:
179,187,90742,1,8,0:0:0:0:
179,187,90821,1,8,0:0:0:0:
180,182,90979,1,8,0:0:0:0:
153,176,91137,1,8,0:0:0:0:
158,176,91295,1,0,0:0:0:0:
159,176,91452,1,8,0:0:0:0:
168,184,91610,1,8,0:0:0:0:
168,184,91847,1,0,0:0:0:0:
168,184,92084,1,0,0:0:0:0:
168,184,92163,1,0,0:0:0:0:
168,184,92242,1,8,0:0:0:0:
168,184,93031,1,0,0:0:0:0:
168,184,93189,1,12,0:0:0:0:
171,177,93505,1,12,0:0:0:0:
168,184,93663,1,0,0:0:0:0:
168,184,93821,1,0,0:0:0:0:
168,184,93900,1,8,0:0:0:0:
168,184,93979,1,0,0:0:0:0:
168,184,94058,1,0,0:0:0:0:
168,184,94137,1,8,0:0:0:0:
169,187,94295,1,0,0:0:0:0:
169,187,94373,1,8,0:0:0:0:
169,187,94531,1,8,0:0:0:0:
168,184,94610,1,0,0:0:0:0:
168,184,94689,1,0,0:0:0:0:
168,184,94768,1,8,0:0:0:0:
168,184,94926,1,8,0:0:0:0:
168,184,95005,1,0,0:0:0:0:
168,184,95163,1,0,0:0:0:0:
169,187,95242,1,0,0:0:0:0:
169,187,95400,1,8,0:0:0:0:
173,181,95558,1,0,0:0:0:0:
173,181,95610,1,0,0:0:0:0:
173,181,95663,1,0,0:0:0:0:
173,181,95716,1,8,0:0:0:0:
173,181,95873,1,8,0:0:0:0:
173,181,95926,1,0,0:0:0:0:
173,181,95979,1,0,0:0:0:0:
173,181,96031,1,8,0:0:0:0:
168,184,96189,1,0,0:0:0:0:
171,180,96347,1,0,0:0:0:0:
171,180,96426,1,8,0:0:0:0:
173,181,96505,1,0,0:0:0:0:
173,181,96584,1,0,0:0:0:0:
173,181,96663,1,8,0:0:0:0:
173,181,96821,1,0,0:0:0:0:
173,181,96900,1,8,0:0:0:0:
173,181,97058,1,8,0:0:0:0:
168,184,97137,1,8,0:0:0:0:
171,180,97295,1,8,0:0:0:0:
171,180,97373,1,8,0:0:0:0:
171,180,97452,1,8,0:0:0:0:
173,181,97531,1,0,0:0:0:0:
173,181,97689,1,0,0:0:0:0:
173,181,97768,1,8,0:0:0:0:
173,181,97847,1,8,0:0:0:0:
173,181,97926,1,0,0:0:0:0:
173,181,98084,1,8,0:0:0:0:
176,178,98163,1,0,0:0:0:0:
176,178,98242,1,8,0:0:0:0:
176,178,98321,1,8,0:0:0:0:
176,178,98400,1,0,0:0:0:0:
176,178,98479,1,0,0:0:0:0:
173,181,98558,1,8,0:0:0:0:
184,177,98716,1,0,0:0:0:0:
173,181,98873,1,0,0:0:0:0:
173,181,98952,1,8,0:0:0:0:
173,181,99031,1,0,0:0:0:0:
173,181,99110,1,0,0:0:0:0:
168,180,99189,1,12,0:0:0:0:
168,180,99426,1,12,0:0:0:0:
176,181,99663,1,12,0:0:0:0:
173,181,99821,1,8,0:0:0:0:
173,181,99900,1,0,0:0:0:0:
173,181,99979,1,0,0:0:0:0:
173,181,100058,1,8,0:0:0:0:
176,181,100216,1,8,0:0:0:0:
176,181,100295,1,0,0:0:0:0:
176,181,100452,1,8,0:0:0:0:
172,175,100610,1,0,0:0:0:0:
172,175,100689,1,0,0:0:0:0:
172,175,100768,1,8,0:0:0:0:
173,175,100847,1,0,0:0:0:0:
175,174,100926,1,8,0:0:0:0:
175,174,101005,1,8,0:0:0:0:
175,175,101084,1,0,0:0:0:0:
175,175,101242,1,8,0:0:0:0:
175,175,101400,1,0,0:0:0:0:
175,175,101479,1,8,0:0:0:0:
172,175,101558,1,0,0:0:0:0:
172,175,101637,1,0,0:0:0:0:
172,175,101716,1,8,0:0:0:0:
172,175,101795,1,0,0:0:0:0:
173,175,101873,1,8,0:0:0:0:
175,174,101952,1,8,0:0:0:0:
175,174,102031,1,0,0:0:0:0:
175,175,102110,1,0,0:0:0:0:
175,175,102189,1,8,0:0:0:0:
175,175,102268,1,0,0:0:0:0:
175,175,102347,1,8,0:0:0:0:
164,181,102426,1,0,0:0:0:0:
175,175,102505,1,8,0:0:0:0:
163,182,102584,1,0,0:0:0:0:
158,178,102663,1,8,0:0:0:0:
157,180,102742,1,8,0:0:0:0:
172,175,102821,1,0,0:0:0:0:
173,175,102900,1,0,0:0:0:0:
157,182,102979,1,8,0:0:0:0:
175,174,103031,1,8,0:0:0:0:
175,175,103084,1,8,0:0:0:0:
175,175,103137,1,0,0:0:0:0:
175,175,103216,1,0,0:0:0:0:
175,175,103295,1,12,0:0:0:0:
186,174,103610,1,0,0:0:0:0:
190,173,103768,1,0,0:0:0:0:
190,173,103847,1,0,0:0:0:0:
190,173,103926,1,12,0:0:0:0:
190,173,104084,1,8,0:0:0:0:
190,173,104163,1,0,0:0:0:0:
190,173,104242,1,8,0:0:0:0:
190,173,104321,1,0,0:0:0:0:
190,174,104400,1,8,0:0:0:0:
190,174,104479,1,8,0:0:0:0:
186,174,104558,1,0,0:0:0:0:
186,174,104637,1,0,0:0:0:0:
190,173,104716,1,8,0:0:0:0:
190,173,104873,1,8,0:0:0:0:
195,174,105031,1,0,0:0:0:0:
190,173,105110,1,8,0:0:0:0:
190,173,105189,1,0,0:0:0:0:
196,171,105347,1,0,0:0:0:0:
196,171,105426,1,0,0:0:0:0:
196,171,105505,1,8,0:0:0:0:
197,171,105584,1,0,0:0:0:0:
197,171,105663,1,8,0:0:0:0:
195,168,105742,1,0,0:0:0:0:
195,168,105821,1,8,0:0:0:0:
195,169,105900,1,8,0:0:0:0:
195,174,105979,1,0,0:0:0:0:
195,174,106058,1,8,0:0:0:0:
201,179,106137,1,0,0:0:0:0:
196,171,106295,1,0,0:0:0:0:
196,171,106373,1,0,0:0:0:0:
196,171,106452,1,8,0:0:0:0:
202,174,106610,1,8,0:0:0:0:
203,173,106689,1,0,0:0:0:0:
203,174,106768,1,8,0:0:0:0:
203,174,106926,1,0,0:0:0:0:
203,174,107084,1,8,0:0:0:0:
201,179,107163,1,8,0:0:0:0:
203,174,107242,1,0,0:0:0:0:
203,174,107400,1,8,0:0:0:0:
211,167,107479,1,8,0:0:0:0:
210,169,107558,1,8,0:0:0:0:
210,169,107637,1,0,0:0:0:0:
210,169,107795,1,0,0:0:0:0:
210,169,107873,1,8,0:0:0:0:
210,169,108031,1,0,0:0:0:0:
203,174,108110,1,0,0:0:0:0:
206,171,108189,1,8,0:0:0:0:
203,174,108268,1,0,0:0:0:0:
203,174,108347,1,8,0:0:0:0:
203,174,108426,1,8,0:0:0:0:
204,173,108505,1,0,0:0:0:0:
204,173,108584,1,0,0:0:0:0:
204,173,108663,1,8,0:0:0:0:
205,172,108821,1,0,0:0:0:0:
205,172,108900,1,0,0:0:0:0:
205,172,108979,1,8,0:0:0:0:
203,174,109137,1,0,0:0:0:0:
205,180,109216,1,8,0:0:0:0:
205,180,109295,1,0,0:0:0:0:
205,180,109373,1,0,0:0:0:0:
205,180,109452,1,8,0:0:0:0:
205,180,109531,1,0,0:0:0:0:
205,180,109610,1,8,0:0:0:0:
205,180,109689,1,8,0:0:0:0:
205,180,109768,1,0,0:0:0:0:
205,180,109847,1,0,0:0:0:0:
205,180,109926,1,8,0:0:0:0:
205,180,110084,1,8,0:0:0:0:
205,180,110163,1,0,0:0:0:0:
205,180,110242,1,8,0:0:0:0:
205,180,110400,1,0,0:0:0:0:
205,180,110558,1,8,0:0:0:0:
205,180,110637,1,0,0:0:0:0:
205,180,110716,1,8,0:0:0:0:
205,180,110795,1,0,0:0:0:0:
205,180,110873,1,8,0:0:0:0:
205,180,110952,1,8,0:0:0:0:
205,180,111031,1,0,0:0:0:0:
205,180,111110,1,0,0:0:0:0:
205,180,111189,1,0,0:0:0:0:
204,185,111347,1,0,0:0:0:0:
204,185,111505,1,8,0:0:0:0:
204,185,111663,1,0,0:0:0:0:
204,185,111742,1,0,0:0:0:0:
204,185,111821,1,8,0:0:0:0:
204,185,111900,1,8,0:0:0:0:
204,185,111979,1,8,0:0:0:0:
204,185,112058,1,8,0:0:0:0:
204,185,112137,1,0,0:0:0:0:
204,185,112295,1,8,0:0:0:0:
204,185,112452,1,0,0:0:0:0:
204,185,112531,1,0,0:0:0:0:
204,185,112610,1,0,0:0:0:0:
204,185,112689,1,8,0:0:0:0:
204,185,112847,1,8,0:0:0:0:
204,185,112926,1,0,0:0:0:0:
204,185,113084,1,8,0:0:0:0:
204,185,113242,1,0,0:0:0:0:
204,185,113321,1,0,0:0:0:0:
210,185,113400,1,8,0:0:0:0:
210,185,113558,1,8,0:0:0:0:
210,184,113716,1,4,0:0:0:0:
210,184,113873,1,0,0:0:0:0:
204,185,113952,1,0,0:0:0:0:
204,185,114031,1,8,0:0:0:0:
204,185,114189,1,8,0:0:0:0:
204,185,114268,1,0,0:0:0:0:
204,185,114347,1,8,0:0:0:0:
201,190,114505,1,0,0:0:0:0:
210,184,114663,1,8,0:0:0:0:
210,184,114742,1,0,0:0:0:0:
210,184,114821,1,8,0:0:0:0:
210,184,114900,1,8,0:0:0:0:
204,185,114979,1,0,0:0:0:0:
205,191,115137,1,0,0:0:0:0:
205,191,115216,1,0,0:0:0:0:
205,191,115295,1,8,0:0:0:0:
201,190,115452,1,0,0:0:0:0:
205,191,115610,1,8,0:0:0:0:
205,191,115689,1,0,0:0:0:0:
205,191,115768,1,8,0:0:0:0:
205,191,115847,1,0,0:0:0:0:
205,191,115926,1,8,0:0:0:0:
205,191,116005,1,8,0:0:0:0:
205,191,116084,1,0,0:0:0:0:
205,191,116242,1,8,0:0:0:0:
206,197,116400,1,0,0:0:0:0:
209,197,116479,1,0,0:0:0:0:
206,197,116558,1,8,0:0:0:0:
206,197,116716,1,0,0:0:0:0:
206,197,116873,1,8,0:0:0:0:
206,197,117031,1,8,0:0:0:0:
206,197,117110,1,8,0:0:0:0:
206,197,117189,1,0,0:0:0:0:
206,197,117268,1,0,0:0:0:0:
206,197,117347,1,8,0:0:0:0:
209,197,117505,1,8,0:0:0:0:
206,197,117584,1,0,0:0:0:0:
206,197,117663,1,0,0:0:0:0:
206,197,117742,1,8,0:0:0:0:
206,197,117900,1,8,0:0:0:0:
206,197,117979,1,0,0:0:0:0:
206,197,118137,1,8,0:0:0:0:
213,205,118295,1,0,0:0:0:0:
213,205,118373,1,0,0:0:0:0:
213,205,118452,1,8,0:0:0:0:
213,205,118531,1,8,0:0:0:0:
213,205,118610,1,8,0:0:0:0:
213,205,118689,1,8,0:0:0:0:
213,205,118768,1,4,0:0:0:0:
213,204,118926,1,8,0:0:0:0:
213,204,119005,1,0,0:0:0:0:
213,204,119084,1,8,0:0:0:0:
213,205,119242,1,0,0:0:0:0:
213,205,119321,1,0,0:0:0:0:
213,205,119400,1,8,0:0:0:0:
213,205,119558,1,8,0:0:0:0:
213,205,119637,1,8,0:0:0:0:
213,205,119716,1,0,0:0:0:0:
213,205,119795,1,8,0:0:0:0:
213,204,119873,1,0,0:0:0:0:
213,204,120031,1,8,0:0:0:0:
213,205,120189,1,0,0:0:0:0:
213,205,120268,1,0,0:0:0:0:
213,205,120347,1,8,0:0:0:0:
213,205,120505,1,8,0:0:0:0:
213,205,120584,1,0,0:0:0:0:
213,205,120663,1,8,0:0:0:0:
213,205,120821,1,0,0:0:0:0:
213,204,120900,1,8,0:0:0:0:
213,205,121058,1,8,0:0:0:0:
213,204,121137,1,0,0:0:0:0:
222,212,121216,1,0,0:0:0:0:
222,212,121295,1,8,0:0:0:0:
222,212,121452,1,0,0:0:0:0:
222,212,121531,1,8,0:0:0:0:
222,212,121689,1,8,0:0:0:0:
222,212,121768,1,0,0:0:0:0:
222,212,121926,1,8,0:0:0:0:
222,212,122084,1,8,0:0:0:0:
222,212,122163,1,8,0:0:0:0:
222,212,122242,1,0,0:0:0:0:
222,212,122321,1,8,0:0:0:0:
222,212,122400,1,0,0:0:0:0:
222,212,122479,1,0,0:0:0:0:
222,212,122558,1,8,0:0:0:0:
222,212,122637,1,8,0:0:0:0:
222,212,122716,1,8,0:0:0:0:
222,212,122795,1,0,0:0:0:0:
222,212,122952,1,0,0:0:0:0:
222,212,123031,1,8,0:0:0:0:
222,212,123189,1,8,0:0:0:0:
222,212,123268,1,0,0:0:0:0:
222,212,123347,1,0,0:0:0:0:
222,212,123426,1,0,0:0:0:0:
222,212,123505,1,8,0:0:0:0:
222,212,123821,1,4,0:0:0:0:
