osu file format v14

[General]
AudioFilename: audio.mp3
AudioLeadIn: 0
PreviewTime: 63133
Countdown: 0
SampleSet: Normal
StackLeniency: 0.7
Mode: 1
LetterboxInBreaks: 0
WidescreenStoryboard: 0

[Editor]
DistanceSpacing: 1.6
BeatDivisor: 4
GridSize: 8
TimelineZoom: 2.2

[Metadata]
Title:VEZZELiX
TitleUnicode:VEZZELiX
Artist:Reku Mochizuki
ArtistUnicode:Reku Mochizuki
Creator:Idealism
Version:Futsuu
Source:
Tags:BOFXVI BMS of fighters xvi 16 -NEO DYSTOPIA- neo dystopia hardcore j-core jcore arcadecore electronic instrumental re94c rekumzck neofuturism
BeatmapID:2899630
BeatmapSetID:1406171

[Difficulty]
HPDrainRate:7
CircleSize:5
OverallDifficulty:3
ApproachRate:5
SliderMultiplier:1.4
SliderTickRate:1

[Events]
//Background and Video events
0,0,"VEZZELiX.png",0,0
//Break Periods
//Storyboard Layer 0 (Background)
//Storyboard Layer 1 (Fail)
//Storyboard Layer 2 (Pass)
//Storyboard Layer 3 (Foreground)
//Storyboard Layer 4 (Overlay)
//Storyboard Sound Samples

[TimingPoints]
1295,315.789473684211,4,1,0,65,1,0
1295,-100,4,1,0,65,0,0
2558,-100,4,1,0,80,0,0
12663,-100,4,1,0,65,0,0
12979,-100,4,1,0,80,0,0
32873,-100,4,1,0,65,0,0
42979,-100,4,1,0,80,0,0
63189,-100,4,1,0,90,0,1
83400,-100,4,1,0,65,0,0
88452,-100,4,1,0,80,0,0
93189,-100,4,1,0,80,0,0
103926,-100,4,1,0,90,0,1
106137,-100,4,1,0,90,0,0
108663,-100,4,1,0,90,0,1
111189,-100,4,1,0,90,0,0
113716,-100,4,1,0,90,0,1
123821,-100,4,1,0,90,0,0

[HitObjects]
250,189,1295,5,8,0:0:0:0:
250,189,1610,1,8,0:0:0:0:
250,189,1768,1,0,0:0:0:0:
250,189,1926,1,0,0:0:0:0:
250,189,2084,1,0,0:0:0:0:
250,189,2242,1,8,0:0:0:0:
250,189,2558,1,12,0:0:0:0:
244,191,3189,1,8,0:0:0:0:
243,191,3426,1,8,0:0:0:0:
243,191,3663,1,8,0:0:0:0:
245,196,3821,1,8,0:0:0:0:
245,196,4295,1,0,0:0:0:0:
245,196,4452,1,8,0:0:0:0:
245,196,4768,1,0,0:0:0:0:
245,196,5084,1,12,0:0:0:0:
245,196,5558,1,0,0:0:0:0:
245,196,5716,1,8,0:0:0:0:
245,196,5952,1,8,0:0:0:0:
245,196,6189,1,8,0:0:0:0:
245,196,6347,1,8,0:0:0:0:
245,196,6663,1,0,0:0:0:0:
245,196,6979,1,8,0:0:0:0:
231,200,7610,1,12,0:0:0:0:
226,197,8084,1,0,0:0:0:0:
226,197,8242,1,0,0:0:0:0:
225,197,8479,1,8,0:0:0:0:
226,197,8716,1,8,0:0:0:0:
226,197,8873,1,0,0:0:0:0:
226,197,9347,1,0,0:0:0:0:
225,197,9505,1,8,0:0:0:0:
226,197,9821,1,0,0:0:0:0:
235,198,9979,1,8,0:0:0:0:
226,197,10137,1,0,0:0:0:0:
225,197,10452,1,0,0:0:0:0:
224,197,10610,1,0,0:0:0:0:
226,197,10768,1,8,0:0:0:0:
226,197,11005,1,8,0:0:0:0:
226,197,11242,1,8,0:0:0:0:
225,197,11400,1,0,0:0:0:0:
224,197,12031,1,8,0:0:0:0:
225,197,12347,1,8,0:0:0:0:
226,202,12663,1,0,0:0:0:0:
221,202,12979,1,12,0:0:0:0:
226,202,13295,1,8,0:0:0:0:
226,202,13452,1,8,0:0:0:0:
226,202,13610,1,0,0:0:0:0:
221,202,13926,1,8,0:0:0:0:
215,202,14242,1,0,0:0:0:0:
214,202,14558,1,8,0:0:0:0:
213,202,14716,1,8,0:0:0:0:
212,201,14873,1,0,0:0:0:0:
215,202,15031,1,8,0:0:0:0:
210,203,15189,1,0,0:0:0:0:
213,202,15821,1,8,0:0:0:0:
199,200,15979,1,0,0:0:0:0:
197,199,16137,1,8,0:0:0:0:
197,199,16452,1,8,0:0:0:0:
193,197,16768,1,8,0:0:0:0:
193,197,16926,1,0,0:0:0:0:
197,199,17084,1,8,0:0:0:0:
192,197,17242,1,8,0:0:0:0:
192,197,17400,1,0,0:0:0:0:
193,197,17716,1,8,0:0:0:0:
192,197,18347,1,8,0:0:0:0:
192,197,18505,1,0,0:0:0:0:
189,192,18663,1,8,0:0:0:0:
189,192,18979,1,0,0:0:0:0:
186,191,19295,1,8,0:0:0:0:
196,194,19610,1,8,0:0:0:0:
194,193,19768,1,8,0:0:0:0:
189,192,19926,1,0,0:0:0:0:
186,191,20242,1,8,0:0:0:0:
192,183,20558,1,0,0:0:0:0:
186,177,20873,1,8,0:0:0:0:
186,177,21031,1,0,0:0:0:0:
185,177,21189,1,8,0:0:0:0:
176,182,21505,1,8,0:0:0:0:
177,182,21821,1,8,0:0:0:0:
177,182,21979,1,0,0:0:0:0:
176,182,22137,1,8,0:0:0:0:
176,182,22295,1,8,0:0:0:0:
176,182,22452,1,0,0:0:0:0:
178,176,22768,1,12,0:0:0:0:
178,176,23400,1,8,0:0:0:0:
160,167,23558,1,0,0:0:0:0:
164,169,23716,1,0,0:0:0:0:
164,169,23873,1,0,0:0:0:0:
164,169,24031,1,8,0:0:0:0:
164,169,24347,1,8,0:0:0:0:
164,169,24663,1,8,0:0:0:0:
164,169,24821,1,8,0:0:0:0:
164,169,24979,1,0,0:0:0:0:
164,169,25295,1,8,0:0:0:0:
164,169,25926,1,8,0:0:0:0:
164,169,26084,1,0,0:0:0:0:
164,169,26242,1,0,0:0:0:0:
160,171,26400,1,0,0:0:0:0:
160,171,26558,1,8,0:0:0:0:
159,181,26795,1,8,0:0:0:0:
159,182,27031,1,0,0:0:0:0:
160,182,27189,1,8,0:0:0:0:
159,176,27821,1,4,0:0:0:0:
154,183,28452,1,12,0:0:0:0:
158,181,28768,1,8,0:0:0:0:
154,183,28926,1,0,0:0:0:0:
154,183,29084,1,12,0:0:0:0:
160,172,29716,1,12,0:0:0:0:
159,172,30189,1,8,0:0:0:0:
160,172,30347,1,4,0:0:0:0:
160,172,30821,1,8,0:0:0:0:
159,172,30979,1,0,0:0:0:0:
159,172,31137,1,8,0:0:0:0:
160,172,31295,1,0,0:0:0:0:
160,172,31610,1,12,0:0:0:0:
159,172,32084,1,0,0:0:0:0:
160,172,32242,1,8,0:0:0:0:
151,167,32873,1,12,0:0:0:0:
154,173,33347,1,0,0:0:0:0:
154,173,33505,1,0,0:0:0:0:
152,172,33742,1,8,0:0:0:0:
154,173,34137,1,0,0:0:0:0:
152,172,34610,1,0,0:0:0:0:
155,175,34768,1,8,0:0:0:0:
154,173,35084,1,0,0:0:0:0:
152,172,35400,1,0,0:0:0:0:
149,181,35873,1,8,0:0:0:0:
150,181,36189,1,8,0:0:0:0:
150,181,36347,1,8,0:0:0:0:
149,181,36505,1,0,0:0:0:0:
155,183,37137,1,0,0:0:0:0:
150,181,37295,1,8,0:0:0:0:
149,181,37452,1,0,0:0:0:0:
149,184,37610,1,0,0:0:0:0:
155,183,37926,1,8,0:0:0:0:
154,183,38400,1,0,0:0:0:0:
154,183,38558,1,0,0:0:0:0:
149,184,38795,1,8,0:0:0:0:
154,183,39189,1,0,0:0:0:0:
176,186,39663,1,0,0:0:0:0:
176,186,39821,1,8,0:0:0:0:
176,186,40452,1,8,0:0:0:0:
172,179,40768,1,0,0:0:0:0:
171,179,41084,1,8,0:0:0:0:
170,179,41321,1,8,0:0:0:0:
172,179,41558,1,0,0:0:0:0:
172,179,41716,1,8,0:0:0:0:
176,176,42347,1,0,0:0:0:0:
173,174,42505,1,0,0:0:0:0:
173,174,42663,1,12,0:0:0:0:
172,174,42979,1,12,0:0:0:0:
167,173,43452,1,0,0:0:0:0:
167,173,43610,1,0,0:0:0:0:
166,172,43847,1,8,0:0:0:0:
166,175,44084,1,8,0:0:0:0:
166,175,44242,1,0,0:0:0:0:
166,172,44716,1,0,0:0:0:0:
166,172,44873,1,8,0:0:0:0:
156,173,45505,1,8,0:0:0:0:
156,180,45663,1,0,0:0:0:0:
160,175,45979,1,0,0:0:0:0:
160,175,46137,1,0,0:0:0:0:
160,175,46373,1,8,0:0:0:0:
158,174,46610,1,8,0:0:0:0:
160,175,46768,1,8,0:0:0:0:
160,175,47242,1,8,0:0:0:0:
160,175,47400,1,0,0:0:0:0:
160,175,48031,1,12,0:0:0:0:
156,173,48505,1,0,0:0:0:0:
152,173,48663,1,8,0:0:0:0:
151,173,48900,1,8,0:0:0:0:
151,172,49137,1,8,0:0:0:0:
152,173,49295,1,0,0:0:0:0:
139,173,49768,1,0,0:0:0:0:
139,173,49926,1,8,0:0:0:0:
154,175,50558,1,0,0:0:0:0:
154,175,50716,1,8,0:0:0:0:
151,172,51031,1,0,0:0:0:0:
151,172,51189,1,0,0:0:0:0:
154,175,51505,1,8,0:0:0:0:
154,175,51821,1,4,0:0:0:0:
154,175,52768,1,4,0:0:0:0:
154,175,53084,1,12,0:0:0:0:
152,181,53716,1,12,0:0:0:0:
152,181,53952,1,12,0:0:0:0:
152,181,54347,1,0,0:0:0:0:
151,181,54821,1,0,0:0:0:0:
152,181,54979,1,8,0:0:0:0:
146,178,55295,1,0,0:0:0:0:
146,178,55610,1,12,0:0:0:0:
138,184,56242,1,12,0:0:0:0:
137,184,56479,1,12,0:0:0:0:
129,188,56873,1,0,0:0:0:0:
132,191,57505,1,0,0:0:0:0:
129,188,58137,1,12,0:0:0:0:
129,187,58452,1,0,0:0:0:0:
131,188,58610,1,0,0:0:0:0:
129,188,58768,1,8,0:0:0:0:
129,188,59005,1,8,0:0:0:0:
129,187,59400,1,8,0:0:0:0:
126,185,59716,1,8,0:0:0:0:
129,188,59873,1,8,0:0:0:0:
129,188,60031,1,8,0:0:0:0:
129,187,60268,1,8,0:0:0:0:
126,185,60663,1,8,0:0:0:0:
119,182,60979,1,8,0:0:0:0:
120,182,61137,1,0,0:0:0:0:
120,182,61295,1,8,0:0:0:0:
124,186,61452,1,0,0:0:0:0:
126,185,61610,1,8,0:0:0:0:
124,186,61926,1,0,0:0:0:0:
143,190,62558,1,0,0:0:0:0:
143,190,62873,1,8,0:0:0:0:
143,190,63189,1,12,0:0:0:0:
143,190,63663,1,8,0:0:0:0:
143,190,63821,1,8,0:0:0:0:
143,190,64058,1,8,0:0:0:0:
143,190,64295,1,0,0:0:0:0:
143,190,64452,1,8,0:0:0:0:
143,190,64926,1,0,0:0:0:0:
143,190,65084,1,8,0:0:0:0:
159,182,65716,1,8,0:0:0:0:
159,182,65873,1,0,0:0:0:0:
159,182,66189,1,0,0:0:0:0:
161,183,66347,1,0,0:0:0:0:
159,182,66584,1,8,0:0:0:0:
161,183,66821,1,8,0:0:0:0:
161,183,66979,1,8,0:0:0:0:
155,188,67452,1,8,0:0:0:0:
155,188,67610,1,0,0:0:0:0:
155,188,68242,1,8,0:0:0:0:
154,187,68400,1,0,0:0:0:0:
155,188,68716,1,0,0:0:0:0:
155,188,68873,1,0,0:0:0:0:
155,188,69110,1,8,0:0:0:0:
145,198,69347,1,0,0:0:0:0:
152,176,69505,1,8,0:0:0:0:
152,176,69979,1,0,0:0:0:0:
152,176,70137,1,0,0:0:0:0:
152,176,70452,1,0,0:0:0:0:
152,176,70610,1,0,0:0:0:0:
152,176,70768,1,0,0:0:0:0:
152,176,70926,1,8,0:0:0:0:
152,176,71242,1,8,0:0:0:0:
152,176,71400,1,8,0:0:0:0:
152,176,71637,1,8,0:0:0:0:
152,176,71873,1,0,0:0:0:0:
152,176,72031,1,12,0:0:0:0:
152,176,72663,1,8,0:0:0:0:
152,176,72821,1,0,0:0:0:0:
152,176,72979,1,8,0:0:0:0:
152,176,73295,1,12,0:0:0:0:
143,190,73768,1,0,0:0:0:0:
143,190,73926,1,0,0:0:0:0:
143,190,74163,1,8,0:0:0:0:
143,190,74400,1,0,0:0:0:0:
143,190,74557,1,8,0:0:0:0:
143,190,75031,1,0,0:0:0:0:
143,190,75189,1,8,0:0:0:0:
159,182,75821,1,8,0:0:0:0:
161,183,75978,1,0,0:0:0:0:
159,182,76294,1,0,0:0:0:0:
159,182,76452,1,0,0:0:0:0:
159,182,76689,1,8,0:0:0:0:
161,183,76926,1,8,0:0:0:0:
161,183,77084,1,8,0:0:0:0:
155,188,77557,1,8,0:0:0:0:
155,188,77715,1,0,0:0:0:0:
155,188,78347,1,8,0:0:0:0:
154,187,78505,1,0,0:0:0:0:
155,188,78821,1,0,0:0:0:0:
155,188,78979,1,0,0:0:0:0:
155,188,79215,1,8,0:0:0:0:
145,198,79452,1,0,0:0:0:0:
152,176,79610,1,8,0:0:0:0:
152,176,80084,1,0,0:0:0:0:
152,176,80242,1,8,0:0:0:0:
152,176,80557,1,8,0:0:0:0:
152,176,80715,1,8,0:0:0:0:
152,176,80873,1,0,0:0:0:0:
152,176,81505,1,8,0:0:0:0:
157,172,81742,1,8,0:0:0:0:
152,176,81978,1,0,0:0:0:0:
158,180,82137,1,8,0:0:0:0:
157,180,82452,1,8,0:0:0:0:
157,180,82768,1,8,0:0:0:0:
157,180,82926,1,0,0:0:0:0:
158,180,83084,1,12,0:0:0:0:
157,180,83400,1,8,0:0:0:0:
158,180,84031,1,0,0:0:0:0:
157,180,84268,1,8,0:0:0:0:
157,180,84505,1,8,0:0:0:0:
157,180,84663,1,0,0:0:0:0:
157,180,85137,1,0,0:0:0:0:
157,180,85295,1,8,0:0:0:0:
157,180,85610,1,0,0:0:0:0:
157,180,85926,1,0,0:0:0:0:
168,174,86400,1,8,0:0:0:0:
170,175,86716,1,8,0:0:0:0:
171,175,86873,1,8,0:0:0:0:
168,174,87031,1,0,0:0:0:0:
170,175,87663,1,0,0:0:0:0:
171,175,87821,1,8,0:0:0:0:
168,174,87979,1,0,0:0:0:0:
170,175,88137,1,0,0:0:0:0:
170,175,88452,1,12,0:0:0:0:
168,174,88926,1,0,0:0:0:0:
170,175,89084,1,0,0:0:0:0:
180,182,89321,1,8,0:0:0:0:
180,182,89558,1,8,0:0:0:0:
180,182,89716,1,0,0:0:0:0:
180,182,90189,1,0,0:0:0:0:
180,182,90347,1,8,0:0:0:0:
180,182,90505,1,0,0:0:0:0:
180,182,90663,1,8,0:0:0:0:
180,182,90979,1,8,0:0:0:0:
168,184,91610,1,8,0:0:0:0:
168,184,91847,1,0,0:0:0:0:
168,184,92084,1,0,0:0:0:0:
168,184,92242,1,8,0:0:0:0:
168,184,93189,1,12,0:0:0:0:
171,177,93505,1,12,0:0:0:0:
168,184,93979,1,0,0:0:0:0:
168,184,94137,1,0,0:0:0:0:
169,187,94373,1,8,0:0:0:0:
168,184,94610,1,0,0:0:0:0:
168,184,94768,1,8,0:0:0:0:
169,187,95242,1,0,0:0:0:0:
169,187,95400,1,8,0:0:0:0:
173,181,95716,1,0,0:0:0:0:
173,181,96031,1,8,0:0:0:0:
168,184,96189,1,0,0:0:0:0:
173,181,96505,1,0,0:0:0:0:
173,181,96663,1,0,0:0:0:0:
173,181,96900,1,8,0:0:0:0:
168,184,97137,1,8,0:0:0:0:
171,180,97295,1,8,0:0:0:0:
173,181,97768,1,8,0:0:0:0:
173,181,97926,1,0,0:0:0:0:
173,181,98558,1,8,0:0:0:0:
184,177,98716,1,0,0:0:0:0:
168,180,99189,1,12,0:0:0:0:
168,180,99426,1,12,0:0:0:0:
173,181,99821,1,0,0:0:0:0:
176,181,100295,1,0,0:0:0:0:
176,181,100452,1,8,0:0:0:0:
172,175,100768,1,0,0:0:0:0:
175,174,100926,1,8,0:0:0:0:
175,175,101084,1,0,0:0:0:0:
175,175,101400,1,0,0:0:0:0:
172,175,101558,1,0,0:0:0:0:
172,175,101716,1,8,0:0:0:0:
175,174,101952,1,8,0:0:0:0:
160,182,102189,1,0,0:0:0:0:
175,175,102347,1,8,0:0:0:0:
158,178,102663,1,8,0:0:0:0:
157,182,102979,1,0,0:0:0:0:
175,175,103295,1,12,0:0:0:0:
190,173,103926,1,12,0:0:0:0:
190,173,104242,1,8,0:0:0:0:
190,174,104400,1,8,0:0:0:0:
186,174,104558,1,8,0:0:0:0:
190,173,104716,1,0,0:0:0:0:
190,173,104873,1,8,0:0:0:0:
190,173,105189,1,8,0:0:0:0:
196,171,105505,1,8,0:0:0:0:
197,171,105663,1,0,0:0:0:0:
195,169,105821,1,0,0:0:0:0:
201,179,106137,1,0,0:0:0:0:
203,174,106768,1,8,0:0:0:0:
203,174,106926,1,0,0:0:0:0:
203,174,107084,1,8,0:0:0:0:
203,174,107400,1,8,0:0:0:0:
210,169,107637,1,8,0:0:0:0:
210,169,107873,1,0,0:0:0:0:
210,169,108031,1,0,0:0:0:0:
203,174,108347,1,8,0:0:0:0:
204,173,108663,1,8,0:0:0:0:
205,172,108979,1,8,0:0:0:0:
203,174,109137,1,0,0:0:0:0:
205,180,109295,1,8,0:0:0:0:
205,180,109452,1,8,0:0:0:0:
205,180,109610,1,0,0:0:0:0:
205,180,109926,1,8,0:0:0:0:
205,180,110242,1,8,0:0:0:0:
205,180,110400,1,0,0:0:0:0:
205,180,110558,1,8,0:0:0:0:
205,180,110873,1,0,0:0:0:0:
205,180,111189,1,0,0:0:0:0:
204,185,111821,1,8,0:0:0:0:
204,185,111979,1,0,0:0:0:0:
204,185,112137,1,8,0:0:0:0:
204,185,112452,1,0,0:0:0:0:
204,185,112689,1,0,0:0:0:0:
204,185,112926,1,8,0:0:0:0:
204,185,113084,1,8,0:0:0:0:
210,185,113400,1,8,0:0:0:0:
210,184,113716,1,4,0:0:0:0:
204,185,114189,1,0,0:0:0:0:
204,185,114347,1,8,0:0:0:0:
201,190,114505,1,0,0:0:0:0:
210,184,114663,1,8,0:0:0:0:
204,185,114979,1,0,0:0:0:0:
205,191,115295,1,8,0:0:0:0:
201,190,115452,1,0,0:0:0:0:
205,191,115610,1,8,0:0:0:0:
205,191,115926,1,0,0:0:0:0:
205,191,116242,1,8,0:0:0:0:
206,197,116716,1,0,0:0:0:0:
206,197,116873,1,8,0:0:0:0:
206,197,117031,1,8,0:0:0:0:
206,197,117189,1,0,0:0:0:0:
209,197,117505,1,8,0:0:0:0:
206,197,117742,1,8,0:0:0:0:
206,197,117979,1,0,0:0:0:0:
206,197,118137,1,8,0:0:0:0:
213,205,118452,1,8,0:0:0:0:
213,205,118768,1,4,0:0:0:0:
213,205,119400,1,8,0:0:0:0:
213,205,119558,1,8,0:0:0:0:
213,205,119716,1,8,0:0:0:0:
213,204,119873,1,0,0:0:0:0:
213,204,120031,1,8,0:0:0:0:
213,205,120347,1,8,0:0:0:0:
213,205,120505,1,0,0:0:0:0:
213,205,120663,1,0,0:0:0:0:
213,204,120900,1,8,0:0:0:0:
213,204,121137,1,0,0:0:0:0:
222,212,121295,1,8,0:0:0:0:
222,212,121768,1,0,0:0:0:0:
222,212,121926,1,8,0:0:0:0:
222,212,122084,1,8,0:0:0:0:
222,212,122242,1,8,0:0:0:0:
222,212,122558,1,8,0:0:0:0:
222,212,122795,1,0,0:0:0:0:
222,212,123031,1,8,0:0:0:0:
222,212,123189,1,8,0:0:0:0:
222,212,123821,1,4,0:0:0:0:
