osu file format v14

[General]
AudioFilename: audio.mp3
AudioLeadIn: 0
PreviewTime: 63276
Countdown: 0
SampleSet: Soft
StackLeniency: 0.4
Mode: 0
LetterboxInBreaks: 0
WidescreenStoryboard: 1

[Editor]
Bookmarks: 1421,2684,12789,22894,32999,43105,53210,63315,73421,83526,88578,93631,97657,103736,113842,123947
DistanceSpacing: 0.6
BeatDivisor: 2
GridSize: 16
TimelineZoom: 2.1

[Metadata]
Title:VEZZELiX
TitleUnicode:VEZZELiX
Artist:Reku Mochizuki
ArtistUnicode:Reku Mochizuki
Creator:Chaoslitz
Version:iREDi'S iNSANE
Source:THE BMS OF FIGHTERS XVI -NEO DYSTOPIA-
Tags:owc2022ro16nm4 electronic instrumental featured artist fa owc osu! world cup 2022 ro16 nm4 tech MarcoBrolo yf_bmp iredi j-core jcore arcade core lanota azrael TAKUMI³ 第二回公募 takumi cubic bof16 takumi3
BeatmapID:3910493
BeatmapSetID:1871929

[Difficulty]
HPDrainRate:4.5
CircleSize:3.8
OverallDifficulty:7.4
ApproachRate:9
SliderMultiplier:1.7
SliderTickRate:1

[Events]
//Background and Video events
0,0,"bg.jpg",0,0
//Break Periods
2,33199,41242
2,83726,87347
//Storyboard Layer 0 (Background)
//Storyboard Layer 1 (Fail)
//Storyboard Layer 2 (Pass)
//Storyboard Layer 3 (Foreground)
//Storyboard Layer 4 (Overlay)
//Storyboard Sound Samples

[TimingPoints]
1421,315.789473684211,4,2,5,60,1,0
1578,-100,4,2,2,60,0,0
1736,-100,4,2,5,60,0,0
2210,-100,4,2,2,60,0,0
2368,-66.6666666666667,4,2,10,60,0,0
2684,-90.9090909090909,4,2,1,70,0,0
3315,-71.4285714285714,4,2,1,70,0,0
3947,-90.9090909090909,4,2,9,70,0,0
4578,-83.3333333333333,4,2,9,70,0,0
4894,-90.9090909090909,4,2,1,70,0,0
5052,-90.9090909090909,4,2,3,70,0,0
5210,-90.9090909090909,4,2,1,70,0,0
5842,-71.4285714285714,4,2,1,70,0,0
6473,-90.9090909090909,4,2,9,70,0,0
7421,-90.9090909090909,4,2,20,70,0,0
7578,-90.9090909090909,4,2,9,70,0,0
7736,-90.9090909090909,4,2,1,70,0,0
8368,-71.4285714285714,4,2,1,70,0,0
8999,-90.9090909090909,4,2,1,70,0,0
9631,-90.9090909090909,4,2,5,70,0,0
10263,-90.9090909090909,4,2,1,70,0,0
10342,-90.9090909090909,4,2,5,70,0,0
10421,-90.9090909090909,4,2,1,70,0,0
10499,-90.9090909090909,4,2,5,70,0,0
10578,-90.9090909090909,4,2,1,70,0,0
10736,-90.9090909090909,4,2,5,70,0,0
10894,-90.9090909090909,4,2,1,70,0,0
11052,-90.9090909090909,4,2,5,70,0,0
11210,-90.9090909090909,4,2,1,70,0,0
11368,-90.9090909090909,4,2,5,70,0,0
11526,-90.9090909090909,4,2,1,75,0,0
11684,-90.9090909090909,4,2,5,75,0,0
11842,-90.9090909090909,4,2,10,75,0,0
11999,-90.9090909090909,4,2,5,75,0,0
12157,-90.9090909090909,4,2,10,75,0,0
12315,-90.9090909090909,4,2,5,75,0,0
12473,-66.6666666666667,4,2,10,75,0,0
12631,-66.6666666666667,4,2,1,75,0,0
12789,-100,4,2,1,60,0,0
13105,-100,4,2,3,60,0,0
15473,-100,4,2,5,60,0,0
15789,-100,4,2,1,60,0,0
15947,-100,4,2,5,60,0,0
16105,-100,4,2,1,60,0,0
16263,-100,4,2,5,60,0,0
16421,-100,4,2,1,60,0,0
16578,-100,4,2,3,60,0,0
16736,-100,4,2,5,60,0,0
17684,-100,4,2,1,60,0,0
17842,-100,4,2,3,60,0,0
20407,-100,4,2,3,10,0,0
20447,-100,4,2,3,60,0,0
20486,-100,4,2,3,10,0,0
20526,-100,4,2,3,60,0,0
20565,-100,4,2,3,10,0,0
20605,-100,4,2,3,60,0,0
20644,-100,4,2,3,10,0,0
20684,-100,4,2,3,60,0,0
20842,-100,4,2,5,60,0,0
20921,-100,4,2,1,60,0,0
20999,-100,4,2,5,60,0,0
21157,-100,4,2,1,60,0,0
21315,-100,4,2,5,60,0,0
21473,-100,4,2,1,60,0,0
21513,-100,4,2,1,10,0,0
21552,-100,4,2,1,60,0,0
21592,-100,4,2,1,10,0,0
21631,-100,4,2,3,60,0,0
21789,-100,4,2,5,60,0,0
22105,-100,4,2,1,60,0,0
22263,-100,4,2,5,60,0,0
22421,-100,4,2,1,60,0,0
22578,-100,4,2,10,60,0,0
22894,-100,4,2,1,65,0,0
25421,-100,4,2,6,65,0,0
25736,-100,4,2,1,65,0,0
30355,-100,4,2,1,10,0,0
30394,-100,4,2,1,65,0,0
30434,-100,4,2,1,10,0,0
30473,-100,4,2,1,65,0,0
32684,-66.6666666666667,4,2,10,65,0,0
32999,-66.6666666666667,4,2,1,65,0,0
41842,-100,4,2,3,40,0,0
42315,-100,4,2,0,40,0,0
42473,-100,4,2,3,40,0,0
42631,-100,4,2,5,40,0,0
42789,-66.6666666666667,4,2,10,50,0,0
43105,-125,4,2,7,50,0,0
45473,-125,4,2,3,50,0,0
45631,-125,4,2,7,50,0,0
47368,-125,4,2,3,50,0,0
47526,-125,4,2,7,50,0,0
48157,-125,4,2,1,50,0,0
51868,-125,4,2,5,50,0,0
51947,-125,4,2,1,50,0,0
52894,-66.6666666666667,4,2,10,50,0,0
53210,-90.9090909090909,4,2,1,60,0,0
53842,-71.4285714285714,4,2,1,60,0,0
54473,-90.9090909090909,4,2,9,60,0,0
55421,-90.9090909090909,4,2,1,60,0,0
55578,-90.9090909090909,4,2,3,60,0,0
55736,-90.9090909090909,4,2,1,60,0,0
56368,-71.4285714285714,4,2,1,60,0,0
56999,-90.9090909090909,4,2,9,60,0,0
57947,-90.9090909090909,4,2,20,60,0,0
58105,-90.9090909090909,4,2,9,60,0,0
58263,-90.9090909090909,4,2,1,65,0,0
58894,-71.4285714285714,4,2,1,65,0,0
59526,-90.9090909090909,4,2,1,70,0,0
60157,-71.4285714285714,4,2,10,70,0,0
60789,-90.9090909090909,4,2,10,75,0,0
60947,-90.9090909090909,4,2,1,75,0,0
61105,-90.9090909090909,4,2,10,75,0,0
61263,-90.9090909090909,4,2,1,75,0,0
61421,-90.9090909090909,4,2,10,75,0,0
61578,-90.9090909090909,4,2,1,75,0,0
61736,-90.9090909090909,4,2,10,75,0,0
61894,-90.9090909090909,4,2,1,75,0,0
62052,-90.9090909090909,4,2,1,40,0,0
62210,-90.9090909090909,4,2,3,40,0,0
62999,-66.6666666666667,4,2,10,60,0,0
63315,-83.3333333333333,4,2,2,80,0,1
64578,-83.3333333333333,4,2,11,80,0,1
65526,-83.3333333333333,4,2,2,80,0,1
67105,-83.3333333333333,4,2,11,80,0,1
68052,-83.3333333333333,4,2,2,80,0,1
68210,-83.3333333333333,4,2,1,80,0,1
68368,-83.3333333333333,4,2,2,80,0,1
69631,-83.3333333333333,4,2,11,80,0,1
70894,-83.3333333333333,4,2,2,70,0,1
71210,-83.3333333333333,4,2,6,70,0,1
71289,-83.3333333333333,4,2,2,70,0,1
71526,-83.3333333333333,4,2,1,70,0,1
71605,-83.3333333333333,4,2,2,70,0,1
71723,-83.3333333333333,4,2,2,10,0,1
71763,-83.3333333333333,4,2,2,70,0,1
72157,-83.3333333333333,4,2,2,75,0,1
72473,-83.3333333333333,4,2,6,75,0,1
72631,-83.3333333333333,4,2,2,75,0,1
73105,-66.6666666666667,4,2,10,75,0,1
73421,-83.3333333333333,4,2,2,80,0,1
74684,-83.3333333333333,4,2,11,80,0,1
75355,-83.3333333333333,4,2,11,10,0,1
75394,-83.3333333333333,4,2,11,80,0,1
75434,-83.3333333333333,4,2,11,10,0,1
75473,-83.3333333333333,4,2,11,80,0,1
75631,-83.3333333333333,4,2,2,80,0,1
75947,-83.3333333333333,4,2,6,80,0,1
75986,-83.3333333333333,4,2,6,10,0,1
76026,-83.3333333333333,4,2,6,80,0,1
76065,-83.3333333333333,4,2,6,10,0,1
76105,-83.3333333333333,4,2,6,80,0,1
76184,-83.3333333333333,4,2,2,80,0,1
77210,-83.3333333333333,4,2,11,80,0,1
78473,-83.3333333333333,4,2,2,80,0,1
79105,-83.3333333333333,4,2,1,80,0,1
79973,-83.3333333333333,4,2,2,80,0,1
80368,-83.3333333333333,4,2,5,80,0,1
80999,-83.3333333333333,4,2,6,80,0,1
81039,-83.3333333333333,4,2,6,10,0,1
81078,-83.3333333333333,4,2,6,80,0,1
81118,-83.3333333333333,4,2,6,10,0,1
81157,-83.3333333333333,4,2,6,80,0,1
81236,-83.3333333333333,4,2,2,80,0,1
82263,-83.3333333333333,4,2,1,60,0,1
82421,-83.3333333333333,4,2,3,60,0,1
82578,-83.3333333333333,4,2,1,60,0,1
82736,-83.3333333333333,4,2,3,60,0,1
82894,-83.3333333333333,4,2,1,60,0,1
83210,-66.6666666666667,4,2,10,60,0,1
83526,-100,4,2,1,50,0,0
87947,-100,4,2,5,50,0,0
88105,-100,4,2,1,50,0,0
88263,-100,4,2,5,50,0,0
88578,-125,4,2,1,50,0,0
89210,-125,4,2,5,50,0,0
89368,-125,4,2,1,50,0,0
90473,-125,4,2,5,50,0,0
90631,-125,4,2,1,50,0,0
90789,-125,4,2,5,50,0,0
90947,-125,4,2,1,50,0,0
91736,-125,4,2,5,50,0,0
91894,-125,4,2,1,50,0,0
92052,-125,4,2,5,50,0,0
92210,-125,4,2,1,50,0,0
92289,-125,4,2,5,50,0,0
92368,-125,4,2,1,50,0,0
93315,-66.6666666666667,4,2,10,50,0,0
93631,-90.9090909090909,4,2,1,70,0,0
94894,-90.9090909090909,4,2,9,70,0,0
95842,-90.9090909090909,4,2,1,70,0,0
97420,-90.9090909090909,4,2,9,70,0,0
98210,-90.9090909090909,4,2,1,70,0,0
98526,-90.9090909090909,4,2,3,70,0,0
98684,-90.9090909090909,4,2,1,70,0,0
99315,-71.4285714285714,4,2,1,70,0,0
99947,-90.9090909090909,4,2,1,70,0,0
101131,-90.9090909090909,4,2,5,70,0,0
101210,-90.9090909090909,4,2,1,70,0,0
101289,-90.9090909090909,4,2,5,70,0,0
101368,-90.9090909090909,4,2,1,70,0,0
101447,-90.9090909090909,4,2,5,70,0,0
101526,-90.9090909090909,4,2,1,70,0,0
101921,-90.9090909090909,4,2,5,70,0,0
101999,-90.9090909090909,4,2,1,70,0,0
102394,-90.9090909090909,4,2,5,70,0,0
102473,-90.9090909090909,4,2,1,70,0,0
103421,-66.6666666666667,4,2,10,70,0,0
103578,-66.6666666666667,4,2,1,70,0,0
103736,-100,4,2,1,70,0,0
104052,-100,4,2,3,70,0,0
104999,-100,4,2,7,70,0,0
105157,-100,4,2,3,70,0,0
106421,-100,4,2,5,70,0,0
106736,-100,4,2,1,70,0,0
106894,-100,4,2,5,70,0,0
107052,-100,4,2,1,70,0,0
107210,-100,4,2,5,70,0,0
107368,-100,4,2,1,70,0,0
107526,-100,4,2,3,70,0,0
107605,-100,4,2,5,70,0,0
108631,-100,4,2,1,70,0,0
108789,-100,4,2,7,70,0,0
108947,-100,4,2,3,70,0,0
110052,-100,4,2,7,70,0,0
110210,-100,4,2,3,70,0,0
111631,-100,4,2,6,70,0,0
111789,-100,4,2,5,70,0,0
111868,-100,4,2,1,70,0,0
111947,-100,4,2,5,70,0,0
112460,-100,4,2,5,10,0,0
112499,-100,4,2,5,70,0,0
112539,-100,4,2,5,10,0,0
112578,-100,4,2,3,70,0,0
113052,-100,4,2,1,70,0,0
113210,-100,4,2,5,70,0,0
113368,-100,4,2,1,70,0,0
113526,-100,4,2,10,70,0,0
113842,-100,4,2,1,75,0,0
114157,-100,4,2,10,75,0,0
114315,-100,4,2,1,75,0,0
114789,-100,4,2,10,75,0,0
114947,-100,4,2,1,75,0,0
115421,-100,4,2,10,75,0,0
115578,-100,4,2,1,75,0,0
116368,-100,4,2,6,75,0,0
116407,-100,4,2,6,10,0,0
116447,-100,4,2,6,75,0,0
116486,-100,4,2,6,10,0,0
116526,-100,4,2,6,75,0,0
116605,-100,4,2,1,75,0,0
118578,-100,4,2,10,75,0,0
118657,-100,4,2,1,75,0,0
119210,-100,4,2,10,75,0,0
119368,-100,4,2,1,75,0,0
120473,-100,4,2,10,75,0,0
120552,-100,4,2,1,75,0,0
121302,-100,4,2,1,10,0,0
121342,-100,4,2,1,75,0,0
121381,-100,4,2,1,10,0,0
121421,-100,4,2,1,75,0,0
123631,-66.6666666666667,4,2,10,75,0,0
123947,-66.6666666666667,4,2,1,75,0,0

[Colours]
Combo1 : 242,46,40
Combo2 : 130,152,170
Combo3 : 99,94,208
Combo4 : 230,241,244

[HitObjects]
22,127,1421,6,0,B|61:140|61:140|89:108,1,85,8|8,0:0|0:1,0:0:0:0:
126,26,1657,1,8,0:1:0:0:
126,26,1736,2,0,B|165:12|165:12|193:44,1,85,8|8,0:0|0:1,0:0:0:0:
248,121,1972,5,8,0:1:0:0:
248,121,2052,2,0,L|260:167,1,42.5,8|0,0:0|0:0,0:0:0:0:
268,196,2210,2,0,L|280:242,1,42.5,8|0,0:1|0:0,0:0:0:0:
207,334,2368,6,0,B|241:343|241:343|320:253|320:253|354:263,1,191.250007295609,12|0,1:2|0:0,0:0:0:0:
394,339,2684,6,0,L|381:384,1,46.7500014266968,14|0,0:1|0:0,0:0:0:0:
480,327,2842,2,0,L|467:280,1,46.7500014266968,2|0,0:1|0:0,0:0:0:0:
422,206,2999,1,2,3:2:0:0:
422,206,3078,1,2,0:0:0:0:
422,206,3157,2,0,L|468:193,1,46.7500014266968,10|2,0:3|0:0,0:0:0:0:
358,86,3315,6,0,B|348:46|348:46|324:139,1,118.999996368408,10|0,1:0|0:0,0:0:0:0:
459,90,3552,2,0,B|429:117|429:117|521:92,1,118.999996368408,10|0,0:1|0:0,0:0:0:0:
410,1,3789,2,0,B|448:13|448:13|414:-20|414:-20,1,59.4999981842042,10|0,0:1|0:0,0:0:0:0:
320,129,3947,6,0,P|271:136|225:154,1,93.5000028533936,10|0,0:1|0:0,0:0:0:0:
204,70,4184,2,0,P|252:62|298:44,1,93.5000028533936,2|0,0:1|0:0,0:0:0:0:
367,68,4421,1,10,0:1:0:0:
478,195,4578,2,0,L|504:96,1,101.999996887207,10|8,3:1|3:1,0:0:0:0:
512,270,4894,6,0,L|450:286,1,46.7500014266968,10|2,0:3|0:0,0:0:0:0:
426,358,5052,2,0,L|364:341,1,46.7500014266968,10|10,0:0|0:0,0:0:0:0:
309,234,5210,6,0,L|321:279,1,46.7500014266968,14|0,0:1|0:0,0:0:0:0:
232,348,5368,2,0,L|244:302,1,46.7500014266968,2|0,0:1|0:0,0:0:0:0:
230,221,5525,1,2,3:2:0:0:
230,221,5604,1,2,0:0:0:0:
230,221,5684,2,0,L|184:233,1,46.7500014266968,10|2,0:3|0:0,0:0:0:0:
82,360,5842,6,0,B|139:302|139:302|105:313,1,118.999996368408,10|0,1:0|0:0,0:0:0:0:
0,220,6078,2,0,B|21:299|21:299|28:263,1,118.999996368408,10|0,0:1|0:0,0:0:0:0:
111,204,6315,2,0,B|82:196|82:196|109:220,1,59.4999981842042,10|0,0:1|0:0,0:0:0:0:
234,138,6473,6,0,P|227:65|155:36,1,140.25000428009,10|0,0:1|0:0,0:0:0:0:
103,0,6789,2,0,P|95:48|77:94,1,93.5000028533936,10|8,0:0|0:1,0:0:0:0:
4,152,7105,1,10,3:1:0:0:
12,160,7263,1,8,3:1:0:0:
113,263,7421,6,0,L|129:201,1,46.7500014266968,8|0,1:2|0:0,0:0:0:0:
145,140,7578,1,2,0:1:0:0:
284,212,7736,6,0,L|235:224,1,46.7500014266968,14|0,0:1|0:0,0:0:0:0:
192,300,7894,2,0,L|241:313,1,46.7500014266968,2|0,0:1|0:0,0:0:0:0:
307,384,8051,1,10,0:3:0:0:
307,384,8130,1,2,0:0:0:0:
307,384,8210,2,0,L|323:322,1,46.7500014266968,2|2,3:2|0:0,0:0:0:0:
427,316,8368,6,0,B|478:344|478:344|419:343,1,118.999996368408,10|0,1:0|0:0,0:0:0:0:
401,230,8605,2,0,B|350:260|350:260|380:209,1,118.999996368408,10|0,1:0|0:0,0:0:0:0:
487,250,8842,2,0,B|486:220|486:220|500:246,1,59.4999981842042,10|0,1:0|0:0,0:0:0:0:
441,149,8999,6,0,L|457:87,1,46.7500014266968,10|2,1:0|0:1,0:0:0:0:
512,43,9157,1,0,0:0:0:0:
512,43,9236,2,0,L|415:68,1,93.5000028533936,2|0,0:1|0:0,0:0:0:0:
342,17,9473,2,0,L|325:78,1,46.7500014266968,2|0,0:1|0:0,0:0:0:0:
271,156,9631,6,0,P|250:98|202:83,1,93.5000028533936,10|2,1:0|0:1,0:0:0:0:
152,122,9868,1,8,1:0:0:0:
152,122,9947,1,0,0:0:0:0:
202,7,10105,1,10,1:0:0:0:
18,76,10263,5,14,1:0:0:0:
18,76,10342,1,8,0:1:0:0:
18,76,10421,2,0,L|1:137,1,46.7500014266968,10|8,0:1|0:1,0:0:0:0:
83,185,10578,5,10,1:3:0:0:
83,185,10657,1,2,0:0:0:0:
83,185,10736,2,0,L|99:246,1,46.7500014266968,10|10,0:3|0:3,0:0:0:0:
92,328,10894,5,10,1:0:0:0:
174,277,11052,2,0,L|204:268,2,23.3750007133484,8|8|10,0:1|0:1|0:1,0:0:0:0:
231,358,11210,1,8,0:1:0:0:
182,285,11368,2,0,L|212:276,2,23.3750007133484,10|8|8,0:1|0:1|0:1,0:0:0:0:
144,357,11526,5,6,1:0:0:0:
152,365,11842,1,10,1:0:0:0:
160,373,12157,1,10,1:0:0:0:
271,344,12315,1,10,0:1:0:0:
382,315,12473,6,0,B|391:280|391:280|301:201|301:201|311:167,1,191.250007295609,14|0,0:1|0:0,0:0:0:0:
347,88,12789,1,8,0:1:0:0:
402,179,12947,5,8,0:1:0:0:
402,179,13026,1,8,0:1:0:0:
402,179,13105,2,0,B|413:159|413:159|490:138,1,85,14|2,0:0|0:0,0:0:0:0:
347,88,13421,5,10,0:1:0:0:
407,0,13578,1,2,0:0:0:0:
504,44,13736,1,10,0:0:0:0:
512,52,13893,1,2,0:0:0:0:
347,88,14052,6,0,L|264:66,1,85,10|0,0:1|0:0,0:0:0:0:
293,158,14289,1,0,0:0:0:0:
293,158,14368,2,0,L|210:136,1,85,10|0,0:0|0:0,0:0:0:0:
164,43,14684,5,10,0:1:0:0:
67,24,14841,1,2,0:0:0:0:
0,94,14999,1,10,0:0:0:0:
97,113,15156,1,10,0:1:0:0:
2,247,15315,6,0,B|41:233|41:233|8:268,1,85,4|8,1:0|0:1,0:0:0:0:
140,190,15631,2,0,B|128:209|128:209|145:271,1,85,8|8,0:0|0:1,0:0:0:0:
187,361,15868,1,8,0:1:0:0:
187,361,15947,2,0,L|104:339,2,85,8|8|8,0:0|0:1|0:0,0:0:0:0:
223,222,16421,1,8,0:1:0:0:
313,170,16578,6,0,B|304:217|304:217|341:278,1,85,12|8,1:2|0:1,0:0:0:0:
395,298,16815,1,8,0:1:0:0:
395,298,16894,2,0,L|514:265,1,85,8|8,0:0|0:1,0:0:0:0:
359,376,17210,6,0,L|297:359,3,42.5,8|8|8|8,0:0|0:0|0:0|0:0,0:0:0:0:
260,307,17526,1,8,0:0:0:0:
260,307,17605,1,8,0:0:0:0:
260,307,17684,1,8,0:1:0:0:
87,384,17842,6,0,L|108:301,1,85,14|0,0:1|0:0,0:0:0:0:
17,330,18079,1,0,0:0:0:0:
17,330,18158,2,0,L|38:247,1,85,10|2,0:0|0:0,0:0:0:0:
0,157,18473,5,10,0:1:0:0:
23,62,18631,1,2,0:0:0:0:
116,30,18788,1,10,0:0:0:0:
124,22,18947,1,2,0:0:0:0:
217,140,19105,6,0,L|299:161,1,85,10|0,0:1|0:0,0:0:0:0:
271,69,19342,1,0,0:0:0:0:
271,69,19421,2,0,L|353:90,1,85,10|0,0:0|0:0,0:0:0:0:
369,0,19736,5,10,0:1:0:0:
439,67,19894,1,10,0:1:0:0:
420,164,20051,1,10,0:0:0:0:
507,277,20210,1,10,0:1:0:0:
507,277,20289,1,8,0:1:0:0:
507,277,20368,6,0,B|445:260|445:260|471:284,1,85,4|0,1:0|1:0,0:0:0:0:
485,355,20605,1,0,1:0:0:0:
485,355,20684,1,8,0:0:0:0:
387,384,20842,1,8,0:1:0:0:
306,272,20999,6,0,B|366:289|366:289|378:308,2,85,8|8|8,0:0|0:1|0:0,0:0:0:0:
229,144,21473,1,10,0:3:0:0:
138,166,21631,6,0,B|143:121|143:121|106:69,1,85,12|8,1:2|0:1,0:0:0:0:
144,2,21868,1,8,0:1:0:0:
144,2,21947,2,0,L|61:23,1,85,8|10,0:0|0:3,0:0:0:0:
42,105,22184,1,10,0:3:0:0:
42,105,22263,5,10,0:0:0:0:
61,199,22421,1,10,0:3:0:0:
28,359,22578,5,14,1:2:0:0:
9,265,22736,1,2,0:0:0:0:
171,241,22894,6,0,B|182:260|182:260|259:281,1,85,14|0,0:3|0:0,0:0:0:0:
202,362,23131,1,0,0:0:0:0:
202,362,23210,2,0,B|221:350|221:350|281:366,1,85,10|0,1:2|0:0,0:0:0:0:
345,283,23526,5,10,0:3:0:0:
419,347,23683,1,2,0:0:0:0:
512,319,23841,1,10,1:2:0:0:
438,255,23999,1,2,0:0:0:0:
438,255,24078,1,0,0:0:0:0:
438,255,24157,6,0,B|426:235|426:235|447:158,1,85,10|0,0:3|0:0,0:0:0:0:
348,167,24394,1,0,0:0:0:0:
348,167,24473,2,0,B|367:155|367:155|383:95,1,85,10|0,1:2|0:0,0:0:0:0:
497,89,24789,5,10,3:0:0:0:
497,89,24868,1,0,3:0:0:0:
497,89,24946,1,2,3:2:0:0:
425,3,25104,1,10,1:2:0:0:
321,7,25262,1,2,0:0:0:0:
274,134,25421,6,0,B|254:122|254:122|177:143,1,85,10|2,0:3|0:3,0:0:0:0:
186,44,25658,1,0,0:0:0:0:
186,44,25737,2,0,B|174:63|174:63|114:79,1,85,10|0,1:2|0:0,0:0:0:0:
39,10,26052,5,10,0:3:0:0:
21,106,26210,1,2,0:0:0:0:
92,174,26367,1,10,1:2:0:0:
100,166,26526,1,2,0:0:0:0:
0,286,26684,6,0,L|108:257,1,85,10|0,0:3|0:0,0:0:0:0:
154,307,26921,2,0,B|122:335|122:335|135:375,1,85,2|0,0:0|0:0,0:0:0:0:
215,360,27157,1,2,0:0:0:0:
342,384,27315,5,10,0:3:0:0:
288,311,27473,1,10,0:3:0:0:
391,243,27631,1,10,1:2:0:0:
391,243,27710,1,8,0:1:0:0:
391,243,27789,1,8,0:1:0:0:
391,243,27868,1,8,0:1:0:0:
391,243,27947,6,0,B|473:220|473:220|503:168,1,127.5,14|0,0:3|0:0,0:0:0:0:
428,110,28263,2,0,B|345:132|345:132|315:184,1,127.5,10|0,1:2|0:0,0:0:0:0:
282,267,28578,5,10,0:3:0:0:
181,240,28736,1,2,0:0:0:0:
89,309,28894,2,0,L|101:262,1,42.5,10|0,1:2|0:0,0:0:0:0:
81,301,29052,2,0,L|93:254,1,42.5,10|0,0:3|0:0,0:0:0:0:
0,192,29210,6,0,B|19:180|19:180|40:103,1,85,14|0,0:3|0:0,0:0:0:0:
121,160,29447,1,0,0:0:0:0:
121,160,29526,2,0,B|109:140|109:140|125:80,1,85,10|0,1:2|0:0,0:0:0:0:
51,14,29842,6,0,L|143:-10,1,85,14|0,0:3|0:0,0:0:0:0:
202,46,30078,2,0,B|221:34|221:34|281:50,1,85,14|0,0:2|0:0,0:0:0:0:
321,128,30315,1,10,0:3:0:0:
321,128,30394,1,8,0:1:0:0:
321,128,30473,6,0,B|362:136|362:136|393:108,1,85,14|0,0:3|0:0,0:0:0:0:
473,136,30710,2,0,B|445:167|445:167|453:208,1,85,14|0,0:3|0:0,0:0:0:0:
381,250,30947,2,0,B|373:225|373:225|347:216,1,42.5,14|0,1:2|0:0,0:0:0:0:
275,243,31105,6,0,L|265:202,1,42.5,10|0,0:3|0:0,0:0:0:0:
284,234,31263,2,0,L|273:192,1,42.5,14|0,1:2|0:0,0:0:0:0:
223,316,31421,2,0,L|235:362,1,42.5,10|0,1:2|0:0,0:0:0:0:
231,308,31578,2,0,L|243:354,1,42.5,10|0,0:3|0:0,0:0:0:0:
172,219,31736,5,14,0:3:0:0:
172,219,31815,2,0,L|130:229,1,42.5,2|0,0:0|0:0,0:0:0:0:
79,299,31973,2,0,B|59:287|59:287|42:225,1,85,10|0,0:3|0:0,0:0:0:0:
38,141,32210,2,0,L|95:156,1,42.5,10|0,0:3|0:0,0:0:0:0:
124,83,32368,2,0,L|165:72,1,42.5,14|8,0:3|0:1,0:0:0:0:
241,146,32526,1,8,0:1:0:0:
241,146,32605,1,8,0:1:0:0:
241,146,32684,6,0,B|275:136|275:136|299:18|299:18|333:10,1,191.250007295609,12|0,1:2|0:0,0:0:0:0:
333,10,32999,1,12,0:3:0:0:
0,369,41842,6,0,P|10:320|74:298,1,85,8|8,0:1|0:1,0:0:0:0:
123,227,42157,2,0,L|215:252,1,85,8|4,0:0|0:3,0:0:0:0:
229,285,42394,1,4,0:3:0:0:
229,285,42473,1,8,0:1:0:0:
344,324,42631,1,8,0:1:0:0:
459,363,42789,6,0,B|468:328|468:328|378:249|378:249|388:215,1,191.250007295609,12|0,0:0|0:0,0:0:0:0:
470,215,43105,5,14,0:0:0:0:
478,207,43421,1,10,0:0:0:0:
486,199,43736,1,10,0:0:0:0:
494,191,44052,1,0,0:0:0:0:
456,118,44210,1,2,0:0:0:0:
511,58,44367,5,10,0:0:0:0:
503,50,44684,1,0,0:0:0:0:
495,42,44999,1,10,3:2:0:0:
487,34,45315,1,10,0:0:0:0:
427,89,45472,1,10,0:1:0:0:
354,51,45630,5,10,3:2:0:0:
346,43,45947,1,10,0:0:0:0:
338,35,46263,1,10,0:0:0:0:
330,27,46579,1,0,0:0:0:0:
261,71,46737,1,2,0:0:0:0:
279,151,46894,5,10,0:0:0:0:
271,159,47210,1,8,0:0:0:0:
263,167,47527,1,10,0:0:0:0:
183,149,47684,1,10,0:0:0:0:
139,218,47842,1,10,0:0:0:0:
59,200,47999,1,2,0:0:0:0:
0,284,48157,6,0,P|30:340|108:349,1,136,14|2,0:3|1:2,0:0:0:0:
85,280,48631,1,10,0:3:0:0:
85,280,48710,1,10,0:3:0:0:
85,280,48789,1,10,0:0:0:0:
139,218,48947,1,8,0:1:0:0:
147,210,49263,1,10,0:3:0:0:
219,247,49421,5,10,0:3:0:0:
317,224,49657,5,10,0:3:0:0:
415,201,49894,5,10,0:3:0:0:
487,238,50052,6,0,L|462:330,1,68,10|10,0:0|0:3,0:0:0:0:
415,201,50368,1,10,0:0:0:0:
415,201,50447,1,2,0:0:0:0:
415,201,50526,1,10,0:3:0:0:
451,127,50683,6,0,P|420:70|350:62,1,136,10|2,0:3|1:2,0:0:0:0:
266,52,51157,1,10,0:3:0:0:
266,52,51236,1,2,0:0:0:0:
266,52,51315,1,10,0:0:0:0:
210,122,51473,1,8,0:1:0:0:
202,130,51790,1,10,0:3:0:0:
256,192,51947,5,14,0:3:0:0:
256,192,52736,1,10,0:3:0:0:
342,346,52894,6,0,B|308:355|308:355|229:265|229:265|194:274,1,191.250007295609,12|0,1:2|0:0,0:0:0:0:
130,329,53210,6,0,L|117:377,1,46.7500014266968,14|0,0:1|0:0,0:0:0:0:
54,292,53368,2,0,L|41:243,1,46.7500014266968,2|0,0:1|0:0,0:0:0:0:
107,187,53525,1,2,3:2:0:0:
107,187,53604,1,2,0:0:0:0:
107,187,53683,2,0,L|168:203,1,46.7500014266968,10|2,0:3|0:0,0:0:0:0:
291,169,53842,6,0,P|287:105|230:67,1,118.999996368408,10|0,1:0|0:0,0:0:0:0:
142,96,54078,2,0,P|199:124|260:94,1,118.999996368408,10|0,0:1|0:0,0:0:0:0:
261,0,54315,2,0,P|218:27|215:65,1,59.4999981842042,10|0,0:1|0:0,0:0:0:0:
341,141,54473,6,0,P|385:125|432:119,1,93.5000028533936,10|0,0:1|0:0,0:0:0:0:
405,36,54710,2,0,P|362:52|316:60,1,93.5000028533936,2|0,0:1|0:0,0:0:0:0:
260,124,54947,1,10,0:1:0:0:
407,209,55105,2,0,L|431:299,1,93.5000028533936,2|8,3:1|3:1,0:0:0:0:
316,384,55421,6,0,L|262:369,1,46.7500014266968,2|2,0:0|0:0,0:0:0:0:
352,310,55578,2,0,L|298:295,1,46.7500014266968,10|10,0:0|0:0,0:0:0:0:
235,185,55736,6,0,L|251:246,1,46.7500014266968,14|0,0:1|0:0,0:0:0:0:
152,288,55894,2,0,L|164:242,1,46.7500014266968,2|0,0:1|0:0,0:0:0:0:
109,177,56051,1,2,0:0:0:0:
109,177,56130,1,2,0:0:0:0:
109,177,56210,2,0,L|60:189,1,46.7500014266968,10|2,0:3|0:0,0:0:0:0:
149,77,56368,6,0,P|172:23|226:3,1,118.999996368408,10|0,1:0|0:0,0:0:0:0:
341,0,56605,2,0,P|375:46|366:103,1,118.999996368408,10|0,0:1|0:0,0:0:0:0:
279,176,56842,2,0,P|238:177|205:151,1,59.4999981842042,10|0,0:1|0:0,0:0:0:0:
352,271,56999,6,0,P|364:202|388:135,1,140.25000428009,10|0,0:1|0:0,0:0:0:0:
400,54,57315,2,0,P|462:54|494:99,1,93.5000028533936,10|8,0:0|0:1,0:0:0:0:
473,176,57631,1,2,3:1:0:0:
473,176,57789,1,0,3:0:0:0:
504,318,57947,6,0,L|455:305,1,46.7500014266968,8|0,1:2|0:0,0:0:0:0:
381,286,58104,1,2,0:1:0:0:
223,384,58263,6,0,L|206:322,1,46.7500014266968,14|0,0:1|0:0,0:0:0:0:
301,272,58421,2,0,L|288:317,1,46.7500014266968,2|0,0:1|0:0,0:0:0:0:
343,384,58577,1,10,1:3:0:0:
343,384,58656,1,2,0:0:0:0:
343,384,58736,2,0,L|404:367,1,46.7500014266968,2|2,3:2|0:0,0:0:0:0:
479,285,58894,6,0,B|499:207|499:207|502:258,1,118.999996368408,14|0,1:0|0:0,0:0:0:0:
397,183,59131,2,0,B|453:126|453:126|430:171,1,118.999996368408,14|0,1:0|0:0,0:0:0:0:
418,49,59368,2,0,B|465:37|465:37|453:56,1,59.4999981842042,14|0,1:0|0:0,0:0:0:0:
331,123,59526,6,0,L|222:94,1,93.5000028533936,14|2,0:1|0:1,0:0:0:0:
195,16,59763,1,0,0:0:0:0:
195,16,59842,2,0,L|146:28,1,46.7500014266968,10|2,1:0|0:0,0:0:0:0:
46,22,59999,1,2,3:2:0:0:
46,22,60078,1,2,0:0:0:0:
46,22,60157,6,0,B|25:99|25:99|22:48,1,118.999996368408,14|0,1:3|3:0,0:0:0:0:
128,124,60394,2,0,B|71:180|71:180|94:135,1,118.999996368408,14|0,1:3|0:0,0:0:0:0:
107,258,60631,2,0,B|60:270|60:270|71:250,1,59.4999981842042,14|0,1:3|0:0,0:0:0:0:
208,171,60789,5,14,1:3:0:0:
208,171,60868,1,0,0:0:0:0:
208,171,60947,2,0,L|269:154,1,46.7500014266968,8|8,0:1|0:1,0:0:0:0:
317,236,61104,5,14,1:3:0:0:
317,236,61183,1,0,0:0:0:0:
317,236,61262,2,0,L|378:252,1,46.7500014266968,8|8,0:1|0:1,0:0:0:0:
467,272,61420,5,14,1:3:0:0:
400,172,61578,2,0,L|391:142,2,23.3750007133484,10|8|8,0:1|0:1|0:1,0:0:0:0:
512,152,61736,1,14,1:3:0:0:
408,164,61894,2,0,L|399:134,2,23.3750007133484,10|8|8,0:1|0:1|0:1,0:0:0:0:
464,224,62052,5,14,0:3:0:0:
472,232,62368,1,8,0:0:0:0:
480,240,62684,1,10,1:2:0:0:
488,248,62999,6,0,B|454:256|454:256|430:374|430:374|396:384,1,191.250007295609,14|0,1:2|0:0,0:0:0:0:
302,291,63315,6,0,L|252:277,1,50.9999984436036,14|0,0:1|0:0,0:0:0:0:
176,384,63473,2,0,L|225:370,1,50.9999984436036,2|0,0:1|0:0,0:0:0:0:
159,267,63631,1,10,0:0:0:0:
152,265,63709,1,2,0:0:0:0:
146,263,63788,1,2,3:2:0:0:
140,262,63867,1,2,0:0:0:0:
134,260,63947,6,0,L|117:321,1,50.9999984436036,10|0,0:1|0:0,0:0:0:0:
32,378,64105,1,0,3:0:0:0:
32,378,64184,2,0,P|4:328|17:268,1,101.999996887207,2|0,0:1|0:0,0:0:0:0:
55,201,64421,2,0,L|41:151,1,50.9999984436036,2|0,0:1|0:0,0:0:0:0:
0,20,64578,6,0,P|47:63|112:46,1,101.999996887207,10|0,0:1|3:0,0:0:0:0:
143,5,64815,1,2,0:1:0:0:
143,5,64894,1,8,0:0:0:0:
250,40,65052,1,2,0:1:0:0:
140,186,65210,2,0,B|163:172|163:172|238:192,1,101.999996887207,10|2,0:1|3:2,0:0:0:0:
93,261,65526,6,0,L|109:322,3,50.9999984436036,10|2|2|2,0:0|0:0|0:0|0:0,0:0:0:0:
186,384,65842,6,0,L|235:370,1,50.9999984436036,10|0,0:1|0:0,0:0:0:0:
312,291,66000,2,0,L|262:277,1,50.9999984436036,2|0,0:1|0:0,0:0:0:0:
353,360,66157,5,10,0:0:0:0:
360,362,66235,1,2,0:0:0:0:
366,364,66314,1,2,3:2:0:0:
372,365,66393,1,2,0:0:0:0:
378,367,66473,6,0,L|394:305,1,50.9999984436036,10|0,0:1|0:0,0:0:0:0:
481,270,66632,1,0,3:0:0:0:
481,270,66710,2,0,P|432:246|421:192,1,101.999996887207,2|0,0:1|0:0,0:0:0:0:
363,121,66948,2,0,L|424:104,1,50.9999984436036,2|0,0:1|0:0,0:0:0:0:
477,25,67105,5,10,3:1:0:0:
477,25,67184,2,0,P|444:73|464:129,1,101.999996887207,2|2,0:1|0:1,0:0:0:0:
512,185,67421,1,8,0:0:0:0:
418,270,67578,2,0,L|360:254,1,50.9999984436036,2|0,0:1|0:0,0:0:0:0:
283,187,67736,2,0,P|269:260|218:283,1,101.999996887207,10|2,0:1|3:2,0:0:0:0:
204,362,68052,6,0,L|146:378,3,50.9999984436036,10|2|10|2,0:0|0:0|0:3|0:0,0:0:0:0:
30,371,68368,6,0,L|46:309,1,50.9999984436036,10|0,0:1|0:0,0:0:0:0:
119,238,68526,2,0,L|132:287,1,50.9999984436036,2|0,0:1|0:0,0:0:0:0:
38,235,68684,1,10,0:0:0:0:
31,237,68762,1,2,0:0:0:0:
25,239,68841,1,2,3:2:0:0:
19,240,68920,1,2,0:0:0:0:
13,242,69000,6,0,L|-4:181,1,50.9999984436036,10|0,0:1|0:0,0:0:0:0:
45,101,69158,1,0,3:0:0:0:
45,101,69236,2,0,P|107:94|128:29,1,101.999996887207,2|0,0:1|0:0,0:0:0:0:
211,4,69474,2,0,L|227:65,1,50.9999984436036,2|0,0:1|0:0,0:0:0:0:
190,162,69631,6,0,B|212:148|212:148|285:168,1,101.999996887207,10|0,0:1|3:0,0:0:0:0:
351,109,69868,1,2,0:1:0:0:
351,109,69947,1,8,0:0:0:0:
413,201,70105,1,2,0:1:0:0:
512,0,70263,2,0,L|372:37,1,101.999996887207,10|2,0:1|3:2,0:0:0:0:
510,128,70578,6,0,L|493:189,3,50.9999984436036,10|2|2|2,0:0|0:0|0:0|0:0,0:0:0:0:
512,278,70895,6,0,L|462:291,1,50.9999984436036,10|0,0:1|0:0,0:0:0:0:
365,202,71052,2,0,L|414:215,1,50.9999984436036,2|0,0:1|0:0,0:0:0:0:
382,288,71210,1,10,0:1:0:0:
384,295,71288,1,2,0:1:0:0:
386,301,71367,1,2,3:1:0:0:
387,307,71446,1,0,0:0:0:0:
389,313,71526,6,0,L|328:330,1,50.9999984436036,10|0,0:3|0:0,0:0:0:0:
275,246,71684,1,0,3:0:0:0:
275,246,71763,2,0,P|221:250|193:311,1,101.999996887207,2|0,3:2|0:0,0:0:0:0:
171,384,71999,2,0,L|113:368,1,50.9999984436036,2|0,0:0|0:0,0:0:0:0:
256,352,72157,5,14,0:1:0:0:
344,301,72315,1,2,0:1:0:0:
344,199,72473,1,10,0:1:0:0:
256,148,72631,1,2,0:1:0:0:
167,199,72789,1,10,0:1:0:0:
167,301,72947,1,2,0:1:0:0:
18,384,73105,6,0,B|3:331|3:331|13:314|13:314|0:261,1,127.500004863739,14|2,1:0|0:0,0:0:0:0:
59,187,73342,1,2,0:0:0:0:
59,187,73421,6,0,L|120:203,1,50.9999984436036,14|0,0:1|0:0,0:0:0:0:
108,295,73578,2,0,L|165:279,1,50.9999984436036,10|0,0:1|0:0,0:0:0:0:
240,237,73736,1,10,0:0:0:0:
242,230,73814,1,2,0:0:0:0:
244,224,73893,1,2,3:2:0:0:
245,218,73972,1,2,0:0:0:0:
247,212,74052,6,0,L|186:195,1,50.9999984436036,10|0,0:1|0:0,0:0:0:0:
153,108,74211,1,0,3:0:0:0:
153,108,74289,2,0,P|207:61|203:2,1,101.999996887207,2|0,0:1|0:0,0:0:0:0:
299,0,74527,2,0,L|315:61,1,50.9999984436036,2|0,0:1|0:0,0:0:0:0:
357,149,74684,6,0,P|394:97|439:96,1,101.999996887207,10|0,0:1|3:0,0:0:0:0:
462,15,74921,1,2,0:1:0:0:
462,15,75000,1,8,0:0:0:0:
512,109,75158,1,2,0:1:0:0:
419,235,75315,2,0,B|405:258|405:258|425:333,1,101.999996887207,10|2,3:1|3:2,0:0:0:0:
499,216,75631,6,0,L|482:154,3,50.9999984436036,10|2|2|2,0:0|0:0|0:0|0:0,0:0:0:0:
428,93,75948,6,0,L|378:106,1,50.9999984436036,10|2,0:3|0:3,0:0:0:0:
322,5,76105,2,0,L|371:18,1,50.9999984436036,2|0,0:3|0:0,0:0:0:0:
295,93,76263,1,8,0:0:0:0:
288,95,76341,1,2,0:0:0:0:
282,97,76420,1,2,3:2:0:0:
276,98,76499,1,2,0:0:0:0:
270,100,76579,6,0,L|253:39,1,50.9999984436036,10|0,0:1|0:0,0:0:0:0:
158,11,76736,1,0,0:0:0:0:
158,11,76815,2,0,P|109:33|95:84,1,101.999996887207,2|0,0:1|0:0,0:0:0:0:
178,123,77052,2,0,L|161:184,1,50.9999984436036,2|0,0:1|0:0,0:0:0:0:
91,244,77211,5,10,0:1:0:0:
91,244,77289,2,0,P|22:235|4:171,1,101.999996887207,2|2,0:1|0:1,0:0:0:0:
13,126,77527,1,8,0:0:0:0:
164,172,77684,2,0,L|221:187,1,50.9999984436036,2|0,0:1|0:0,0:0:0:0:
280,118,77842,2,0,L|306:216,1,101.999996887207,10|2,0:1|0:0,0:0:0:0:
236,285,78157,6,0,L|219:346,3,50.9999984436036,10|2|2|2,0:0|0:0|0:0|0:0,0:0:0:0:
308,384,78473,6,0,L|369:367,1,50.9999984436036,14|0,0:1|0:0,0:0:0:0:
354,281,78631,2,0,L|403:294,1,50.9999984436036,2|0,0:1|0:0,0:0:0:0:
478,346,78789,1,10,0:0:0:0:
485,344,78867,1,2,0:0:0:0:
491,342,78946,1,2,3:2:0:0:
496,340,79025,1,2,0:0:0:0:
503,339,79105,6,0,L|487:277,1,50.9999984436036,10|0,1:0|0:0,0:0:0:0:
435,209,79263,1,0,3:0:0:0:
435,209,79342,2,0,P|489:181|492:132,1,101.999996887207,10|0,1:0|0:0,0:0:0:0:
463,49,79579,2,0,L|512:62,1,50.9999984436036,10|0,1:0|0:0,0:0:0:0:
412,125,79736,6,0,L|288:158,1,101.999996887207,10|0,1:0|0:0,0:0:0:0:
239,111,79973,1,2,0:1:0:0:
239,111,80052,1,8,0:0:0:0:
273,220,80210,1,2,0:1:0:0:
89,130,80368,2,0,L|117:21,1,101.999996887207,10|2,1:0|0:1,0:0:0:0:
0,156,80684,5,8,0:0:0:0:
7,164,80842,2,0,L|23:225,1,50.9999984436036,10|0,1:0|0:0,0:0:0:0:
20,325,80999,6,0,L|69:338,1,50.9999984436036,10|2,0:3|0:3,0:0:0:0:
99,250,81157,2,0,L|148:236,1,50.9999984436036,2|0,0:3|0:0,0:0:0:0:
192,322,81315,1,10,0:0:0:0:
199,324,81394,1,2,0:0:0:0:
205,326,81473,1,2,0:0:0:0:
211,327,81552,1,2,0:0:0:0:
217,329,81631,6,0,L|234:268,1,50.9999984436036,10|0,1:0|0:0,0:0:0:0:
284,191,81789,1,0,3:0:0:0:
284,191,81868,2,0,P|323:244|377:237,1,101.999996887207,10|0,0:1|0:0,0:0:0:0:
445,247,82105,2,0,L|431:296,1,50.9999984436036,10|0,1:0|0:0,0:0:0:0:
493,360,82263,6,0,P|445:342|395:333,1,101.999996887207,8|8,1:0|0:1,0:0:0:0:
319,369,82499,1,8,0:1:0:0:
319,369,82578,2,0,P|271:351|221:342,1,101.999996887207,8|8,0:0|0:1,0:0:0:0:
145,378,82815,1,8,0:1:0:0:
145,378,82894,1,8,1:2:0:0:
47,351,83052,1,8,0:1:0:0:
0,173,83210,6,0,B|34:182|34:182|114:92|114:92|147:101,1,191.250007295609,12|0,1:2|0:0,0:0:0:0:
148,101,83526,1,4,0:1:0:0:
511,139,87947,6,0,B|472:152|472:152|444:120,1,85,10|10,0:0|0:3,0:0:0:0:
394,18,88262,2,0,B|355:4|355:4|327:36,1,85,10|10,0:0|0:3,0:0:0:0:
362,110,88499,1,10,0:3:0:0:
362,110,88578,6,0,P|306:214|325:241,1,136,14|8,0:3|0:0,0:0:0:0:
343,296,89052,2,0,L|404:279,2,34,10|10|10,0:3|0:3|0:0,0:0:0:0:
286,364,89368,1,8,0:1:0:0:
278,372,89684,1,10,0:3:0:0:
178,321,89842,6,0,B|158:248|158:248|135:234,2,102,10|8|10,0:3|0:1|0:3,0:0:0:0:
86,382,90473,2,0,P|42:376|20:348,1,68,10|10,0:0|0:3,0:0:0:0:
47,265,90789,1,10,0:0:0:0:
47,265,90868,1,10,0:0:0:0:
47,265,90947,1,10,0:3:0:0:
1,171,91105,6,0,P|29:120|104:116,1,136,10|10,0:3|0:0,0:0:0:0:
167,172,91579,2,0,L|150:233,2,34,10|0|10,0:3|0:0|0:0,0:0:0:0:
243,133,91895,1,8,0:1:0:0:
215,53,92052,1,8,0:0:0:0:
297,13,92211,1,10,0:3:0:0:
297,13,92289,1,8,0:0:0:0:
297,13,92369,5,14,0:3:0:0:
297,13,93157,1,10,0:3:0:0:
462,32,93315,6,0,B|452:66|452:66|334:90|334:90|326:124,1,191.250007295609,12|0,1:2|0:0,0:0:0:0:
259,182,93631,6,0,L|271:227,1,46.7500014266968,14|0,0:1|0:0,0:0:0:0:
356,244,93789,2,0,L|343:289,1,46.7500014266968,10|0,0:1|0:0,0:0:0:0:
303,367,93946,1,10,0:0:0:0:
303,367,94025,1,2,0:0:0:0:
303,367,94105,2,0,L|257:354,1,46.7500014266968,10|2,0:3|0:0,0:0:0:0:
206,287,94263,6,0,L|160:299,1,46.7500014266968,10|0,1:0|0:0,0:0:0:0:
108,367,94421,1,8,0:1:0:0:
9,329,94578,1,8,0:0:0:0:
25,224,94736,1,10,0:1:0:0:
25,224,94815,1,8,0:1:0:0:
25,224,94894,6,0,L|86:207,1,46.7500014266968,10|0,1:0|0:0,0:0:0:0:
122,147,95052,1,8,0:1:0:0:
78,50,95210,1,8,0:0:0:0:
175,6,95368,1,10,0:1:0:0:
219,103,95526,5,10,1:0:0:0:
297,160,95684,2,0,L|327:168,2,23.3750007133484,8|8|8,0:1|0:1|0:1,0:0:0:0:
339,79,95842,1,10,0:0:0:0:
289,168,95999,2,0,L|319:176,2,23.3750007133484,10|8|10,0:0|0:1|0:3,0:0:0:0:
203,192,96157,6,0,L|190:237,1,46.7500014266968,14|0,0:1|0:0,0:0:0:0:
95,229,96315,2,0,L|107:274,1,46.7500014266968,10|0,0:1|0:0,0:0:0:0:
182,337,96472,1,10,0:0:0:0:
182,337,96551,1,2,0:0:0:0:
182,337,96631,2,0,L|267:313,1,46.7500014266968,10|2,0:3|0:0,0:0:0:0:
284,252,96789,6,0,L|329:264,1,46.7500014266968,10|0,1:0|0:0,0:0:0:0:
373,339,96947,1,8,0:1:0:0:
476,314,97105,1,8,0:0:0:0:
505,212,97263,1,10,0:1:0:0:
505,212,97342,1,0,0:0:0:0:
505,212,97420,6,0,L|459:224,1,46.7500014266968,10|10,1:0|0:1,0:0:0:0:
377,192,97578,1,0,0:0:0:0:
377,192,97657,1,10,0:1:0:0:
377,192,97736,1,10,0:0:0:0:
421,95,97894,1,10,0:1:0:0:
324,51,98052,5,10,1:0:0:0:
280,148,98210,2,0,L|234:160,1,46.7500014266968,10|10,0:3|0:3,0:0:0:0:
179,106,98368,1,10,1:2:0:0:
179,106,98447,1,10,0:3:0:0:
179,106,98526,1,10,0:0:0:0:
179,106,98605,1,10,0:0:0:0:
179,106,98684,6,0,L|93:82,1,46.7500014266968,14|0,0:1|0:0,0:0:0:0:
136,9,98842,2,0,L|90:21,1,46.7500014266968,10|0,0:1|0:0,0:0:0:0:
42,100,98999,1,10,0:0:0:0:
42,100,99078,1,0,0:0:0:0:
42,100,99158,2,0,L|18:185,1,46.7500014266968,10|10,0:3|0:3,0:0:0:0:
146,217,99315,6,0,B|175:188|175:188|83:214,1,118.999996368408,10|0,1:0|0:0,0:0:0:0:
83,329,99552,2,0,B|93:369|93:369|117:276,1,118.999996368408,10|0,1:0|0:0,0:0:0:0:
14,254,99789,2,0,B|-15:245|-15:245|17:274,1,59.4999981842042,10|0,1:0|0:0,0:0:0:0:
114,351,99947,6,0,L|175:334,1,46.7500014266968,10|10,1:0|1:0,0:0:0:0:
215,270,100105,1,8,0:1:0:0:
215,270,100184,2,0,L|307:294,1,93.5000028533936,10|0,0:1|0:0,0:0:0:0:
378,341,100421,2,0,L|394:279,1,46.7500014266968,10|0,0:1|0:0,0:0:0:0:
496,260,100578,6,0,P|440:229|430:189,1,93.5000028533936,10|10,1:0|0:1,0:0:0:0:
476,137,100815,1,8,0:1:0:0:
476,137,100894,1,10,1:0:0:0:
359,168,101053,1,10,1:0:0:0:
416,12,101210,5,14,1:0:0:0:
416,12,101289,1,8,0:1:0:0:
416,12,101368,2,0,L|355:-5,1,46.7500014266968,10|8,1:0|0:1,0:0:0:0:
307,77,101525,5,10,1:3:0:0:
307,77,101604,1,10,0:3:0:0:
307,77,101683,2,0,L|246:93,1,46.7500014266968,10|10,1:3|0:3,0:0:0:0:
189,13,101842,6,0,L|172:74,1,46.7500014266968,10|8,1:0|0:1,0:0:0:0:
68,84,101999,1,8,1:2:0:0:
68,84,102078,2,0,P|113:112|126:161,1,93.5000028533936,10|0,1:0|0:0,0:0:0:0:
171,223,102315,2,0,L|125:235,1,46.7500014266968,10|8,1:0|0:1,0:0:0:0:
29,297,102473,6,0,L|90:313,1,46.7500014266968,14|8,1:0|0:1,0:0:0:0:
21,305,102631,2,0,L|82:321,1,46.7500014266968,10|8,0:1|0:1,0:0:0:0:
140,376,102789,6,0,L|185:363,1,46.7500014266968,10|8,0:1|0:1,0:0:0:0:
148,384,102947,2,0,L|193:371,1,46.7500014266968,10|8,0:1|0:1,0:0:0:0:
242,290,103105,6,0,L|272:298,6,23.3750007133484,10|8|8|8|10|0|8,0:1|0:1|0:1|0:1|0:1|0:0|0:1,0:0:0:0:
216,197,103421,2,0,B|165:210|165:210|153:231|153:231|102:245,1,127.500004863739,14|10,0:1|0:1,0:0:0:0:
22,300,103736,1,10,0:1:0:0:
0,198,103894,5,8,0:1:0:0:
0,198,103973,1,8,0:1:0:0:
0,198,104052,2,0,L|26:98,1,85,14|2,0:0|0:0,0:0:0:0:
126,145,104368,5,10,0:1:0:0:
186,57,104525,1,2,0:0:0:0:
186,57,104605,1,0,0:0:0:0:
186,57,104684,1,10,0:0:0:0:
283,101,104842,1,2,0:0:0:0:
400,2,104999,6,0,P|405:55|442:89,1,85,10|0,0:1|0:0,0:0:0:0:
512,65,105236,1,0,0:0:0:0:
512,65,105315,2,0,L|482:176,1,85,10|0,0:0|0:0,0:0:0:0:
455,250,105631,5,10,0:1:0:0:
358,269,105789,1,2,0:0:0:0:
291,199,105947,1,10,0:0:0:0:
388,180,106105,1,10,0:1:0:0:
308,50,106263,6,0,B|322:98|322:98|293:61,1,85,4|8,1:0|0:1,0:0:0:0:
214,122,106578,2,0,L|131:100,1,85,8|8,0:0|0:1,0:0:0:0:
78,38,106815,1,8,0:1:0:0:
78,38,106894,2,0,B|58:49|58:49|41:111,2,85,8|8|8,0:0|0:1|0:0,0:0:0:0:
231,37,107368,1,8,0:1:0:0:
304,110,107526,6,0,B|313:151|313:151|285:183,1,85,4|8,1:0|0:1,0:0:0:0:
261,266,107762,1,8,0:0:0:0:
261,266,107842,2,0,L|141:298,1,85,0|8,0:0|0:1,0:0:0:0:
80,198,108157,6,0,L|63:259,3,42.5,8|8|8|8,0:0|0:0|0:0|0:0,0:0:0:0:
105,324,108473,1,8,0:0:0:0:
105,324,108552,1,8,0:0:0:0:
105,324,108631,1,8,0:1:0:0:
4,160,108789,6,0,P|36:122|76:112,1,85,14|0,0:1|0:0,0:0:0:0:
149,148,109026,1,0,0:0:0:0:
149,148,109105,2,0,L|179:33,1,85,10|2,0:0|0:0,0:0:0:0:
252,131,109421,5,10,0:1:0:0:
345,103,109579,1,2,0:0:0:0:
419,167,109736,1,10,0:0:0:0:
430,170,109895,1,2,0:0:0:0:
511,0,110052,6,0,P|479:38|439:48,1,85,10|0,0:1|0:0,0:0:0:0:
373,0,110289,1,0,0:0:0:0:
373,0,110368,2,0,L|258:30,1,85,10|0,0:0|0:0,0:0:0:0:
184,0,110684,5,10,0:1:0:0:
114,67,110842,1,10,0:1:0:0:
133,164,110999,1,10,0:0:0:0:
286,115,111157,1,10,0:1:0:0:
286,115,111236,1,0,0:0:0:0:
286,115,111315,6,0,L|396:85,1,85,4|0,1:0|1:0,0:0:0:0:
444,138,111552,1,0,0:0:0:0:
444,138,111631,1,2,1:3:0:0:
392,225,111789,1,8,0:1:0:0:
471,366,111947,6,0,B|488:306|488:306|506:294,2,85,8|8|8,0:0|0:1|0:0,0:0:0:0:
322,384,112420,1,10,0:3:0:0:
337,297,112578,6,0,B|296:288|296:288|264:316,1,85,12|8,1:2|0:0,0:0:0:0:
209,383,112815,1,8,0:1:0:0:
209,383,112894,2,0,L|126:361,1,85,8|10,0:0|0:3,0:0:0:0:
49,384,113131,1,10,0:3:0:0:
49,384,113210,5,10,0:0:0:0:
30,290,113368,1,10,0:3:0:0:
69,132,113526,5,14,0:1:0:0:
88,226,113684,1,2,0:1:0:0:
223,299,113842,6,0,P|257:266|301:271,1,85,14|0,0:1|0:0,0:0:0:0:
342,339,114079,1,0,0:0:0:0:
342,339,114157,2,0,B|353:358|353:358|430:379,1,85,10|0,1:0|0:0,0:0:0:0:
498,307,114474,1,10,0:3:0:0:
431,228,114631,1,2,0:0:0:0:
478,141,114789,2,0,L|461:79,1,42.5,10|0,1:0|0:0,0:0:0:0:
486,133,114947,2,0,L|469:71,1,42.5,2|0,0:1|0:0,0:0:0:0:
417,10,115105,6,0,P|392:50|348:57,1,85,10|0,0:1|0:0,0:0:0:0:
292,110,115342,1,0,0:0:0:0:
292,110,115420,2,0,B|281:91|281:91|204:70,1,85,10|0,1:0|0:0,0:0:0:0:
143,0,115737,1,10,3:3:0:0:
48,49,115894,1,2,3:0:0:0:
48,49,115974,1,0,3:0:0:0:
48,49,116052,2,0,L|64:110,1,42.5,10|0,1:2|0:0,0:0:0:0:
40,57,116210,2,0,L|56:118,1,42.5,2|0,0:0|0:0,0:0:0:0:
136,146,116368,6,0,B|117:158|117:158|96:235,1,85,10|2,0:3|0:3,0:0:0:0:
15,178,116605,1,0,0:0:0:0:
15,178,116684,2,0,B|27:198|27:198|11:258,1,85,10|0,1:2|0:0,0:0:0:0:
102,315,116999,1,10,0:3:0:0:
191,254,117158,1,2,0:0:0:0:
285,304,117315,2,0,L|268:365,1,42.5,10|0,1:2|0:0,0:0:0:0:
293,312,117473,2,0,L|276:373,1,42.5,2|0,0:0|0:0,0:0:0:0:
361,384,117631,6,0,L|443:361,1,85,10|0,0:3|3:0,0:0:0:0:
488,295,117868,2,0,B|501:255|501:255|469:227,1,85,2|0,0:0|0:0,0:0:0:0:
404,284,118104,1,2,0:0:0:0:
304,199,118263,5,10,0:3:0:0:
387,203,118421,1,10,0:3:0:0:
491,107,118579,1,10,1:0:0:0:
491,107,118658,1,8,0:1:0:0:
491,107,118737,1,10,0:1:0:0:
491,107,118816,1,8,0:1:0:0:
491,107,118894,6,0,P|464:42|402:31,1,127.5,14|0,0:1|0:0,0:0:0:0:
337,92,119210,2,0,B|254:70|254:70|224:18,1,127.5,10|0,1:0|0:0,0:0:0:0:
131,6,119526,5,10,0:3:0:0:
169,104,119684,1,2,0:0:0:0:
59,85,119842,2,0,L|75:146,1,42.5,10|0,1:2|0:0,0:0:0:0:
51,93,120000,2,0,L|67:154,1,42.5,10|0,0:3|0:0,0:0:0:0:
2,211,120157,6,0,P|44:218|70:272,1,85,14|0,0:1|0:0,0:0:0:0:
29,331,120395,1,0,0:0:0:0:
29,331,120473,2,0,L|121:355,1,85,10|0,1:0|0:0,0:0:0:0:
187,263,120789,6,0,B|198:243|198:243|260:226,1,85,14|0,0:1|0:0,0:0:0:0:
308,296,121026,2,0,L|390:317,1,85,14|0,0:1|0:0,0:0:0:0:
459,261,121263,1,10,0:1:0:0:
459,261,121342,1,8,0:1:0:0:
459,261,121421,6,0,B|451:219|451:219|479:189,1,85,14|0,0:1|0:0,0:0:0:0:
451,108,121658,2,0,B|420:135|420:135|379:127,1,85,14|0,0:1|0:0,0:0:0:0:
336,200,121895,2,0,B|361:208|361:208|370:234,1,42.5,14|0,1:0|0:0,0:0:0:0:
386,302,122053,6,0,L|345:312,1,42.5,10|0,1:2|0:0,0:0:0:0:
396,310,122211,2,0,L|354:321,1,42.5,14|0,1:2|0:0,0:0:0:0:
272,260,122369,2,0,L|226:272,1,42.5,10|0,1:3|0:0,0:0:0:0:
280,268,122526,2,0,L|234:280,1,42.5,2|0,1:3|0:0,0:0:0:0:
180,379,122684,5,14,0:3:0:0:
180,379,122763,2,0,L|164:321,1,42.5,2|0,0:0|0:0,0:0:0:0:
88,300,122921,2,0,B|108:288|108:288|125:226,1,85,10|0,0:3|0:0,0:0:0:0:
133,141,123158,2,0,L|75:156,1,42.5,10|0,0:3|0:0,0:0:0:0:
196,192,123315,2,0,L|253:207,1,42.5,14|8,0:3|0:1,0:0:0:0:
289,140,123473,1,8,0:1:0:0:
289,140,123552,1,8,0:1:0:0:
289,140,123631,6,0,B|323:131|323:131|403:221|403:221|436:211,1,191.250007295609,12|0,1:2|0:0,0:0:0:0:
437,210,123946,1,12,0:1:0:0:
