osu file format v14

[General]
AudioFilename: audio.mp3
AudioLeadIn: 0
PreviewTime: 53594
Countdown: 0
SampleSet: Soft
StackLeniency: 0.7
Mode: 3
LetterboxInBreaks: 0
SpecialStyle: 0
WidescreenStoryboard: 0

[Editor]
DistanceSpacing: 1.5
BeatDivisor: 4
GridSize: 4
TimelineZoom: 3.3

[Metadata]
Title:FORViDDEN ENERZY -Fataldoze-
TitleUnicode:FORViDDEN ENERZY -Fataldoze-
Artist:Reku Mochizuki
ArtistUnicode:Reku Mochizuki
Creator:fvrex
Version:Malignant
Source:
Tags:FORBIDDEN ENERGY -Fataldose- xTrippin Hytex FAMoss FA Featured Artist MG MPG Mappers' Mapper's Guild 3rd PUMP IT UP PIU Contest 펌프잇업공식 electronic instrumental hardcore arcade core j-core jcore video game
BeatmapID:3035538
BeatmapSetID:1479741

[Difficulty]
HPDrainRate:8
CircleSize:4
OverallDifficulty:8
ApproachRate:5
SliderMultiplier:1.4
SliderTickRate:1

[Events]
//Background and Video events
0,0,"mrow.jpg",0,0
//Break Periods
//Storyboard Layer 0 (Background)
//Storyboard Layer 1 (Fail)
//Storyboard Layer 2 (Pass)
//Storyboard Layer 3 (Foreground)
//Storyboard Layer 4 (Overlay)
//Storyboard Sound Samples
Sample,9729,0,"LR_Clap Drum hit.wav",80
Sample,10053,0,"LR_Clap Drum hit.wav",80
Sample,10377,0,"LR_Clap Drum hit.wav",80
Sample,28702,0,"LR5_DrumSnare Sn Dr Ws.wav",70
Sample,29026,0,"LR5_DrumSnare Sn Dr Ws.wav",70
Sample,29999,0,"LR5_DrumSnare Sn Dr Ws.wav",70
Sample,30323,0,"LR5_DrumSnare Sn Dr Ws.wav",70
Sample,30648,0,"LR5_DrumSnare Sn Dr Ws.wav",70
Sample,30972,0,"LR5_DrumSnare Sn Dr Ws.wav",70
Sample,31296,0,"LR5_DrumSnare Sn Dr Ws.wav",70
Sample,90323,0,"LR5_DrumSnare Sn Dr Ws.wav",70
Sample,90972,0,"LR5_DrumSnare Sn Dr Ws.wav",70
Sample,91621,0,"LR5_DrumSnare Sn Dr Ws.wav",70
Sample,92269,0,"LR5_DrumSnare Sn Dr Ws.wav",70
Sample,92675,0,"LR_Clap Drum hit.wav",80
Sample,92837,0,"LR_Clap Drum hit.wav",80
Sample,92918,0,"LR5_DrumSnare Sn Dr Ws.wav",70
Sample,92999,0,"LR_Clap Drum hit.wav",80
Sample,93161,0,"LR_Clap Drum hit.wav",80
Sample,93323,0,"LR_Clap Drum hit.wav",80
Sample,93404,0,"LR_Clap Drum hit.wav",80
Sample,93485,0,"LR_Clap Drum hit.wav",80
Sample,93567,0,"LR5_DrumSnare Sn Dr Ws.wav",70
Sample,93648,0,"LR_Clap Drum hit.wav",80
Sample,93729,0,"LR_Clap Drum hit.wav",80
Sample,93810,0,"LR_Clap Drum hit.wav",80
Sample,93891,0,"LR_Clap Drum hit.wav",80

[TimingPoints]
486,324.324324324324,4,2,1,60,1,0
53675,-100,4,2,1,60,0,1
74431,-100,4,2,1,60,0,0

[HitObjects]
64,192,486,5,0,0:0:0:0:
448,192,486,1,0,0:0:0:0:
320,192,648,1,0,0:0:0:0:
320,192,810,1,0,0:0:0:0:
448,192,891,1,0,0:0:0:0:
64,192,972,1,0,0:0:0:0:
192,192,972,1,0,0:0:0:0:
320,192,1134,1,0,0:0:0:0:
448,192,1134,1,0,0:0:0:0:
192,192,1215,1,0,0:0:0:0:
320,192,1296,1,0,0:0:0:0:
448,192,1296,1,0,0:0:0:0:
192,192,1377,1,0,0:0:0:0:
64,192,1458,128,0,1702:0:0:0:0:
448,192,1458,128,0,1702:0:0:0:0:
64,192,1783,128,0,1945:0:0:0:70:LR_CymbalSSD.wav
192,192,1783,1,0,0:0:0:70:kick11.wav
320,192,1783,1,0,0:0:0:80:LR_Clap Drum hit.wav
448,192,1945,128,0,2107:0:0:0:0:
64,192,2107,1,0,0:0:0:80:LR_Clap Drum hit.wav
192,192,2107,1,0,0:0:0:0:
320,192,2188,128,0,2269:0:0:0:0:
448,192,2269,1,0,0:0:0:0:
192,192,2350,1,0,0:0:0:0:
64,192,2431,1,0,0:0:0:0:
448,192,2513,128,0,2594:0:0:0:0:
320,192,2594,1,0,0:0:0:0:
448,192,2675,1,0,0:0:0:0:
64,192,2756,1,0,0:0:0:80:LR_Clap Drum hit.wav
192,192,2756,1,0,0:0:0:0:
320,192,2837,1,0,0:0:0:0:
64,192,2918,1,0,0:0:0:0:
192,192,2999,1,0,0:0:0:0:
64,192,3080,1,0,0:0:0:70:LR_CymbalSSD.wav
320,192,3080,1,0,0:0:0:70:kick11.wav
448,192,3080,128,0,3161:0:0:0:80:LR_Clap Drum hit.wav
192,192,3242,128,0,3323:0:0:0:0:
64,192,3404,1,0,0:0:0:80:LR_Clap Drum hit.wav
192,192,3404,1,0,0:0:0:0:
320,192,3485,128,0,3648:0:0:0:0:
64,192,3567,1,0,0:0:0:0:
448,192,3648,1,0,0:0:0:0:
192,192,3729,1,0,0:0:0:0:
320,192,3810,1,0,0:0:0:0:
64,192,3891,1,0,0:0:0:70:LR_CymbalSSD.wav
192,192,3891,1,0,0:0:0:70:kick11.wav
448,192,3891,1,0,0:0:0:0:
320,192,3972,1,0,0:0:0:0:
64,192,4053,1,0,0:0:0:80:LR_Clap Drum hit.wav
448,192,4053,1,0,0:0:0:0:
192,192,4134,1,0,0:0:0:0:
64,192,4215,1,0,0:0:0:70:LR_CymbalSSD.wav
320,192,4215,1,0,0:0:0:70:kick11.wav
448,192,4215,1,0,0:0:0:0:
192,192,4296,1,0,0:0:0:0:
64,192,4377,128,0,4540:0:0:0:70:LR_CymbalSSD.wav
320,192,4377,1,0,0:0:0:70:kick11.wav
448,192,4377,1,0,0:0:0:80:LR_Clap Drum hit.wav
320,192,4540,128,0,4702:0:0:0:0:
64,192,4702,1,0,0:0:0:80:LR_Clap Drum hit.wav
448,192,4702,1,0,0:0:0:0:
192,192,4783,128,0,4864:0:0:0:0:
448,192,4864,1,0,0:0:0:0:
320,192,4945,1,0,0:0:0:0:
64,192,5026,1,0,0:0:0:80:LR_Clap Drum hit.wav
192,192,5026,1,0,0:0:0:0:
448,192,5107,1,0,0:0:0:0:
320,192,5188,1,0,0:0:0:0:
192,192,5269,1,0,0:0:0:0:
64,192,5350,1,0,0:0:0:80:LR_Clap Drum hit.wav
448,192,5350,1,0,0:0:0:0:
320,192,5431,1,0,0:0:0:0:
192,192,5513,1,0,0:0:0:0:
320,192,5594,1,0,0:0:0:0:
64,192,5675,1,0,0:0:0:70:LR_CymbalSSD.wav
192,192,5675,1,0,0:0:0:70:kick11.wav
448,192,5675,128,0,5837:0:0:0:80:LR_Clap Drum hit.wav
192,192,5837,128,0,5999:0:0:0:0:
320,192,5999,1,0,0:0:0:80:LR_Clap Drum hit.wav
448,192,5999,1,0,0:0:0:0:
64,192,6080,128,0,6161:0:0:0:0:
192,192,6161,1,0,0:0:0:0:
448,192,6242,128,0,6323:0:0:0:0:
64,192,6323,1,0,0:0:0:80:LR_Clap Drum hit.wav
320,192,6323,1,0,0:0:0:0:
192,192,6404,1,0,0:0:0:0:
192,192,6485,1,0,0:0:0:0:
320,192,6567,1,0,0:0:0:0:
64,192,6648,1,0,0:0:0:70:LR_CymbalSSD.wav
192,192,6648,1,0,0:0:0:70:kick11.wav
448,192,6648,1,0,0:0:0:80:LR_Clap Drum hit.wav
320,192,6729,1,0,0:0:0:0:
64,192,6810,1,0,0:0:0:70:kick11.wav
448,192,6810,1,0,0:0:0:0:
192,192,6891,1,0,0:0:0:70:kick11.wav
64,192,6972,1,0,0:0:0:70:LR_CymbalSSD.wav
320,192,6972,1,0,0:0:0:70:kick11.wav
448,192,6972,128,0,7134:0:0:0:80:LR_Clap Drum hit.wav
64,192,7134,128,0,7296:0:0:0:80:LR_Clap Drum hit.wav
320,192,7296,1,0,0:0:0:70:kick11.wav
448,192,7296,1,0,0:0:0:80:LR_Clap Drum hit.wav
192,192,7377,128,0,7458:0:0:0:0:
64,192,7458,1,0,0:0:0:80:LR_Clap Drum hit.wav
320,192,7540,1,0,0:0:0:0:
64,192,7621,1,0,0:0:0:70:LR_CymbalSSD.wav
192,192,7621,1,0,0:0:0:70:kick11.wav
448,192,7621,1,0,0:0:0:80:LR_Clap Drum hit.wav
320,192,7702,128,0,7783:0:0:0:0:
192,192,7783,1,0,0:0:0:80:LR_Clap Drum hit.wav
64,192,7864,1,0,0:0:0:0:
320,192,7945,1,0,0:0:0:70:kick11.wav
448,192,7945,1,0,0:0:0:80:LR_Clap Drum hit.wav
192,192,8026,1,0,0:0:0:0:
448,192,8107,1,0,0:0:0:80:LR_Clap Drum hit.wav
320,192,8188,1,0,0:0:0:0:
64,192,8269,128,0,8350:0:0:0:70:LR_CymbalSSD.wav
192,192,8269,1,0,0:0:0:70:kick11.wav
448,192,8269,1,0,0:0:0:80:LR_Clap Drum hit.wav
320,192,8431,128,0,8513:0:0:0:80:LR_Clap Drum hit.wav
320,192,8594,1,0,0:0:0:70:kick11.wav
448,192,8594,1,0,0:0:0:80:LR_Clap Drum hit.wav
192,192,8675,128,0,8837:0:0:0:0:
448,192,8756,1,0,0:0:0:80:LR_Clap Drum hit.wav
64,192,8837,1,0,0:0:0:0:
192,192,8918,1,0,0:0:0:70:LR_CymbalSSD.wav
320,192,8918,1,0,0:0:0:70:kick11.wav
448,192,8918,1,0,0:0:0:80:LR_Clap Drum hit.wav
64,192,8999,1,0,0:0:0:0:
320,192,9080,1,0,0:0:0:80:LR_Clap Drum hit.wav
192,192,9161,1,0,0:0:0:0:
64,192,9242,1,0,0:0:0:70:kick11.wav
448,192,9242,1,0,0:0:0:80:LR_Clap Drum hit.wav
320,192,9323,1,0,0:0:0:0:
192,192,9404,1,0,0:0:0:80:LR_Clap Drum hit.wav
448,192,9485,1,0,0:0:0:0:
64,192,9567,1,0,0:0:0:70:LR_CymbalSSD.wav
192,192,9567,1,0,0:0:0:70:kick11.wav
320,192,9567,1,0,0:0:0:80:LR_Clap Drum hit.wav
448,192,9648,1,0,0:0:0:80:LR_Clap Drum hit.wav
64,192,9729,1,0,0:0:0:70:kick11.wav
192,192,9810,1,0,0:0:0:80:LR_Clap Drum hit.wav
64,192,9891,1,0,0:0:0:70:LR_CymbalSSD.wav
320,192,9891,1,0,0:0:0:70:kick11.wav
448,192,9891,1,0,0:0:0:80:LR_Clap Drum hit.wav
192,192,9972,1,0,0:0:0:80:LR_Clap Drum hit.wav
448,192,10053,1,0,0:0:0:70:kick11.wav
64,192,10134,1,0,0:0:0:80:LR_Clap Drum hit.wav
192,192,10215,1,0,0:0:0:70:LR_CymbalSSD.wav
320,192,10215,1,0,0:0:0:70:kick11.wav
448,192,10215,1,0,0:0:0:80:LR_Clap Drum hit.wav
64,192,10296,1,0,0:0:0:80:LR_Clap Drum hit.wav
320,192,10377,1,0,0:0:0:70:kick11.wav
64,192,10458,1,0,0:0:0:70:LR_CymbalSSD.wav
192,192,10458,1,0,0:0:0:70:kick11.wav
448,192,10458,1,0,0:0:0:80:LR_Clap Drum hit.wav
320,192,10540,1,0,0:0:0:80:LR_Clap Drum hit.wav
192,192,10621,1,0,0:0:0:80:LR_Clap Drum hit.wav
64,192,10702,1,0,0:0:0:70:LR_CymbalSSD.wav
320,192,10702,1,0,0:0:0:70:kick11.wav
448,192,10702,1,0,0:0:0:80:LR_Clap Drum hit.wav
192,192,10783,1,0,0:0:0:80:LR_Clap Drum hit.wav
64,192,10864,128,0,11026:0:0:0:70:kick11.wav
448,192,10864,1,0,0:0:0:80:LR_Clap Drum hit.wav
320,192,11026,128,0,11188:0:0:0:0:
192,192,11188,1,0,0:0:0:0:
448,192,11269,128,0,11350:0:0:0:0:
320,192,11350,1,0,0:0:0:0:
64,192,11431,128,0,11513:0:0:0:0:
192,192,11513,1,0,0:0:0:0:
320,192,11513,1,0,0:0:0:0:
448,192,11594,1,0,0:0:0:0:
64,192,11675,1,0,0:0:0:0:
192,192,11675,1,0,0:0:0:0:
320,192,11756,1,0,0:0:0:0:
192,192,11837,1,0,0:0:0:0:
448,192,11837,1,0,0:0:0:0:
64,192,11918,1,0,0:0:0:0:
320,192,11999,1,0,0:0:0:0:
192,192,12161,128,0,12323:0:0:0:0:
320,192,12161,128,0,12242:0:0:0:0:
448,192,12161,1,0,0:0:0:0:
64,192,12323,1,0,0:0:0:0:
320,192,12404,1,0,0:0:0:0:
64,192,12485,1,0,0:0:0:70:LR_CymbalSSD.wav
192,192,12485,1,0,0:0:0:70:kick11.wav
448,192,12485,128,0,12567:0:0:0:70:LR5_DrumSnare Sn Dr Ws.wav
448,192,12648,1,0,0:0:0:0:
320,192,12729,1,0,0:0:0:0:
64,192,12810,1,0,0:0:0:70:kick11.wav
192,192,12810,128,0,12972:0:0:0:0:
448,192,12972,1,0,0:0:0:0:
320,192,13053,1,0,0:0:0:0:
64,192,13134,128,0,13296:0:0:0:70:kick11.wav
192,192,13134,1,0,0:0:0:70:LR5_DrumSnare Sn Dr Ws.wav
448,192,13215,1,0,0:0:0:0:
320,192,13296,128,0,13458:0:0:0:0:
64,192,13458,1,0,0:0:0:70:kick11.wav
448,192,13458,128,0,13540:0:0:0:0:
320,192,13621,1,0,0:0:0:0:
320,192,13702,1,0,0:0:0:0:
64,192,13783,128,0,13864:0:0:0:70:kick11.wav
192,192,13783,1,0,0:0:0:70:LR5_DrumSnare Sn Dr Ws.wav
448,192,13945,128,0,14026:0:0:0:0:
64,192,14107,1,0,0:0:0:70:kick11.wav
192,192,14107,1,0,0:0:0:0:
192,192,14188,1,0,0:0:0:0:
320,192,14269,1,0,0:0:0:70:kick11.wav
448,192,14269,1,0,0:0:0:0:
320,192,14350,1,0,0:0:0:0:
64,192,14431,1,0,0:0:0:70:kick11.wav
192,192,14431,1,0,0:0:0:70:LR5_DrumSnare Sn Dr Ws.wav
448,192,14513,1,0,0:0:0:0:
320,192,14594,1,0,0:0:0:0:
192,192,14675,1,0,0:0:0:0:
64,192,14756,1,0,0:0:0:70:kick11.wav
448,192,14756,1,0,0:0:0:0:
320,192,14837,1,0,0:0:0:0:
448,192,14918,1,0,0:0:0:0:
320,192,14999,1,0,0:0:0:0:
64,192,15080,1,0,0:0:0:70:kick11.wav
192,192,15080,128,0,15161:0:0:0:70:LR5_DrumSnare Sn Dr Ws.wav
448,192,15242,128,0,15404:0:0:0:0:
64,192,15404,1,0,0:0:0:70:kick11.wav
320,192,15404,1,0,0:0:0:0:
192,192,15567,128,0,15729:0:0:0:0:
320,192,15729,128,0,15891:0:0:0:70:kick11.wav
448,192,15729,1,0,0:0:0:70:LR5_DrumSnare Sn Dr Ws.wav
64,192,15891,128,0,15972:0:0:0:0:
192,192,15972,1,0,0:0:0:0:
320,192,16053,1,0,0:0:0:70:kick11.wav
448,192,16053,1,0,0:0:0:0:
192,192,16134,1,0,0:0:0:0:
64,192,16215,128,0,16377:0:0:0:0:
320,192,16377,1,0,0:0:0:70:kick11.wav
448,192,16377,1,0,0:0:0:70:LR5_DrumSnare Sn Dr Ws.wav
64,192,16540,1,0,0:0:0:0:
192,192,16621,1,0,0:0:0:0:
320,192,16702,1,0,0:0:0:70:kick11.wav
448,192,16702,128,0,16864:0:0:0:0:
192,192,16864,1,0,0:0:0:0:
64,192,16945,1,0,0:0:0:0:
192,192,17026,1,0,0:0:0:70:kick11.wav
320,192,17026,128,0,17188:0:0:0:70:LR5_DrumSnare Sn Dr Ws.wav
64,192,17188,1,0,0:0:0:70:kick11.wav
448,192,17188,1,0,0:0:0:0:
192,192,17269,1,0,0:0:0:70:kick11.wav
320,192,17269,1,0,0:0:0:0:
64,192,17350,128,0,17431:0:0:0:70:kick11.wav
448,192,17350,128,0,17431:0:0:0:0:
64,192,17513,1,0,0:0:0:70:kick11.wav
448,192,17513,1,0,0:0:0:0:
64,192,17675,128,0,17837:0:0:0:70:kick11.wav
448,192,17675,128,0,17837:0:0:0:70:LR5_DrumSnare Sn Dr Ws.wav
320,192,17837,1,0,0:0:0:0:
192,192,17918,1,0,0:0:0:0:
320,192,17999,128,0,18080:0:0:0:70:kick11.wav
448,192,17999,1,0,0:0:0:0:
64,192,18161,128,0,18323:0:0:0:0:
320,192,18323,1,0,0:0:0:70:kick11.wav
448,192,18323,1,0,0:0:0:70:LR5_DrumSnare Sn Dr Ws.wav
192,192,18404,1,0,0:0:0:0:
320,192,18485,1,0,0:0:0:0:
64,192,18567,1,0,0:0:0:0:
192,192,18648,1,0,0:0:0:70:kick11.wav
448,192,18648,128,0,18729:0:0:0:0:
64,192,18810,128,0,18972:0:0:0:0:
320,192,18972,1,0,0:0:0:70:kick11.wav
448,192,18972,1,0,0:0:0:70:LR5_DrumSnare Sn Dr Ws.wav
192,192,19053,1,0,0:0:0:0:
320,192,19134,1,0,0:0:0:0:
64,192,19215,1,0,0:0:0:0:
320,192,19296,128,0,19377:0:0:0:70:kick11.wav
448,192,19296,1,0,0:0:0:0:
192,192,19458,128,0,19540:0:0:0:70:kick11.wav
320,192,19458,1,0,0:0:0:0:
64,192,19540,1,0,0:0:0:0:
320,192,19621,1,0,0:0:0:70:kick11.wav
448,192,19621,1,0,0:0:0:70:LR5_DrumSnare Sn Dr Ws.wav
448,192,19702,1,0,0:0:0:0:
192,192,19783,1,0,0:0:0:0:
192,192,19864,1,0,0:0:0:0:
320,192,19945,1,0,0:0:0:70:kick11.wav
448,192,19945,1,0,0:0:0:0:
64,192,20026,1,0,0:0:0:0:
192,192,20107,1,0,0:0:0:0:
320,192,20188,1,0,0:0:0:0:
64,192,20269,128,0,20350:0:0:0:70:kick11.wav
448,192,20269,1,0,0:0:0:70:LR5_DrumSnare Sn Dr Ws.wav
320,192,20431,128,0,20594:0:0:0:0:
64,192,20594,1,0,0:0:0:70:kick11.wav
192,192,20594,1,0,0:0:0:0:
192,192,20756,128,0,20918:0:0:0:0:
64,192,20918,128,0,21080:0:0:0:70:kick11.wav
448,192,20918,1,0,0:0:0:70:LR5_DrumSnare Sn Dr Ws.wav
320,192,21080,128,0,21242:0:0:0:0:
64,192,21242,1,0,0:0:0:70:kick11.wav
192,192,21242,1,0,0:0:0:0:
448,192,21323,1,0,0:0:0:0:
64,192,21404,1,0,0:0:0:0:
448,192,21485,1,0,0:0:0:0:
320,192,21567,1,0,0:0:0:0:
192,192,21648,1,0,0:0:0:0:
64,192,21729,1,0,0:0:0:0:
320,192,21810,1,0,0:0:0:0:
192,192,21891,1,0,0:0:0:0:
448,192,21891,1,0,0:0:0:0:
64,192,21972,1,0,0:0:0:0:
320,192,22053,1,0,0:0:0:0:
448,192,22053,1,0,0:0:0:0:
192,192,22134,1,0,0:0:0:0:
64,192,22215,1,0,0:0:0:0:
448,192,22215,1,0,0:0:0:0:
320,192,22296,1,0,0:0:0:0:
192,192,22377,1,0,0:0:0:0:
320,192,22458,1,0,0:0:0:0:
64,192,22540,1,0,0:0:0:0:
192,192,22540,128,0,22702:0:0:0:0:
448,192,22540,128,0,22621:0:0:0:0:
64,192,22702,1,0,0:0:0:0:
320,192,22783,1,0,0:0:0:0:
64,192,22864,1,0,0:0:0:70:LR_CymbalSSD.wav
192,192,22864,1,0,0:0:0:70:kick11.wav
448,192,22864,128,0,22945:0:0:0:70:LR5_DrumSnare Sn Dr Ws.wav
448,192,23026,1,0,0:0:0:0:
320,192,23107,1,0,0:0:0:0:
64,192,23188,1,0,0:0:0:70:kick11.wav
192,192,23188,128,0,23350:0:0:0:0:
448,192,23350,1,0,0:0:0:0:
320,192,23431,1,0,0:0:0:0:
64,192,23513,128,0,23675:0:0:0:70:kick11.wav
192,192,23513,1,0,0:0:0:70:LR5_DrumSnare Sn Dr Ws.wav
448,192,23594,1,0,0:0:0:0:
320,192,23675,128,0,23837:0:0:0:0:
64,192,23837,1,0,0:0:0:70:kick11.wav
448,192,23837,128,0,23918:0:0:0:0:
320,192,23999,1,0,0:0:0:0:
320,192,24080,1,0,0:0:0:0:
64,192,24161,128,0,24242:0:0:0:70:kick11.wav
192,192,24161,1,0,0:0:0:70:LR5_DrumSnare Sn Dr Ws.wav
448,192,24323,128,0,24404:0:0:0:0:
320,192,24485,1,0,0:0:0:70:kick11.wav
448,192,24485,1,0,0:0:0:0:
320,192,24567,1,0,0:0:0:0:
64,192,24648,1,0,0:0:0:70:kick11.wav
192,192,24648,1,0,0:0:0:0:
192,192,24729,1,0,0:0:0:0:
320,192,24810,1,0,0:0:0:70:kick11.wav
448,192,24810,1,0,0:0:0:70:LR5_DrumSnare Sn Dr Ws.wav
192,192,24891,1,0,0:0:0:0:
64,192,24972,1,0,0:0:0:70:kick11.wav
448,192,24972,1,0,0:0:0:0:
320,192,25053,1,0,0:0:0:0:
64,192,25134,1,0,0:0:0:70:kick11.wav
448,192,25134,1,0,0:0:0:0:
192,192,25215,1,0,0:0:0:0:
64,192,25296,1,0,0:0:0:0:
192,192,25377,1,0,0:0:0:0:
64,192,25458,1,0,0:0:0:70:kick11.wav
320,192,25458,128,0,25540:0:0:0:70:LR5_DrumSnare Sn Dr Ws.wav
448,192,25621,128,0,25783:0:0:0:0:
64,192,25783,1,0,0:0:0:70:kick11.wav
320,192,25783,1,0,0:0:0:0:
192,192,25945,128,0,26107:0:0:0:0:
320,192,26107,128,0,26269:0:0:0:70:kick11.wav
448,192,26107,1,0,0:0:0:70:LR5_DrumSnare Sn Dr Ws.wav
192,192,26269,1,0,0:0:0:0:
64,192,26350,1,0,0:0:0:0:
320,192,26431,1,0,0:0:0:70:kick11.wav
448,192,26431,1,0,0:0:0:0:
192,192,26513,1,0,0:0:0:0:
64,192,26594,128,0,26756:0:0:0:0:
320,192,26756,1,0,0:0:0:70:kick11.wav
448,192,26756,1,0,0:0:0:70:LR5_DrumSnare Sn Dr Ws.wav
64,192,26918,1,0,0:0:0:0:
192,192,26999,1,0,0:0:0:0:
320,192,27080,1,0,0:0:0:70:kick11.wav
448,192,27080,128,0,27242:0:0:0:0:
192,192,27242,1,0,0:0:0:0:
64,192,27323,1,0,0:0:0:0:
192,192,27404,1,0,0:0:0:70:kick11.wav
320,192,27404,128,0,27567:0:0:0:70:LR5_DrumSnare Sn Dr Ws.wav
64,192,27567,1,0,0:0:0:70:LR5_DrumSnare Sn Dr Ws.wav
448,192,27567,1,0,0:0:0:0:
320,192,27648,1,0,0:0:0:0:
64,192,27729,1,0,0:0:0:70:kick11.wav
192,192,27729,128,0,27891:0:0:0:70:LR5_DrumSnare Sn Dr Ws.wav
448,192,27891,128,0,28053:0:0:0:0:
192,192,28053,1,0,0:0:0:70:kick11.wav
320,192,28053,128,0,28215:0:0:0:70:LR5_DrumSnare Sn Dr Ws.wav
64,192,28215,1,0,0:0:0:0:
192,192,28296,1,0,0:0:0:0:
320,192,28377,128,0,28458:0:0:0:70:kick11.wav
448,192,28377,1,0,0:0:0:70:LR5_DrumSnare Sn Dr Ws.wav
64,192,28540,128,0,28702:0:0:0:0:
320,192,28702,1,0,0:0:0:70:kick11.wav
448,192,28702,1,0,0:0:0:80:LR_Clap Drum hit.wav
192,192,28783,1,0,0:0:0:0:
320,192,28864,1,0,0:0:0:80:LR_Clap Drum hit.wav
448,192,28864,1,0,0:0:0:0:
64,192,28945,1,0,0:0:0:0:
192,192,29026,1,0,0:0:0:70:kick11.wav
448,192,29026,128,0,29107:0:0:0:80:LR_Clap Drum hit.wav
64,192,29188,128,0,29350:0:0:0:0:
320,192,29350,1,0,0:0:0:70:kick11.wav
448,192,29350,1,0,0:0:0:70:LR5_DrumSnare Sn Dr Ws.wav
192,192,29431,1,0,0:0:0:0:
320,192,29513,1,0,0:0:0:0:
64,192,29594,1,0,0:0:0:0:
320,192,29675,128,0,29756:0:0:0:70:kick11.wav
448,192,29675,1,0,0:0:0:70:LR5_DrumSnare Sn Dr Ws.wav
192,192,29837,128,0,29918:0:0:0:0:
320,192,29918,1,0,0:0:0:0:
64,192,29999,1,0,0:0:0:70:kick11.wav
448,192,29999,1,0,0:0:0:80:LR_Clap Drum hit.wav
448,192,30080,1,0,0:0:0:0:
64,192,30161,1,0,0:0:0:80:LR_Clap Drum hit.wav
192,192,30161,1,0,0:0:0:0:
64,192,30242,1,0,0:0:0:80:LR_Clap Drum hit.wav
192,192,30242,1,0,0:0:0:0:
320,192,30323,1,0,0:0:0:70:kick11.wav
448,192,30323,1,0,0:0:0:80:LR_Clap Drum hit.wav
192,192,30404,1,0,0:0:0:0:
64,192,30485,1,0,0:0:0:80:LR_Clap Drum hit.wav
320,192,30485,1,0,0:0:0:0:
448,192,30567,1,0,0:0:0:0:
64,192,30648,128,0,30729:0:0:0:70:kick11.wav
192,192,30648,1,0,0:0:0:80:LR_Clap Drum hit.wav
320,192,30810,128,0,30972:0:0:0:80:LR_Clap Drum hit.wav
448,192,30810,1,0,0:0:0:0:
64,192,30972,1,0,0:0:0:70:kick11.wav
192,192,30972,1,0,0:0:0:80:LR_Clap Drum hit.wav
448,192,31053,1,0,0:0:0:80:LR_Clap Drum hit.wav
320,192,31134,1,0,0:0:0:80:LR_Clap Drum hit.wav
64,192,31215,1,0,0:0:0:80:LR_Clap Drum hit.wav
192,192,31296,1,0,0:0:0:70:kick11.wav
448,192,31296,1,0,0:0:0:80:LR_Clap Drum hit.wav
320,192,31377,1,0,0:0:0:80:LR_Clap Drum hit.wav
192,192,31458,1,0,0:0:0:80:LR_Clap Drum hit.wav
320,192,31540,1,0,0:0:0:80:LR_Clap Drum hit.wav
64,192,31621,128,0,31783:0:0:0:70:kick11.wav
448,192,31621,1,0,0:0:0:0:
320,192,31783,128,0,31945:0:0:0:0:
192,192,31945,1,0,0:0:0:0:
448,192,32026,128,0,32107:0:0:0:0:
64,192,32107,1,0,0:0:0:0:
448,192,32188,128,0,32269:0:0:0:0:
64,192,32269,1,0,0:0:0:70:kick11.wav
320,192,32269,1,0,0:0:0:0:
448,192,32350,1,0,0:0:0:0:
192,192,32431,1,0,0:0:0:70:kick11.wav
320,192,32431,1,0,0:0:0:0:
64,192,32513,1,0,0:0:0:0:
320,192,32594,1,0,0:0:0:70:kick11.wav
448,192,32594,1,0,0:0:0:70:LR5_DrumSnare Sn Dr Ws.wav
192,192,32675,1,0,0:0:0:0:
448,192,32756,1,0,0:0:0:0:
320,192,32837,1,0,0:0:0:0:
64,192,32918,1,0,0:0:0:70:LR_CymbalSSD.wav
192,192,32918,1,0,0:0:0:70:kick11.wav
448,192,32918,1,0,0:0:0:0:
192,192,33080,1,0,0:0:0:0:
320,192,33242,1,0,0:0:0:0:
448,192,33242,1,0,0:0:0:0:
320,192,33404,1,0,0:0:0:0:
64,192,33567,1,0,0:0:0:0:
192,192,33567,1,0,0:0:0:0:
320,192,33729,1,0,0:0:0:0:
64,192,33891,1,0,0:0:0:0:
448,192,33891,1,0,0:0:0:0:
192,192,34053,1,0,0:0:0:0:
320,192,34215,1,0,0:0:0:0:
448,192,34215,1,0,0:0:0:0:
448,192,34377,1,0,0:0:0:0:
64,192,34540,1,0,0:0:0:0:
320,192,34540,1,0,0:0:0:0:
64,192,34702,1,0,0:0:0:0:
320,192,34864,1,0,0:0:0:0:
448,192,34864,1,0,0:0:0:0:
64,192,35188,1,0,0:0:0:0:
192,192,35188,1,0,0:0:0:0:
448,192,35269,1,0,0:0:0:0:
320,192,35350,1,0,0:0:0:0:
192,192,35431,1,0,0:0:0:0:
64,192,35513,1,0,0:0:0:0:
448,192,35513,1,0,0:0:0:0:
320,192,35675,1,0,0:0:0:0:
64,192,35837,1,0,0:0:0:0:
192,192,35837,1,0,0:0:0:0:
448,192,35999,1,0,0:0:0:0:
64,192,36161,1,0,0:0:0:0:
448,192,36161,1,0,0:0:0:0:
192,192,36323,1,0,0:0:0:0:
320,192,36485,1,0,0:0:0:0:
448,192,36485,1,0,0:0:0:0:
64,192,36648,1,0,0:0:0:0:
192,192,36810,1,0,0:0:0:0:
448,192,36810,1,0,0:0:0:0:
192,192,37134,1,0,0:0:0:0:
64,192,37296,1,0,0:0:0:0:
320,192,37458,1,0,0:0:0:0:
448,192,37458,1,0,0:0:0:0:
192,192,37621,1,0,0:0:0:0:
64,192,37783,1,0,0:0:0:0:
448,192,37783,1,0,0:0:0:0:
320,192,37945,1,0,0:0:0:0:
64,192,38107,1,0,0:0:0:0:
192,192,38107,1,0,0:0:0:0:
192,192,38269,1,0,0:0:0:0:
320,192,38431,1,0,0:0:0:0:
448,192,38431,1,0,0:0:0:0:
320,192,38594,1,0,0:0:0:0:
64,192,38756,1,0,0:0:0:0:
192,192,38756,1,0,0:0:0:0:
320,192,38918,1,0,0:0:0:0:
64,192,39080,1,0,0:0:0:0:
448,192,39080,1,0,0:0:0:0:
192,192,39242,1,0,0:0:0:0:
320,192,39404,1,0,0:0:0:0:
448,192,39404,1,0,0:0:0:0:
448,192,39567,1,0,0:0:0:0:
64,192,39729,1,0,0:0:0:0:
320,192,39729,1,0,0:0:0:0:
64,192,39891,1,0,0:0:0:0:
320,192,40053,1,0,0:0:0:0:
448,192,40053,1,0,0:0:0:0:
64,192,40377,1,0,0:0:0:0:
192,192,40377,1,0,0:0:0:0:
448,192,40458,1,0,0:0:0:0:
320,192,40540,1,0,0:0:0:0:
192,192,40621,1,0,0:0:0:0:
64,192,40702,1,0,0:0:0:0:
448,192,40702,1,0,0:0:0:0:
64,192,40864,1,0,0:0:0:0:
320,192,41026,1,0,0:0:0:0:
448,192,41026,1,0,0:0:0:0:
192,192,41188,1,0,0:0:0:0:
64,192,41350,1,0,0:0:0:0:
448,192,41350,1,0,0:0:0:0:
192,192,41513,1,0,0:0:0:0:
64,192,41594,1,0,0:0:0:0:
320,192,41675,1,0,0:0:0:0:
448,192,41675,1,0,0:0:0:0:
64,192,41837,1,0,0:0:0:0:
320,192,41918,1,0,0:0:0:0:
192,192,41999,1,0,0:0:0:0:
448,192,41999,1,0,0:0:0:0:
320,192,42161,1,0,0:0:0:0:
64,192,42323,1,0,0:0:0:0:
192,192,42404,1,0,0:0:0:0:
320,192,42567,1,0,0:0:0:0:
64,192,42648,1,0,0:0:0:0:
448,192,42648,1,0,0:0:0:0:
192,192,42729,1,0,0:0:0:0:
320,192,42810,1,0,0:0:0:0:
448,192,42810,1,0,0:0:0:0:
192,192,42891,1,0,0:0:0:0:
64,192,42972,1,0,0:0:0:0:
320,192,42972,1,0,0:0:0:0:
448,192,42972,1,0,0:0:0:0:
192,192,43053,1,0,0:0:0:0:
320,192,43134,1,0,0:0:0:0:
64,192,43215,1,0,0:0:0:0:
192,192,43296,1,0,0:0:0:70:LR_CymbalSSD.wav
320,192,43296,1,0,0:0:0:70:kick11.wav
448,192,43296,128,0,43377:0:0:0:70:LR5_DrumSnare Sn Dr Ws.wav
64,192,43458,128,0,43621:0:0:0:0:
192,192,43621,1,0,0:0:0:70:LR5_DrumSnare Sn Dr Ws.wav
320,192,43621,1,0,0:0:0:0:
448,192,43702,1,0,0:0:0:0:
192,192,43783,1,0,0:0:0:0:
64,192,43864,1,0,0:0:0:0:
320,192,43945,1,0,0:0:0:70:LR5_DrumSnare Sn Dr Ws.wav
448,192,43945,1,0,0:0:0:0:
192,192,44026,1,0,0:0:0:0:
320,192,44107,1,0,0:0:0:0:
64,192,44188,1,0,0:0:0:0:
192,192,44269,1,0,0:0:0:70:LR5_DrumSnare Sn Dr Ws.wav
448,192,44269,128,0,44431:0:0:0:0:
64,192,44431,1,0,0:0:0:0:
192,192,44513,1,0,0:0:0:0:
320,192,44594,1,0,0:0:0:70:LR5_DrumSnare Sn Dr Ws.wav
448,192,44594,128,0,44675:0:0:0:0:
64,192,44756,128,0,44918:0:0:0:0:
192,192,44918,1,0,0:0:0:70:LR5_DrumSnare Sn Dr Ws.wav
320,192,44918,1,0,0:0:0:0:
448,192,44999,1,0,0:0:0:0:
64,192,45080,1,0,0:0:0:0:
192,192,45161,1,0,0:0:0:0:
320,192,45242,1,0,0:0:0:70:LR5_DrumSnare Sn Dr Ws.wav
448,192,45242,1,0,0:0:0:0:
192,192,45323,1,0,0:0:0:0:
320,192,45404,1,0,0:0:0:0:
64,192,45485,1,0,0:0:0:0:
320,192,45567,1,0,0:0:0:70:LR5_DrumSnare Sn Dr Ws.wav
448,192,45567,1,0,0:0:0:0:
64,192,45648,1,0,0:0:0:0:
192,192,45729,1,0,0:0:0:70:kick11.wav
448,192,45729,1,0,0:0:0:0:
320,192,45810,1,0,0:0:0:0:
64,192,45891,1,0,0:0:0:70:LR_CymbalSSD.wav
192,192,45891,1,0,0:0:0:70:kick11.wav
448,192,45891,128,0,45972:0:0:0:70:LR5_DrumSnare Sn Dr Ws.wav
64,192,46053,128,0,46215:0:0:0:0:
192,192,46215,1,0,0:0:0:70:LR5_DrumSnare Sn Dr Ws.wav
320,192,46215,1,0,0:0:0:0:
448,192,46296,1,0,0:0:0:0:
192,192,46377,1,0,0:0:0:0:
64,192,46458,1,0,0:0:0:0:
320,192,46540,1,0,0:0:0:70:LR5_DrumSnare Sn Dr Ws.wav
448,192,46540,1,0,0:0:0:0:
192,192,46621,1,0,0:0:0:0:
320,192,46702,1,0,0:0:0:0:
64,192,46783,1,0,0:0:0:0:
192,192,46864,1,0,0:0:0:70:LR5_DrumSnare Sn Dr Ws.wav
448,192,46864,128,0,47026:0:0:0:0:
64,192,47026,1,0,0:0:0:0:
192,192,47107,1,0,0:0:0:0:
64,192,47188,1,0,0:0:0:70:LR_CymbalSSD.wav
320,192,47188,1,0,0:0:0:70:kick11.wav
448,192,47188,128,0,47269:0:0:0:70:LR5_DrumSnare Sn Dr Ws.wav
64,192,47350,128,0,47513:0:0:0:0:
192,192,47513,1,0,0:0:0:70:LR5_DrumSnare Sn Dr Ws.wav
320,192,47513,1,0,0:0:0:0:
448,192,47594,1,0,0:0:0:0:
192,192,47675,1,0,0:0:0:0:
64,192,47756,1,0,0:0:0:0:
192,192,47837,1,0,0:0:0:70:LR_CymbalSSD.wav
320,192,47837,1,0,0:0:0:70:kick11.wav
448,192,47837,1,0,0:0:0:70:LR5_DrumSnare Sn Dr Ws.wav
64,192,47918,1,0,0:0:0:0:
448,192,47999,1,0,0:0:0:0:
64,192,48080,1,0,0:0:0:70:LR_CymbalSSD.wav
192,192,48080,1,0,0:0:0:70:kick11.wav
320,192,48080,1,0,0:0:0:0:
448,192,48161,1,0,0:0:0:70:LR5_DrumSnare Sn Dr Ws.wav
448,192,48242,1,0,0:0:0:0:
64,192,48323,1,0,0:0:0:70:LR_CymbalSSD.wav
192,192,48323,1,0,0:0:0:70:kick11.wav
64,192,48404,1,0,0:0:0:0:
192,192,48485,1,0,0:0:0:70:LR_CymbalSSD.wav
320,192,48485,1,0,0:0:0:70:kick11.wav
448,192,48485,128,0,48567:0:0:0:80:LR_Clap Drum hit.wav
64,192,48648,128,0,48810:0:0:0:80:LR_Clap Drum hit.wav
192,192,48810,1,0,0:0:0:80:LR_Clap Drum hit.wav
320,192,48810,1,0,0:0:0:70:LR5_DrumSnare Sn Dr Ws.wav
64,192,48972,1,0,0:0:0:80:LR_Clap Drum hit.wav
192,192,49053,1,0,0:0:0:0:
64,192,49134,1,0,0:0:0:70:LR_CymbalSSD.wav
320,192,49134,1,0,0:0:0:70:kick11.wav
448,192,49134,128,0,49215:0:0:0:80:LR_Clap Drum hit.wav
64,192,49296,128,0,49458:0:0:0:80:LR_Clap Drum hit.wav
192,192,49458,1,0,0:0:0:80:LR_Clap Drum hit.wav
320,192,49458,1,0,0:0:0:70:LR5_DrumSnare Sn Dr Ws.wav
448,192,49540,1,0,0:0:0:0:
192,192,49621,1,0,0:0:0:80:LR_Clap Drum hit.wav
64,192,49702,1,0,0:0:0:0:
192,192,49783,1,0,0:0:0:70:LR_CymbalSSD.wav
320,192,49783,1,0,0:0:0:70:kick11.wav
448,192,49783,1,0,0:0:0:80:LR_Clap Drum hit.wav
64,192,49864,1,0,0:0:0:0:
320,192,49945,1,0,0:0:0:80:LR_Clap Drum hit.wav
192,192,50026,1,0,0:0:0:0:
320,192,50107,1,0,0:0:0:80:LR_Clap Drum hit.wav
448,192,50107,128,0,50269:0:0:0:70:LR5_DrumSnare Sn Dr Ws.wav
64,192,50269,1,0,0:0:0:80:LR_Clap Drum hit.wav
192,192,50350,1,0,0:0:0:0:
64,192,50431,1,0,0:0:0:70:LR_CymbalSSD.wav
320,192,50431,128,0,50594:0:0:0:70:kick11.wav
448,192,50431,1,0,0:0:0:80:LR_Clap Drum hit.wav
64,192,50594,1,0,0:0:0:80:LR_Clap Drum hit.wav
192,192,50594,1,0,0:0:0:0:
320,192,50756,1,0,0:0:0:80:LR_Clap Drum hit.wav
448,192,50756,1,0,0:0:0:70:LR5_DrumSnare Sn Dr Ws.wav
64,192,50918,1,0,0:0:0:80:LR_Clap Drum hit.wav
192,192,50918,1,0,0:0:0:0:
64,192,51080,1,0,0:0:0:70:LR_CymbalSSD.wav
320,192,51080,1,0,0:0:0:70:kick11.wav
448,192,51080,1,0,0:0:0:80:LR_Clap Drum hit.wav
192,192,51161,1,0,0:0:0:80:LR_Clap Drum hit.wav
448,192,51242,1,0,0:0:0:80:LR_Clap Drum hit.wav
320,192,51323,1,0,0:0:0:80:LR_Clap Drum hit.wav
64,192,51404,1,0,0:0:0:70:LR_CymbalSSD.wav
192,192,51404,1,0,0:0:0:70:kick11.wav
448,192,51404,1,0,0:0:0:80:LR_Clap Drum hit.wav
320,192,51485,1,0,0:0:0:80:LR_Clap Drum hit.wav
192,192,51567,1,0,0:0:0:80:LR_Clap Drum hit.wav
64,192,51648,1,0,0:0:0:80:LR_Clap Drum hit.wav
192,192,51729,1,0,0:0:0:70:LR_CymbalSSD.wav
320,192,51729,1,0,0:0:0:70:kick11.wav
448,192,51729,1,0,0:0:0:80:LR_Clap Drum hit.wav
64,192,51810,1,0,0:0:0:80:LR_Clap Drum hit.wav
448,192,51891,1,0,0:0:0:80:LR_Clap Drum hit.wav
192,192,51972,1,0,0:0:0:80:LR_Clap Drum hit.wav
64,192,52053,1,0,0:0:0:70:LR_CymbalSSD.wav
320,192,52053,1,0,0:0:0:70:kick11.wav
448,192,52053,1,0,0:0:0:80:LR_Clap Drum hit.wav
192,192,52134,1,0,0:0:0:80:LR_Clap Drum hit.wav
320,192,52215,1,0,0:0:0:80:LR_Clap Drum hit.wav
192,192,52296,1,0,0:0:0:80:LR_Clap Drum hit.wav
64,192,52377,1,0,0:0:0:0:
448,192,52377,1,0,0:0:0:0:
320,192,52458,1,0,0:0:0:0:
448,192,52702,1,0,0:0:0:0:
320,192,52783,1,0,0:0:0:0:
192,192,52864,1,0,0:0:0:0:
64,192,52945,1,0,0:0:0:0:
320,192,53026,1,0,0:0:0:70:LR5_DrumSnare Sn Dr Ws.wav
448,192,53026,1,0,0:0:0:0:
64,192,53107,1,0,0:0:0:0:
192,192,53188,1,0,0:0:0:70:kick11.wav
448,192,53188,1,0,0:0:0:0:
320,192,53269,1,0,0:0:0:0:
64,192,53350,1,0,0:0:0:70:LR_CymbalSSD.wav
192,192,53350,1,0,0:0:0:70:LR5_DrumSnare Sn Dr Ws.wav
448,192,53350,1,0,0:0:0:0:
192,192,53513,1,0,0:0:0:70:kick11.wav
320,192,53513,1,0,0:0:0:0:
64,192,53675,128,0,53837:0:0:0:70:LR_CymbalSSD.wav
320,192,53675,1,0,0:0:0:70:kick11.wav
448,192,53675,1,0,0:0:0:0:
448,192,53837,128,0,53999:0:0:0:0:
64,192,53999,1,0,0:0:0:70:kick11.wav
192,192,53999,1,0,0:0:0:70:LR5_DrumSnare Sn Dr Ws.wav
320,192,54080,128,0,54161:0:0:0:0:
448,192,54161,1,0,0:0:0:0:
192,192,54242,1,0,0:0:0:0:
64,192,54323,128,0,54485:0:0:0:70:kick11.wav
448,192,54323,1,0,0:0:0:0:
320,192,54485,1,0,0:0:0:0:
448,192,54567,1,0,0:0:0:0:
64,192,54648,1,0,0:0:0:70:kick11.wav
192,192,54648,1,0,0:0:0:70:LR5_DrumSnare Sn Dr Ws.wav
320,192,54729,1,0,0:0:0:0:
192,192,54810,1,0,0:0:0:0:
64,192,54891,1,0,0:0:0:0:
320,192,54972,1,0,0:0:0:70:kick11.wav
448,192,54972,128,0,55053:0:0:0:0:
192,192,55134,128,0,55215:0:0:0:0:
64,192,55296,1,0,0:0:0:70:kick11.wav
192,192,55296,1,0,0:0:0:70:LR5_DrumSnare Sn Dr Ws.wav
320,192,55377,128,0,55540:0:0:0:0:
64,192,55458,1,0,0:0:0:0:
448,192,55540,1,0,0:0:0:0:
192,192,55621,1,0,0:0:0:70:kick11.wav
320,192,55621,1,0,0:0:0:0:
64,192,55702,1,0,0:0:0:0:
320,192,55783,1,0,0:0:0:0:
192,192,55864,1,0,0:0:0:0:
64,192,55945,1,0,0:0:0:70:kick11.wav
448,192,55945,1,0,0:0:0:70:LR5_DrumSnare Sn Dr Ws.wav
320,192,56026,1,0,0:0:0:0:
192,192,56107,1,0,0:0:0:0:
320,192,56188,1,0,0:0:0:0:
64,192,56269,128,0,56431:0:0:0:70:kick11.wav
448,192,56269,1,0,0:0:0:0:
320,192,56431,128,0,56594:0:0:0:0:
64,192,56594,1,0,0:0:0:70:kick11.wav
448,192,56594,1,0,0:0:0:70:LR5_DrumSnare Sn Dr Ws.wav
192,192,56675,128,0,56756:0:0:0:0:
448,192,56756,1,0,0:0:0:0:
320,192,56837,1,0,0:0:0:0:
64,192,56918,1,0,0:0:0:70:kick11.wav
192,192,56918,1,0,0:0:0:0:
448,192,56999,1,0,0:0:0:0:
320,192,57080,1,0,0:0:0:0:
192,192,57161,1,0,0:0:0:0:
64,192,57242,1,0,0:0:0:70:kick11.wav
448,192,57242,1,0,0:0:0:70:LR5_DrumSnare Sn Dr Ws.wav
320,192,57323,1,0,0:0:0:0:
192,192,57404,1,0,0:0:0:0:
320,192,57485,1,0,0:0:0:0:
64,192,57567,1,0,0:0:0:70:kick11.wav
448,192,57567,128,0,57729:0:0:0:0:
192,192,57729,128,0,57891:0:0:0:0:
320,192,57891,1,0,0:0:0:70:kick11.wav
448,192,57891,1,0,0:0:0:70:LR5_DrumSnare Sn Dr Ws.wav
64,192,57972,128,0,58053:0:0:0:0:
192,192,58053,1,0,0:0:0:0:
448,192,58134,128,0,58215:0:0:0:0:
64,192,58215,1,0,0:0:0:70:kick11.wav
320,192,58215,1,0,0:0:0:0:
192,192,58296,1,0,0:0:0:0:
192,192,58377,1,0,0:0:0:0:
320,192,58458,1,0,0:0:0:0:
64,192,58540,1,0,0:0:0:70:kick11.wav
192,192,58540,1,0,0:0:0:70:LR5_DrumSnare Sn Dr Ws.wav
448,192,58621,1,0,0:0:0:0:
320,192,58702,1,0,0:0:0:0:
192,192,58783,1,0,0:0:0:0:
64,192,58864,1,0,0:0:0:70:kick11.wav
448,192,58864,128,0,59026:0:0:0:0:
64,192,59026,128,0,59188:0:0:0:0:
320,192,59188,1,0,0:0:0:70:kick11.wav
448,192,59188,1,0,0:0:0:70:LR5_DrumSnare Sn Dr Ws.wav
192,192,59269,128,0,59350:0:0:0:0:
64,192,59350,1,0,0:0:0:0:
320,192,59431,1,0,0:0:0:0:
64,192,59513,1,0,0:0:0:70:kick11.wav
448,192,59513,128,0,59675:0:0:0:0:
192,192,59675,1,0,0:0:0:0:
64,192,59756,1,0,0:0:0:0:
320,192,59837,1,0,0:0:0:70:kick11.wav
448,192,59837,1,0,0:0:0:70:LR5_DrumSnare Sn Dr Ws.wav
192,192,59918,1,0,0:0:0:0:
320,192,59999,1,0,0:0:0:0:
448,192,60080,1,0,0:0:0:0:
64,192,60161,128,0,60242:0:0:0:70:kick11.wav
192,192,60161,1,0,0:0:0:0:
320,192,60323,128,0,60404:0:0:0:0:
320,192,60485,1,0,0:0:0:70:kick11.wav
448,192,60485,1,0,0:0:0:70:LR5_DrumSnare Sn Dr Ws.wav
192,192,60567,128,0,60729:0:0:0:0:
448,192,60648,1,0,0:0:0:0:
64,192,60729,1,0,0:0:0:0:
192,192,60810,1,0,0:0:0:70:kick11.wav
320,192,60810,1,0,0:0:0:0:
448,192,60891,1,0,0:0:0:0:
192,192,60972,1,0,0:0:0:0:
320,192,61053,1,0,0:0:0:0:
64,192,61134,1,0,0:0:0:70:kick11.wav
448,192,61134,1,0,0:0:0:70:LR5_DrumSnare Sn Dr Ws.wav
192,192,61215,1,0,0:0:0:0:
320,192,61296,1,0,0:0:0:0:
192,192,61377,1,0,0:0:0:0:
64,192,61458,1,0,0:0:0:70:kick11.wav
448,192,61458,128,0,61621:0:0:0:0:
192,192,61621,128,0,61783:0:0:0:0:
64,192,61783,1,0,0:0:0:70:kick11.wav
448,192,61783,1,0,0:0:0:70:LR5_DrumSnare Sn Dr Ws.wav
320,192,61864,128,0,61945:0:0:0:0:
64,192,61945,1,0,0:0:0:0:
192,192,62026,1,0,0:0:0:0:
320,192,62107,1,0,0:0:0:70:kick11.wav
448,192,62107,1,0,0:0:0:0:
64,192,62188,1,0,0:0:0:0:
192,192,62269,1,0,0:0:0:0:
320,192,62350,1,0,0:0:0:0:
64,192,62431,1,0,0:0:0:70:kick11.wav
448,192,62431,1,0,0:0:0:70:LR5_DrumSnare Sn Dr Ws.wav
192,192,62513,1,0,0:0:0:0:
320,192,62594,1,0,0:0:0:0:
192,192,62675,1,0,0:0:0:0:
64,192,62756,128,0,62918:0:0:0:70:kick11.wav
448,192,62756,1,0,0:0:0:0:
320,192,62918,128,0,63080:0:0:0:0:
64,192,63080,1,0,0:0:0:70:kick11.wav
192,192,63080,1,0,0:0:0:70:LR5_DrumSnare Sn Dr Ws.wav
448,192,63161,128,0,63242:0:0:0:0:
320,192,63242,1,0,0:0:0:0:
64,192,63323,128,0,63404:0:0:0:0:
192,192,63404,1,0,0:0:0:70:kick11.wav
448,192,63404,1,0,0:0:0:0:
320,192,63485,1,0,0:0:0:0:
64,192,63567,1,0,0:0:0:0:
192,192,63648,1,0,0:0:0:0:
64,192,63729,1,0,0:0:0:0:
320,192,63729,1,0,0:0:0:0:
448,192,63729,1,0,0:0:0:0:
192,192,63810,1,0,0:0:0:0:
448,192,63891,1,0,0:0:0:0:
320,192,63972,1,0,0:0:0:0:
64,192,64053,128,0,64215:0:0:0:70:LR_CymbalSSD.wav
192,192,64053,1,0,0:0:0:70:kick11.wav
448,192,64053,1,0,0:0:0:0:
320,192,64215,1,0,0:0:0:70:kick11.wav
448,192,64215,128,0,64377:0:0:0:0:
64,192,64377,1,0,0:0:0:70:kick11.wav
192,192,64377,1,0,0:0:0:70:LR5_DrumSnare Sn Dr Ws.wav
320,192,64458,128,0,64540:0:0:0:0:
448,192,64540,1,0,0:0:0:0:
192,192,64621,1,0,0:0:0:0:
64,192,64702,128,0,64864:0:0:0:70:kick11.wav
448,192,64702,1,0,0:0:0:0:
320,192,64864,1,0,0:0:0:0:
448,192,64945,1,0,0:0:0:0:
64,192,65026,1,0,0:0:0:70:kick11.wav
192,192,65026,1,0,0:0:0:70:LR5_DrumSnare Sn Dr Ws.wav
320,192,65107,1,0,0:0:0:0:
192,192,65188,1,0,0:0:0:0:
64,192,65269,1,0,0:0:0:0:
320,192,65350,1,0,0:0:0:70:kick11.wav
448,192,65350,128,0,65431:0:0:0:0:
192,192,65513,128,0,65594:0:0:0:0:
64,192,65675,1,0,0:0:0:70:kick11.wav
192,192,65675,1,0,0:0:0:70:LR5_DrumSnare Sn Dr Ws.wav
320,192,65756,128,0,65918:0:0:0:0:
64,192,65837,1,0,0:0:0:0:
448,192,65918,1,0,0:0:0:0:
192,192,65999,1,0,0:0:0:70:kick11.wav
320,192,65999,1,0,0:0:0:0:
64,192,66080,1,0,0:0:0:0:
320,192,66161,1,0,0:0:0:0:
192,192,66242,1,0,0:0:0:0:
64,192,66323,1,0,0:0:0:70:kick11.wav
448,192,66323,1,0,0:0:0:70:LR5_DrumSnare Sn Dr Ws.wav
320,192,66404,1,0,0:0:0:0:
192,192,66485,1,0,0:0:0:0:
320,192,66567,1,0,0:0:0:0:
64,192,66648,128,0,66810:0:0:0:70:kick11.wav
448,192,66648,1,0,0:0:0:0:
320,192,66810,128,0,66972:0:0:0:0:
64,192,66972,1,0,0:0:0:70:kick11.wav
448,192,66972,1,0,0:0:0:70:LR5_DrumSnare Sn Dr Ws.wav
192,192,67053,128,0,67134:0:0:0:0:
448,192,67134,1,0,0:0:0:0:
320,192,67215,1,0,0:0:0:0:
64,192,67296,1,0,0:0:0:70:kick11.wav
192,192,67296,1,0,0:0:0:0:
448,192,67377,1,0,0:0:0:0:
320,192,67458,1,0,0:0:0:0:
192,192,67540,1,0,0:0:0:0:
64,192,67621,1,0,0:0:0:70:kick11.wav
448,192,67621,1,0,0:0:0:70:LR5_DrumSnare Sn Dr Ws.wav
320,192,67702,1,0,0:0:0:0:
192,192,67783,1,0,0:0:0:0:
320,192,67864,1,0,0:0:0:0:
64,192,67945,1,0,0:0:0:70:kick11.wav
448,192,67945,128,0,68107:0:0:0:0:
192,192,68107,128,0,68269:0:0:0:0:
320,192,68269,1,0,0:0:0:70:kick11.wav
448,192,68269,1,0,0:0:0:70:LR5_DrumSnare Sn Dr Ws.wav
64,192,68350,128,0,68431:0:0:0:0:
192,192,68431,1,0,0:0:0:0:
448,192,68513,128,0,68594:0:0:0:0:
64,192,68594,1,0,0:0:0:70:kick11.wav
320,192,68594,1,0,0:0:0:0:
192,192,68675,1,0,0:0:0:0:
192,192,68756,1,0,0:0:0:0:
320,192,68837,1,0,0:0:0:0:
64,192,68918,1,0,0:0:0:70:kick11.wav
192,192,68918,1,0,0:0:0:70:LR5_DrumSnare Sn Dr Ws.wav
448,192,68999,1,0,0:0:0:0:
320,192,69080,1,0,0:0:0:0:
192,192,69161,1,0,0:0:0:0:
64,192,69242,1,0,0:0:0:70:kick11.wav
448,192,69242,128,0,69404:0:0:0:0:
64,192,69404,128,0,69567:0:0:0:0:
320,192,69567,1,0,0:0:0:70:kick11.wav
448,192,69567,1,0,0:0:0:70:LR5_DrumSnare Sn Dr Ws.wav
192,192,69648,128,0,69729:0:0:0:0:
64,192,69729,1,0,0:0:0:0:
320,192,69810,1,0,0:0:0:0:
64,192,69891,1,0,0:0:0:70:kick11.wav
448,192,69891,128,0,70053:0:0:0:0:
192,192,70053,1,0,0:0:0:0:
64,192,70134,1,0,0:0:0:0:
320,192,70215,1,0,0:0:0:70:kick11.wav
448,192,70215,1,0,0:0:0:70:LR5_DrumSnare Sn Dr Ws.wav
192,192,70296,1,0,0:0:0:0:
320,192,70377,1,0,0:0:0:0:
448,192,70458,1,0,0:0:0:0:
64,192,70540,128,0,70621:0:0:0:70:kick11.wav
192,192,70540,1,0,0:0:0:0:
320,192,70702,128,0,70783:0:0:0:0:
320,192,70864,1,0,0:0:0:70:kick11.wav
448,192,70864,1,0,0:0:0:70:LR5_DrumSnare Sn Dr Ws.wav
192,192,70945,128,0,71107:0:0:0:0:
448,192,71026,1,0,0:0:0:0:
64,192,71107,1,0,0:0:0:0:
192,192,71188,1,0,0:0:0:70:kick11.wav
320,192,71188,1,0,0:0:0:0:
448,192,71269,1,0,0:0:0:0:
192,192,71350,1,0,0:0:0:0:
320,192,71431,1,0,0:0:0:0:
64,192,71513,1,0,0:0:0:70:kick11.wav
448,192,71513,1,0,0:0:0:70:LR5_DrumSnare Sn Dr Ws.wav
192,192,71594,1,0,0:0:0:0:
320,192,71675,1,0,0:0:0:0:
192,192,71756,1,0,0:0:0:0:
64,192,71837,1,0,0:0:0:70:kick11.wav
448,192,71837,128,0,71999:0:0:0:0:
64,192,71999,1,0,0:0:0:70:kick11.wav
192,192,72040,1,0,0:0:0:70:kick11.wav
320,192,72080,1,0,0:0:0:70:kick11.wav
448,192,72121,1,0,0:0:0:70:kick11.wav
64,192,72161,1,0,0:0:0:70:kick11.wav
192,192,72161,1,0,0:0:0:70:LR5_DrumSnare Sn Dr Ws.wav
448,192,72323,1,0,0:0:0:70:kick11.wav
320,192,72364,1,0,0:0:0:70:kick11.wav
192,192,72404,1,0,0:0:0:70:kick11.wav
64,192,72445,1,0,0:0:0:70:kick11.wav
320,192,72485,1,0,0:0:0:70:LR_CymbalSSD.wav
448,192,72485,1,0,0:0:0:70:kick11.wav
320,192,72648,1,0,0:0:0:0:
64,192,72729,1,0,0:0:0:70:LR_CymbalSSD.wav
192,192,72729,1,0,0:0:0:70:kick11.wav
448,192,72729,1,0,0:0:0:0:
192,192,72891,1,0,0:0:0:0:
64,192,72972,1,0,0:0:0:70:LR_CymbalSSD.wav
320,192,72972,1,0,0:0:0:70:kick11.wav
448,192,72972,1,0,0:0:0:0:
192,192,73053,1,0,0:0:0:0:
64,192,73134,128,0,73296:0:0:0:70:kick11.wav
448,192,73134,1,0,0:0:0:0:
320,192,73296,128,0,73458:0:0:0:0:
192,192,73458,1,0,0:0:0:0:
448,192,73540,128,0,73621:0:0:0:0:
320,192,73621,1,0,0:0:0:0:
64,192,73702,128,0,73783:0:0:0:0:
192,192,73783,1,0,0:0:0:70:kick11.wav
320,192,73783,1,0,0:0:0:0:
448,192,73864,1,0,0:0:0:0:
64,192,73945,1,0,0:0:0:70:kick11.wav
192,192,73945,1,0,0:0:0:0:
320,192,74026,1,0,0:0:0:0:
192,192,74107,1,0,0:0:0:70:kick11.wav
448,192,74107,1,0,0:0:0:70:LR5_DrumSnare Sn Dr Ws.wav
64,192,74188,1,0,0:0:0:0:
320,192,74269,1,0,0:0:0:70:kick11.wav
448,192,74269,1,0,0:0:0:0:
192,192,74350,1,0,0:0:0:0:
64,192,74431,1,0,0:0:0:70:LR_CymbalSSD.wav
320,192,74431,1,0,0:0:0:70:kick11.wav
448,192,74431,1,0,0:0:0:0:
192,192,74513,1,0,0:0:0:0:
448,192,74594,1,0,0:0:0:0:
64,192,74675,1,0,0:0:0:0:
448,192,74756,1,0,0:0:0:0:
320,192,74837,1,0,0:0:0:0:
192,192,74918,1,0,0:0:0:0:
64,192,74999,1,0,0:0:0:0:
320,192,75080,1,0,0:0:0:70:LR5_DrumSnare Sn Dr Ws.wav
448,192,75080,1,0,0:0:0:0:
192,192,75161,1,0,0:0:0:0:
320,192,75242,1,0,0:0:0:0:
448,192,75323,1,0,0:0:0:0:
64,192,75404,1,0,0:0:0:0:
192,192,75485,1,0,0:0:0:0:
320,192,75567,1,0,0:0:0:0:
448,192,75648,1,0,0:0:0:0:
64,192,75729,1,0,0:0:0:70:kick11.wav
192,192,75729,128,0,75891:0:0:0:0:
448,192,75891,1,0,0:0:0:0:
320,192,75972,1,0,0:0:0:0:
64,192,76053,128,0,76134:0:0:0:70:kick11.wav
192,192,76053,1,0,0:0:0:0:
448,192,76134,1,0,0:0:0:0:
192,192,76215,1,0,0:0:0:0:
320,192,76296,1,0,0:0:0:0:
64,192,76377,1,0,0:0:0:70:LR5_DrumSnare Sn Dr Ws.wav
448,192,76377,1,0,0:0:0:0:
192,192,76458,1,0,0:0:0:0:
320,192,76540,1,0,0:0:0:70:kick11.wav
448,192,76540,1,0,0:0:0:0:
192,192,76621,1,0,0:0:0:0:
64,192,76702,1,0,0:0:0:70:LR5_DrumSnare Sn Dr Ws.wav
448,192,76702,1,0,0:0:0:0:
320,192,76783,1,0,0:0:0:0:
192,192,76864,1,0,0:0:0:0:
448,192,76945,1,0,0:0:0:0:
64,192,77026,128,0,77188:0:0:0:70:LR_CymbalSSD.wav
192,192,77026,1,0,0:0:0:70:kick11.wav
320,192,77026,1,0,0:0:0:0:
448,192,77188,128,0,77350:0:0:0:0:
64,192,77350,1,0,0:0:0:70:kick11.wav
192,192,77350,1,0,0:0:0:70:LR5_DrumSnare Sn Dr Ws.wav
320,192,77431,128,0,77513:0:0:0:0:
448,192,77513,1,0,0:0:0:0:
192,192,77594,1,0,0:0:0:0:
64,192,77675,128,0,77837:0:0:0:70:kick11.wav
448,192,77675,1,0,0:0:0:0:
320,192,77837,1,0,0:0:0:0:
448,192,77918,1,0,0:0:0:0:
64,192,77999,1,0,0:0:0:70:kick11.wav
192,192,77999,1,0,0:0:0:70:LR5_DrumSnare Sn Dr Ws.wav
320,192,78080,1,0,0:0:0:0:
192,192,78161,1,0,0:0:0:0:
64,192,78242,1,0,0:0:0:0:
320,192,78323,1,0,0:0:0:70:kick11.wav
448,192,78323,128,0,78404:0:0:0:0:
192,192,78485,128,0,78567:0:0:0:0:
64,192,78648,1,0,0:0:0:70:kick11.wav
192,192,78648,1,0,0:0:0:70:LR5_DrumSnare Sn Dr Ws.wav
320,192,78729,128,0,78891:0:0:0:0:
64,192,78810,1,0,0:0:0:0:
448,192,78891,1,0,0:0:0:0:
192,192,78972,1,0,0:0:0:70:kick11.wav
320,192,78972,1,0,0:0:0:0:
64,192,79053,1,0,0:0:0:0:
320,192,79134,1,0,0:0:0:0:
192,192,79215,1,0,0:0:0:0:
64,192,79296,1,0,0:0:0:70:kick11.wav
448,192,79296,1,0,0:0:0:70:LR5_DrumSnare Sn Dr Ws.wav
320,192,79377,1,0,0:0:0:0:
192,192,79458,1,0,0:0:0:0:
320,192,79540,1,0,0:0:0:0:
64,192,79621,128,0,79783:0:0:0:70:kick11.wav
448,192,79621,1,0,0:0:0:0:
320,192,79783,128,0,79945:0:0:0:0:
64,192,79945,1,0,0:0:0:70:kick11.wav
448,192,79945,1,0,0:0:0:70:LR5_DrumSnare Sn Dr Ws.wav
192,192,80026,128,0,80107:0:0:0:0:
448,192,80107,1,0,0:0:0:0:
320,192,80188,1,0,0:0:0:0:
64,192,80269,1,0,0:0:0:70:kick11.wav
192,192,80269,1,0,0:0:0:0:
448,192,80350,1,0,0:0:0:0:
320,192,80431,1,0,0:0:0:0:
192,192,80513,1,0,0:0:0:0:
64,192,80594,1,0,0:0:0:70:kick11.wav
448,192,80594,1,0,0:0:0:70:LR5_DrumSnare Sn Dr Ws.wav
320,192,80675,1,0,0:0:0:0:
192,192,80756,1,0,0:0:0:0:
320,192,80837,1,0,0:0:0:0:
64,192,80918,1,0,0:0:0:70:kick11.wav
448,192,80918,128,0,81080:0:0:0:0:
192,192,81080,128,0,81242:0:0:0:0:
320,192,81242,1,0,0:0:0:70:kick11.wav
448,192,81242,1,0,0:0:0:70:LR5_DrumSnare Sn Dr Ws.wav
64,192,81323,128,0,81404:0:0:0:0:
192,192,81404,1,0,0:0:0:0:
448,192,81485,128,0,81567:0:0:0:0:
64,192,81567,1,0,0:0:0:70:kick11.wav
320,192,81567,1,0,0:0:0:0:
192,192,81648,1,0,0:0:0:0:
192,192,81729,1,0,0:0:0:0:
320,192,81810,1,0,0:0:0:0:
64,192,81891,1,0,0:0:0:70:kick11.wav
192,192,81891,1,0,0:0:0:70:LR5_DrumSnare Sn Dr Ws.wav
448,192,81972,1,0,0:0:0:0:
320,192,82053,1,0,0:0:0:0:
192,192,82134,1,0,0:0:0:0:
64,192,82215,1,0,0:0:0:70:kick11.wav
448,192,82215,128,0,82377:0:0:0:0:
64,192,82377,128,0,82540:0:0:0:0:
320,192,82540,1,0,0:0:0:70:kick11.wav
448,192,82540,1,0,0:0:0:70:LR5_DrumSnare Sn Dr Ws.wav
192,192,82621,128,0,82702:0:0:0:0:
64,192,82702,1,0,0:0:0:0:
320,192,82783,1,0,0:0:0:0:
64,192,82864,1,0,0:0:0:70:kick11.wav
448,192,82864,128,0,83026:0:0:0:0:
192,192,83026,1,0,0:0:0:0:
64,192,83107,1,0,0:0:0:0:
320,192,83188,1,0,0:0:0:70:kick11.wav
448,192,83188,1,0,0:0:0:70:LR5_DrumSnare Sn Dr Ws.wav
192,192,83269,1,0,0:0:0:0:
320,192,83350,1,0,0:0:0:0:
448,192,83431,1,0,0:0:0:0:
64,192,83513,128,0,83594:0:0:0:70:kick11.wav
192,192,83513,1,0,0:0:0:0:
320,192,83675,128,0,83756:0:0:0:0:
320,192,83837,1,0,0:0:0:70:kick11.wav
448,192,83837,1,0,0:0:0:70:LR5_DrumSnare Sn Dr Ws.wav
192,192,83918,128,0,84080:0:0:0:0:
448,192,83999,1,0,0:0:0:0:
64,192,84080,1,0,0:0:0:0:
192,192,84161,1,0,0:0:0:70:kick11.wav
320,192,84161,1,0,0:0:0:0:
448,192,84242,1,0,0:0:0:0:
192,192,84323,1,0,0:0:0:0:
320,192,84404,1,0,0:0:0:0:
64,192,84485,1,0,0:0:0:70:kick11.wav
192,192,84485,1,0,0:0:0:70:LR5_DrumSnare Sn Dr Ws.wav
448,192,84485,1,0,0:0:0:0:
320,192,84567,1,0,0:0:0:0:
64,192,84648,1,0,0:0:0:70:kick11.wav
448,192,84648,1,0,0:0:0:0:
192,192,84729,1,0,0:0:0:0:
64,192,84810,1,0,0:0:0:70:LR_CymbalSSD.wav
320,192,84810,1,0,0:0:0:70:kick11.wav
448,192,84810,128,0,84972:0:0:0:70:LR5_DrumSnare Sn Dr Ws.wav
192,192,84972,128,0,85134:0:0:0:0:
320,192,85053,1,0,0:0:0:0:
64,192,85134,1,0,0:0:0:70:kick11.wav
448,192,85134,1,0,0:0:0:70:LR5_DrumSnare Sn Dr Ws.wav
320,192,85215,128,0,85296:0:0:0:0:
192,192,85296,1,0,0:0:0:0:
64,192,85377,128,0,85458:0:0:0:0:
320,192,85458,1,0,0:0:0:70:kick11.wav
448,192,85458,1,0,0:0:0:70:LR5_DrumSnare Sn Dr Ws.wav
64,192,85540,1,0,0:0:0:0:
192,192,85621,1,0,0:0:0:0:
320,192,85702,1,0,0:0:0:0:
64,192,85783,1,0,0:0:0:70:kick11.wav
448,192,85783,1,0,0:0:0:70:LR5_DrumSnare Sn Dr Ws.wav
192,192,85864,1,0,0:0:0:0:
320,192,85945,1,0,0:0:0:0:
192,192,86026,1,0,0:0:0:0:
64,192,86107,128,0,86269:0:0:0:70:kick11.wav
448,192,86107,1,0,0:0:0:70:LR5_DrumSnare Sn Dr Ws.wav
320,192,86269,128,0,86431:0:0:0:0:
64,192,86431,1,0,0:0:0:70:kick11.wav
192,192,86431,1,0,0:0:0:70:LR5_DrumSnare Sn Dr Ws.wav
448,192,86513,128,0,86594:0:0:0:0:
320,192,86594,1,0,0:0:0:0:
64,192,86675,128,0,86756:0:0:0:0:
192,192,86756,1,0,0:0:0:70:kick11.wav
448,192,86756,1,0,0:0:0:70:LR5_DrumSnare Sn Dr Ws.wav
320,192,86837,1,0,0:0:0:0:
64,192,86918,1,0,0:0:0:0:
192,192,86999,1,0,0:0:0:0:
320,192,87080,1,0,0:0:0:70:kick11.wav
448,192,87080,1,0,0:0:0:70:LR5_DrumSnare Sn Dr Ws.wav
64,192,87161,1,0,0:0:0:0:
448,192,87242,1,0,0:0:0:0:
320,192,87323,1,0,0:0:0:0:
64,192,87404,128,0,87567:0:0:0:70:kick11.wav
192,192,87404,1,0,0:0:0:70:LR5_DrumSnare Sn Dr Ws.wav
448,192,87567,128,0,87729:0:0:0:0:
64,192,87729,1,0,0:0:0:70:kick11.wav
192,192,87729,1,0,0:0:0:70:LR5_DrumSnare Sn Dr Ws.wav
320,192,87810,128,0,87891:0:0:0:0:
448,192,87891,1,0,0:0:0:0:
192,192,87972,128,0,88053:0:0:0:0:
64,192,88053,1,0,0:0:0:70:kick11.wav
448,192,88053,1,0,0:0:0:70:LR5_DrumSnare Sn Dr Ws.wav
320,192,88134,1,0,0:0:0:0:
192,192,88215,1,0,0:0:0:0:
448,192,88296,1,0,0:0:0:0:
64,192,88377,1,0,0:0:0:70:kick11.wav
192,192,88377,1,0,0:0:0:70:LR5_DrumSnare Sn Dr Ws.wav
320,192,88458,1,0,0:0:0:0:
192,192,88540,1,0,0:0:0:0:
64,192,88621,1,0,0:0:0:0:
320,192,88702,1,0,0:0:0:70:kick11.wav
448,192,88702,128,0,88783:0:0:0:70:LR5_DrumSnare Sn Dr Ws.wav
192,192,88864,128,0,88945:0:0:0:0:
64,192,89026,1,0,0:0:0:70:kick11.wav
192,192,89026,1,0,0:0:0:70:LR5_DrumSnare Sn Dr Ws.wav
320,192,89107,128,0,89269:0:0:0:0:
64,192,89188,1,0,0:0:0:0:
448,192,89269,1,0,0:0:0:0:
192,192,89350,1,0,0:0:0:70:kick11.wav
320,192,89350,1,0,0:0:0:70:LR5_DrumSnare Sn Dr Ws.wav
64,192,89431,1,0,0:0:0:0:
320,192,89513,1,0,0:0:0:0:
192,192,89594,1,0,0:0:0:0:
64,192,89675,1,0,0:0:0:70:kick11.wav
448,192,89675,1,0,0:0:0:70:LR5_DrumSnare Sn Dr Ws.wav
320,192,89756,1,0,0:0:0:0:
64,192,89837,1,0,0:0:0:0:
192,192,89837,1,0,0:0:0:0:
320,192,89918,1,0,0:0:0:0:
64,192,89999,128,0,90161:0:0:0:70:kick11.wav
448,192,89999,1,0,0:0:0:80:LR_Clap Drum hit.wav
192,192,90161,1,0,0:0:0:70:kick11.wav
320,192,90161,128,0,90323:0:0:0:80:LR_Clap Drum hit.wav
64,192,90323,1,0,0:0:0:70:kick11.wav
448,192,90323,1,0,0:0:0:80:LR_Clap Drum hit.wav
192,192,90404,128,0,90485:0:0:0:0:
320,192,90485,1,0,0:0:0:70:kick11.wav
448,192,90485,1,0,0:0:0:80:LR_Clap Drum hit.wav
64,192,90567,1,0,0:0:0:0:
192,192,90648,1,0,0:0:0:70:kick11.wav
320,192,90648,1,0,0:0:0:80:LR_Clap Drum hit.wav
448,192,90729,1,0,0:0:0:0:
64,192,90810,1,0,0:0:0:70:kick11.wav
192,192,90810,1,0,0:0:0:80:LR_Clap Drum hit.wav
320,192,90891,1,0,0:0:0:0:
64,192,90972,1,0,0:0:0:70:kick11.wav
448,192,90972,1,0,0:0:0:80:LR_Clap Drum hit.wav
192,192,91053,1,0,0:0:0:0:
320,192,91134,1,0,0:0:0:70:kick11.wav
448,192,91134,1,0,0:0:0:80:LR_Clap Drum hit.wav
192,192,91215,1,0,0:0:0:0:
64,192,91296,1,0,0:0:0:70:kick11.wav
448,192,91296,128,0,91458:0:0:0:80:LR_Clap Drum hit.wav
64,192,91458,1,0,0:0:0:70:kick11.wav
192,192,91458,128,0,91621:0:0:0:80:LR_Clap Drum hit.wav
320,192,91621,1,0,0:0:0:70:kick11.wav
448,192,91621,1,0,0:0:0:80:LR_Clap Drum hit.wav
64,192,91702,128,0,91783:0:0:0:0:
192,192,91783,1,0,0:0:0:70:kick11.wav
320,192,91783,1,0,0:0:0:80:LR_Clap Drum hit.wav
448,192,91864,128,0,91945:0:0:0:0:
64,192,91945,1,0,0:0:0:70:kick11.wav
320,192,91945,1,0,0:0:0:80:LR_Clap Drum hit.wav
192,192,92026,1,0,0:0:0:0:
320,192,92107,1,0,0:0:0:70:kick11.wav
448,192,92107,1,0,0:0:0:80:LR_Clap Drum hit.wav
64,192,92188,1,0,0:0:0:0:
192,192,92269,1,0,0:0:0:70:kick11.wav
320,192,92269,1,0,0:0:0:80:LR_Clap Drum hit.wav
448,192,92350,1,0,0:0:0:0:
64,192,92431,1,0,0:0:0:70:kick11.wav
192,192,92431,1,0,0:0:0:80:LR_Clap Drum hit.wav
320,192,92513,1,0,0:0:0:0:
192,192,92594,1,0,0:0:0:70:kick11.wav
448,192,92594,1,0,0:0:0:80:LR_Clap Drum hit.wav
64,192,92675,1,0,0:0:0:70:kick11.wav
320,192,92756,1,0,0:0:0:70:kick11.wav
448,192,92756,1,0,0:0:0:80:LR_Clap Drum hit.wav
192,192,92837,1,0,0:0:0:70:kick11.wav
64,192,92918,1,0,0:0:0:70:kick11.wav
320,192,92918,1,0,0:0:0:80:LR_Clap Drum hit.wav
448,192,92999,1,0,0:0:0:70:kick11.wav
64,192,93080,1,0,0:0:0:70:kick11.wav
192,192,93080,1,0,0:0:0:80:LR_Clap Drum hit.wav
320,192,93161,1,0,0:0:0:70:kick11.wav
192,192,93242,1,0,0:0:0:70:kick11.wav
448,192,93242,1,0,0:0:0:80:LR_Clap Drum hit.wav
320,192,93323,1,0,0:0:0:70:kick11.wav
64,192,93404,1,0,0:0:0:70:kick11.wav
192,192,93445,1,0,0:0:0:70:kick11.wav
320,192,93485,1,0,0:0:0:70:kick11.wav
448,192,93526,1,0,0:0:0:70:kick11.wav
64,192,93567,1,0,0:0:0:70:kick11.wav
192,192,93567,1,0,0:0:0:80:LR_Clap Drum hit.wav
448,192,93729,1,0,0:0:0:70:kick11.wav
320,192,93769,1,0,0:0:0:70:kick11.wav
192,192,93810,1,0,0:0:0:70:kick11.wav
64,192,93850,1,0,0:0:0:70:kick11.wav
320,192,93891,1,0,0:0:0:70:LR_CymbalSSD.wav
448,192,93891,1,0,0:0:0:70:kick11.wav
192,192,93972,1,0,0:0:0:0:
320,192,94053,1,0,0:0:0:0:
64,192,94134,1,0,0:0:0:0:
448,192,94215,1,0,0:0:0:0:
320,192,94296,1,0,0:0:0:0:
64,192,94377,1,0,0:0:0:0:
192,192,94458,1,0,0:0:0:0:
448,192,94540,1,0,0:0:0:0:
320,192,94621,1,0,0:0:0:0:
192,192,94702,1,0,0:0:0:0:
64,192,94783,1,0,0:0:0:0:
320,192,94864,1,0,0:0:0:0:
448,192,94864,1,0,0:0:0:0:
192,192,94945,1,0,0:0:0:0:
320,192,95026,1,0,0:0:0:0:
448,192,95026,1,0,0:0:0:0:
192,192,95107,1,0,0:0:0:0:
64,192,95188,1,0,0:0:0:70:LR_CymbalSSD.wav
320,192,95188,128,0,95269:0:0:0:70:kick11.wav
448,192,95188,128,0,95350:0:0:0:0:
