osu file format v14

[General]
AudioFilename: audio.mp3
AudioLeadIn: 0
PreviewTime: 53594
Countdown: 0
SampleSet: Soft
StackLeniency: 0.7
Mode: 3
LetterboxInBreaks: 0
SpecialStyle: 0
WidescreenStoryboard: 1

[Editor]
DistanceSpacing: 1.5
BeatDivisor: 4
GridSize: 4
TimelineZoom: 3.5

[Metadata]
Title:FORViDDEN ENERZY -Fataldoze-
TitleUnicode:FORViDDEN ENERZY -Fataldoze-
Artist:Reku Mochizuki
ArtistUnicode:Reku Mochizuki
Creator:fvrex
Version:Easy
Source:
Tags:FORBIDDEN ENERGY -Fataldose- xTrippin Hytex FAMoss FA Featured Artist MG MPG Mappers' Mapper's Guild 3rd PUMP IT UP PIU Contest 펌프잇업공식 electronic instrumental hardcore arcade core j-core jcore video game
BeatmapID:3296011
BeatmapSetID:1479741

[Difficulty]
HPDrainRate:7
CircleSize:4
OverallDifficulty:7
ApproachRate:5
SliderMultiplier:1.4
SliderTickRate:1

[Events]
//Background and Video events
0,0,"mrow.jpg",0,0
//Break Periods
//Storyboard Layer 0 (Background)
//Storyboard Layer 1 (Fail)
//Storyboard Layer 2 (Pass)
//Storyboard Layer 3 (Foreground)
//Storyboard Layer 4 (Overlay)
//Storyboard Sound Samples
Sample,1783,0,"kick11.wav",70
Sample,1783,0,"LR_Clap Drum hit.wav",80
Sample,3080,0,"kick11.wav",70
Sample,3080,0,"LR_Clap Drum hit.wav",80
Sample,3891,0,"kick11.wav",70
Sample,4215,0,"kick11.wav",70
Sample,4377,0,"kick11.wav",70
Sample,4377,0,"LR_Clap Drum hit.wav",80
Sample,5675,0,"kick11.wav",70
Sample,5675,0,"LR_Clap Drum hit.wav",80
Sample,6648,0,"kick11.wav",70
Sample,6648,0,"LR_Clap Drum hit.wav",80
Sample,6972,0,"kick11.wav",70
Sample,6972,0,"LR_Clap Drum hit.wav",80
Sample,7296,0,"LR_Clap Drum hit.wav",80
Sample,7621,0,"kick11.wav",70
Sample,7621,0,"LR_Clap Drum hit.wav",80
Sample,7945,0,"LR_Clap Drum hit.wav",80
Sample,8269,0,"kick11.wav",70
Sample,8269,0,"LR_Clap Drum hit.wav",80
Sample,8594,0,"LR_Clap Drum hit.wav",80
Sample,8918,0,"kick11.wav",70
Sample,8918,0,"LR_Clap Drum hit.wav",80
Sample,9242,0,"LR_Clap Drum hit.wav",80
Sample,9567,0,"kick11.wav",70
Sample,9567,0,"LR_Clap Drum hit.wav",80
Sample,9891,0,"kick11.wav",70
Sample,9891,0,"LR_Clap Drum hit.wav",80
Sample,10215,0,"kick11.wav",70
Sample,10215,0,"LR_Clap Drum hit.wav",80
Sample,10458,0,"kick11.wav",70
Sample,10458,0,"LR_Clap Drum hit.wav",80
Sample,10702,0,"kick11.wav",70
Sample,10702,0,"LR_Clap Drum hit.wav",80
Sample,10864,0,"LR_Clap Drum hit.wav",80
Sample,12485,0,"kick11.wav",70
Sample,12485,0,"LR5_DrumSnare Sn Dr Ws.wav",70
Sample,13134,0,"LR5_DrumSnare Sn Dr Ws.wav",70
Sample,13783,0,"LR5_DrumSnare Sn Dr Ws.wav",70
Sample,14431,0,"LR5_DrumSnare Sn Dr Ws.wav",70
Sample,15080,0,"LR5_DrumSnare Sn Dr Ws.wav",70
Sample,15729,0,"LR5_DrumSnare Sn Dr Ws.wav",70
Sample,16377,0,"LR5_DrumSnare Sn Dr Ws.wav",70
Sample,17026,0,"LR5_DrumSnare Sn Dr Ws.wav",70
Sample,17675,0,"LR5_DrumSnare Sn Dr Ws.wav",70
Sample,18323,0,"LR5_DrumSnare Sn Dr Ws.wav",70
Sample,18972,0,"LR5_DrumSnare Sn Dr Ws.wav",70
Sample,19621,0,"LR5_DrumSnare Sn Dr Ws.wav",70
Sample,20269,0,"LR5_DrumSnare Sn Dr Ws.wav",70
Sample,20918,0,"LR5_DrumSnare Sn Dr Ws.wav",70
Sample,22864,0,"kick11.wav",70
Sample,22864,0,"LR5_DrumSnare Sn Dr Ws.wav",70
Sample,23513,0,"LR5_DrumSnare Sn Dr Ws.wav",70
Sample,24161,0,"LR5_DrumSnare Sn Dr Ws.wav",70
Sample,24810,0,"LR5_DrumSnare Sn Dr Ws.wav",70
Sample,25458,0,"LR5_DrumSnare Sn Dr Ws.wav",70
Sample,26107,0,"LR5_DrumSnare Sn Dr Ws.wav",70
Sample,26756,0,"LR5_DrumSnare Sn Dr Ws.wav",70
Sample,27404,0,"LR5_DrumSnare Sn Dr Ws.wav",70
Sample,27729,0,"LR5_DrumSnare Sn Dr Ws.wav",70
Sample,28053,0,"LR5_DrumSnare Sn Dr Ws.wav",70
Sample,28377,0,"LR5_DrumSnare Sn Dr Ws.wav",70
Sample,28702,0,"LR_Clap Drum hit.wav",80
Sample,28702,0,"LR5_DrumSnare Sn Dr Ws.wav",70
Sample,29026,0,"LR_Clap Drum hit.wav",80
Sample,29026,0,"LR5_DrumSnare Sn Dr Ws.wav",70
Sample,29350,0,"LR5_DrumSnare Sn Dr Ws.wav",70
Sample,29675,0,"LR5_DrumSnare Sn Dr Ws.wav",70
Sample,29999,0,"LR_Clap Drum hit.wav",80
Sample,29999,0,"LR5_DrumSnare Sn Dr Ws.wav",70
Sample,30323,0,"LR_Clap Drum hit.wav",80
Sample,30323,0,"LR5_DrumSnare Sn Dr Ws.wav",70
Sample,30648,0,"LR_Clap Drum hit.wav",80
Sample,30648,0,"LR5_DrumSnare Sn Dr Ws.wav",70
Sample,30972,0,"LR_Clap Drum hit.wav",80
Sample,30972,0,"LR5_DrumSnare Sn Dr Ws.wav",70
Sample,31296,0,"LR_Clap Drum hit.wav",80
Sample,31296,0,"LR5_DrumSnare Sn Dr Ws.wav",70
Sample,32594,0,"LR5_DrumSnare Sn Dr Ws.wav",70
Sample,32918,0,"kick11.wav",70
Sample,43296,0,"kick11.wav",70
Sample,43296,0,"LR5_DrumSnare Sn Dr Ws.wav",70
Sample,45891,0,"kick11.wav",70
Sample,45891,0,"LR5_DrumSnare Sn Dr Ws.wav",70
Sample,47188,0,"kick11.wav",70
Sample,47188,0,"LR5_DrumSnare Sn Dr Ws.wav",70
Sample,47837,0,"kick11.wav",70
Sample,47837,0,"LR5_DrumSnare Sn Dr Ws.wav",70
Sample,48485,0,"kick11.wav",70
Sample,48485,0,"LR_Clap Drum hit.wav",80
Sample,48810,0,"LR5_DrumSnare Sn Dr Ws.wav",70
Sample,49134,0,"kick11.wav",70
Sample,49134,0,"LR_Clap Drum hit.wav",80
Sample,49458,0,"LR5_DrumSnare Sn Dr Ws.wav",70
Sample,49783,0,"kick11.wav",70
Sample,49783,0,"LR_Clap Drum hit.wav",80
Sample,50107,0,"LR5_DrumSnare Sn Dr Ws.wav",70
Sample,50431,0,"kick11.wav",70
Sample,50431,0,"LR_Clap Drum hit.wav",80
Sample,50756,0,"LR5_DrumSnare Sn Dr Ws.wav",70
Sample,51080,0,"kick11.wav",70
Sample,51080,0,"LR_Clap Drum hit.wav",80
Sample,51404,0,"kick11.wav",70
Sample,51404,0,"LR_Clap Drum hit.wav",80
Sample,51729,0,"kick11.wav",70
Sample,51729,0,"LR_Clap Drum hit.wav",80
Sample,52053,0,"kick11.wav",70
Sample,52053,0,"LR_Clap Drum hit.wav",80
Sample,53350,0,"LR5_DrumSnare Sn Dr Ws.wav",70
Sample,53675,0,"kick11.wav",70
Sample,53999,0,"LR5_DrumSnare Sn Dr Ws.wav",70
Sample,54648,0,"LR5_DrumSnare Sn Dr Ws.wav",70
Sample,55296,0,"LR5_DrumSnare Sn Dr Ws.wav",70
Sample,55945,0,"LR5_DrumSnare Sn Dr Ws.wav",70
Sample,56594,0,"LR5_DrumSnare Sn Dr Ws.wav",70
Sample,57242,0,"LR5_DrumSnare Sn Dr Ws.wav",70
Sample,57891,0,"LR5_DrumSnare Sn Dr Ws.wav",70
Sample,58540,0,"LR5_DrumSnare Sn Dr Ws.wav",70
Sample,59188,0,"LR5_DrumSnare Sn Dr Ws.wav",70
Sample,59837,0,"LR5_DrumSnare Sn Dr Ws.wav",70
Sample,60485,0,"LR5_DrumSnare Sn Dr Ws.wav",70
Sample,61134,0,"LR5_DrumSnare Sn Dr Ws.wav",70
Sample,61783,0,"LR5_DrumSnare Sn Dr Ws.wav",70
Sample,62431,0,"LR5_DrumSnare Sn Dr Ws.wav",70
Sample,63080,0,"LR5_DrumSnare Sn Dr Ws.wav",70
Sample,64053,0,"kick11.wav",70
Sample,64377,0,"LR5_DrumSnare Sn Dr Ws.wav",70
Sample,65026,0,"LR5_DrumSnare Sn Dr Ws.wav",70
Sample,65675,0,"LR5_DrumSnare Sn Dr Ws.wav",70
Sample,66323,0,"LR5_DrumSnare Sn Dr Ws.wav",70
Sample,66972,0,"LR5_DrumSnare Sn Dr Ws.wav",70
Sample,67621,0,"LR5_DrumSnare Sn Dr Ws.wav",70
Sample,68269,0,"LR5_DrumSnare Sn Dr Ws.wav",70
Sample,68918,0,"LR5_DrumSnare Sn Dr Ws.wav",70
Sample,69567,0,"LR5_DrumSnare Sn Dr Ws.wav",70
Sample,70215,0,"LR5_DrumSnare Sn Dr Ws.wav",70
Sample,70864,0,"LR5_DrumSnare Sn Dr Ws.wav",70
Sample,71513,0,"LR5_DrumSnare Sn Dr Ws.wav",70
Sample,72485,0,"kick11.wav",70
Sample,72729,0,"kick11.wav",70
Sample,72972,0,"kick11.wav",70
Sample,74107,0,"LR5_DrumSnare Sn Dr Ws.wav",70
Sample,74431,0,"kick11.wav",70
Sample,77026,0,"kick11.wav",70
Sample,77350,0,"LR5_DrumSnare Sn Dr Ws.wav",70
Sample,77999,0,"LR5_DrumSnare Sn Dr Ws.wav",70
Sample,78648,0,"LR5_DrumSnare Sn Dr Ws.wav",70
Sample,79296,0,"LR5_DrumSnare Sn Dr Ws.wav",70
Sample,79945,0,"LR5_DrumSnare Sn Dr Ws.wav",70
Sample,80594,0,"LR5_DrumSnare Sn Dr Ws.wav",70
Sample,81242,0,"LR5_DrumSnare Sn Dr Ws.wav",70
Sample,81891,0,"LR5_DrumSnare Sn Dr Ws.wav",70
Sample,82540,0,"LR5_DrumSnare Sn Dr Ws.wav",70
Sample,83188,0,"LR5_DrumSnare Sn Dr Ws.wav",70
Sample,83837,0,"LR5_DrumSnare Sn Dr Ws.wav",70
Sample,84485,0,"LR5_DrumSnare Sn Dr Ws.wav",70
Sample,84810,0,"kick11.wav",70
Sample,84810,0,"LR5_DrumSnare Sn Dr Ws.wav",70
Sample,85134,0,"LR5_DrumSnare Sn Dr Ws.wav",70
Sample,85458,0,"LR5_DrumSnare Sn Dr Ws.wav",70
Sample,85783,0,"LR5_DrumSnare Sn Dr Ws.wav",70
Sample,86107,0,"LR5_DrumSnare Sn Dr Ws.wav",70
Sample,86431,0,"LR5_DrumSnare Sn Dr Ws.wav",70
Sample,86756,0,"LR5_DrumSnare Sn Dr Ws.wav",70
Sample,87080,0,"LR5_DrumSnare Sn Dr Ws.wav",70
Sample,87404,0,"LR5_DrumSnare Sn Dr Ws.wav",70
Sample,87729,0,"LR5_DrumSnare Sn Dr Ws.wav",70
Sample,88053,0,"LR5_DrumSnare Sn Dr Ws.wav",70
Sample,88377,0,"LR5_DrumSnare Sn Dr Ws.wav",70
Sample,88702,0,"LR5_DrumSnare Sn Dr Ws.wav",70
Sample,89026,0,"LR5_DrumSnare Sn Dr Ws.wav",70
Sample,89350,0,"LR5_DrumSnare Sn Dr Ws.wav",70
Sample,89675,0,"LR5_DrumSnare Sn Dr Ws.wav",70
Sample,89999,0,"LR_Clap Drum hit.wav",80
Sample,90323,0,"LR_Clap Drum hit.wav",80
Sample,90323,0,"LR5_DrumSnare Sn Dr Ws.wav",70
Sample,90485,0,"LR_Clap Drum hit.wav",80
Sample,90648,0,"LR_Clap Drum hit.wav",80
Sample,90972,0,"LR_Clap Drum hit.wav",80
Sample,90972,0,"LR5_DrumSnare Sn Dr Ws.wav",70
Sample,91134,0,"LR_Clap Drum hit.wav",80
Sample,91296,0,"LR_Clap Drum hit.wav",80
Sample,91621,0,"LR_Clap Drum hit.wav",80
Sample,91621,0,"LR5_DrumSnare Sn Dr Ws.wav",70
Sample,91783,0,"LR_Clap Drum hit.wav",80
Sample,91945,0,"LR_Clap Drum hit.wav",80
Sample,92269,0,"LR_Clap Drum hit.wav",80
Sample,92269,0,"LR5_DrumSnare Sn Dr Ws.wav",70
Sample,92431,0,"LR_Clap Drum hit.wav",80
Sample,92594,0,"LR_Clap Drum hit.wav",80
Sample,92918,0,"LR_Clap Drum hit.wav",80
Sample,92918,0,"LR5_DrumSnare Sn Dr Ws.wav",70
Sample,93242,0,"LR_Clap Drum hit.wav",80
Sample,93567,0,"LR_Clap Drum hit.wav",80
Sample,93567,0,"LR5_DrumSnare Sn Dr Ws.wav",70
Sample,93891,0,"kick11.wav",70
Sample,93891,0,"LR_Clap Drum hit.wav",80
Sample,95188,0,"kick11.wav",70

[TimingPoints]
486,324.324324324324,4,2,1,60,1,0
53675,-100.0,4,2,1,60,0,1
74431,-100.0,4,2,1,60,0,0

[HitObjects]
320,192,486,1,0,0:0:0:0:
64,192,1134,128,0,1458:0:0:0:0:
448,192,1458,1,0,0:0:0:0:
320,192,1783,128,0,2107:0:0:0:70:LR_CymbalSSD.wav
192,192,2107,1,0,0:0:0:80:LR_Clap Drum hit.wav
448,192,2431,128,0,2756:0:0:0:0:
64,192,2756,1,0,0:0:0:80:LR_Clap Drum hit.wav
320,192,2918,1,0,0:0:0:0:
192,192,3080,128,0,3404:0:0:0:70:LR_CymbalSSD.wav
320,192,3404,128,0,3729:0:0:0:80:LR_Clap Drum hit.wav
64,192,3729,1,0,0:0:0:0:
448,192,3891,1,0,0:0:0:70:LR_CymbalSSD.wav
448,192,4215,1,0,0:0:0:70:LR_CymbalSSD.wav
64,192,4377,128,0,4702:0:0:0:70:LR_CymbalSSD.wav
320,192,4702,1,0,0:0:0:80:LR_Clap Drum hit.wav
448,192,5026,128,0,5350:0:0:0:80:LR_Clap Drum hit.wav
192,192,5350,1,0,0:0:0:80:LR_Clap Drum hit.wav
64,192,5513,1,0,0:0:0:0:
320,192,5675,128,0,5999:0:0:0:70:LR_CymbalSSD.wav
64,192,5999,128,0,6323:0:0:0:80:LR_Clap Drum hit.wav
448,192,6323,1,0,0:0:0:80:LR_Clap Drum hit.wav
320,192,6648,128,0,6972:0:0:0:70:LR_CymbalSSD.wav
192,192,6972,128,0,7296:0:0:0:70:LR_CymbalSSD.wav
448,192,7296,1,0,0:0:0:70:kick11.wav
64,192,7621,128,0,7945:0:0:0:70:LR_CymbalSSD.wav
320,192,7945,1,0,0:0:0:70:kick11.wav
192,192,8107,1,0,0:0:0:80:LR_Clap Drum hit.wav
448,192,8269,128,0,8594:0:0:0:70:LR_CymbalSSD.wav
64,192,8594,128,0,8918:0:0:0:70:kick11.wav
320,192,8918,128,0,9242:0:0:0:70:LR_CymbalSSD.wav
192,192,9242,1,0,0:0:0:70:kick11.wav
64,192,9404,1,0,0:0:0:80:LR_Clap Drum hit.wav
448,192,9567,128,0,9891:0:0:0:70:LR_CymbalSSD.wav
64,192,9891,128,0,10215:0:0:0:70:LR_CymbalSSD.wav
320,192,10215,1,0,0:0:0:70:LR_CymbalSSD.wav
64,192,10458,1,0,0:0:0:70:LR_CymbalSSD.wav
448,192,10702,1,0,0:0:0:70:LR_CymbalSSD.wav
192,192,10864,1,0,0:0:0:70:kick11.wav
64,192,11188,1,0,0:0:0:0:
320,192,11513,128,0,11837:0:0:0:0:
192,192,11837,1,0,0:0:0:0:
448,192,12161,128,0,12485:0:0:0:0:
64,192,12485,1,0,0:0:0:70:LR_CymbalSSD.wav
320,192,12810,1,0,0:0:0:70:kick11.wav
192,192,13134,1,0,0:0:0:70:kick11.wav
448,192,13458,1,0,0:0:0:70:kick11.wav
64,192,13783,1,0,0:0:0:70:kick11.wav
192,192,13945,1,0,0:0:0:0:
320,192,14107,128,0,14431:0:0:0:70:kick11.wav
192,192,14431,1,0,0:0:0:70:kick11.wav
64,192,14594,1,0,0:0:0:0:
448,192,14756,1,0,0:0:0:70:kick11.wav
64,192,15080,1,0,0:0:0:70:kick11.wav
320,192,15404,1,0,0:0:0:70:kick11.wav
192,192,15729,1,0,0:0:0:70:kick11.wav
448,192,16053,1,0,0:0:0:70:kick11.wav
64,192,16377,1,0,0:0:0:70:kick11.wav
320,192,16702,1,0,0:0:0:70:kick11.wav
448,192,16864,1,0,0:0:0:0:
192,192,17026,128,0,17350:0:0:0:70:kick11.wav
320,192,17350,128,0,17675:0:0:0:70:kick11.wav
64,192,17675,1,0,0:0:0:70:kick11.wav
448,192,17999,1,0,0:0:0:70:kick11.wav
192,192,18323,1,0,0:0:0:70:kick11.wav
320,192,18648,1,0,0:0:0:70:kick11.wav
64,192,18972,1,0,0:0:0:70:kick11.wav
320,192,19296,1,0,0:0:0:70:kick11.wav
448,192,19458,1,0,0:0:0:70:kick11.wav
192,192,19621,128,0,19945:0:0:0:70:kick11.wav
448,192,19945,1,0,0:0:0:70:kick11.wav
320,192,20107,1,0,0:0:0:0:
64,192,20269,1,0,0:0:0:70:kick11.wav
320,192,20594,1,0,0:0:0:70:kick11.wav
192,192,20918,1,0,0:0:0:70:kick11.wav
448,192,21080,1,0,0:0:0:0:
320,192,21242,128,0,21567:0:0:0:70:kick11.wav
64,192,21567,1,0,0:0:0:0:
192,192,21891,1,0,0:0:0:0:
320,192,22053,1,0,0:0:0:0:
448,192,22215,1,0,0:0:0:0:
64,192,22540,128,0,22864:0:0:0:0:
320,192,22864,1,0,0:0:0:70:LR_CymbalSSD.wav
192,192,23188,1,0,0:0:0:70:kick11.wav
448,192,23513,1,0,0:0:0:70:kick11.wav
64,192,23837,1,0,0:0:0:70:kick11.wav
320,192,24161,1,0,0:0:0:70:kick11.wav
448,192,24323,1,0,0:0:0:0:
192,192,24485,128,0,24810:0:0:0:70:kick11.wav
320,192,24810,1,0,0:0:0:70:kick11.wav
448,192,24972,1,0,0:0:0:70:kick11.wav
64,192,25134,1,0,0:0:0:70:kick11.wav
448,192,25458,1,0,0:0:0:70:kick11.wav
192,192,25783,1,0,0:0:0:70:kick11.wav
320,192,26107,1,0,0:0:0:70:kick11.wav
448,192,26269,1,0,0:0:0:0:
64,192,26431,1,0,0:0:0:70:kick11.wav
448,192,26756,1,0,0:0:0:70:kick11.wav
192,192,27080,1,0,0:0:0:70:kick11.wav
64,192,27242,1,0,0:0:0:0:
320,192,27404,128,0,27729:0:0:0:70:kick11.wav
64,192,27729,1,0,0:0:0:70:kick11.wav
448,192,28053,1,0,0:0:0:70:kick11.wav
192,192,28377,1,0,0:0:0:70:kick11.wav
320,192,28702,1,0,0:0:0:70:kick11.wav
448,192,28864,1,0,0:0:0:80:LR_Clap Drum hit.wav
64,192,29026,1,0,0:0:0:70:kick11.wav
448,192,29350,1,0,0:0:0:70:kick11.wav
192,192,29675,1,0,0:0:0:70:kick11.wav
320,192,29999,128,0,30323:0:0:0:70:kick11.wav
64,192,30323,1,0,0:0:0:70:kick11.wav
192,192,30485,1,0,0:0:0:80:LR_Clap Drum hit.wav
448,192,30648,1,0,0:0:0:70:kick11.wav
320,192,30972,1,0,0:0:0:70:kick11.wav
192,192,31134,1,0,0:0:0:80:LR_Clap Drum hit.wav
64,192,31296,1,0,0:0:0:70:kick11.wav
192,192,31621,128,0,31945:0:0:0:70:kick11.wav
448,192,31945,1,0,0:0:0:0:
320,192,32269,128,0,32594:0:0:0:70:kick11.wav
64,192,32594,1,0,0:0:0:70:kick11.wav
192,192,32756,1,0,0:0:0:0:
448,192,32918,1,0,0:0:0:70:LR_CymbalSSD.wav
320,192,33242,1,0,0:0:0:0:
64,192,33567,1,0,0:0:0:0:
448,192,33891,1,0,0:0:0:0:
320,192,34215,1,0,0:0:0:0:
448,192,34540,1,0,0:0:0:0:
192,192,34864,1,0,0:0:0:0:
64,192,35188,1,0,0:0:0:0:
448,192,35513,1,0,0:0:0:0:
320,192,35837,1,0,0:0:0:0:
192,192,36161,1,0,0:0:0:0:
64,192,36485,1,0,0:0:0:0:
320,192,36810,1,0,0:0:0:0:
64,192,37458,1,0,0:0:0:0:
448,192,37783,1,0,0:0:0:0:
192,192,38107,1,0,0:0:0:0:
64,192,38431,1,0,0:0:0:0:
320,192,38756,1,0,0:0:0:0:
448,192,39080,1,0,0:0:0:0:
64,192,39404,1,0,0:0:0:0:
320,192,39729,1,0,0:0:0:0:
448,192,40053,1,0,0:0:0:0:
192,192,40377,1,0,0:0:0:0:
320,192,40702,1,0,0:0:0:0:
448,192,41026,1,0,0:0:0:0:
64,192,41350,1,0,0:0:0:0:
192,192,41675,1,0,0:0:0:0:
320,192,41999,128,0,42323:0:0:0:0:
192,192,42323,1,0,0:0:0:0:
64,192,42648,128,0,42972:0:0:0:0:
448,192,42972,1,0,0:0:0:0:
320,192,43296,128,0,43621:0:0:0:70:LR_CymbalSSD.wav
192,192,43621,1,0,0:0:0:70:LR5_DrumSnare Sn Dr Ws.wav
64,192,43945,1,0,0:0:0:70:LR5_DrumSnare Sn Dr Ws.wav
320,192,44107,1,0,0:0:0:0:
448,192,44269,1,0,0:0:0:70:LR5_DrumSnare Sn Dr Ws.wav
192,192,44594,1,0,0:0:0:70:LR5_DrumSnare Sn Dr Ws.wav
320,192,44918,1,0,0:0:0:70:LR5_DrumSnare Sn Dr Ws.wav
192,192,45080,1,0,0:0:0:0:
64,192,45242,128,0,45567:0:0:0:70:LR5_DrumSnare Sn Dr Ws.wav
448,192,45567,128,0,45891:0:0:0:70:LR5_DrumSnare Sn Dr Ws.wav
192,192,45891,128,0,46215:0:0:0:70:LR_CymbalSSD.wav
320,192,46215,1,0,0:0:0:70:LR5_DrumSnare Sn Dr Ws.wav
448,192,46540,1,0,0:0:0:70:LR5_DrumSnare Sn Dr Ws.wav
192,192,46702,1,0,0:0:0:0:
64,192,46864,1,0,0:0:0:70:LR5_DrumSnare Sn Dr Ws.wav
320,192,47188,1,0,0:0:0:70:LR_CymbalSSD.wav
192,192,47513,1,0,0:0:0:70:LR5_DrumSnare Sn Dr Ws.wav
64,192,47675,1,0,0:0:0:0:
448,192,47837,128,0,48161:0:0:0:70:LR_CymbalSSD.wav
64,192,48161,128,0,48485:0:0:0:70:LR5_DrumSnare Sn Dr Ws.wav
320,192,48485,128,0,48810:0:0:0:70:LR_CymbalSSD.wav
192,192,48810,1,0,0:0:0:80:LR_Clap Drum hit.wav
448,192,49134,128,0,49458:0:0:0:70:LR_CymbalSSD.wav
64,192,49458,1,0,0:0:0:80:LR_Clap Drum hit.wav
192,192,49783,128,0,50107:0:0:0:70:LR_CymbalSSD.wav
320,192,50107,1,0,0:0:0:80:LR_Clap Drum hit.wav
64,192,50431,128,0,50756:0:0:0:70:LR_CymbalSSD.wav
448,192,50756,1,0,0:0:0:80:LR_Clap Drum hit.wav
320,192,51080,1,0,0:0:0:70:LR_CymbalSSD.wav
64,192,51242,1,0,0:0:0:80:LR_Clap Drum hit.wav
192,192,51404,1,0,0:0:0:70:LR_CymbalSSD.wav
64,192,51729,1,0,0:0:0:70:LR_CymbalSSD.wav
320,192,51891,1,0,0:0:0:80:LR_Clap Drum hit.wav
448,192,52053,1,0,0:0:0:70:LR_CymbalSSD.wav
192,192,52377,128,0,52702:0:0:0:0:
320,192,52702,1,0,0:0:0:0:
448,192,53026,1,0,0:0:0:70:LR5_DrumSnare Sn Dr Ws.wav
192,192,53188,1,0,0:0:0:70:kick11.wav
64,192,53350,128,0,53675:0:0:0:70:LR_CymbalSSD.wav
320,192,53675,128,0,53999:0:0:0:70:LR_CymbalSSD.wav
192,192,53999,1,0,0:0:0:70:kick11.wav
64,192,54161,1,0,0:0:0:0:
448,192,54323,128,0,54648:0:0:0:70:kick11.wav
64,192,54648,1,0,0:0:0:70:kick11.wav
320,192,54810,1,0,0:0:0:0:
192,192,54972,128,0,55296:0:0:0:70:kick11.wav
320,192,55296,128,0,55621:0:0:0:70:kick11.wav
192,192,55621,128,0,55945:0:0:0:70:kick11.wav
448,192,55945,1,0,0:0:0:70:kick11.wav
320,192,56107,1,0,0:0:0:0:
64,192,56269,128,0,56594:0:0:0:70:kick11.wav
320,192,56594,1,0,0:0:0:70:kick11.wav
192,192,56756,1,0,0:0:0:0:
448,192,56918,128,0,57242:0:0:0:70:kick11.wav
192,192,57242,1,0,0:0:0:70:kick11.wav
64,192,57404,1,0,0:0:0:0:
320,192,57567,128,0,57891:0:0:0:70:kick11.wav
64,192,57891,128,0,58215:0:0:0:70:kick11.wav
448,192,58215,1,0,0:0:0:70:kick11.wav
192,192,58377,1,0,0:0:0:0:
320,192,58540,128,0,58864:0:0:0:70:kick11.wav
192,192,58864,128,0,59188:0:0:0:70:kick11.wav
448,192,59188,1,0,0:0:0:70:kick11.wav
320,192,59350,1,0,0:0:0:0:
64,192,59513,128,0,59837:0:0:0:70:kick11.wav
320,192,59837,1,0,0:0:0:70:kick11.wav
192,192,59999,1,0,0:0:0:0:
448,192,60161,128,0,60485:0:0:0:70:kick11.wav
64,192,60485,128,0,60810:0:0:0:70:kick11.wav
320,192,60810,128,0,61134:0:0:0:70:kick11.wav
192,192,61134,1,0,0:0:0:70:kick11.wav
64,192,61296,1,0,0:0:0:0:
448,192,61458,128,0,61783:0:0:0:70:kick11.wav
64,192,61783,1,0,0:0:0:70:kick11.wav
320,192,61945,1,0,0:0:0:0:
192,192,62107,128,0,62431:0:0:0:70:kick11.wav
320,192,62431,1,0,0:0:0:70:kick11.wav
448,192,62594,1,0,0:0:0:0:
64,192,62756,128,0,63080:0:0:0:70:kick11.wav
448,192,63080,128,0,63404:0:0:0:70:kick11.wav
192,192,63404,1,0,0:0:0:70:kick11.wav
320,192,63567,1,0,0:0:0:0:
64,192,63729,128,0,64053:0:0:0:0:
320,192,64053,128,0,64377:0:0:0:70:LR_CymbalSSD.wav
192,192,64377,1,0,0:0:0:70:kick11.wav
64,192,64540,1,0,0:0:0:0:
448,192,64702,128,0,65026:0:0:0:70:kick11.wav
64,192,65026,1,0,0:0:0:70:kick11.wav
320,192,65188,1,0,0:0:0:0:
192,192,65350,128,0,65675:0:0:0:70:kick11.wav
320,192,65675,128,0,65999:0:0:0:70:kick11.wav
192,192,65999,128,0,66323:0:0:0:70:kick11.wav
448,192,66323,1,0,0:0:0:70:kick11.wav
320,192,66485,1,0,0:0:0:0:
64,192,66648,128,0,66972:0:0:0:70:kick11.wav
320,192,66972,1,0,0:0:0:70:kick11.wav
192,192,67134,1,0,0:0:0:0:
448,192,67296,128,0,67621:0:0:0:70:kick11.wav
192,192,67621,1,0,0:0:0:70:kick11.wav
64,192,67783,1,0,0:0:0:0:
320,192,67945,128,0,68269:0:0:0:70:kick11.wav
64,192,68269,128,0,68594:0:0:0:70:kick11.wav
448,192,68594,1,0,0:0:0:70:kick11.wav
192,192,68756,1,0,0:0:0:0:
320,192,68918,128,0,69242:0:0:0:70:kick11.wav
192,192,69242,128,0,69567:0:0:0:70:kick11.wav
448,192,69567,1,0,0:0:0:70:kick11.wav
320,192,69729,1,0,0:0:0:0:
64,192,69891,128,0,70215:0:0:0:70:kick11.wav
320,192,70215,1,0,0:0:0:70:kick11.wav
192,192,70377,1,0,0:0:0:0:
448,192,70540,128,0,70864:0:0:0:70:kick11.wav
64,192,70864,128,0,71188:0:0:0:70:kick11.wav
320,192,71188,128,0,71513:0:0:0:70:kick11.wav
192,192,71513,1,0,0:0:0:70:kick11.wav
448,192,71675,1,0,0:0:0:0:
64,192,71837,1,0,0:0:0:70:kick11.wav
192,192,71999,128,0,72323:0:0:0:70:kick11.wav
320,192,72323,1,0,0:0:0:70:kick11.wav
448,192,72485,1,0,0:0:0:70:LR_CymbalSSD.wav
448,192,72729,1,0,0:0:0:70:LR_CymbalSSD.wav
192,192,72972,1,0,0:0:0:70:LR_CymbalSSD.wav
64,192,73134,128,0,73458:0:0:0:70:kick11.wav
448,192,73458,128,0,73783:0:0:0:0:
192,192,73783,1,0,0:0:0:70:kick11.wav
64,192,73945,1,0,0:0:0:70:kick11.wav
320,192,74107,1,0,0:0:0:70:kick11.wav
448,192,74269,1,0,0:0:0:70:kick11.wav
64,192,74431,1,0,0:0:0:70:LR_CymbalSSD.wav
448,192,75080,1,0,0:0:0:70:LR5_DrumSnare Sn Dr Ws.wav
64,192,75729,128,0,76053:0:0:0:70:kick11.wav
320,192,76053,128,0,76377:0:0:0:70:kick11.wav
192,192,76377,128,0,76702:0:0:0:70:LR5_DrumSnare Sn Dr Ws.wav
448,192,76702,1,0,0:0:0:70:LR5_DrumSnare Sn Dr Ws.wav
64,192,77026,128,0,77350:0:0:0:70:LR_CymbalSSD.wav
320,192,77350,1,0,0:0:0:70:kick11.wav
192,192,77513,1,0,0:0:0:0:
448,192,77675,128,0,77999:0:0:0:70:kick11.wav
192,192,77999,1,0,0:0:0:70:kick11.wav
64,192,78161,1,0,0:0:0:0:
320,192,78323,128,0,78648:0:0:0:70:kick11.wav
64,192,78648,128,0,78972:0:0:0:70:kick11.wav
448,192,78972,1,0,0:0:0:70:kick11.wav
192,192,79134,1,0,0:0:0:0:
320,192,79296,128,0,79621:0:0:0:70:kick11.wav
192,192,79621,128,0,79945:0:0:0:70:kick11.wav
448,192,79945,1,0,0:0:0:70:kick11.wav
320,192,80107,1,0,0:0:0:0:
64,192,80269,128,0,80594:0:0:0:70:kick11.wav
320,192,80594,1,0,0:0:0:70:kick11.wav
192,192,80756,1,0,0:0:0:0:
448,192,80918,128,0,81242:0:0:0:70:kick11.wav
64,192,81242,128,0,81567:0:0:0:70:kick11.wav
320,192,81567,128,0,81891:0:0:0:70:kick11.wav
192,192,81891,1,0,0:0:0:70:kick11.wav
64,192,82053,1,0,0:0:0:0:
448,192,82215,128,0,82540:0:0:0:70:kick11.wav
64,192,82540,1,0,0:0:0:70:kick11.wav
320,192,82702,1,0,0:0:0:0:
192,192,82864,128,0,83188:0:0:0:70:kick11.wav
320,192,83188,1,0,0:0:0:70:kick11.wav
448,192,83350,1,0,0:0:0:0:
64,192,83513,128,0,83837:0:0:0:70:kick11.wav
448,192,83837,128,0,84161:0:0:0:70:kick11.wav
192,192,84161,1,0,0:0:0:70:kick11.wav
320,192,84323,1,0,0:0:0:0:
64,192,84485,128,0,84810:0:0:0:70:kick11.wav
320,192,84810,128,0,85134:0:0:0:70:LR_CymbalSSD.wav
64,192,85134,128,0,85458:0:0:0:70:kick11.wav
448,192,85458,1,0,0:0:0:70:kick11.wav
192,192,85621,1,0,0:0:0:0:
320,192,85783,128,0,86107:0:0:0:70:kick11.wav
192,192,86107,128,0,86431:0:0:0:70:kick11.wav
448,192,86431,128,0,86756:0:0:0:70:kick11.wav
64,192,86756,1,0,0:0:0:70:kick11.wav
320,192,86918,1,0,0:0:0:0:
192,192,87080,128,0,87404:0:0:0:70:kick11.wav
448,192,87404,128,0,87729:0:0:0:70:kick11.wav
64,192,87729,128,0,88053:0:0:0:70:kick11.wav
320,192,88053,128,0,88377:0:0:0:70:kick11.wav
192,192,88377,1,0,0:0:0:70:kick11.wav
64,192,88540,1,0,0:0:0:0:
448,192,88702,128,0,89026:0:0:0:70:kick11.wav
64,192,89026,128,0,89350:0:0:0:70:kick11.wav
320,192,89350,1,0,0:0:0:70:kick11.wav
448,192,89513,1,0,0:0:0:0:
192,192,89675,1,0,0:0:0:70:kick11.wav
64,192,89837,1,0,0:0:0:0:
448,192,89999,1,0,0:0:0:70:kick11.wav
448,192,90323,1,0,0:0:0:70:kick11.wav
192,192,90485,1,0,0:0:0:70:kick11.wav
64,192,90648,1,0,0:0:0:70:kick11.wav
64,192,90972,1,0,0:0:0:70:kick11.wav
448,192,91134,1,0,0:0:0:70:kick11.wav
320,192,91296,1,0,0:0:0:70:kick11.wav
320,192,91621,1,0,0:0:0:70:kick11.wav
64,192,91783,1,0,0:0:0:70:kick11.wav
192,192,91945,1,0,0:0:0:70:kick11.wav
192,192,92269,1,0,0:0:0:70:kick11.wav
320,192,92431,1,0,0:0:0:70:kick11.wav
448,192,92594,128,0,92918:0:0:0:70:kick11.wav
64,192,92918,128,0,93242:0:0:0:70:kick11.wav
320,192,93242,128,0,93567:0:0:0:70:kick11.wav
192,192,93567,128,0,93891:0:0:0:70:kick11.wav
448,192,93891,1,0,0:0:0:70:LR_CymbalSSD.wav
320,192,94215,1,0,0:0:0:0:
192,192,94540,1,0,0:0:0:0:
64,192,94864,1,0,0:0:0:0:
320,192,95026,1,0,0:0:0:0:
448,192,95188,1,0,0:0:0:70:LR_CymbalSSD.wav
