osu file format v14

[General]
AudioFilename: audio.mp3
AudioLeadIn: 0
PreviewTime: -1
Countdown: 0
SampleSet: Soft
StackLeniency: 0.4
Mode: 0
LetterboxInBreaks: 0
WidescreenStoryboard: 0

[Editor]
Bookmarks: 30499
DistanceSpacing: 1
BeatDivisor: 4
GridSize: 16
TimelineZoom: 2.3

[Metadata]
Title:Koisuru*Hiyoko
TitleUnicode:Koisuru☆Hiyoko
Artist:Rekka Katakiri
ArtistUnicode:Rekka Katakiri
Creator:HibikiDesu
Version:Lewd
Source:おくさまが生徒会長!
Tags:My wife is the student council president anime op
BeatmapID:1555836
BeatmapSetID:737245

[Difficulty]
HPDrainRate:6
CircleSize:4
OverallDifficulty:8.5
ApproachRate:9.6
SliderMultiplier:1.4
SliderTickRate:1

[Events]
//Background and Video events
0,0,"Background.jpg",0,0
//Break Periods
//Storyboard Layer 0 (Background)
//Storyboard Layer 1 (Fail)
//Storyboard Layer 2 (Pass)
//Storyboard Layer 3 (Foreground)
//Storyboard Sound Samples

[TimingPoints]
499,337.078651685393,4,2,3,60,1,0
837,337.078651685393,4,2,1,60,1,0
837,-66.6666666666667,4,2,1,60,0,1
3533,-66.6666666666667,4,2,1,60,0,1
3617,-66.6666666666667,4,2,3,60,0,1
4039,-66.6666666666667,4,2,4,60,0,1
4544,-66.6666666666667,4,2,5,60,0,1
4713,-66.6666666666667,4,2,1,60,0,1
5556,-66.6666666666667,4,2,1,60,0,0
6061,-83.3333333333333,4,2,1,60,0,0
11117,-83.3333333333333,4,2,3,60,0,0
11454,-83.3333333333333,4,2,4,60,0,0
11623,-83.3333333333333,4,2,1,60,0,0
14320,-50,4,2,1,60,0,1
16005,-83.3333333333333,4,2,1,60,0,0
27803,-83.3333333333333,4,2,1,10,0,0
28140,-83.3333333333333,4,2,1,20,0,0
28477,-83.3333333333333,4,2,1,30,0,0
28814,-83.3333333333333,4,2,1,40,0,0
29151,-83.3333333333333,4,2,1,50,0,0
29825,-83.3333333333333,4,2,1,55,0,0
30499,-83.3333333333333,4,2,1,60,0,1
52072,-166.666666666667,4,2,1,60,0,1
53252,-83.3333333333333,4,2,1,60,0,0

[HitObjects]
131,206,499,5,8,0:0:0:0:
165,211,583,1,8,0:0:0:0:
198,200,667,1,4,0:0:0:0:
230,188,751,1,4,0:0:0:0:
264,194,837,5,12,0:0:0:0:
338,354,1005,1,2,0:0:0:0:
338,354,1174,1,2,0:0:0:0:
314,121,1342,5,8,0:0:0:0:
250,346,1511,1,2,0:0:0:0:
250,346,1679,1,2,0:0:0:0:
402,129,1848,5,12,0:0:0:0:
162,338,2016,1,2,0:0:0:0:
162,338,2185,1,2,0:0:0:0:
439,209,2353,5,8,0:0:0:0:
125,258,2522,1,2,0:0:0:0:
125,258,2690,1,2,0:0:0:0:
476,289,2859,5,12,0:0:0:0:
88,178,3028,1,2,0:0:0:0:
402,129,3196,5,8,0:0:0:0:
162,338,3365,1,2,0:0:0:0:
227,114,3533,5,12,0:0:0:0:
278,106,3617,1,4,0:0:0:0:
324,128,3701,1,4,0:0:0:0:
350,173,3785,1,4,0:0:0:0:
347,225,3870,2,0,L|341:288,1,52.5000020027161,4|4,0:0|0:0,0:0:0:0:
176,186,4039,5,8,0:0:0:0:
143,145,4123,1,4,0:0:0:0:
139,94,4207,1,4,0:0:0:0:
165,49,4291,1,4,0:0:0:0:
212,27,4376,2,0,L|275:32,1,52.5000020027161,4|4,0:0|0:0,0:0:0:0:
264,194,4544,5,12,0:0:0:0:
38,251,4713,1,6,0:0:0:0:
38,251,5050,5,2,0:0:0:0:
389,282,5219,1,8,0:0:0:0:
389,282,5556,6,0,L|344:235,1,52.5000020027161,10|0,0:0|0:0,0:0:0:0:
227,114,5724,1,10,0:0:0:0:
250,346,6061,6,0,P|339:355|385:301,1,167.999994873047,6|2,0:0|0:0,0:0:0:0:
301,274,6567,1,8,0:0:0:0:
301,274,6904,5,2,0:0:0:0:
162,338,7072,1,2,0:0:0:0:
389,282,7241,1,8,0:0:0:0:
125,258,7410,6,0,P|161:339|231:352,1,167.999994873047,6|2,0:0|0:0,0:0:0:0:
213,266,7915,1,8,0:0:0:0:
213,266,8252,5,2,0:0:0:0:
74,330,8421,1,2,0:0:0:0:
176,186,8589,1,8,0:0:0:0:
301,274,8758,6,0,P|249:347|178:346,1,167.999994873047,6|2,0:0|0:0,0:0:0:0:
213,266,9263,2,0,L|221:170,1,83.9999974365235,8|0,0:0|0:0,0:0:0:0:
365,49,9601,2,0,L|373:144,1,83.9999974365235,2|2,0:0|0:0,0:0:0:0:
301,274,9938,1,8,0:0:0:0:
277,41,10106,6,0,P|188:32|142:86,1,167.999994873047,6|2,0:0|0:0,0:0:0:0:
227,114,10612,1,8,0:0:0:0:
365,49,10780,2,0,L|460:57,1,83.9999974365235,2|0,0:0|0:0,0:0:0:0:
352,202,11117,5,6,0:0:0:0:
352,202,11202,1,4,0:0:0:0:
352,202,11286,2,0,L|304:206,1,41.9999987182618,12|4,0:0|0:0,0:0:0:0:
227,114,11454,2,0,L|274:118,1,41.9999987182618,4|4,0:0|0:0,0:0:0:0:
352,201,11623,6,0,P|389:283|353:344,2,167.999994873047,6|8|2,0:0|0:0|0:0,0:0:0:0:
176,186,12466,1,2,0:0:0:0:
301,274,12634,1,8,0:0:0:0:
315,122,12803,6,0,P|278:40|208:27,1,167.999994873047,6|2,0:0|0:0,0:0:0:0:
227,114,13308,1,8,0:0:0:0:
227,114,13645,5,2,0:0:0:0:
402,129,13814,1,2,0:0:0:0:
176,186,13983,1,8,0:0:0:0:
439,209,14151,1,2,0:0:0:0:
278,42,14320,5,12,0:0:0:0:
213,266,14488,1,2,0:0:0:0:
366,50,14657,5,8,0:0:0:0:
389,282,14825,1,2,0:0:0:0:
190,34,14994,5,8,0:0:0:0:
163,339,15162,1,2,0:0:0:0:
402,129,15331,5,8,0:0:0:0:
88,178,15499,6,0,B|82:315|262:315|236:203|175:185,1,280,14|10,0:0|0:0,0:0:0:0:
0,170,16005,1,10,0:0:0:0:
0,170,16342,6,0,L|46:158,1,41.9999987182618,10|0,0:0|0:0,0:0:0:0:
227,114,16511,1,10,0:0:0:0:
389,282,16848,6,0,P|299:273|265:211,1,167.999994873047,6|2,0:0|0:0,0:0:0:0:
439,209,17353,1,8,0:0:0:0:
439,209,17690,5,2,0:0:0:0:
338,354,17859,1,2,0:0:0:0:
315,122,18028,1,8,0:0:0:0:
389,282,18196,6,0,P|336:355|265:353,1,167.999994873047,6|2,0:0|0:0,0:0:0:0:
352,202,18702,1,8,0:0:0:0:
352,202,19039,5,2,0:0:0:0:
213,266,19207,1,2,0:0:0:0:
389,282,19376,1,8,0:0:0:0:
176,186,19544,6,0,P|123:259|147:326,1,167.999994873047,6|2,0:0|0:0,0:0:0:0:
264,194,20050,2,0,L|255:98,1,83.9999974365235,8|0,0:0|0:0,0:0:0:0:
88,178,20387,2,0,L|79:273,1,83.9999974365235,2|2,0:0|0:0,0:0:0:0:
301,274,20724,1,8,0:0:0:0:
139,106,20893,6,0,P|49:97|3:151,1,167.999994873047,6|2,0:0|0:0,0:0:0:0:
176,186,21398,2,0,L|271:177,1,83.9999974365235,8|0,0:0|0:0,0:0:0:0:
101,25,21735,5,2,0:0:0:0:
88,178,21904,1,2,0:0:0:0:
189,33,22072,1,8,0:0:0:0:
125,258,22241,6,0,P|34:249|1:186,1,167.999994873047,6|2,0:0|0:0,0:0:0:0:
176,186,22747,1,8,0:0:0:0:
176,186,23084,5,2,0:0:0:0:
74,330,23252,1,2,0:0:0:0:
1,171,23421,1,8,0:0:0:0:
213,266,23589,6,0,P|265:192|242:125,1,167.999994873047,6|2,0:0|0:0,0:0:0:0:
125,258,24095,2,0,L|133:353,1,83.9999974365235,8|0,0:0|0:0,0:0:0:0:
301,274,24432,2,0,L|309:178,1,83.9999974365235,2|2,0:0|0:0,0:0:0:0:
125,258,24769,5,12,0:0:0:0:
389,282,24938,1,0,0:0:0:0:
88,178,25106,5,10,0:0:0:0:
439,209,25275,1,8,0:0:0:0:
38,251,25612,5,8,0:0:0:0:
476,289,25949,5,8,0:0:0:0:
139,106,26286,6,0,P|48:97|2:151,1,167.999994873047,8|8,0:0|0:0,0:0:0:0:
176,186,26792,1,8,0:0:0:0:
101,25,26960,1,8,0:0:0:0:
176,186,27803,5,8,0:0:0:0:
227,114,27971,1,8,0:0:0:0:
264,194,28140,1,8,0:0:0:0:
139,106,28308,1,8,0:0:0:0:
125,258,28477,5,8,0:0:0:0:
227,114,28645,1,8,0:0:0:0:
301,274,28814,1,8,0:0:0:0:
139,106,28983,1,8,0:0:0:0:
74,330,29151,5,8,0:0:0:0:
189,33,29320,1,8,0:0:0:0:
389,282,29488,1,8,0:0:0:0:
1,171,29657,1,8,0:0:0:0:
402,129,29825,5,8,0:0:0:0:
413,146,29909,1,8,0:0:0:0:
420,166,29993,1,8,0:0:0:0:
424,186,30077,1,8,0:0:0:0:
425,207,30162,1,8,0:0:0:0:
421,228,30246,1,8,0:0:0:0:
414,248,30330,1,8,0:0:0:0:
403,266,30414,1,8,0:0:0:0:
389,281,30499,5,12,0:0:0:0:
315,122,30668,1,0,0:0:0:0:
250,346,30836,5,8,0:0:0:0:
426,362,31005,1,2,0:0:0:0:
264,194,31174,5,8,0:0:0:0:
163,339,31342,1,2,0:0:0:0:
389,281,31511,5,8,0:0:0:0:
176,186,31679,2,0,L|80:194,1,83.9999974365235,2|12,0:0|0:0,0:0:0:0:
301,274,32016,2,0,L|396:282,1,83.9999974365235,0|8,0:0|0:0,0:0:0:0:
163,339,32353,1,2,0:0:0:0:
227,114,32522,5,8,0:0:0:0:
250,346,32690,1,2,0:0:0:0:
139,106,32859,5,8,0:0:0:0:
74,330,33028,1,2,0:0:0:0:
301,274,33196,5,12,0:0:0:0:
90,178,33365,2,0,L|-5:186,1,83.9999974365235,0|8,0:0|0:0,0:0:0:0:
213,266,33702,2,0,L|308:274,1,83.9999974365235,2|8,0:0|0:0,0:0:0:0:
139,106,34039,2,0,L|43:114,1,83.9999974365235,2|8,0:0|0:0,0:0:0:0:
163,339,34376,6,0,P|203:354|250:345,1,83.9999974365235,2|12,0:0|0:0,0:0:0:0:
315,122,34713,2,0,P|282:149|267:194,1,83.9999974365235,2|8,0:0|0:0,0:0:0:0:
426,362,35050,6,0,L|416:250,1,83.9999974365235,2|12,0:0|0:0,0:0:0:0:
227,114,35387,2,0,L|217:225,1,83.9999974365235,2|8,0:0|0:0,0:0:0:0:
338,354,35724,1,2,0:0:0:0:
315,122,35893,5,12,0:0:0:0:
301,274,36061,1,0,0:0:0:0:
227,114,36230,5,8,0:0:0:0:
250,346,36398,1,2,0:0:0:0:
402,129,36567,5,8,0:0:0:0:
338,354,36735,1,2,0:0:0:0:
176,186,36904,5,8,0:0:0:0:
439,209,37072,1,2,0:0:0:0:
125,258,37241,5,12,0:0:0:0:
189,33,37410,1,0,0:0:0:0:
213,266,37578,5,8,0:0:0:0:
101,25,37747,1,2,0:0:0:0:
74,330,37915,5,8,0:0:0:0:
227,114,38084,1,2,0:0:0:0:
250,346,38252,5,8,0:0:0:0:
90,178,38421,1,2,0:0:0:0:
352,202,38589,5,12,0:0:0:0:
125,258,38758,1,0,0:0:0:0:
389,281,38926,5,8,0:0:0:0:
90,178,39095,2,0,L|-5:186,1,83.9999974365235,2|8,0:0|0:0,0:0:0:0:
213,266,39432,2,0,L|308:274,1,83.9999974365235,2|8,0:0|0:0,0:0:0:0:
139,106,39769,6,0,P|48:97|2:151,1,167.999994873047,14|8,0:0|0:0,0:0:0:0:
90,178,40275,1,10,0:0:0:0:
90,178,40612,5,2,0:0:0:0:
189,33,40780,1,8,0:0:0:0:
189,33,40865,1,8,0:0:0:0:
189,33,40949,1,8,0:0:0:0:
213,266,41117,1,8,0:0:0:0:
213,266,41202,1,8,0:0:0:0:
213,266,41286,5,12,0:0:0:0:
101,25,41454,1,0,0:0:0:0:
38,251,41623,5,8,0:0:0:0:
189,33,41792,1,2,0:0:0:0:
301,274,41960,5,8,0:0:0:0:
1,171,42129,1,2,0:0:0:0:
278,42,42297,5,8,0:0:0:0:
90,178,42466,2,0,P|96:220|128:255,1,83.9999974365235,2|12,0:0|0:0,0:0:0:0:
315,122,42803,2,0,P|274:106|227:116,1,83.9999974365235,2|8,0:0|0:0,0:0:0:0:
38,251,43140,6,0,L|47:362,1,83.9999974365235,2|8,0:0|0:0,0:0:0:0:
139,106,43477,2,0,L|148:-5,1,83.9999974365235,2|8,0:0|0:0,0:0:0:0:
163,339,43814,6,0,P|202:354|249:344,1,83.9999974365235,2|12,0:0|0:0,0:0:0:0:
139,106,44151,2,0,P|99:90|52:100,1,83.9999974365235,2|8,0:0|0:0,0:0:0:0:
301,274,44488,6,0,L|292:178,1,83.9999974365235,2|8,0:0|0:0,0:0:0:0:
101,25,44825,2,0,L|92:120,1,83.9999974365235,2|8,0:0|0:0,0:0:0:0:
125,258,45162,1,2,0:0:0:0:
278,42,45331,5,12,0:0:0:0:
50,97,45499,1,2,0:0:0:0:
315,122,45668,1,8,0:0:0:0:
101,25,45836,1,2,0:0:0:0:
366,50,46005,5,12,0:0:0:0:
1,171,46174,1,2,0:0:0:0:
352,202,46342,1,8,0:0:0:0:
14,17,46511,1,2,0:0:0:0:
453,58,46679,6,0,P|482:90|489:137,1,83.9999974365235,12|0,0:0|0:0,0:0:0:0:
301,274,47016,5,8,0:0:0:0:
366,50,47185,1,2,0:0:0:0:
389,281,47353,1,8,0:0:0:0:
227,114,47522,1,2,0:0:0:0:
490,138,47690,1,8,0:0:0:0:
264,194,47859,1,2,0:0:0:0:
439,209,48028,5,12,0:0:0:0:
227,114,48196,1,0,0:0:0:0:
453,58,48365,1,8,0:0:0:0:
189,33,48533,6,0,L|93:41,1,83.9999974365235,2|8,0:0|0:0,0:0:0:0:
315,122,48870,2,0,L|410:130,1,83.9999974365235,2|8,0:0|0:0,0:0:0:0:
176,186,49207,1,2,0:0:0:0:
278,42,49376,5,14,0:0:0:0:
301,274,49544,2,0,L|292:369,1,83.9999974365235,10|0,0:0|0:0,0:0:0:0:
50,97,49881,5,10,0:0:0:0:
402,129,50219,2,0,L|497:137,1,83.9999974365235,10|0,0:0|0:0,0:0:0:0:
176,186,50556,6,0,P|138:102|176:42,1,167.999994873047,10|10,0:0|0:0,0:0:0:0:
264,194,51061,1,14,0:0:0:0:
90,178,51399,5,8,0:0:0:0:
97,222,51483,1,8,0:0:0:0:
125,257,51567,1,8,0:0:0:0:
167,273,51651,1,8,0:0:0:0:
212,266,51736,1,8,0:0:0:0:
247,238,51820,1,8,0:0:0:0:
264,194,51904,2,0,L|259:146,1,41.9999987182618,8|8,0:0|0:0,0:0:0:0:
50,97,52072,6,0,B|29:149|58:197|58:197|88:245|67:297,1,209.999993591309,10|0,0:0|0:0,0:0:0:0:
189,33,53084,5,8,0:0:0:0:
250,346,53252,1,8,0:0:0:0:
