osu file format v14

[General]
AudioFilename: audio.mp3
AudioLeadIn: 0
PreviewTime: 2411
Countdown: 0
SampleSet: Normal
StackLeniency: 0.7
Mode: 1
LetterboxInBreaks: 0
WidescreenStoryboard: 0

[Editor]
DistanceSpacing: 4.1
BeatDivisor: 4
GridSize: 16
TimelineZoom: 2.2

[Metadata]
Title:Koisuru Hiyoko
TitleUnicode:恋する☆ひよこ
Artist:Rekka Katakiri
ArtistUnicode:片霧烈火
Creator:Arnon
Version:Oni
Source:おくさまが生徒会長
Tags:okusama ga seitokaicho anime Tv Size
BeatmapID:1268984
BeatmapSetID:600541

[Difficulty]
HPDrainRate:6
CircleSize:5
OverallDifficulty:5.5
ApproachRate:5
SliderMultiplier:1.4
SliderTickRate:1

[Events]
//Background and Video events
0,0,"おくさまが生徒会長!_-_ep01_044.jpg",0,0
Video,0,"Okusama ga Seito Kaichou! Opening Opening 1 HD.mp4"
//Break Periods
//Storyboard Layer 0 (Background)
//Storyboard Layer 1 (Fail)
//Storyboard Layer 2 (Pass)
//Storyboard Layer 3 (Foreground)
//Storyboard Sound Samples

[TimingPoints]
3591,337.078651685393,4,1,0,50,1,0

[HitObjects]
224,192,220,5,0,0:0:0:0:
224,192,304,1,0,0:0:0:0:
224,192,388,1,2,0:0:0:0:
240,192,557,1,0,0:0:0:0:
240,208,641,1,0,0:0:0:0:
240,192,725,1,0,0:0:0:0:
256,192,894,1,0,0:0:0:0:
240,192,1062,1,0,0:0:0:0:
240,208,1147,1,0,0:0:0:0:
240,192,1231,1,0,0:0:0:0:
240,192,1399,1,0,0:0:0:0:
240,192,1568,1,2,0:0:0:0:
240,192,1652,1,2,0:0:0:0:
240,192,1737,1,2,0:0:0:0:
240,192,2074,1,2,0:0:0:0:
240,192,2242,1,0,0:0:0:0:
128,32,2579,5,0,0:0:0:0:
128,32,2748,5,2,0:0:0:0:
128,32,3085,1,0,0:0:0:0:
256,208,3422,1,0,0:0:0:0:
240,192,3506,1,0,0:0:0:0:
128,32,3591,1,0,0:0:0:0:
224,192,3759,1,0,0:0:0:0:
224,192,3928,1,0,0:0:0:0:
219,191,4012,1,0,0:0:0:0:
208,192,4096,1,0,0:0:0:0:
208,192,4265,1,0,0:0:0:0:
208,192,4433,1,2,0:0:0:0:
224,192,4770,1,0,0:0:0:0:
224,192,4939,1,2,0:0:0:0:
128,32,5276,1,0,0:0:0:0:
256,192,5444,1,0,0:0:0:0:
256,200,5529,1,0,0:0:0:0:
128,32,5613,1,0,0:0:0:0:
256,192,5782,1,2,0:0:0:0:
128,32,5950,1,0,0:0:0:0:
256,208,6119,1,0,0:0:0:0:
228,199,6203,1,0,0:0:0:0:
128,32,6287,1,2,0:0:0:0:
128,32,6624,1,0,0:0:0:0:
208,208,6793,1,0,0:0:0:0:
208,208,6877,1,0,0:0:0:0:
128,32,6961,1,0,0:0:0:0:
208,208,7130,1,2,0:0:0:0:
208,208,7467,1,0,0:0:0:0:
208,208,7635,1,2,0:0:0:0:
128,32,7973,1,0,0:0:0:0:
208,208,8141,1,0,0:0:0:0:
220,204,8225,1,0,0:0:0:0:
128,32,8310,1,0,0:0:0:0:
128,32,8478,1,0,0:0:0:0:
240,192,8647,1,2,0:0:0:0:
234,201,8731,1,0,0:0:0:0:
256,192,8815,1,0,0:0:0:0:
128,32,8984,1,2,0:0:0:0:
128,32,9152,1,0,0:0:0:0:
256,192,9321,1,0,0:0:0:0:
224,201,9405,1,0,0:0:0:0:
256,176,9489,1,2,0:0:0:0:
256,176,9658,1,0,0:0:0:0:
128,32,9826,1,2,0:0:0:0:
240,176,10164,1,0,0:0:0:0:
128,32,10332,1,2,0:0:0:0:
128,32,10669,1,0,0:0:0:0:
224,192,10838,1,0,0:0:0:0:
128,32,11006,1,0,0:0:0:0:
224,176,11090,1,0,0:0:0:0:
240,176,11175,1,2,0:0:0:0:
128,32,11343,1,0,0:0:0:0:
224,192,11512,1,0,0:0:0:0:
224,176,11596,1,0,0:0:0:0:
224,176,11680,1,2,0:0:0:0:
128,32,11849,1,0,0:0:0:0:
224,208,12017,1,0,0:0:0:0:
224,208,12102,1,0,0:0:0:0:
128,32,12186,1,0,0:0:0:0:
128,32,12355,1,0,0:0:0:0:
224,192,12523,1,0,0:0:0:0:
224,208,12607,1,0,0:0:0:0:
224,208,12692,1,0,0:0:0:0:
128,32,12860,1,2,0:0:0:0:
128,32,13029,1,2,0:0:0:0:
256,208,13366,1,2,0:0:0:0:
128,32,13534,1,2,0:0:0:0:
128,32,13871,1,0,0:0:0:0:
256,208,14208,1,0,0:0:0:0:
256,208,14293,1,0,0:0:0:0:
128,32,14377,1,2,0:0:0:0:
224,192,14546,1,0,0:0:0:0:
224,192,14715,1,0,0:0:0:0:
216,177,14798,1,0,0:0:0:0:
208,192,14883,1,0,0:0:0:0:
208,192,15052,1,0,0:0:0:0:
208,192,15220,1,2,0:0:0:0:
224,192,15557,1,0,0:0:0:0:
224,192,15726,1,2,0:0:0:0:
128,32,16063,1,0,0:0:0:0:
256,192,16231,1,0,0:0:0:0:
233,180,16315,1,0,0:0:0:0:
128,32,16400,1,0,0:0:0:0:
256,192,16569,1,2,0:0:0:0:
128,32,16737,1,0,0:0:0:0:
256,208,16906,1,0,0:0:0:0:
224,190,16989,1,0,0:0:0:0:
128,32,17074,1,2,0:0:0:0:
128,32,17411,1,0,0:0:0:0:
208,208,17580,1,0,0:0:0:0:
212,189,17664,1,0,0:0:0:0:
128,32,17748,1,0,0:0:0:0:
208,208,17917,1,2,0:0:0:0:
208,208,18254,1,0,0:0:0:0:
208,208,18422,1,2,0:0:0:0:
128,32,18760,1,0,0:0:0:0:
208,208,18928,1,0,0:0:0:0:
248,189,19012,1,0,0:0:0:0:
128,32,19097,1,0,0:0:0:0:
128,32,19265,1,2,0:0:0:0:
238,188,19349,1,0,0:0:0:0:
240,192,19434,1,0,0:0:0:0:
256,192,19602,1,0,0:0:0:0:
128,32,19771,1,2,0:0:0:0:
128,32,19939,1,0,0:0:0:0:
257,174,20023,1,0,0:0:0:0:
256,192,20108,1,0,0:0:0:0:
240,192,20276,1,2,0:0:0:0:
256,176,20445,1,0,0:0:0:0:
128,32,20613,1,2,0:0:0:0:
240,176,20951,1,0,0:0:0:0:
128,32,21119,1,2,0:0:0:0:
128,32,21456,1,0,0:0:0:0:
224,192,21625,1,0,0:0:0:0:
128,32,21793,1,2,0:0:0:0:
224,176,21877,1,0,0:0:0:0:
240,176,21962,1,0,0:0:0:0:
128,32,22130,1,6,0:0:0:0:
224,192,22299,1,6,0:0:0:0:
128,32,22636,1,6,0:0:0:0:
128,32,22973,1,6,0:0:0:0:
224,192,23310,1,6,0:0:0:0:
128,32,23647,1,6,0:0:0:0:
128,32,23816,1,6,0:0:0:0:
256,208,23984,1,6,0:0:0:0:
256,192,24826,1,2,0:0:0:0:
256,192,25164,1,0,0:0:0:0:
256,192,25332,1,0,0:0:0:0:
256,192,25416,1,0,0:0:0:0:
256,176,25501,1,0,0:0:0:0:
256,192,25669,1,0,0:0:0:0:
256,192,25837,1,0,0:0:0:0:
256,192,25921,1,0,0:0:0:0:
256,176,26006,1,0,0:0:0:0:
256,192,26175,1,0,0:0:0:0:
256,192,26343,1,0,0:0:0:0:
256,192,26427,1,0,0:0:0:0:
256,176,26512,1,0,0:0:0:0:
256,176,26680,1,0,0:0:0:0:
256,192,26765,1,0,0:0:0:0:
256,192,26849,1,0,0:0:0:0:
256,192,27017,1,0,0:0:0:0:
256,192,27186,1,0,0:0:0:0:
272,192,27270,1,0,0:0:0:0:
256,192,27354,1,0,0:0:0:0:
256,192,27438,1,0,0:0:0:0:
256,176,27523,1,2,0:0:0:0:
256,192,28534,1,4,0:0:0:0:
272,192,28703,1,4,0:0:0:0:
