osu file format v14

[General]
AudioFilename: audio.mp3
AudioLeadIn: 0
PreviewTime: 9023
Countdown: 0
SampleSet: Soft
StackLeniency: 1
Mode: 0
LetterboxInBreaks: 0
WidescreenStoryboard: 1

[Editor]
Bookmarks: 9023,43290,74130,87837,101544,132385,146092,159799,177788,198348,218480
DistanceSpacing: 0.4
BeatDivisor: 4
GridSize: 16
TimelineZoom: 1.6

[Metadata]
Title:Shoujo wa Yoru to Azayaka ni
TitleUnicode:少女は夜と鮮やかに
Artist:Reji
ArtistUnicode:レジ
Creator:ADoorNob
Version:Liyuuchie's Expert
Source:
Tags:jrock j-rock vocaloid hatsune miku 初音ミク matica shirokuro utaite cover a young girl so vivid in the night japanese rock twil_furano koyorin-sama sayucat_ jeby xidorn yoko kyuuchie liyuu andada
BeatmapID:4089267
BeatmapSetID:1933985

[Difficulty]
HPDrainRate:6
CircleSize:4
OverallDifficulty:8.8
ApproachRate:9.2
SliderMultiplier:2.44
SliderTickRate:1

[Events]
//Background and Video events
0,0,"peakpx.jpg",0,0
//Break Periods
2,160005,166082
//Storyboard Layer 0 (Background)
//Storyboard Layer 1 (Fail)
//Storyboard Layer 2 (Pass)
//Storyboard Layer 3 (Foreground)
//Storyboard Layer 4 (Overlay)
//Storyboard Sound Samples

[TimingPoints]
2203,428.326670474015,4,2,1,50,1,0
2203,-100,4,2,1,50,0,0
8627,408.163265306122,4,2,1,50,1,0
9035,428.326670474015,4,2,1,75,1,0
9035,-83.3333333333333,4,2,1,75,0,0
22741,-125,4,2,1,65,0,0
29594,-100,4,2,1,70,0,0
36447,-71.4285714285714,4,2,1,75,0,0
43301,-100,4,2,1,70,0,0
50154,-83.3333333333333,4,2,1,70,0,0
57007,-71.4285714285714,4,2,1,70,0,0
70928,-71.4285714285714,4,2,2,70,0,0
71570,-71.4285714285714,4,2,1,70,0,0
72427,-62.5,4,2,2,70,0,0
73284,-62.5,4,2,1,50,0,0
74140,-55.5555555555556,4,2,1,80,0,1
74461,-71.4285714285714,4,2,1,80,0,1
74997,-66.6666666666667,4,2,1,80,0,1
75318,-55.5555555555556,4,2,1,80,0,1
75853,-71.4285714285714,4,2,1,80,0,1
76282,-62.5,4,2,1,80,0,1
76710,-55.5555555555556,4,2,1,80,0,1
77138,-71.4285714285714,4,2,1,80,0,1
77567,-62.5,4,2,1,80,0,1
78209,-71.4285714285714,4,2,1,80,0,1
78423,-66.6666666666667,4,2,1,80,0,1
78852,-76.9230769230769,4,2,1,80,0,1
79280,-71.4285714285714,4,2,1,80,0,1
79601,-62.5,4,2,1,80,0,1
79923,-71.4285714285714,4,2,1,80,0,1
80137,-62.5,4,2,1,80,0,1
81636,-71.4285714285714,4,2,1,80,0,1
81850,-66.6666666666667,4,2,1,80,0,1
82171,-55.5555555555556,4,2,1,80,0,1
82493,-71.4285714285714,4,2,1,80,0,1
82707,-76.9230769230769,4,2,1,80,0,1
83135,-62.5,4,2,1,80,0,1
84420,-166.666666666667,4,2,1,80,0,0
85277,-125,4,2,2,80,0,0
86133,-55.5555555555556,4,2,2,80,0,0
87847,-71.4285714285714,4,2,1,75,0,0
101553,-125,4,2,1,65,0,0
108406,-100,4,2,1,70,0,0
115260,-71.4285714285714,4,2,1,70,0,0
122113,-100,4,2,1,70,0,0
125539,-71.4285714285714,4,2,1,70,0,0
129180,-71.4285714285714,4,2,2,70,0,0
129823,-71.4285714285714,4,2,1,70,0,0
130679,-71.4285714285714,4,2,2,70,0,0
131536,-83.3333333333333,4,2,1,50,0,0
132393,-55.5555555555556,4,2,1,80,0,1
132714,-62.5,4,2,1,80,0,1
134106,-71.4285714285714,4,2,1,80,0,1
134534,-62.5,4,2,1,80,0,1
134963,-55.5555555555556,4,2,1,80,0,1
135391,-71.4285714285714,4,2,1,80,0,1
135819,-62.5,4,2,1,80,0,1
136462,-71.4285714285714,4,2,1,80,0,1
137854,-62.5,4,2,1,80,0,1
138175,-71.4285714285714,4,2,1,80,0,1
139246,-62.5,4,2,1,80,0,1
140102,-62.5,4,2,1,80,0,1
140424,-55.5555555555556,4,2,1,80,0,1
140745,-71.4285714285714,4,2,1,80,0,1
140959,-76.9230769230769,4,2,1,80,0,1
141387,-62.5,4,2,1,80,0,1
142672,-100,4,2,1,80,0,0
143529,-125,4,2,2,80,0,0
144386,-55.5555555555556,4,2,2,80,0,0
146099,-100,4,2,1,75,0,0
149097,-100,4,2,2,75,0,0
149526,-100,4,2,1,75,0,0
152524,-100,4,2,2,75,0,0
152952,-100,4,2,1,75,0,0
157236,-100,4,2,2,75,0,0
158521,-100,4,2,1,75,0,0
159377,-100,4,2,2,75,0,0
159805,-100,4,2,1,50,0,0
166659,-166.666666666667,4,2,1,55,0,0
170085,-200,4,2,1,55,0,0
173512,-250,4,2,1,55,0,0
174583,-166.666666666667,4,2,1,55,0,0
175225,-125,5,2,1,55,0,0
176510,454.545454545455,4,2,1,55,1,0
176737,-125,4,2,1,55,0,0
176964,428.326670474015,4,2,1,60,1,0
176964,-100,4,2,1,60,0,0
177713,352.941176470588,4,2,1,60,1,0
177801,428.326670474015,4,2,1,80,1,0
177801,-55.5555555555556,4,2,1,80,0,1
178122,-71.4285714285714,4,2,1,80,0,1
178657,-62.5,4,2,1,80,0,1
178978,-66.6666666666667,4,2,1,80,0,1
179514,-71.4285714285714,4,2,1,80,0,1
179942,-62.5,4,2,1,80,0,1
180370,-58.8235294117647,4,2,1,80,0,1
180799,-83.3333333333333,4,2,1,80,0,1
181227,-58.8235294117647,4,2,1,80,0,1
181548,-71.4285714285714,4,2,1,80,0,1
182084,-62.5,4,2,1,80,0,1
182940,-55.5555555555556,4,2,1,80,0,1
183262,-71.4285714285714,4,2,1,80,0,1
183583,-66.6666666666667,4,2,1,80,0,1
184654,-55.5555555555556,4,2,1,80,0,1
184975,-66.6666666666667,4,2,1,80,0,1
185296,-62.5,4,2,1,80,0,1
185510,-58.8235294117647,4,2,1,80,0,1
185832,-62.5,4,2,1,80,0,1
186367,-71.4285714285714,4,2,1,80,0,1
186795,-62.5,4,2,1,80,0,1
187652,-71.4285714285714,4,2,1,80,0,1
188080,-45.4545454545455,4,2,1,80,0,1
188509,-62.5,4,2,1,80,0,1
188937,-55.5555555555556,4,2,1,80,0,1
191507,-62.5,4,2,1,80,0,1
192149,-71.4285714285714,4,2,1,80,0,1
192364,-55.5555555555556,4,2,1,80,0,1
193220,-55.5555555555556,4,2,1,80,0,1
193863,-71.4285714285714,4,2,1,80,0,1
194934,-166.666666666667,4,2,1,80,0,0
195790,-125,4,2,2,80,0,0
196647,-914.913083257091,4,2,1,60,0,0
197789,-914.913083257091,4,2,1,5,0,0
197860,-111.111111111111,4,2,1,60,0,1
198360,-83.3333333333333,4,2,1,75,0,0
205213,-76.9230769230769,4,2,1,80,0,0
210353,-76.9230769230769,4,2,2,80,0,0
212067,-76.9230769230769,4,2,1,80,0,0
212388,-76.9230769230769,4,2,1,60,0,0

[Colours]
Combo1 : 255,222,111
Combo2 : 255,98,98
Combo3 : 255,190,147
Combo4 : 255,192,0

[HitObjects]
0,170,9035,6,0,P|78:181|121:124,1,146.39477441462,14|0,2:1|0:0,0:0:0:0:
176,70,9356,1,2,2:2:0:0:
188,74,9463,2,0,B|236:94|208:103|266:120,1,73.1973872073102,8|0,2:2|0:0,0:0:0:0:
365,199,9677,5,2,2:2:0:0:
429,165,9784,1,0,0:0:0:0:
487,209,9891,2,0,P|470:262|464:306,1,73.1973872073102,10|0,2:1|0:0,0:0:0:0:
387,384,10105,2,0,P|379:348|366:313,1,73.1973872073102
285,259,10319,2,0,B|248:241|184:274|238:272|186:309|130:291,1,146.39477441462,10|0,2:2|0:0,0:0:0:0:
54,160,10748,6,0,B|94:163|127:143|127:143|121:182|149:209,1,146.39477441462,10|0,2:1|0:0,0:0:0:0:
68,333,11069,1,2,2:2:0:0:
56,338,11176,2,0,P|45:287|61:259,1,73.1973872073102,8|0,2:2|0:0,0:0:0:0:
209,148,11390,5,2,2:2:0:0:
277,173,11497,1,0,0:0:0:0:
335,127,11604,2,0,P|346:76|330:48,1,73.1973872073102,10|0,2:1|0:0,0:0:0:0:
219,235,11819,2,0,P|233:275|239:318,1,73.1973872073102,2|0,2:2|0:0,0:0:0:0:
356,384,12033,2,0,P|370:305|397:231,1,146.39477441462,10|0,2:2|0:0,0:0:0:0:
449,73,12354,1,0,0:0:0:0:
506,142,12461,6,0,B|474:159|474:159|413:159|370:116,1,146.39477441462,14|0,2:1|0:0,0:0:0:0:
283,60,12782,1,2,2:2:0:0:
272,52,12889,2,0,B|239:60|239:60|227:75|227:75|202:82,1,73.1973872073102,8|0,2:2|0:0,0:0:0:0:
66,204,13104,5,2,2:2:0:0:
14,139,13211,1,0,0:0:0:0:
70,82,13318,2,0,P|113:154|98:228,1,146.39477441462,10|0,2:1|0:0,0:0:0:0:
214,384,13746,2,0,P|209:312|249:252,1,146.39477441462,10|0,2:2|0:0,0:0:0:0:
312,312,14067,5,0,0:0:0:0:
325,322,14174,2,0,B|411:305|358:274|462:254,1,146.39477441462,10|0,2:1|0:0,0:0:0:0:
512,179,14496,1,2,2:2:0:0:
503,184,14603,2,0,P|452:173|412:160,1,73.1973872073102,8|0,2:2|0:0,0:0:0:0:
199,23,14817,5,2,2:2:0:0:
207,36,14924,1,0,0:0:0:0:
239,75,15031,1,10,2:1:0:0:
290,78,15138,1,8,2:2:0:0:
331,48,15245,2,0,P|351:74|343:132,1,73.1973872073102,2|0,2:2|0:0,0:0:0:0:
324,283,15459,5,10,2:2:0:0:
249,252,15566,1,8,2:2:0:0:
211,323,15674,1,8,2:2:0:0:
136,292,15781,1,8,2:2:0:0:
77,347,15888,6,0,P|56:247|38:197,1,146.39477441462,14|0,2:1|0:0,0:0:0:0:
94,129,16209,1,2,2:2:0:0:
109,125,16316,2,0,B|142:138|142:138|149:149|149:149|185:160,1,73.1973872073102,8|0,2:2|0:0,0:0:0:0:
324,283,16530,5,2,2:2:0:0:
386,322,16637,1,0,0:0:0:0:
451,290,16744,2,0,P|478:208|458:139,1,146.39477441462,10|0,2:1|0:0,0:0:0:0:
512,80,17066,1,0,0:0:0:0:
512,80,17173,2,0,P|430:109|369:117,1,146.39477441462,10|0,2:2|0:0,0:0:0:0:
211,323,17601,6,0,P|129:294|68:286,1,146.39477441462,10|0,2:1|0:0,0:0:0:0:
1,223,17922,1,2,2:2:0:0:
16,205,18029,2,0,P|69:196|120:177,1,73.1973872073102,8|0,2:2|0:0,0:0:0:0:
261,41,18244,5,2,2:2:0:0:
190,22,18351,1,0,0:0:0:0:
147,81,18458,2,0,P|172:146|181:224,1,146.39477441462,10|2,2:1|2:2,0:0:0:0:
220,314,18779,1,0,0:0:0:0:
235,316,18886,2,0,B|261:304|270:276|270:276|306:239|362:258,1,146.39477441462,10|0,2:2|0:0,0:0:0:0:
440,345,19207,5,0,0:0:0:0:
435,333,19314,2,0,P|443:260|469:192,1,146.39477441462,14|0,2:1|0:0,0:0:0:0:
420,117,19636,1,2,2:2:0:0:
410,108,19743,2,0,B|358:117|382:133|329:138,1,73.1973872073102,8|0,2:2|0:0,0:0:0:0:
176,224,19957,5,2,2:2:0:0:
112,260,20064,1,0,0:0:0:0:
45,229,20171,2,0,P|33:182|17:150,1,73.1973872073102,10|0,2:1|0:0,0:0:0:0:
151,60,20385,2,0,P|136:93|128:129,1,73.1973872073102
176,224,20599,2,0,P|261:238|300:195,1,146.39477441462,10|0,2:2|0:0,0:0:0:0:
512,85,21028,6,0,P|427:99|388:56,1,146.39477441462,10|0,2:1|0:0,0:0:0:0:
302,7,21349,1,2,2:2:0:0:
293,19,21456,2,0,P|299:57|314:108,1,73.1973872073102,8|0,2:2|0:0,0:0:0:0:
446,182,21670,5,2,2:2:0:0:
495,235,21777,1,0,0:0:0:0:
470,303,21884,2,0,P|398:327|347:342,1,73.1973872073102,10|8,2:1|2:2,0:0:0:0:
298,199,22098,2,0,P|333:208|369:213,1,73.1973872073102,2|0,2:2|0:0,0:0:0:0:
314,360,22313,5,10,2:2:0:0:
252,307,22420,1,8,2:2:0:0:
179,342,22527,1,8,2:2:0:0:
118,289,22634,1,8,2:2:0:0:
48,329,22741,6,0,P|33:227|17:161,1,146.39477441462,14|2,2:1|2:2,0:0:0:0:
35,161,23169,2,0,P|66:174|101:181,1,48.7982581382068,8|0,2:2|0:0,0:0:0:0:
147,122,23383,1,2,2:2:0:0:
252,307,23598,6,0,P|241:341|233:379,1,48.7982581382068,10|0,2:1|0:0,0:0:0:0:
148,243,23812,2,0,P|159:277|167:315,1,48.7982581382068,10|0,2:1|0:0,0:0:0:0:
362,257,24026,2,0,P|351:291|343:329,1,48.7982581382068,10|0,2:2|0:0,0:0:0:0:
253,190,24240,1,10,2:1:0:0:
512,103,24454,6,0,P|452:111|384:55,1,146.39477441462,10|10,2:1|2:1,0:0:0:0:
380,48,24883,2,0,P|353:56|318:63,1,48.7982581382068,8|0,2:2|0:0,0:0:0:0:
255,110,25097,1,10,2:1:0:0:
47,44,25311,2,0,P|60:96|72:159,2,97.5965162764136,2|10|10,2:2|2:1|2:2,0:0:0:0:
154,97,25953,1,2,2:2:0:0:
11,222,26168,5,10,2:1:0:0:
58,298,26382,2,0,B|92:312|92:312|150:312|205:267,1,146.39477441462,2|0,2:2|0:0,0:0:0:0:
271,226,26810,1,2,2:2:0:0:
271,226,26917,1,8,2:1:0:0:
271,226,27024,2,0,P|283:260|284:298,1,48.7982581382068,10|0,2:1|0:0,0:0:0:0:
346,357,27238,1,10,2:1:0:0:
501,278,27453,2,0,P|441:293|375:236,1,146.39477441462,10|0,2:2|0:0,0:0:0:0:
337,166,27881,6,0,P|241:191|136:207,2,195.193032552827,10|10|10,2:1|2:2|2:2,0:0:0:0:
231,148,28952,1,8,2:1:0:0:
458,210,29166,1,10,2:2:0:0:
499,176,29273,1,8,2:2:0:0:
512,123,29380,1,8,2:3:0:0:
502,69,29487,1,4,2:3:0:0:
461,34,29594,6,0,P|412:51|337:67,1,121.995645345517,14|2,2:1|2:2,0:0:0:0:
231,148,29915,1,2,2:2:0:0:
231,148,30023,2,0,P|193:141|157:133,1,60.9978226727585,8|0,2:2|0:0,0:0:0:0:
246,6,30237,5,2,2:2:0:0:
246,6,30344,1,8,2:1:0:0:
246,6,30451,2,0,P|253:38|269:89,1,60.9978226727585,10|0,2:1|0:0,0:0:0:0:
367,149,30665,2,0,P|342:171|306:210,1,60.9978226727585,10|0,2:1|0:0,0:0:0:0:
303,325,30879,2,0,P|271:315|219:303,1,60.9978226727585,10|0,2:2|0:0,0:0:0:0:
118,357,31093,2,0,P|111:325|95:274,1,60.9978226727585,10|0,2:1|0:0,0:0:0:0:
0,207,31307,6,0,P|59:220|108:173,1,121.995645345517,10|2,2:1|2:2,0:0:0:0:
182,129,31629,1,10,2:1:0:0:
182,129,31736,2,0,P|192:170|204:203,1,60.9978226727585,8|0,2:2|0:0,0:0:0:0:
261,236,31950,1,10,2:1:0:0:
367,149,32164,2,0,P|387:85|401:21,2,121.995645345517,2|10|10,2:2|2:1|2:2,0:0:0:0:
411,221,32807,1,2,2:2:0:0:
262,356,33021,5,10,2:1:0:0:
153,227,33235,2,0,P|161:253|171:301,1,60.9978226727585,2|0,2:2|0:0,0:0:0:0:
250,358,33449,2,0,P|266:286|287:215,1,121.995645345517,8|2,2:2|2:2,0:0:0:0:
198,146,33770,1,8,2:1:0:0:
193,160,33877,2,0,P|133:196|84:185,1,121.995645345517,10|10,2:1|2:1,0:0:0:0:
20,343,34306,2,0,P|78:334|127:368,1,121.995645345517,10|8,2:2|2:1,0:0:0:0:
279,239,34734,6,0,B|364:218|412:295|357:289|430:347|498:331,2,243.991290691034,10|10|10,2:1|2:2|2:2,0:0:0:0:
196,281,35805,1,8,2:2:0:0:
183,289,35912,1,8,2:2:0:0:
165,283,36019,1,10,2:2:0:0:
94,235,36126,5,8,2:2:0:0:
83,150,36233,1,8,2:2:0:0:
133,80,36340,1,8,2:2:0:0:
215,60,36447,6,0,B|262:61|292:98|292:98|303:52|356:32,1,170.793903483724,14|8,2:1|2:1,0:0:0:0:
469,127,36769,1,2,2:2:0:0:
472,142,36876,2,0,B|443:148|443:148|386:125,1,85.396951741862,8|0,2:2|0:0,0:0:0:0:
275,240,37090,2,0,P|289:270|301:324,1,85.396951741862,10|0,2:1|0:0,0:0:0:0:
486,346,37304,6,0,B|504:329|504:329|481:269|425:257|384:282,1,170.793903483724,10|8,2:2|2:1,0:0:0:0:
300,320,37625,1,0,0:0:0:0:
296,331,37732,2,0,B|269:340|269:340|239:337|213:318,1,85.396951741862,10|0,2:2|0:0,0:0:0:0:
10,326,37947,5,8,2:1:0:0:
83,304,38054,1,0,0:0:0:0:
123,368,38161,2,0,P|148:249|165:185,1,170.793903483724,14|8,2:1|2:1,0:0:0:0:
60,95,38482,1,2,2:2:0:0:
47,114,38589,2,0,P|59:164|69:215,1,85.396951741862,8|0,2:2|0:0,0:0:0:0:
162,111,38803,1,10,2:1:0:0:
385,281,39017,6,0,P|368:328|359:373,1,85.396951741862,10|0,2:2|0:0,0:0:0:0:
160,201,39232,2,0,P|177:248|186:293,1,85.396951741862,10|0,2:1|0:0,0:0:0:0:
421,64,39446,6,0,P|404:111|395:156,1,85.396951741862,10|0,2:2|0:0,0:0:0:0:
295,280,39660,1,10,2:1:0:0:
282,268,39767,1,8,2:1:0:0:
266,260,39874,2,0,B|159:282|221:316|101:341,1,170.793903483724,14|8,2:1|2:1,0:0:0:0:
0,222,40195,1,2,2:2:0:0:
15,209,40302,2,0,B|53:220|53:220|63:239|63:239|110:250,1,85.396951741862,8|0,2:2|0:0,0:0:0:0:
158,110,40517,2,0,P|147:69|125:16,1,85.396951741862,10|0,2:1|0:0,0:0:0:0:
319,98,40731,6,0,P|286:180|263:265,1,170.793903483724,10|8,2:2|2:1,0:0:0:0:
343,358,41052,1,0,0:0:0:0:
362,348,41159,2,0,P|378:306|389:264,1,85.396951741862,10|0,2:2|0:0,0:0:0:0:
512,104,41373,5,8,2:1:0:0:
427,117,41480,1,0,0:0:0:0:
387,41,41587,2,0,B|340:87|282:79|282:79|259:47|221:42,1,170.793903483724,14|8,2:1|2:1,0:0:0:0:
160,92,41909,1,10,2:1:0:0:
158,110,42016,2,0,P|177:158|185:209,1,85.396951741862,8|0,2:2|0:0,0:0:0:0:
8,341,42230,2,0,P|45:299|91:303,1,85.396951741862,10|0,2:1|0:0,0:0:0:0:
146,345,42444,2,0,P|194:329|245:316,1,85.396951741862,10|8,2:2|2:1,0:0:0:0:
309,247,42658,5,10,2:2:0:0:
316,262,42765,1,8,2:2:0:0:
393,299,42872,1,10,2:2:0:0:
470,264,42979,1,8,2:2:0:0:
502,184,43086,1,8,2:2:0:0:
483,118,43194,1,8,2:2:0:0:
437,95,43301,6,0,P|383:111|312:122,1,121.995645345517,14|0,2:1|0:0,0:0:0:0:
199,157,43622,1,0,0:0:0:0:
177,167,43729,1,10,2:2:0:0:
152,168,43836,1,0,0:0:0:0:
130,156,43943,1,0,0:0:0:0:
116,135,44050,1,8,2:1:0:0:
37,75,44157,6,0,P|21:129|10:200,1,121.995645345517,10|8,2:1|2:1,0:0:0:0:
156,309,44479,1,0,0:0:0:0:
156,309,44586,2,0,P|172:255|183:184,1,121.995645345517,10|8,2:2|2:1,0:0:0:0:
146,11,45014,6,0,P|195:24|226:26,1,60.9978226727585,10|0,2:1|0:0,0:0:0:0:
284,4,45228,1,2,2:2:0:0:
284,4,45335,1,10,2:1:0:0:
343,61,45442,2,0,P|340:102|260:153,1,121.995645345517,8|10,2:2|2:1,0:0:0:0:
222,232,45764,5,0,0:0:0:0:
222,232,45871,2,0,P|193:214|181:182,1,60.9978226727585,2|0,2:2|0:0,0:0:0:0:
107,213,46085,2,0,P|99:180|113:149,1,60.9978226727585,10|0,2:1|0:0,0:0:0:0:
174,106,46299,1,10,2:2:0:0:
310,231,46513,1,2,2:2:0:0:
71,298,46727,6,0,P|141:294|249:345,1,182.993468018276,10|0,2:1|0:0,0:0:0:0:
309,230,47156,2,0,P|338:223|363:205,1,60.9978226727585,10|0,2:2|0:0,0:0:0:0:
386,338,47370,2,0,P|356:333|329:318,1,60.9978226727585,2|8,2:2|2:1,0:0:0:0:
222,232,47584,2,0,P|231:202|237:166,1,60.9978226727585,10|0,2:1|0:0,0:0:0:0:
312,125,47798,1,10,2:1:0:0:
312,125,47905,2,0,P|303:95|297:59,1,60.9978226727585,2|8,2:2|2:2,0:0:0:0:
400,9,48226,6,0,P|420:70|438:164,1,121.995645345517,10|8,2:1|2:1,0:0:0:0:
443,266,48655,1,2,2:2:0:0:
329,318,48869,1,10,2:2:0:0:
417,354,49083,1,10,2:1:0:0:
363,232,49297,1,10,2:2:0:0:
234,284,49511,1,10,2:1:0:0:
109,176,49726,1,10,2:2:0:0:
109,176,49833,1,8,2:2:0:0:
109,176,49940,2,0,B|123:214|125:256,1,60.9978226727585,10|4,2:3|2:3,0:0:0:0:
80,311,50154,6,0,B|116:313|143:345|143:345|156:302|200:286,1,146.39477441462,14|0,2:1|0:0,0:0:0:0:
273,180,50475,1,0,0:0:0:0:
273,180,50582,2,0,P|231:190|190:194,1,73.1973872073102,10|0,2:2|0:0,0:0:0:0:
150,103,50796,2,0,P|127:139|101:171,1,73.1973872073102,2|8,2:2|2:1,0:0:0:0:
25,106,51011,6,0,P|19:182|-1:251,1,146.39477441462,10|8,2:1|2:1,0:0:0:0:
201,193,51439,2,0,P|207:117|227:48,1,146.39477441462,10|8,2:2|2:1,0:0:0:0:
444,96,51867,6,0,P|408:104|373:117,1,73.1973872073102,10|0,2:1|0:0,0:0:0:0:
439,106,52081,2,0,P|403:114|369:127,1,73.1973872073102,2|8,2:2|2:1,0:0:0:0:
502,232,52295,6,0,P|470:213|437:197,1,73.1973872073102,10|0,2:2|0:0,0:0:0:0:
491,234,52510,2,0,P|459:215|427:200,1,73.1973872073102,10|0,2:1|0:0,0:0:0:0:
308,45,52724,2,0,P|383:32|450:6,1,146.39477441462,2|8,2:2|2:1,0:0:0:0:
302,183,53152,1,10,2:2:0:0:
418,298,53366,2,0,P|385:313|353:332,1,73.1973872073102,2|0,2:2|0:0,0:0:0:0:
115,300,53580,6,0,P|131:363|234:364,1,146.39477441462,10|0,2:1|0:0,0:0:0:0:
268,330,53902,1,0,0:0:0:0:
268,330,54009,2,0,P|249:298|233:265,1,73.1973872073102,10|0,2:2|0:0,0:0:0:0:
163,225,54223,2,0,P|178:192|197:160,1,73.1973872073102,2|8,2:2|2:1,0:0:0:0:
134,95,54437,2,0,P|94:179|64:230,1,146.39477441462,10|8,2:1|2:1,0:0:0:0:
202,383,54865,6,0,P|251:366|286:361,1,73.1973872073102,10|0,2:2|0:0,0:0:0:0:
303,245,55080,2,0,P|254:262|219:267,1,73.1973872073102,10|0,2:1|0:0,0:0:0:0:
95,191,55294,6,0,P|130:198|165:212,1,73.1973872073102,10|0,2:1|0:0,0:0:0:0:
133,94,55508,2,0,P|98:87|64:74,1,73.1973872073102,2|8,2:2|2:1,0:0:0:0:
14,11,55722,1,10,2:2:0:0:
14,11,55829,1,0,0:0:0:0:
64,74,55936,2,0,P|98:87|133:94,1,73.1973872073102,10|0,2:1|0:0,0:0:0:0:
199,32,56150,5,10,2:2:0:0:
226,19,56258,1,8,2:1:0:0:
260,21,56365,1,10,2:2:0:0:
288,46,56472,1,10,2:2:0:0:
298,82,56579,1,10,2:2:0:0:
272,118,56686,1,8,2:2:0:0:
211,172,56793,2,0,P|225:208|234:249,1,73.1973872073102,8|8,2:2|2:2,0:0:0:0:
349,316,57007,6,0,P|436:270|426:199,1,170.793903483724,14|10,2:1|2:1,0:0:0:0:
323,142,57328,1,0,0:0:0:0:
331,148,57435,2,0,P|344:183|355:237,1,85.396951741862,10|0,2:2|0:0,0:0:0:0:
455,290,57650,2,0,P|442:255|431:201,1,85.396951741862,10|0,2:1|0:0,0:0:0:0:
504,83,57864,6,0,B|506:107|506:107|450:138|400:111|384:66,1,170.793903483724,10|10,2:2|2:1,0:0:0:0:
320,4,58185,1,2,2:2:0:0:
320,4,58292,2,0,B|303:26|303:26|276:41|244:40,1,85.396951741862,8|0,2:2|0:0,0:0:0:0:
114,28,58506,5,10,2:1:0:0:
149,38,58613,1,0,0:0:0:0:
164,68,58720,2,0,P|143:162|135:262,1,170.793903483724,10|10,2:2|2:1,0:0:0:0:
73,326,59042,1,0,0:0:0:0:
73,326,59149,2,0,P|61:288|38:237,1,85.396951741862,10|0,2:2|0:0,0:0:0:0:
225,283,59363,2,0,P|190:307|159:336,1,85.396951741862,10|0,2:1|0:0,0:0:0:0:
141,156,59577,6,0,B|181:154|214:193|214:193|228:144|278:127,1,170.793903483724,10|8,2:2|2:1,0:0:0:0:
387,209,59898,1,0,0:0:0:0:
387,209,60005,2,0,B|355:221|355:221|295:205,1,85.396951741862,8|8,2:2|2:1,0:0:0:0:
193,83,60220,5,0,0:0:0:0:
193,83,60327,1,8,2:1:0:0:
193,83,60434,2,0,P|203:49|213:-15,1,85.396951741862,14|0,2:1|0:0,0:0:0:0:
305,207,60648,2,0,P|295:173|285:109,1,85.396951741862,10|0,2:1|0:0,0:0:0:0:
88,85,60862,6,0,P|177:115|191:194,1,170.793903483724,10|8,2:2|2:1,0:0:0:0:
376,298,61183,1,0,0:0:0:0:
376,298,61290,2,0,P|462:271|479:193,1,170.793903483724,10|10,2:2|2:1,0:0:0:0:
304,206,61612,5,0,0:0:0:0:
304,206,61719,2,0,P|297:164|286:123,1,85.396951741862,10|0,2:2|0:0,0:0:0:0:
380,130,61933,2,0,P|387:172|399:214,1,85.396951741862,10|0,2:1|0:0,0:0:0:0:
271,348,62147,6,0,B|285:325|285:325|260:266|201:259|167:285,1,170.793903483724,10|10,2:2|2:1,0:0:0:0:
100,340,62468,1,0,0:0:0:0:
100,340,62575,2,0,B|71:347|71:347|44:343|18:318,1,85.396951741862,10|0,2:2|0:0,0:0:0:0:
102,169,62789,2,0,P|93:206|78:258,1,85.396951741862,10|0,2:1|0:0,0:0:0:0:
182,371,63004,2,0,P|207:284|241:160,1,170.793903483724,10|8,2:2|2:1,0:0:0:0:
186,122,63325,5,0,0:0:0:0:
185,103,63432,1,8,2:2:0:0:
195,79,63539,1,8,2:2:0:0:
212,56,63646,1,8,2:3:0:0:
249,49,63753,1,4,2:3:0:0:
310,111,63860,6,0,B|350:101|397:93,1,85.396951741862,14|0,2:1|0:0,0:0:0:0:
512,143,64074,1,2,2:2:0:0:
512,143,64182,1,2,2:2:0:0:
470,46,64289,2,0,B|434:21|399:0,1,85.396951741862,8|0,2:2|0:0,0:0:0:0:
432,173,64503,1,2,2:2:0:0:
432,173,64610,1,0,0:0:0:0:
437,256,64717,6,0,B|405:245|373:242|373:242|350:210|350:210|312:208|267:191,1,170.793903483724,10|10,2:1|2:1,0:0:0:0:
190,158,65038,1,0,0:0:0:0:
190,158,65145,2,0,B|213:189|254:200|254:200|241:231|237:309,1,170.793903483724,10|2,2:2|2:2,0:0:0:0:
314,357,65467,5,0,0:0:0:0:
314,357,65574,2,0,P|330:345|403:327,1,85.396951741862,10|0,2:1|0:0,0:0:0:0:
159,350,65788,2,0,P|146:334|80:297,1,85.396951741862,2|0,2:2|0:0,0:0:0:0:
238,291,66002,1,10,2:2:0:0:
1,176,66216,2,0,P|32:172|94:161,1,85.396951741862,2|0,2:2|0:0,0:0:0:0:
240,68,66430,6,0,B|238:38|260:19|260:19|174:-18|100:72|197:167,1,256.190855225586,10|0,2:1|0:0,0:0:0:0:
254,146,66859,2,0,P|296:151|338:159,1,85.396951741862,8|0,2:2|0:0,0:0:0:0:
512,188,67073,5,0,0:0:0:0:
512,188,67180,1,0,0:0:0:0:
512,268,67287,2,0,P|469:260|427:254,1,85.396951741862,14|0,2:1|0:0,0:0:0:0:
411,259,67501,2,0,P|453:265|496:273,1,85.396951741862,8|0,2:1|0:0,0:0:0:0:
422,172,67715,6,0,P|379:164|337:158,1,85.396951741862,10|0,2:2|0:0,0:0:0:0:
346,147,67929,2,0,P|388:153|430:160,1,85.396951741862,10|0,2:1|0:0,0:0:0:0:
296,366,68144,6,0,P|302:323|309:281,1,85.396951741862,10|0,2:2|0:0,0:0:0:0:
300,273,68358,2,0,P|292:314|286:357,1,85.396951741862,10|0,2:1|0:0,0:0:0:0:
114,193,68572,6,0,P|107:150|100:108,1,85.396951741862,10|0,2:2|0:0,0:0:0:0:
110,100,68786,2,0,P|117:141|123:184,1,85.396951741862,10|0,2:1|0:0,0:0:0:0:
37,384,69000,2,0,P|62:346|112:337,1,85.396951741862,10|0,2:2|0:0,0:0:0:0:
240,238,69214,5,10,2:1:0:0:
240,238,69321,1,8,2:1:0:0:
240,238,69429,2,0,P|226:164|221:136,1,85.396951741862,10|0,2:2|0:0,0:0:0:0:
299,108,69643,2,0,P|313:182|318:210,1,85.396951741862,10|0,2:1|0:0,0:0:0:0:
171,352,69857,2,0,P|74:321|76:254,1,170.793903483724,10|8,2:2|2:1,0:0:0:0:
7,211,70178,1,0,0:0:0:0:
7,211,70285,2,0,P|41:183|96:188,1,85.396951741862,8|0,2:2|0:0,0:0:0:0:
164,195,70499,1,8,2:1:0:0:
149,275,70606,1,8,2:1:0:0:
80,181,70714,6,0,P|56:98|40:62,1,85.396951741862,14|0,2:1|0:0,0:0:0:0:
176,5,70928,2,0,P|162:45|152:86,1,85.396951741862,14|0,2:2|0:0,0:0:0:0:
317,173,71142,1,10,2:1:0:0:
226,138,71249,2,0,P|267:147|307:161,1,85.396951741862,12|2,2:1|2:2,0:0:0:0:
380,225,71463,1,8,2:1:0:0:
396,233,71570,5,14,2:2:0:0:
426,234,71677,1,8,2:2:0:0:
458,215,71784,1,10,2:3:0:0:
475,189,71891,1,4,2:3:0:0:
369,38,71999,5,10,2:2:0:0:
383,71,72106,1,8,2:1:0:0:
392,104,72213,1,8,2:2:0:0:
404,142,72320,1,8,2:2:0:0:
329,219,72427,6,0,B|445:207|395:153|502:141,1,195.193032552827,14|0,2:1|0:0,0:0:0:0:
186,321,72748,6,0,B|79:309|129:255|8:243,1,195.193032552827,14|0,2:1|0:0,0:0:0:0:
220,0,73069,6,0,P|248:122|252:203,1,195.193032552827,14|2,2:1|2:2,0:0:0:0:
439,322,74140,6,0,B|404:326|382:353|382:353|349:294|389:233|443:229,1,219.592161621931,14|10,2:1|2:2,0:0:0:0:
512,215,74461,2,0,P|418:191|344:159,1,170.793903483724,2|8,2:2|2:1,0:0:0:0:
239,121,74783,2,0,P|256:183|262:237,1,85.396951741862,10|0,2:2|0:0,0:0:0:0:
1,341,74997,6,0,P|8:290|58:263,1,91.4967340091377,10|0,2:1|0:0,0:0:0:0:
118,237,75211,1,10,2:2:0:0:
88,376,75318,2,0,P|63:251|23:156,1,219.592161621931,2|8,2:2|2:1,0:0:0:0:
43,84,75639,2,0,B|70:88|103:75|103:75|90:107|107:144,1,109.796080810965,10|0,2:2|0:0,0:0:0:0:
374,334,75853,6,0,P|407:307|408:265,1,85.396951741862,10|0,2:1|0:0,0:0:0:0:
494,232,76068,2,0,P|487:189|451:168,1,85.396951741862,10|0,2:2|0:0,0:0:0:0:
183,12,76282,6,0,P|190:60|232:85,1,97.5965162764136,10|8,2:1|2:1,0:0:0:0:
209,169,76496,2,0,P|255:186|297:163,1,97.5965162764136,10|0,2:2|0:0,0:0:0:0:
475,74,76710,6,0,P|413:61|360:40,1,109.796080810965,10|0,2:1|0:0,0:0:0:0:
168,267,76924,2,0,P|230:280|283:301,1,109.796080810965,10|0,2:2|0:0,0:0:0:0:
271,84,77138,6,0,P|287:130|297:178,1,85.396951741862,10|8,2:1|2:1,0:0:0:0:
374,334,77353,2,0,P|383:292|398:252,1,85.396951741862,10|0,2:2|0:0,0:0:0:0:
89,48,77567,6,0,P|57:69|-3:79,1,97.5965162764136,14|0,2:1|0:0,0:0:0:0:
82,151,77781,1,10,2:2:0:0:
22,244,77888,2,0,P|71:182|190:193,1,195.193032552827,2|8,2:2|2:1,0:0:0:0:
168,267,78209,2,0,B|198:275|198:275|221:253|255:247,1,85.396951741862,10|0,2:2|0:0,0:0:0:0:
464,147,78423,6,0,B|517:184|578:104|513:31|415:41|377:132,1,274.490202027413,10|0,2:1|0:0,0:0:0:0:
307,176,78852,2,0,P|292:127|277:101,1,79.2971694745861,10|8,2:1|2:1,0:0:0:0:
403,220,79066,2,0,P|384:255|374:293,1,79.2971694745861,10|0,2:2|0:0,0:0:0:0:
85,288,79280,6,0,P|127:281|168:266,1,85.396951741862,10|0,2:1|0:0,0:0:0:0:
223,200,79494,1,10,2:2:0:0:
2,311,79601,2,0,P|109:325|194:376,1,195.193032552827,2|8,2:2|2:1,0:0:0:0:
265,345,79923,2,0,P|290:300|270:258,1,85.396951741862,10|0,2:2|0:0,0:0:0:0:
98,83,80137,5,10,2:1:0:0:
82,61,80244,1,0,0:0:0:0:
72,88,80351,1,8,2:2:0:0:
88,110,80458,1,0,0:0:0:0:
169,153,80565,5,10,2:1:0:0:
220,93,80672,1,8,2:1:0:0:
296,77,80779,1,8,2:2:0:0:
366,110,80886,1,0,0:0:0:0:
442,183,80993,6,0,P|458:128|479:76,1,97.5965162764136,14|0,2:1|0:0,0:0:0:0:
428,15,81208,1,10,2:2:0:0:
512,251,81315,2,0,P|420:218|326:192,1,195.193032552827,10|8,2:1|2:1,0:0:0:0:
257,253,81636,2,0,P|273:295|285:339,1,85.396951741862,10|0,2:2|0:0,0:0:0:0:
40,167,81850,6,0,P|62:124|104:109,1,91.4967340091377,10|0,2:1|0:0,0:0:0:0:
177,83,82064,1,10,2:2:0:0:
21,57,82171,2,0,P|102:157|192:163,1,219.592161621931,10|8,2:1|2:1,0:0:0:0:
253,111,82493,2,0,B|267:60|279:84|290:22,1,85.396951741862,10|0,2:2|0:0,0:0:0:0:
67,247,82707,6,0,P|81:289|91:337,1,79.2971694745861,10|0,2:1|0:0,0:0:0:0:
268,213,82921,2,0,P|255:250|246:289,1,79.2971694745861,10|0,2:2|0:0,0:0:0:0:
155,72,83135,6,0,P|175:116|186:176,1,97.5965162764136,10|8,2:1|2:1,0:0:0:0:
411,41,83349,2,0,P|391:85|380:145,1,97.5965162764136,10|0,2:2|0:0,0:0:0:0:
276,381,83563,6,0,P|265:333|245:288,1,97.5965162764136,10|0,2:1|0:0,0:0:0:0:
419,280,83778,1,10,2:2:0:0:
341,320,83885,1,0,0:0:0:0:
481,208,83992,2,0,P|491:255|511:300,1,97.5965162764136,10|8,2:1|2:1,0:0:0:0:
351,226,84206,2,0,P|361:178|381:133,1,97.5965162764136,10|0,2:2|0:0,0:0:0:0:
0,63,84420,6,0,P|39:174|66:319,1,256.190855225585,14|0,2:1|0:0,0:0:0:0:
147,384,85277,6,0,P|158:336|175:290,2,97.5965162764136,14|2|2,2:1|2:2|2:2,0:0:0:0:
512,138,86133,6,0,B|459:155|405:90|456:98|412:9|336:38,1,219.592161621931,10|0,2:2|0:0,0:0:0:0:
258,243,86455,6,0,B|269:188|353:174|320:214|419:220|432:140,1,219.592161621931,10|0,2:2|0:0,0:0:0:0:
305,58,86776,6,0,P|280:105|310:164,1,109.796080810965,10|0,2:2|0:0,0:0:0:0:
512,298,86990,5,10,2:2:0:0:
381,342,87097,1,8,2:2:0:0:
433,283,87204,1,12,2:2:0:0:
14,231,87418,5,14,2:2:0:0:
393,86,87847,6,0,P|282:108|211:134,1,170.793903483724,14|0,2:1|0:0,0:0:0:0:
119,17,88168,1,2,2:2:0:0:
119,17,88275,2,0,P|159:30|201:37,1,85.396951741862,8|0,2:2|0:0,0:0:0:0:
284,14,88489,1,2,2:2:0:0:
288,19,88596,1,0,0:0:0:0:
128,121,88703,6,0,P|141:162|149:204,1,85.396951741862,10|0,2:1|0:0,0:0:0:0:
306,302,88917,2,0,P|313:259|326:219,1,85.396951741862
113,323,89132,2,0,P|151:247|251:249,1,170.793903483724,10|0,2:2|0:0,0:0:0:0:
512,190,89560,6,0,P|474:266|374:264,1,170.793903483724,10|0,2:1|0:0,0:0:0:0:
309,196,89881,1,2,2:2:0:0:
309,196,89988,2,0,P|351:188|391:175,1,85.396951741862,8|0,2:2|0:0,0:0:0:0:
459,121,90202,1,2,2:2:0:0:
276,345,90417,6,0,B|255:326|255:326|191:312,1,85.396951741862,10|0,2:1|0:0,0:0:0:0:
62,240,90631,2,0,P|51:186|37:138,1,85.396951741862,2|0,2:2|0:0,0:0:0:0:
116,73,90845,2,0,P|133:156|153:240,1,170.793903483724,10|0,2:2|0:0,0:0:0:0:
326,281,91166,5,0,0:0:0:0:
326,281,91273,2,0,B|344:264|344:264|321:204|265:192|224:217,1,170.793903483724,14|0,2:1|0:0,0:0:0:0:
81,279,91594,1,2,2:2:0:0:
81,279,91702,2,0,B|97:305|97:305|128:317|167:321,1,85.396951741862,8|0,2:2|0:0,0:0:0:0:
308,285,91916,2,0,P|326:219|337:184,1,85.396951741862,2|0,2:2|0:0,0:0:0:0:
217,133,92130,2,0,P|206:91|194:50,1,85.396951741862,10|0,2:1|0:0,0:0:0:0:
305,116,92344,1,0,0:0:0:0:
305,116,92451,1,0,0:0:0:0:
226,215,92558,2,0,B|198:207|169:205|169:205|142:166|142:166|105:161|74:152,1,170.793903483724,10|0,2:2|0:0,0:0:0:0:
271,30,92987,6,0,P|363:35|399:113,1,170.793903483724,10|0,2:1|0:0,0:0:0:0:
456,185,93308,1,2,2:2:0:0:
456,185,93415,2,0,P|477:141|499:109,1,85.396951741862,8|0,2:2|0:0,0:0:0:0:
308,123,93629,2,0,P|331:158|349:197,1,85.396951741862,2|0,2:2|0:0,0:0:0:0:
512,289,93843,6,0,P|465:276|415:272,1,85.396951741862,10|8,2:1|2:2,0:0:0:0:
206,352,94057,2,0,P|248:357|290:369,1,85.396951741862,2|0,2:2|0:0,0:0:0:0:
376,350,94272,5,10,2:2:0:0:
416,283,94379,1,8,2:2:0:0:
370,218,94486,1,8,2:2:0:0:
356,223,94593,1,8,2:2:0:0:
344,229,94700,6,0,B|241:273|267:193|150:233,1,170.793903483724,14|0,2:1|0:0,0:0:0:0:
23,284,95021,1,2,2:2:0:0:
23,284,95128,2,0,B|-6:254|-6:254|12:207,1,85.396951741862,8|0,2:2|0:0,0:0:0:0:
124,105,95342,2,0,P|109:150|97:200,1,85.396951741862,2|0,2:2|0:0,0:0:0:0:
116,336,95556,6,0,P|168:268|249:270,1,170.793903483724,10|0,2:1|0:0,0:0:0:0:
333,196,95878,1,2,2:2:0:0:
333,196,95985,2,0,P|360:164|353:109,1,85.396951741862,8|0,2:2|0:0,0:0:0:0:
220,48,96199,2,0,P|234:93|246:143,1,85.396951741862,2|0,2:2|0:0,0:0:0:0:
348,287,96413,6,0,P|444:265|478:208,1,170.793903483724,10|0,2:1|0:0,0:0:0:0:
441,98,96734,1,2,2:2:0:0:
441,98,96841,2,0,P|399:108|358:121,1,85.396951741862,8|0,2:2|0:0,0:0:0:0:
220,48,97056,2,0,P|178:58|137:71,1,85.396951741862,2|0,2:2|0:0,0:0:0:0:
318,0,97270,6,0,P|305:40|294:82,1,85.396951741862,10|0,2:1|0:0,0:0:0:0:
253,231,97484,2,0,P|240:272|230:314,1,85.396951741862,2|0,2:2|0:0,0:0:0:0:
274,160,97698,1,10,2:2:0:0:
274,160,97805,1,0,0:0:0:0:
274,160,97912,1,0,0:0:0:0:
14,173,98126,6,0,P|39:91|60:8,1,170.793903483724,14|0,2:1|0:0,0:0:0:0:
210,79,98448,1,2,2:2:0:0:
210,79,98555,2,0,P|168:90|128:103,1,85.396951741862,8|0,2:2|0:0,0:0:0:0:
5,178,98769,2,0,B|-4:224|-4:224|22:269,1,85.396951741862,2|0,2:2|0:0,0:0:0:0:
265,152,98983,6,0,P|182:173|101:199,1,170.793903483724,10|0,2:1|0:0,0:0:0:0:
92,285,99304,1,2,2:2:0:0:
92,285,99411,2,0,P|133:295|174:308,1,85.396951741862,8|0,2:2|0:0,0:0:0:0:
216,384,99626,2,0,P|257:371|299:361,1,85.396951741862,2|0,2:2|0:0,0:0:0:0:
381,219,99840,6,0,P|280:233|254:318,1,170.793903483724,10|0,2:1|0:0,0:0:0:0:
406,304,100161,1,2,2:2:0:0:
406,304,100268,2,0,P|444:284|460:247,1,85.396951741862,8|0,2:2|0:0,0:0:0:0:
353,134,100482,2,0,P|315:154|299:191,1,85.396951741862,2|0,2:2|0:0,0:0:0:0:
512,168,100696,6,0,P|468:161|425:149,1,85.396951741862,10|8,2:1|2:2,0:0:0:0:
338,53,100911,2,0,P|294:46|251:34,1,85.396951741862,2|0,2:2|0:0,0:0:0:0:
176,5,101125,5,10,2:2:0:0:
156,0,101232,1,8,2:2:0:0:
120,9,101339,1,8,2:2:0:0:
74,72,101446,1,8,2:2:0:0:
112,149,101553,6,0,P|96:222|87:251,1,97.5965162764136,14|2,2:1|2:2,0:0:0:0:
59,320,101874,1,2,2:2:0:0:
57,330,101981,1,8,2:2:0:0:
200,279,102196,1,2,2:2:0:0:
200,279,102303,1,8,2:1:0:0:
200,279,102410,2,0,B|253:294|224:313|292:327,2,97.5965162764136,10|10|10,2:1|2:1|2:2,0:0:0:0:
22,180,103052,1,10,2:1:0:0:
162,40,103266,6,0,P|169:76|179:102,1,48.7982581382068,10|0,2:1|0:0,0:0:0:0:
256,173,103481,1,2,2:2:0:0:
256,173,103588,1,10,2:1:0:0:
256,173,103695,2,0,P|263:137|273:111,1,48.7982581382068,8|0,2:2|0:0,0:0:0:0:
345,67,103909,1,10,2:1:0:0:
418,342,104123,5,2,2:2:0:0:
378,210,104337,1,10,2:1:0:0:
512,129,104551,1,10,2:2:0:0:
472,261,104766,1,10,2:1:0:0:
256,173,104980,6,0,P|217:186|180:193,1,48.7982581382068,10|0,2:1|0:0,0:0:0:0:
35,315,105194,1,10,2:2:0:0:
149,384,105408,2,0,P|135:299|94:225,1,146.39477441462,8|0,2:2|0:0,0:0:0:0:
68,173,105836,1,10,2:1:0:0:
227,286,106050,1,10,2:1:0:0:
342,156,106265,2,0,B|420:178|420:178|442:216|480:223,1,146.39477441462,10|0,2:2|0:0,0:0:0:0:
489,240,106693,6,0,P|452:250|422:272,1,48.7982581382068,10|0,2:2|0:0,0:0:0:0:
371,342,106907,1,8,2:1:0:0:
250,151,107121,5,10,2:2:0:0:
297,84,107228,1,8,2:2:0:0:
249,23,107335,2,0,P|210:34|176:38,1,48.7982581382068,8|0,2:1|0:0,0:0:0:0:
6,127,107550,6,0,P|89:143|176:192,1,146.39477441462,2|0,2:2|0:0,0:0:0:0:
162,191,107978,1,2,2:2:0:0:
86,292,108192,1,2,2:2:0:0:
254,376,108406,6,0,P|240:285|322:249,1,182.993468018276,14|0,2:1|0:0,0:0:0:0:
380,216,108835,2,0,P|310:199|252:160,1,121.995645345517,10|0,2:2|0:0,0:0:0:0:
121,49,109156,1,8,2:1:0:0:
190,1,109263,2,0,B|216:35|216:35|223:85|169:123,1,121.995645345517,10|8,2:1|2:1,0:0:0:0:
116,154,109584,1,0,0:0:0:0:
109,161,109691,2,0,P|65:174|28:189,1,60.9978226727585,10|0,2:2|0:0,0:0:0:0:
202,250,109905,1,8,2:1:0:0:
86,384,110120,5,10,2:1:0:0:
0,288,110334,1,0,0:0:0:0:
0,288,110441,1,8,2:1:0:0:
0,288,110548,2,0,P|39:300|77:305,1,60.9978226727585,10|0,2:2|0:0,0:0:0:0:
179,243,110762,1,10,2:1:0:0:
12,108,110976,6,0,P|105:91|195:62,1,182.993468018276,2|0,2:2|0:0,0:0:0:0:
202,57,111405,1,10,2:2:0:0:
289,136,111619,1,2,2:2:0:0:
425,97,111833,6,0,P|413:139|412:181,1,60.9978226727585,10|0,2:1|0:0,0:0:0:0:
272,290,112047,1,2,2:2:0:0:
319,154,112261,6,0,P|331:196|332:238,1,60.9978226727585,10|0,2:2|0:0,0:0:0:0:
466,298,112475,1,2,2:2:0:0:
466,298,112582,1,8,2:1:0:0:
466,298,112690,2,0,P|523:240|478:135,1,182.993468018276,10|0,2:1|0:0,0:0:0:0:
493,141,113118,1,10,2:2:0:0:
332,213,113332,1,10,2:1:0:0:
293,26,113546,1,10,2:1:0:0:
403,97,113760,1,2,2:2:0:0:
218,136,113975,6,0,P|123:119|77:100,1,121.995645345517,10|10,2:2|2:1,0:0:0:0:
53,258,114403,1,10,2:2:0:0:
39,267,114510,1,8,2:1:0:0:
38,251,114617,1,10,2:2:0:0:
100,201,114724,1,10,2:2:0:0:
177,218,114831,1,10,2:2:0:0:
218,285,114938,1,8,2:2:0:0:
187,357,115045,2,0,P|143:348|107:332,1,60.9978226727585,8|8,2:2|2:2,0:0:0:0:
293,247,115260,6,0,B|353:242|384:289|346:286|400:330|451:316,1,170.793903483724,14|10,2:1|2:1,0:0:0:0:
496,261,115581,1,0,0:0:0:0:
502,250,115688,2,0,P|507:203|471:170,1,85.396951741862,10|0,2:2|0:0,0:0:0:0:
325,100,115902,2,0,P|318:58|342:25,1,85.396951741862,10|0,2:1|0:0,0:0:0:0:
429,71,116116,6,0,P|398:178|385:251,1,170.793903483724,10|10,2:2|2:1,0:0:0:0:
304,363,116437,1,2,2:2:0:0:
299,345,116544,2,0,P|289:303|277:262,1,85.396951741862,8|0,2:2|0:0,0:0:0:0:
145,149,116759,2,0,P|185:161|227:171,1,85.396951741862,10|0,2:1|0:0,0:0:0:0:
187,308,116973,6,0,P|84:294|40:356,1,170.793903483724,10|10,2:2|2:1,0:0:0:0:
42,345,117294,1,0,0:0:0:0:
33,348,117401,2,0,P|19:290|7:259,1,85.396951741862,10|0,2:2|0:0,0:0:0:0:
168,66,117615,2,0,P|154:106|144:148,1,85.396951741862,10|0,2:1|0:0,0:0:0:0:
22,138,117829,6,0,P|151:110|276:66,1,256.190855225586,10|0,2:2|0:0,0:0:0:0:
427,141,118258,1,8,2:2:0:0:
462,72,118365,1,8,2:1:0:0:
412,13,118472,2,0,P|365:40|364:80,1,85.396951741862,0|8,0:0|2:1,0:0:0:0:
504,213,118686,6,0,B|460:209|428:174|428:174|426:220|390:255,1,170.793903483724,14|10,2:1|2:1,0:0:0:0:
370,329,119007,1,0,0:0:0:0:
360,337,119114,2,0,B|324:345|324:345|273:322,1,85.396951741862,10|0,2:2|0:0,0:0:0:0:
134,229,119329,2,0,P|76:248|36:252,1,85.396951741862,8|0,2:1|0:0,0:0:0:0:
168,383,119543,6,0,P|180:323|197:286,1,85.396951741862,10|0,2:2|0:0,0:0:0:0:
30,169,119757,2,0,P|44:209|51:251,1,85.396951741862,10|0,2:1|0:0,0:0:0:0:
282,134,119971,2,0,P|267:174|260:216,1,85.396951741862,10|0,2:2|0:0,0:0:0:0:
125,42,120185,2,0,P|139:82|146:124,1,85.396951741862,10|0,2:1|0:0,0:0:0:0:
260,216,120399,6,0,B|311:239|311:239|378:234|430:184,1,170.793903483724,10|10,2:2|2:1,0:0:0:0:
493,128,120721,1,0,0:0:0:0:
481,132,120828,2,0,P|434:118|400:94,1,85.396951741862,10|0,2:2|0:0,0:0:0:0:
340,38,121042,1,10,2:1:0:0:
260,216,121256,6,0,P|273:269|288:316,1,85.396951741862,10|0,2:2|0:0,0:0:0:0:
127,382,121470,2,0,P|139:341|149:299,1,85.396951741862,8|0,2:1|0:0,0:0:0:0:
44,210,121684,1,8,2:2:0:0:
20,164,121791,1,8,2:2:0:0:
26,112,121899,1,8,2:3:0:0:
60,74,122006,1,4,2:3:0:0:
111,69,122113,6,0,P|190:107|290:130,1,182.993468018276,14|2,2:1|2:2,0:0:0:0:
293,124,122541,1,8,2:2:0:0:
450,212,122755,1,2,2:2:0:0:
424,29,122969,2,0,P|395:86|376:158,2,121.995645345517,10|10|10,2:1|2:1|2:2,0:0:0:0:
493,116,123612,1,2,2:2:0:0:
329,224,123826,6,0,P|398:188|441:202,1,121.995645345517,10|2,2:1|2:2,0:0:0:0:
512,321,124254,2,0,P|453:330|404:296,1,121.995645345517,10|2,2:2|2:2,0:0:0:0:
506,238,124683,1,10,2:1:0:0:
326,354,124897,1,8,2:1:0:0:
199,184,125111,1,8,2:2:0:0:
199,184,125539,6,0,P|147:201|103:210,1,85.396951741862,14|0,2:1|0:0,0:0:0:0:
113,200,125754,2,0,P|154:190|194:176,1,85.396951741862,8|0,2:1|0:0,0:0:0:0:
331,95,125968,6,0,P|383:112|427:121,1,85.396951741862,10|0,2:2|0:0,0:0:0:0:
417,111,126182,2,0,P|375:101|335:87,1,85.396951741862,10|0,2:1|0:0,0:0:0:0:
206,3,126396,6,0,P|225:49|235:103,1,85.396951741862,10|0,2:2|0:0,0:0:0:0:
286,266,126610,2,0,P|295:224|312:185,1,85.396951741862,10|0,2:1|0:0,0:0:0:0:
0,140,126824,6,0,P|16:179|26:220,1,85.396951741862,10|0,2:2|0:0,0:0:0:0:
126,362,127038,2,0,P|135:320|152:281,1,85.396951741862,10|0,2:1|0:0,0:0:0:0:
201,171,127253,6,0,P|160:183|117:188,1,85.396951741862,10|0,2:2|0:0,0:0:0:0:
222,344,127467,1,10,2:1:0:0:
236,353,127574,1,8,2:1:0:0:
249,363,127681,2,0,P|289:350|332:345,1,85.396951741862,10|0,2:2|0:0,0:0:0:0:
481,235,127895,2,0,P|438:229|397:217,1,85.396951741862,10|0,2:1|0:0,0:0:0:0:
242,87,128109,6,0,P|240:54|280:20,1,85.396951741862,10|0,2:2|0:0,0:0:0:0:
347,107,128323,2,0,P|321:158|308:205,1,85.396951741862,8|0,2:1|0:0,0:0:0:0:
249,363,128538,6,0,P|185:288|121:298,1,170.793903483724,8|8,2:2|2:1,0:0:0:0:
62,348,128859,1,8,2:1:0:0:
51,350,128966,2,0,P|22:297|38:261,1,85.396951741862,14|0,2:1|0:0,0:0:0:0:
127,180,129180,2,0,P|105:72|69:3,1,170.793903483724,14|10,2:2|2:1,0:0:0:0:
0,109,129501,1,12,2:1:0:0:
8,119,129608,2,0,B|40:128|40:128|66:105|108:102,1,85.396951741862,2|8,2:2|2:1,0:0:0:0:
252,149,129823,5,14,2:2:0:0:
194,65,129930,1,8,2:2:0:0:
289,41,130037,2,0,P|268:104|264:137,1,85.396951741862,10|4,2:3|2:3,0:0:0:0:
334,195,130251,5,10,2:2:0:0:
396,134,130358,1,8,2:1:0:0:
315,88,130465,1,8,2:2:0:0:
252,149,130572,1,8,2:2:0:0:
194,65,130679,5,14,2:1:0:0:
252,241,131001,5,14,2:1:0:0:
125,384,131322,5,14,2:1:0:0:
383,46,132393,6,0,B|327:62|298:126|348:175|348:175|374:155|415:158,1,219.592161621931,14|10,2:1|2:2,0:0:0:0:
474,169,132714,2,0,P|355:192|289:240,1,195.193032552827,2|8,2:2|2:1,0:0:0:0:
195,271,133035,2,0,P|142:241|142:186,1,97.5965162764136,10|0,2:2|0:0,0:0:0:0:
241,76,133249,6,0,P|227:139|219:184,1,97.5965162764136,10|0,2:1|0:0,0:0:0:0:
201,280,133463,1,10,2:2:0:0:
47,240,133570,6,0,P|88:123|146:113,1,195.193032552827,2|8,2:2|2:1,0:0:0:0:
319,94,133892,2,0,B|322:110|350:132|350:132|319:140|292:170,1,97.5965162764136,10|0,2:2|0:0,0:0:0:0:
17,163,134106,6,0,P|44:113|100:110,1,85.396951741862,10|0,2:1|0:0,0:0:0:0:
92,22,134320,2,0,P|148:21|178:68,1,85.396951741862,10|0,2:2|0:0,0:0:0:0:
213,173,134534,6,0,P|260:162|308:154,1,97.5965162764136,10|8,2:1|2:1,0:0:0:0:
395,46,134748,2,0,P|347:56|299:64,1,97.5965162764136,10|0,2:2|0:0,0:0:0:0:
332,239,134963,6,0,P|381:219|405:171,1,109.796080810965,10|0,2:1|0:0,0:0:0:0:
512,142,135177,2,0,P|520:89|490:44,1,109.796080810965,10|0,2:2|0:0,0:0:0:0:
200,0,135391,6,0,P|209:41|216:83,1,85.396951741862,10|8,2:1|2:1,0:0:0:0:
315,148,135605,2,0,P|307:105|298:64,1,85.396951741862,10|0,2:2|0:0,0:0:0:0:
36,139,135819,6,0,B|73:133|103:97|103:97|114:91|114:91|118:164|194:189,1,195.193032552827,14|10,2:1|2:2,0:0:0:0:
245,205,136140,2,0,P|151:219|91:293,1,195.193032552827,2|8,2:2|2:1,0:0:0:0:
73,376,136462,2,0,B|40:370|40:370|26:343|3:322,1,85.396951741862,10|0,2:2|0:0,0:0:0:0:
331,164,136676,6,0,P|354:242|299:302,1,170.793903483724,10|10,2:1|2:2,0:0:0:0:
166,346,136997,1,0,0:0:0:0:
166,346,137104,2,0,P|195:353|258:379,1,85.396951741862,10|8,2:1|2:1,0:0:0:0:
384,259,137318,2,0,B|422:269|406:286|463:303,1,85.396951741862,10|0,2:2|0:0,0:0:0:0:
342,384,137533,6,0,P|335:355|309:292,1,85.396951741862,10|0,2:1|0:0,0:0:0:0:
251,214,137747,1,10,2:2:0:0:
356,179,137854,6,0,B|286:173|248:229|294:225|229:278|183:264,1,195.193032552827,2|8,2:2|2:1,0:0:0:0:
88,215,138175,2,0,P|71:165|93:123,1,85.396951741862,10|0,2:2|0:0,0:0:0:0:
155,43,138389,5,10,2:1:0:0:
128,28,138496,1,0,0:0:0:0:
112,54,138603,1,8,2:2:0:0:
139,72,138710,1,0,0:0:0:0:
231,22,138817,5,10,2:1:0:0:
306,2,138925,1,8,2:1:0:0:
377,31,139032,1,8,2:2:0:0:
416,99,139139,1,0,0:0:0:0:
336,165,139246,6,0,P|265:144|224:137,1,97.5965162764136,14|0,2:1|0:0,0:0:0:0:
447,193,139460,1,10,2:2:0:0:
239,227,139567,6,0,P|331:196|427:176,1,195.193032552827,10|8,2:1|2:1,0:0:0:0:
510,64,139888,2,0,P|439:85|398:92,1,97.5965162764136,10|0,2:2|0:0,0:0:0:0:
241,139,140102,6,0,P|203:129|165:83,1,97.5965162764136,10|0,2:1|0:0,0:0:0:0:
168,8,140317,1,10,2:2:0:0:
161,221,140424,2,0,P|144:104|54:67,1,219.592161621931,10|8,2:1|2:1,0:0:0:0:
0,228,140745,2,0,P|39:228|86:258,1,85.396951741862,10|0,2:2|0:0,0:0:0:0:
275,384,140959,6,0,P|315:376|364:367,1,79.2971694745861,10|0,2:1|0:0,0:0:0:0:
151,297,141173,2,0,P|189:304|228:312,1,79.2971694745861,10|0,2:2|0:0,0:0:0:0:
393,181,141387,6,0,P|401:131|415:69,1,97.5965162764136,10|8,2:1|2:1,0:0:0:0:
289,175,141602,2,0,P|298:222|307:270,1,97.5965162764136,10|0,2:2|0:0,0:0:0:0:
476,242,141816,6,0,P|497:213|484:152,1,97.5965162764136,10|0,2:1|0:0,0:0:0:0:
359,14,142030,1,10,2:2:0:0:
442,15,142137,1,0,0:0:0:0:
325,95,142244,2,0,P|277:85|229:76,1,97.5965162764136,10|8,2:1|2:1,0:0:0:0:
200,0,142458,2,0,P|159:26|119:54,1,97.5965162764136,10|0,2:2|0:0,0:0:0:0:
14,222,142672,6,0,B|56:193|69:151|69:151|88:138|88:138|122:221|230:209,1,243.991290691034,14|2,2:1|2:2,0:0:0:0:
119,370,143529,6,0,P|99:291|89:263,2,97.5965162764136,14|2|2,2:1|2:2|2:2,0:0:0:0:
185,107,144386,6,0,B|229:96|270:112|276:154|270:161|264:167|294:213|328:217|368:200,1,219.592161621931,10|0,2:2|0:0,0:0:0:0:
444,9,144707,6,0,B|431:52|397:80|357:64|354:55|352:47|297:50|277:77|271:120,1,219.592161621931,10|0,2:2|0:0,0:0:0:0:
386,190,145028,6,0,P|413:133|394:92,1,109.796080810965,10|0,2:2|0:0,0:0:0:0:
206,20,145242,5,10,2:2:0:0:
93,100,145349,1,8,2:2:0:0:
126,27,145457,1,12,2:2:0:0:
256,192,145671,5,14,2:2:0:0:
19,311,146099,6,0,P|114:331|207:373,2,182.993468018276,14|10|10,2:1|2:1|2:1,0:0:0:0:
171,157,146956,2,0,P|176:202|191:245,1,60.9978226727585,10|0,2:2|0:0,0:0:0:0:
88,238,147170,1,0,0:0:0:0:
88,238,147277,2,0,P|82:192|67:149,1,60.9978226727585,10|0,2:2|0:0,0:0:0:0:
112,93,147598,1,10,2:1:0:0:
288,187,147812,6,0,B|336:206|336:206|422:196|458:153,1,182.993468018276,10|10,2:1|2:1,0:0:0:0:
461,143,148241,1,0,0:0:0:0:
350,97,148455,1,10,2:1:0:0:
247,302,148669,5,10,2:2:0:0:
253,312,148776,1,8,2:2:0:0:
261,296,148883,1,10,2:1:0:0:
255,286,148990,1,8,2:1:0:0:
180,244,149097,5,14,2:2:0:0:
126,273,149204,1,8,2:1:0:0:
66,259,149311,1,0,0:0:0:0:
25,212,149419,1,8,2:1:0:0:
70,139,149526,6,0,P|64:88|54:57,1,60.9978226727585,14|0,2:1|0:0,0:0:0:0:
129,11,149740,1,0,0:0:0:0:
140,27,149847,2,0,P|149:106|165:155,1,121.995645345517,10|0,2:1|0:0,0:0:0:0:
169,161,150168,1,10,2:1:0:0:
330,79,150382,6,0,B|414:101|366:125|449:143,1,121.995645345517,10|0,2:2|0:0,0:0:0:0:
486,199,150704,1,10,2:2:0:0:
491,215,150811,2,0,P|477:251|467:292,1,60.9978226727585
412,338,151025,1,10,2:1:0:0:
331,282,151239,6,0,P|233:304|190:321,1,121.995645345517,10|0,2:1|0:0,0:0:0:0:
136,374,151560,1,10,2:1:0:0:
118,369,151667,2,0,P|104:316|93:292,1,60.9978226727585
140,180,151881,5,10,2:1:0:0:
153,200,151989,1,8,2:1:0:0:
164,179,152096,1,10,2:2:0:0:
111,210,152203,1,8,2:2:0:0:
54,186,152310,1,10,2:1:0:0:
30,129,152417,1,8,2:1:0:0:
55,73,152524,6,0,P|145:55|246:24,1,182.993468018276,14|0,2:2|0:0,0:0:0:0:
304,91,152952,6,0,P|283:151|266:224,1,121.995645345517,14|0,2:1|0:0,0:0:0:0:
199,255,153274,2,0,P|219:315|236:388,1,121.995645345517,10|0,2:1|0:0,0:0:0:0:
321,320,153595,1,10,2:1:0:0:
336,310,153702,1,8,2:1:0:0:
353,318,153809,2,0,B|388:333|388:333|439:328|480:290,1,121.995645345517,14|0,2:2|0:0,0:0:0:0:
504,230,154130,1,10,2:2:0:0:
505,218,154237,2,0,P|499:174|486:150,1,60.9978226727585
412,85,154451,2,0,P|401:113|399:143,1,60.9978226727585,10|0,2:2|0:0,0:0:0:0:
326,200,154666,5,2,2:2:0:0:
326,200,154880,2,0,P|280:187|249:170,1,60.9978226727585,8|2,2:1|2:2,0:0:0:0:
213,107,155094,2,0,B|161:88|101:133|164:126|83:171|36:146,1,182.993468018276,12|0,2:2|0:0,0:0:0:0:
14,258,155522,5,10,2:2:0:0:
20,239,155629,1,8,2:2:0:0:
35,255,155736,1,10,2:1:0:0:
29,274,155843,1,8,2:1:0:0:
97,333,155951,5,10,2:2:0:0:
135,362,156058,1,8,2:1:0:0:
183,355,156165,1,8,2:2:0:0:
221,325,156272,1,8,2:2:0:0:
237,279,156379,6,0,B|317:305|263:325|355:345,1,121.995645345517,14|0,2:1|0:0,0:0:0:0:
413,382,156700,1,10,2:1:0:0:
424,375,156807,2,0,P|437:342|426:302,1,60.9978226727585
459,180,157021,5,10,2:1:0:0:
483,182,157128,1,8,2:1:0:0:
491,206,157236,2,0,P|404:182|339:145,1,121.995645345517,14|0,2:2|0:0,0:0:0:0:
304,116,157557,1,10,2:2:0:0:
293,105,157664,2,0,P|285:60|273:30,1,60.9978226727585
382,70,157878,1,10,2:2:0:0:
195,93,158092,5,2,2:2:0:0:
195,93,158306,2,0,P|201:118|209:167,1,60.9978226727585,8|2,2:1|2:2,0:0:0:0:
282,202,158521,2,0,P|267:263|247:384,1,182.993468018276,12|0,2:2|0:0,0:0:0:0:
142,277,158949,1,10,2:2:0:0:
34,314,159163,1,10,2:1:0:0:
34,314,159270,1,8,2:1:0:0:
34,314,159377,2,0,P|27:270|17:227,1,60.9978226727585,14|0,2:2|0:0,0:0:0:0:
89,165,159591,1,10,2:2:0:0:
27,67,159805,5,2,2:2:0:0:
397,333,166659,6,0,P|331:345|251:366,1,146.39477441462,2|0,2:2|0:0,0:0:0:0:
120,277,167301,1,2,2:2:0:0:
120,277,167515,2,0,P|185:264|265:243,1,146.39477441462,2|0,3:2|0:0,0:0:0:0:
426,137,168158,5,2,3:2:0:0:
354,253,168372,1,2,2:2:0:0:
242,155,168586,1,2,2:2:0:0:
242,155,168693,1,0,0:0:0:0:
242,155,168800,2,0,P|225:105|207:67,1,73.1973872073101,2|2,2:2|2:2,0:0:0:0:
292,17,169229,2,0,P|314:86|342:154,1,146.39477441462,2|2,3:2|2:2,0:0:0:0:
342,154,169871,1,2,3:2:0:0:
118,366,170085,6,0,P|35:329|63:197,1,243.991290691034,2|0,2:2|3:3,0:0:0:0:
140,228,171156,1,2,2:2:0:0:
200,175,171370,1,2,2:2:0:0:
144,237,171584,1,2,3:2:0:0:
0,120,171799,6,0,P|35:68|149:84,1,182.993468018276,2|0,2:2|0:0,0:0:0:0:
206,18,172655,2,0,P|232:38|245:84,1,60.9978226727585,0|2,3:3|2:2,0:0:0:0:
203,140,172977,1,2,2:2:0:0:
203,140,173084,2,0,P|195:172|188:208,1,60.9978226727585,2|2,2:2|3:2,0:0:0:0:
103,252,173512,6,0,P|194:227|309:204,1,195.193032552827,2|2,2:2|3:2,0:0:0:0:
404,268,174583,1,2,2:2:0:0:
404,268,174690,1,0,0:0:0:0:
404,268,174797,2,0,P|364:277|314:292,1,73.1973872073101,2|2,2:2|3:2,0:0:0:0:
203,373,175225,6,0,P|155:360|108:349,1,97.5965162764136,2|0,2:2|0:0,0:0:0:0:
86,366,175546,6,0,P|73:318|59:272,1,97.5965162764136,2|0,2:2|0:0,0:0:0:0:
33,261,175868,6,0,P|67:226|100:190,1,97.5965162764136,2|2,2:2|2:2,0:0:0:0:
88,46,176296,5,2,2:2:0:0:
88,46,176403,2,0,P|135:58|182:69,1,100.334264,2|0,2:2|0:0,0:0:0:0:
229,138,176737,2,0,P|253:130|290:120,1,48.8,2|0,2:2|0:0,0:0:0:0:
336,60,176964,5,2,2:2:0:0:
370,41,177071,1,2,2:2:0:0:
372,78,177178,1,2,2:2:0:0:
366,57,177285,1,2,2:2:0:0:
443,37,177392,1,2,2:2:0:0:
499,91,177499,1,2,2:2:0:0:
492,170,177606,1,2,2:2:0:0:
431,222,177713,1,2,2:2:0:0:
472,299,177801,6,0,B|480:274|511:264|511:264|461:229|382:259|388:330,1,219.592161621931,14|10,2:1|2:2,0:0:0:0:
289,326,178122,2,0,P|389:350|466:389,1,170.793903483724,2|8,2:2|2:1,0:0:0:0:
431,222,178443,2,0,P|383:243|332:254,1,85.396951741862,10|0,2:2|0:0,0:0:0:0:
67,154,178657,6,0,P|121:148|156:115,1,97.5965162764136,10|0,2:1|0:0,0:0:0:0:
195,50,178871,1,10,2:2:0:0:
68,75,178978,2,0,P|178:110|241:174,1,182.993468018275,2|8,2:2|2:1,0:0:0:0:
311,100,179300,2,0,P|320:67|275:12,1,91.4967340091377,10|0,2:2|0:0,0:0:0:0:
226,154,179514,6,0,P|241:193|247:239,1,85.396951741862,10|0,2:1|0:0,0:0:0:0:
454,123,179728,2,0,P|439:162|433:208,1,85.396951741862,10|0,2:2|0:0,0:0:0:0:
230,369,179942,6,0,P|259:328|313:325,1,97.5965162764136,10|8,2:1|2:1,0:0:0:0:
487,323,180156,2,0,P|433:309|388:279,1,97.5965162764136,10|0,2:2|0:0,0:0:0:0:
226,154,180370,6,0,P|181:180|130:192,1,103.696298543689,10|0,2:1|0:0,0:0:0:0:
304,56,180585,2,0,P|344:91|341:143,1,103.696298543689,10|0,2:2|0:0,0:0:0:0:
230,369,180799,6,0,P|220:325|205:290,1,73.1973872073102,10|8,2:1|2:1,0:0:0:0:
322,236,181013,2,0,P|308:270|301:305,1,73.1973872073102,10|0,2:2|0:0,0:0:0:0:
22,321,181227,6,0,P|-11:280|12:226,1,103.696298543689,14|0,2:1|0:0,0:0:0:0:
112,187,181441,1,10,2:2:0:0:
237,196,181548,2,0,P|155:220|82:264,1,170.793903483724,2|8,2:2|2:1,0:0:0:0:
76,77,181870,2,0,P|127:108|185:125,1,85.396951741862,10|0,2:2|0:0,0:0:0:0:
322,236,182084,6,0,B|358:250|358:250|382:230|416:228,1,97.5965162764136,10|0,2:1|0:0,0:0:0:0:
496,50,182298,1,10,2:2:0:0:
427,13,182405,1,0,0:0:0:0:
365,61,182512,2,0,B|339:107|339:107|365:160,1,97.5965162764136,10|8,2:1|2:1,0:0:0:0:
502,266,182726,2,0,B|528:220|528:220|502:167,1,97.5965162764136,10|0,2:2|0:0,0:0:0:0:
265,62,182940,6,0,B|237:48|247:6|247:6|252:32|284:55,1,109.796080810965,10|0,2:1|0:0,0:0:0:0:
434,110,183155,5,10,2:2:0:0:
365,61,183262,2,0,B|261:88|321:116|201:138,1,170.793903483724,2|8,2:2|2:1,0:0:0:0:
99,91,183583,2,0,P|117:135|127:186,1,91.4967340091377,10|0,2:2|0:0,0:0:0:0:
37,303,183797,5,10,2:1:0:0:
19,277,183904,1,0,0:0:0:0:
34,248,184011,1,8,2:2:0:0:
52,274,184118,1,0,0:0:0:0:
114,378,184225,5,10,2:1:0:0:
151,304,184332,1,8,2:1:0:0:
227,273,184440,1,8,2:2:0:0:
307,288,184547,1,0,0:0:0:0:
390,383,184654,6,0,B|341:352|341:352|307:267|411:220,1,219.592161621931,14|10,2:1|2:2,0:0:0:0:
512,158,184975,2,0,B|476:169|476:169|452:142|407:135,1,91.4967340091377,10|0,2:1|0:0,0:0:0:0:
257,63,185189,5,8,2:1:0:0:
340,14,185296,2,0,B|367:50|367:50|345:103,1,97.5965162764136,10|0,2:2|0:0,0:0:0:0:
192,208,185510,6,0,B|148:204|114:159|114:159|108:169|108:169|122:239|82:277,1,207.392597087379,10|10,2:1|2:2,0:0:0:0:
1,270,185832,2,0,P|113:305|190:346,1,195.193032552827,10|8,2:1|2:1,0:0:0:0:
272,296,186153,2,0,P|299:259|279:200,1,97.5965162764136,10|0,2:2|0:0,0:0:0:0:
111,141,186367,6,0,P|103:98|83:47,1,85.396951741862,10|0,2:1|0:0,0:0:0:0:
317,97,186581,2,0,P|325:54|345:3,1,85.396951741862,10|0,2:2|0:0,0:0:0:0:
272,296,186795,6,0,P|264:253|244:202,1,97.5965162764136,10|8,2:1|2:1,0:0:0:0:
479,142,187010,2,0,P|461:188|452:236,1,97.5965162764136,10|0,2:2|0:0,0:0:0:0:
223,69,187224,2,0,P|268:87|316:96,1,97.5965162764136,10|0,2:1|0:0,0:0:0:0:
452,235,187438,2,0,P|404:244|358:262,1,97.5965162764136,10|0,2:2|0:0,0:0:0:0:
112,346,187652,6,0,P|61:339|6:319,1,85.396951741862,10|8,2:1|2:1,0:0:0:0:
46,234,187866,2,0,P|97:241|152:261,1,85.396951741862,10|0,2:2|0:0,0:0:0:0:
292,332,188080,6,0,B|302:401|213:419|171:335|196:238|324:241,1,268.390419760137,14|8,2:1|2:2,0:0:0:0:
358,262,188402,1,0,0:0:0:0:
427,213,188509,2,0,P|438:167|404:120,1,97.5965162764136,10|8,2:1|2:1,0:0:0:0:
316,34,188723,2,0,P|292:72|288:133,1,97.5965162764136,8|0,2:2|0:0,0:0:0:0:
292,332,188937,6,0,B|240:325|193:365|193:365|184:299|134:269,1,219.592161621931,14|10,2:1|2:2,0:0:0:0:
36,131,189258,1,0,0:0:0:0:
23,213,189365,2,0,B|55:225|55:225|79:192|131:189,1,109.796080810965,10|8,2:1|2:1,0:0:0:0:
316,34,189579,2,0,B|388:57|341:72|417:94,1,109.796080810965,8|0,2:2|0:0,0:0:0:0:
248,198,189794,6,0,P|189:95|237:10,1,219.592161621931,10|8,2:1|2:2,0:0:0:0:
473,217,190115,2,0,P|532:114|484:29,1,219.592161621931,10|8,2:1|2:1,0:0:0:0:
407,90,190436,2,0,B|335:113|382:128|306:150,1,109.796080810965,10|0,2:2|0:0,0:0:0:0:
125,241,190650,5,10,2:1:0:0:
108,218,190757,1,0,0:0:0:0:
119,190,190864,1,8,2:2:0:0:
136,213,190972,1,0,0:0:0:0:
42,172,191079,5,8,2:1:0:0:
4,105,191186,1,8,2:1:0:0:
28,32,191293,1,10,2:2:0:0:
101,8,191400,1,0,0:0:0:0:
172,36,191507,6,0,B|245:55|245:55|264:97|264:97|368:122,1,195.193032552827,14|8,2:1|2:2,0:0:0:0:
493,239,191828,1,0,0:0:0:0:
457,162,191935,2,0,B|416:175|416:175|406:194|406:194|346:212,1,97.5965162764136,10|8,2:1|2:1,0:0:0:0:
266,284,192149,2,0,P|272:324|293:379,1,85.396951741862,8|0,2:2|0:0,0:0:0:0:
61,301,192364,6,0,P|5:201|53:112,1,219.592161621931,14|10,2:1|2:2,0:0:0:0:
211,197,192685,1,0,0:0:0:0:
194,220,192792,2,0,B|158:234|158:234|132:207|81:196,1,109.796080810965,10|8,2:1|2:1,0:0:0:0:
121,35,193006,2,0,P|164:60|165:117,1,109.796080810965,8|0,2:2|0:0,0:0:0:0:
184,348,193220,6,0,P|319:311|402:299,1,219.592161621931,10|8,2:1|2:2,0:0:0:0:
512,96,193542,2,0,B|461:101|415:48|415:48|419:115|372:155,1,219.592161621931,10|8,2:1|2:1,0:0:0:0:
389,221,193863,2,0,B|357:227|357:227|333:204|298:198,1,85.396951741862,10|0,2:2|0:0,0:0:0:0:
135,36,194077,2,0,P|164:80|169:130,1,85.396951741862,10|0,2:1|0:0,0:0:0:0:
30,289,194291,5,8,2:2:0:0:
19,275,194398,1,8,2:2:0:0:
27,260,194505,5,8,2:3:0:0:
91,218,194612,1,8,2:3:0:0:
166,232,194719,1,4,2:3:0:0:
213,297,194826,1,4,2:3:0:0:
244,376,194934,6,0,P|262:212|284:94,1,256.190855225585,14|0,2:1|0:0,0:0:0:0:
184,97,195790,6,0,P|177:34|168:-9,2,97.5965162764136,14|2|2,2:1|2:2|2:2,0:0:0:0:
338,289,196647,6,0,B|349:295|349:295|360:295|360:295|364:301|364:301|378:302|378:302|387:309|387:309|394:306|394:306|398:313,1,71.1178664583135,2|0,2:1|0:0,0:0:0:0:
441,384,197860,2,0,P|429:266|484:192,1,201.292814820103
512,90,198360,6,0,P|442:108|396:47,1,146.39477441462,14|0,2:1|0:0,0:0:0:0:
329,5,198681,1,2,2:2:0:0:
318,0,198789,2,0,B|263:21|294:30|230:52,1,73.1973872073102,8|0,2:2|0:0,0:0:0:0:
50,104,199003,5,2,2:2:0:0:
116,57,199110,1,0,0:0:0:0:
188,93,199217,2,0,P|192:129|201:164,1,73.1973872073102,10|0,2:1|0:0,0:0:0:0:
131,249,199431,2,0,P|126:212|117:177,1,73.1973872073102,2|0,2:2|0:0,0:0:0:0:
212,63,199645,2,0,P|224:135|239:206,1,146.39477441462,10|0,2:2|0:0,0:0:0:0:
512,251,200073,6,0,B|426:275|486:307|337:341,1,146.39477441462,10|0,2:1|0:0,0:0:0:0:
329,384,200395,1,2,2:2:0:0:
320,380,200502,2,0,P|300:344|307:310,1,73.1973872073102,8|0,2:2|0:0,0:0:0:0:
376,234,200716,5,2,2:2:0:0:
405,157,200823,1,0,0:0:0:0:
336,110,200930,2,0,P|285:122|261:127,1,73.1973872073102,10|0,2:1|0:0,0:0:0:0:
433,173,201144,2,0,P|484:161|508:156,1,73.1973872073102,2|0,2:2|0:0,0:0:0:0:
420,29,201358,2,0,P|340:13|251:-7,1,146.39477441462,10|0,2:2|0:0,0:0:0:0:
125,55,201680,5,0,0:0:0:0:
211,60,201787,2,0,P|143:78|123:145,1,146.39477441462,14|0,2:1|0:0,0:0:0:0:
22,179,202108,1,2,2:2:0:0:
22,189,202215,2,0,P|47:241|86:254,1,73.1973872073102,8|0,2:2|0:0,0:0:0:0:
139,226,202429,5,2,2:2:0:0:
211,185,202536,1,0,0:0:0:0:
279,229,202643,2,0,P|254:336|249:391,1,146.39477441462,10|0,2:1|0:0,0:0:0:0:
258,384,203072,2,0,P|268:311|287:241,1,146.39477441462,10|0,2:2|0:0,0:0:0:0:
450,102,203393,5,0,0:0:0:0:
450,102,203500,2,0,P|421:181|327:163,1,146.39477441462,10|0,2:1|0:0,0:0:0:0:
287,121,203821,1,2,2:2:0:0:
287,121,203928,2,0,B|236:139|274:148|178:179,1,73.1973872073102,8|0,2:2|0:0,0:0:0:0:
134,86,204143,5,2,2:2:0:0:
48,68,204250,1,0,0:0:0:0:
8,147,204357,2,0,P|25:193|31:219,1,73.1973872073102,10|8,2:1|2:2,0:0:0:0:
146,75,204571,2,0,P|129:121|123:147,1,73.1973872073102,2|0,2:2|0:0,0:0:0:0:
121,243,204785,5,10,2:2:0:0:
125,326,204892,1,8,2:2:0:0:
197,284,204999,1,8,2:2:0:0:
112,235,205106,1,8,2:2:0:0:
138,335,205213,6,0,P|209:301|302:310,1,158.594338949172,14|8,2:1|2:2,0:0:0:0:
424,273,205535,1,10,2:1:0:0:
389,348,205642,2,0,B|395:370|395:370|348:310,1,79.2971694745861,0|8,0:0|2:1,0:0:0:0:
284,288,205856,5,10,2:2:0:0:
286,254,205963,1,0,0:0:0:0:
301,222,206070,1,10,2:1:0:0:
331,206,206177,1,0,0:0:0:0:
409,223,206284,2,0,P|449:197|463:170,1,79.2971694745861,10|0,2:2|0:0,0:0:0:0:
512,94,206498,2,0,P|432:141|351:113,1,158.594338949172,10|8,2:1|2:2,0:0:0:0:
214,84,206820,5,0,0:0:0:0:
241,13,206927,2,0,P|149:36|153:119,1,158.594338949172,10|8,2:1|2:2,0:0:0:0:
284,131,207248,1,2,2:2:0:0:
284,131,207355,2,0,P|299:92|314:54,1,79.2971694745861,8|8,2:1|2:1,0:0:0:0:
241,13,207569,5,10,2:2:0:0:
159,4,207676,1,0,0:0:0:0:
138,88,207783,2,0,P|174:158|203:232,1,158.594338949172,10|10,2:1|2:2,0:0:0:0:
327,207,208105,1,0,0:0:0:0:
327,207,208212,2,0,P|290:277|276:331,1,79.2971694745861,10|8,2:1|2:1,0:0:0:0:
316,360,208426,5,8,2:2:0:0:
238,334,208533,1,0,0:0:0:0:
168,374,208640,2,0,B|86:338|137:324|33:286,1,158.594338949172,14|8,2:1|2:2,0:0:0:0:
137,287,208961,1,10,2:1:0:0:
137,287,209068,2,0,B|189:278|165:262|221:251,1,79.2971694745861,0|8,0:0|2:1,0:0:0:0:
290,277,209283,5,10,2:2:0:0:
353,219,209390,1,0,0:0:0:0:
308,147,209497,2,0,P|294:91|284:57,1,79.2971694745861,10|0,2:1|0:0,0:0:0:0:
434,256,209711,2,0,P|444:217|453:179,1,79.2971694745861,10|0,2:2|0:0,0:0:0:0:
298,50,209925,2,0,P|307:88|318:127,1,79.2971694745861,10|8,2:1|2:1,0:0:0:0:
230,179,210139,5,8,2:2:0:0:
149,156,210246,1,8,2:1:0:0:
108,228,210353,2,0,B|89:131|127:187|86:31,1,158.594338949172,14|8,2:1|2:1,0:0:0:0:
298,50,210675,1,14,2:2:0:0:
211,6,210782,2,0,P|204:40|202:94,1,79.2971694745861,0|8,0:0|2:1,0:0:0:0:
192,257,210996,5,14,2:2:0:0:
282,246,211103,1,0,0:0:0:0:
306,338,211210,2,0,P|247:360|193:383,1,79.2971694745861,10|8,2:1|2:2,0:0:0:0:
394,302,211424,2,0,P|431:287|469:274,1,79.2971694745861,10|8,2:2|2:2,0:0:0:0:
371,220,211638,5,10,2:2:0:0:
279,239,211745,1,8,2:2:0:0:
309,347,211852,1,8,2:2:0:0:
397,313,211960,1,8,2:2:0:0:
274,232,212067,5,14,2:1:0:0:
256,192,212174,12,2,218492,2:2:0:0:
