osu file format v14

[General]
AudioFilename: audio.mp3
AudioLeadIn: 0
PreviewTime: 101004
Countdown: 0
SampleSet: Normal
StackLeniency: 0.7
Mode: 3
LetterboxInBreaks: 0
SpecialStyle: 0
WidescreenStoryboard: 0

[Editor]
DistanceSpacing: 0.8
BeatDivisor: 3
GridSize: 8
TimelineZoom: 2.5

[Metadata]
Title:Cosmos / The R Machine
TitleUnicode:Cosmos / The R Machine
Artist:Reizoko Cj
ArtistUnicode:Reizoko Cj
Creator:Cokiiplay
Version:Jackie Chan
Source:
Tags:
BeatmapID:2122212
BeatmapSetID:1013985

[Difficulty]
HPDrainRate:8
CircleSize:4
OverallDifficulty:8
ApproachRate:5
SliderMultiplier:1.4
SliderTickRate:1

[Events]
//Background and Video events
0,0,"maxresdefault.jpg",0,0
//Break Periods
//Storyboard Layer 0 (Background)
//Storyboard Layer 1 (Fail)
//Storyboard Layer 2 (Pass)
//Storyboard Layer 3 (Foreground)
//Storyboard Sound Samples

[TimingPoints]
7.86576107986013,351.906158357771,4,1,0,30,1,0
7.86576107986013,-94.7222222222223,4,1,0,30,0,0
101356,350.877192982456,4,1,0,30,1,0
101356,-95,4,1,0,30,0,0
112584,375,4,1,0,30,1,0
112584,-89.2857142857143,4,1,0,30,0,0
112959,351.906158357771,4,1,0,30,1,0
112959,-94.3396226415094,4,1,0,30,0,0
174235,333.333333333333,4,1,0,30,1,0
174235,-100,4,1,0,30,0,0
248901,335.195530726257,4,1,0,15,1,0
262308,330.578512396694,4,1,0,15,1,0
270241,333.333333333333,4,1,0,15,1,0
326240,497.92531120332,4,1,0,15,1,0
326240,-67.1140939597315,4,1,0,15,0,0
328231,333.333333333333,4,1,0,15,1,0

[HitObjects]
64,192,7,5,0,0:0:0:0:
320,192,7,1,0,0:0:0:0:
448,192,7,1,0,0:0:0:0:
192,192,271,1,0,0:0:0:0:
320,192,359,1,0,0:0:0:0:
448,192,359,1,0,0:0:0:0:
64,192,535,1,0,0:0:0:0:
320,192,711,1,0,0:0:0:0:
448,192,711,1,0,0:0:0:0:
192,192,975,1,0,0:0:0:0:
320,192,1063,1,0,0:0:0:0:
448,192,1063,1,0,0:0:0:0:
192,192,1151,1,0,0:0:0:0:
64,192,1239,1,0,0:0:0:0:
448,192,1327,1,0,0:0:0:0:
192,192,1415,1,0,0:0:0:0:
64,192,1415,1,0,0:0:0:0:
320,192,1679,1,0,0:0:0:0:
192,192,1767,1,0,0:0:0:0:
64,192,1767,1,0,0:0:0:0:
448,192,1943,1,0,0:0:0:0:
192,192,2119,1,0,0:0:0:0:
64,192,2119,1,0,0:0:0:0:
320,192,2383,1,0,0:0:0:0:
192,192,2471,1,0,0:0:0:0:
64,192,2471,1,0,0:0:0:0:
320,192,2559,1,0,0:0:0:0:
448,192,2647,1,0,0:0:0:0:
64,192,2735,1,0,0:0:0:0:
320,192,2823,1,0,0:0:0:0:
448,192,2823,1,0,0:0:0:0:
192,192,3087,1,0,0:0:0:0:
320,192,3175,1,0,0:0:0:0:
448,192,3175,1,0,0:0:0:0:
64,192,3350,1,0,0:0:0:0:
448,192,3526,1,0,0:0:0:0:
320,192,3526,1,0,0:0:0:0:
192,192,3790,1,0,0:0:0:0:
320,192,3878,1,0,0:0:0:0:
448,192,3878,1,0,0:0:0:0:
192,192,3966,1,0,0:0:0:0:
64,192,4054,1,0,0:0:0:0:
448,192,4142,1,0,0:0:0:0:
192,192,4230,1,0,0:0:0:0:
64,192,4230,1,0,0:0:0:0:
192,192,4406,1,0,0:0:0:0:
64,192,4406,1,0,0:0:0:0:
192,192,4582,1,0,0:0:0:0:
64,192,4582,1,0,0:0:0:0:
192,192,4758,1,0,0:0:0:0:
64,192,4758,1,0,0:0:0:0:
192,192,4934,1,0,0:0:0:0:
64,192,4934,1,0,0:0:0:0:
448,192,5286,128,0,5638:0:0:0:0:
320,192,5286,1,0,0:0:0:0:
64,192,5286,1,0,0:0:0:0:
192,192,5638,1,0,0:0:0:0:
64,192,5638,1,0,0:0:0:0:
320,192,5902,1,0,0:0:0:0:
192,192,5990,1,0,0:0:0:0:
64,192,5990,1,0,0:0:0:0:
448,192,6078,1,0,0:0:0:0:
320,192,6166,1,0,0:0:0:0:
192,192,6342,1,0,0:0:0:0:
64,192,6342,1,0,0:0:0:0:
320,192,6606,1,0,0:0:0:0:
192,192,6694,1,0,0:0:0:0:
64,192,6694,1,0,0:0:0:0:
320,192,6782,1,0,0:0:0:0:
448,192,6870,1,0,0:0:0:0:
64,192,6958,1,0,0:0:0:0:
320,192,7045,1,0,0:0:0:0:
448,192,7045,1,0,0:0:0:0:
320,192,7221,1,0,0:0:0:0:
448,192,7221,1,0,0:0:0:0:
192,192,7397,1,0,0:0:0:0:
320,192,7573,1,0,0:0:0:0:
448,192,7573,1,0,0:0:0:0:
192,192,7749,1,0,0:0:0:0:
64,192,7749,1,0,0:0:0:0:
64,192,7837,1,0,0:0:0:0:
192,192,7837,1,0,0:0:0:0:
448,192,7925,1,0,0:0:0:0:
192,192,8013,1,0,0:0:0:0:
448,192,8101,128,0,8453:0:0:0:0:
320,192,8101,1,0,0:0:0:0:
192,192,8453,1,0,0:0:0:0:
64,192,8453,1,0,0:0:0:0:
320,192,8629,1,0,0:0:0:0:
448,192,8629,1,0,0:0:0:0:
320,192,8717,1,0,0:0:0:0:
448,192,8717,1,0,0:0:0:0:
448,192,8805,1,0,0:0:0:0:
320,192,8805,1,0,0:0:0:0:
64,192,8893,1,0,0:0:0:0:
192,192,8981,1,0,0:0:0:0:
320,192,9157,1,0,0:0:0:0:
448,192,9157,1,0,0:0:0:0:
192,192,9421,1,0,0:0:0:0:
320,192,9509,1,0,0:0:0:0:
448,192,9509,1,0,0:0:0:0:
192,192,9597,1,0,0:0:0:0:
64,192,9685,1,0,0:0:0:0:
448,192,9773,1,0,0:0:0:0:
192,192,9861,1,0,0:0:0:0:
64,192,9861,1,0,0:0:0:0:
320,192,9949,1,0,0:0:0:0:
448,192,10037,1,0,0:0:0:0:
192,192,10125,1,0,0:0:0:0:
64,192,10125,1,0,0:0:0:0:
320,192,10213,1,0,0:0:0:0:
448,192,10301,1,0,0:0:0:0:
192,192,10389,1,0,0:0:0:0:
64,192,10389,1,0,0:0:0:0:
320,192,10477,1,0,0:0:0:0:
448,192,10565,1,0,0:0:0:0:
64,192,10653,1,0,0:0:0:0:
320,192,10741,1,0,0:0:0:0:
192,192,10828,1,0,0:0:0:0:
448,192,10916,128,0,11268:0:0:0:0:
320,192,11268,128,0,11620:0:0:0:0:
192,192,11268,1,0,0:0:0:0:
64,192,11708,1,0,0:0:0:0:
320,192,11796,1,0,0:0:0:0:
64,192,11884,1,0,0:0:0:0:
192,192,11972,128,0,12324:0:0:0:0:
64,192,12324,1,0,0:0:0:0:
448,192,12412,1,0,0:0:0:0:
192,192,12500,1,0,0:0:0:0:
448,192,12588,1,0,0:0:0:0:
192,192,12676,1,0,0:0:0:0:
448,192,12764,1,0,0:0:0:0:
192,192,12852,1,0,0:0:0:0:
448,192,12940,1,0,0:0:0:0:
64,192,13028,1,0,0:0:0:0:
320,192,13116,1,0,0:0:0:0:
64,192,13204,1,0,0:0:0:0:
320,192,13292,1,0,0:0:0:0:
64,192,13380,1,0,0:0:0:0:
320,192,13468,1,0,0:0:0:0:
64,192,13556,1,0,0:0:0:0:
320,192,13644,1,0,0:0:0:0:
192,192,13732,1,0,0:0:0:0:
320,192,13820,1,0,0:0:0:0:
192,192,13908,1,0,0:0:0:0:
320,192,13996,1,0,0:0:0:0:
448,192,14084,1,0,0:0:0:0:
64,192,14084,128,0,15139:0:0:0:0:
448,192,15139,128,0,15491:0:0:0:0:
320,192,15403,1,0,0:0:0:0:
192,192,15491,1,0,0:0:0:0:
64,192,15491,1,0,0:0:0:0:
320,192,15667,1,0,0:0:0:0:
192,192,15755,1,0,0:0:0:0:
320,192,15843,1,0,0:0:0:0:
448,192,15843,1,0,0:0:0:0:
192,192,16019,1,0,0:0:0:0:
192,192,16195,1,0,0:0:0:0:
320,192,16283,1,0,0:0:0:0:
192,192,16371,1,0,0:0:0:0:
448,192,16459,1,0,0:0:0:0:
320,192,16547,1,0,0:0:0:0:
64,192,16547,1,0,0:0:0:0:
192,192,16723,1,0,0:0:0:0:
320,192,16899,1,0,0:0:0:0:
448,192,16899,1,0,0:0:0:0:
192,192,17163,1,0,0:0:0:0:
320,192,17251,1,0,0:0:0:0:
448,192,17251,1,0,0:0:0:0:
192,192,17339,1,0,0:0:0:0:
64,192,17427,1,0,0:0:0:0:
320,192,17603,1,0,0:0:0:0:
448,192,17603,1,0,0:0:0:0:
192,192,17867,1,0,0:0:0:0:
320,192,17955,1,0,0:0:0:0:
448,192,17955,1,0,0:0:0:0:
192,192,18043,1,0,0:0:0:0:
64,192,18131,1,0,0:0:0:0:
448,192,18219,1,0,0:0:0:0:
192,192,18306,1,0,0:0:0:0:
64,192,18306,1,0,0:0:0:0:
320,192,18570,1,0,0:0:0:0:
192,192,18658,1,0,0:0:0:0:
64,192,18658,1,0,0:0:0:0:
320,192,18746,1,0,0:0:0:0:
448,192,18834,1,0,0:0:0:0:
192,192,19010,1,0,0:0:0:0:
64,192,19010,1,0,0:0:0:0:
320,192,19274,1,0,0:0:0:0:
192,192,19362,1,0,0:0:0:0:
64,192,19362,1,0,0:0:0:0:
320,192,19450,1,0,0:0:0:0:
448,192,19538,1,0,0:0:0:0:
64,192,19626,1,0,0:0:0:0:
320,192,19714,1,0,0:0:0:0:
448,192,19714,1,0,0:0:0:0:
192,192,19978,1,0,0:0:0:0:
320,192,20066,1,0,0:0:0:0:
448,192,20066,1,0,0:0:0:0:
192,192,20154,1,0,0:0:0:0:
64,192,20242,1,0,0:0:0:0:
320,192,20418,1,0,0:0:0:0:
192,192,20682,1,0,0:0:0:0:
320,192,20770,1,0,0:0:0:0:
192,192,20858,1,0,0:0:0:0:
64,192,20946,1,0,0:0:0:0:
448,192,21034,1,0,0:0:0:0:
192,192,21122,1,0,0:0:0:0:
320,192,21386,1,0,0:0:0:0:
192,192,21474,1,0,0:0:0:0:
320,192,21562,1,0,0:0:0:0:
448,192,21650,1,0,0:0:0:0:
192,192,21826,1,0,0:0:0:0:
64,192,21826,1,0,0:0:0:0:
320,192,22089,1,0,0:0:0:0:
192,192,22177,1,0,0:0:0:0:
320,192,22265,1,0,0:0:0:0:
192,192,22353,1,0,0:0:0:0:
320,192,22441,1,0,0:0:0:0:
64,192,22529,1,0,0:0:0:0:
192,192,22529,1,0,0:0:0:0:
448,192,22705,1,0,0:0:0:0:
320,192,22793,1,0,0:0:0:0:
192,192,22881,1,0,0:0:0:0:
64,192,22881,1,0,0:0:0:0:
448,192,22881,1,0,0:0:0:0:
320,192,22969,1,0,0:0:0:0:
192,192,23057,1,0,0:0:0:0:
64,192,23057,1,0,0:0:0:0:
192,192,23145,1,0,0:0:0:0:
64,192,23145,1,0,0:0:0:0:
320,192,23233,1,0,0:0:0:0:
448,192,23233,1,0,0:0:0:0:
192,192,23409,1,0,0:0:0:0:
192,192,23585,1,0,0:0:0:0:
64,192,23585,1,0,0:0:0:0:
448,192,23585,1,0,0:0:0:0:
320,192,23673,1,0,0:0:0:0:
64,192,23761,1,0,0:0:0:0:
192,192,23849,1,0,0:0:0:0:
320,192,23937,1,0,0:0:0:0:
448,192,23937,1,0,0:0:0:0:
320,192,24025,1,0,0:0:0:0:
448,192,24025,1,0,0:0:0:0:
192,192,24113,1,0,0:0:0:0:
64,192,24201,1,0,0:0:0:0:
320,192,24289,1,0,0:0:0:0:
448,192,24289,1,0,0:0:0:0:
192,192,24289,1,0,0:0:0:0:
64,192,24377,1,0,0:0:0:0:
448,192,24465,1,0,0:0:0:0:
192,192,24641,1,0,0:0:0:0:
320,192,24641,1,0,0:0:0:0:
64,192,24817,1,0,0:0:0:0:
192,192,24905,1,0,0:0:0:0:
320,192,24993,1,0,0:0:0:0:
448,192,24993,1,0,0:0:0:0:
192,192,25169,1,0,0:0:0:0:
448,192,25345,1,0,0:0:0:0:
320,192,25345,1,0,0:0:0:0:
64,192,25521,1,0,0:0:0:0:
192,192,25638,1,0,0:0:0:0:
320,192,25697,1,0,0:0:0:0:
448,192,25697,1,0,0:0:0:0:
64,192,25784,1,0,0:0:0:0:
192,192,25872,1,0,0:0:0:0:
320,192,26048,1,0,0:0:0:0:
448,192,26048,1,0,0:0:0:0:
192,192,26136,1,0,0:0:0:0:
64,192,26224,1,0,0:0:0:0:
448,192,26312,1,0,0:0:0:0:
192,192,26400,1,0,0:0:0:0:
64,192,26400,1,0,0:0:0:0:
192,192,26518,1,0,0:0:0:0:
192,192,26635,1,0,0:0:0:0:
320,192,26752,1,0,0:0:0:0:
448,192,26752,1,0,0:0:0:0:
64,192,26928,1,0,0:0:0:0:
320,192,27104,1,0,0:0:0:0:
320,192,27192,1,0,0:0:0:0:
192,192,27280,1,0,0:0:0:0:
320,192,27456,1,0,0:0:0:0:
320,192,27632,1,0,0:0:0:0:
192,192,27808,1,0,0:0:0:0:
64,192,27808,1,0,0:0:0:0:
448,192,27896,1,0,0:0:0:0:
320,192,27984,1,0,0:0:0:0:
192,192,28072,1,0,0:0:0:0:
64,192,28160,1,0,0:0:0:0:
448,192,28160,1,0,0:0:0:0:
192,192,28336,1,0,0:0:0:0:
320,192,28424,1,0,0:0:0:0:
192,192,28512,1,0,0:0:0:0:
192,192,28600,1,0,0:0:0:0:
320,192,28688,1,0,0:0:0:0:
448,192,28688,1,0,0:0:0:0:
64,192,28864,1,0,0:0:0:0:
448,192,28864,1,0,0:0:0:0:
192,192,29040,1,0,0:0:0:0:
64,192,29040,1,0,0:0:0:0:
320,192,29216,1,0,0:0:0:0:
448,192,29216,1,0,0:0:0:0:
192,192,29304,1,0,0:0:0:0:
448,192,29392,1,0,0:0:0:0:
192,192,29480,1,0,0:0:0:0:
64,192,29567,1,0,0:0:0:0:
320,192,29567,1,0,0:0:0:0:
448,192,29743,1,0,0:0:0:0:
320,192,29831,1,0,0:0:0:0:
192,192,29919,1,0,0:0:0:0:
64,192,29919,1,0,0:0:0:0:
448,192,29919,1,0,0:0:0:0:
320,192,30095,1,0,0:0:0:0:
64,192,30271,1,0,0:0:0:0:
192,192,30271,128,0,30447:0:0:0:0:
448,192,30447,128,0,30623:0:0:0:0:
320,192,30623,1,0,0:0:0:0:
64,192,30623,1,0,0:0:0:0:
192,192,30711,1,0,0:0:0:0:
320,192,30799,1,0,0:0:0:0:
448,192,30887,1,0,0:0:0:0:
192,192,30975,1,0,0:0:0:0:
64,192,30975,1,0,0:0:0:0:
448,192,31151,1,0,0:0:0:0:
320,192,31239,1,0,0:0:0:0:
192,192,31327,1,0,0:0:0:0:
64,192,31327,1,0,0:0:0:0:
448,192,31327,1,0,0:0:0:0:
320,192,31415,1,0,0:0:0:0:
192,192,31503,1,0,0:0:0:0:
320,192,31679,1,0,0:0:0:0:
448,192,31679,1,0,0:0:0:0:
64,192,31767,1,0,0:0:0:0:
192,192,31855,1,0,0:0:0:0:
320,192,31943,1,0,0:0:0:0:
192,192,32031,1,0,0:0:0:0:
64,192,32031,1,0,0:0:0:0:
448,192,32031,1,0,0:0:0:0:
320,192,32119,1,0,0:0:0:0:
64,192,32207,1,0,0:0:0:0:
448,192,32295,1,0,0:0:0:0:
320,192,32383,1,0,0:0:0:0:
192,192,32383,1,0,0:0:0:0:
64,192,32559,1,0,0:0:0:0:
448,192,32559,1,0,0:0:0:0:
448,192,32647,1,0,0:0:0:0:
320,192,32735,1,0,0:0:0:0:
192,192,32735,1,0,0:0:0:0:
192,192,32823,1,0,0:0:0:0:
448,192,32911,1,0,0:0:0:0:
320,192,32911,1,0,0:0:0:0:
448,192,33087,1,0,0:0:0:0:
64,192,33087,1,0,0:0:0:0:
320,192,33175,1,0,0:0:0:0:
192,192,33175,1,0,0:0:0:0:
64,192,33262,1,0,0:0:0:0:
320,192,33350,1,0,0:0:0:0:
448,192,33350,1,0,0:0:0:0:
64,192,33438,1,0,0:0:0:0:
192,192,33438,128,0,33614:0:0:0:0:
448,192,33614,128,0,33790:0:0:0:0:
320,192,33790,1,0,0:0:0:0:
64,192,33790,1,0,0:0:0:0:
192,192,33878,1,0,0:0:0:0:
448,192,33966,1,0,0:0:0:0:
320,192,34054,1,0,0:0:0:0:
192,192,34142,1,0,0:0:0:0:
64,192,34142,1,0,0:0:0:0:
448,192,34142,1,0,0:0:0:0:
320,192,34230,1,0,0:0:0:0:
64,192,34318,1,0,0:0:0:0:
192,192,34406,1,0,0:0:0:0:
320,192,34494,1,0,0:0:0:0:
448,192,34494,1,0,0:0:0:0:
64,192,34582,1,0,0:0:0:0:
192,192,34670,1,0,0:0:0:0:
448,192,34758,1,0,0:0:0:0:
320,192,34846,1,0,0:0:0:0:
64,192,34846,1,0,0:0:0:0:
192,192,35022,1,0,0:0:0:0:
64,192,35022,1,0,0:0:0:0:
320,192,35198,128,0,35374:0:0:0:0:
192,192,35374,128,0,35550:0:0:0:0:
64,192,35550,1,0,0:0:0:0:
448,192,35550,1,0,0:0:0:0:
320,192,35638,1,0,0:0:0:0:
64,192,35726,1,0,0:0:0:0:
192,192,35814,1,0,0:0:0:0:
320,192,35902,1,0,0:0:0:0:
448,192,35902,1,0,0:0:0:0:
192,192,35990,1,0,0:0:0:0:
64,192,36078,1,0,0:0:0:0:
448,192,36166,1,0,0:0:0:0:
64,192,36254,1,0,0:0:0:0:
192,192,36254,128,0,36430:0:0:0:0:
320,192,36430,128,0,36606:0:0:0:0:
448,192,36606,1,0,0:0:0:0:
64,192,36606,1,0,0:0:0:0:
192,192,36694,1,0,0:0:0:0:
320,192,36782,1,0,0:0:0:0:
64,192,36870,1,0,0:0:0:0:
192,192,36958,1,0,0:0:0:0:
448,192,36958,1,0,0:0:0:0:
320,192,36958,1,0,0:0:0:0:
64,192,37045,1,0,0:0:0:0:
448,192,37133,1,0,0:0:0:0:
320,192,37221,1,0,0:0:0:0:
192,192,37309,1,0,0:0:0:0:
64,192,37309,1,0,0:0:0:0:
448,192,37397,1,0,0:0:0:0:
320,192,37485,1,0,0:0:0:0:
64,192,37573,1,0,0:0:0:0:
192,192,37661,1,0,0:0:0:0:
320,192,37661,1,0,0:0:0:0:
448,192,37661,1,0,0:0:0:0:
64,192,37749,1,0,0:0:0:0:
192,192,37837,1,0,0:0:0:0:
448,192,37925,1,0,0:0:0:0:
320,192,37969,1,0,0:0:0:0:
192,192,38013,1,0,0:0:0:0:
64,192,38013,1,0,0:0:0:0:
448,192,38189,1,0,0:0:0:0:
64,192,38277,1,0,0:0:0:0:
192,192,38321,1,0,0:0:0:0:
320,192,38365,1,0,0:0:0:0:
448,192,38365,1,0,0:0:0:0:
64,192,38453,1,0,0:0:0:0:
192,192,38497,1,0,0:0:0:0:
320,192,38541,128,0,38717:0:0:0:0:
64,192,38717,1,0,0:0:0:0:
448,192,38805,1,0,0:0:0:0:
192,192,38849,1,0,0:0:0:0:
320,192,38893,1,0,0:0:0:0:
64,192,38981,1,0,0:0:0:0:
320,192,39069,1,0,0:0:0:0:
320,192,39157,1,0,0:0:0:0:
192,192,39245,1,0,0:0:0:0:
192,192,39333,1,0,0:0:0:0:
320,192,39421,1,0,0:0:0:0:
448,192,39421,1,0,0:0:0:0:
64,192,39509,1,0,0:0:0:0:
192,192,39597,1,0,0:0:0:0:
448,192,39685,1,0,0:0:0:0:
320,192,39773,1,0,0:0:0:0:
192,192,39773,1,0,0:0:0:0:
64,192,39773,1,0,0:0:0:0:
448,192,39861,1,0,0:0:0:0:
320,192,39949,1,0,0:0:0:0:
64,192,40037,1,0,0:0:0:0:
192,192,40125,1,0,0:0:0:0:
448,192,40125,1,0,0:0:0:0:
320,192,40213,1,0,0:0:0:0:
64,192,40301,1,0,0:0:0:0:
192,192,40389,1,0,0:0:0:0:
448,192,40477,1,0,0:0:0:0:
320,192,40477,1,0,0:0:0:0:
192,192,40565,1,0,0:0:0:0:
64,192,40653,1,0,0:0:0:0:
448,192,40741,1,0,0:0:0:0:
192,192,40828,1,0,0:0:0:0:
64,192,40828,1,0,0:0:0:0:
320,192,41004,1,0,0:0:0:0:
192,192,41092,1,0,0:0:0:0:
320,192,41180,1,0,0:0:0:0:
448,192,41180,1,0,0:0:0:0:
64,192,41180,1,0,0:0:0:0:
192,192,41268,1,0,0:0:0:0:
448,192,41356,1,0,0:0:0:0:
64,192,41444,1,0,0:0:0:0:
192,192,41532,1,0,0:0:0:0:
320,192,41532,1,0,0:0:0:0:
448,192,41620,1,0,0:0:0:0:
64,192,41708,1,0,0:0:0:0:
192,192,41796,1,0,0:0:0:0:
320,192,41884,1,0,0:0:0:0:
448,192,41884,1,0,0:0:0:0:
192,192,41972,1,0,0:0:0:0:
448,192,42060,1,0,0:0:0:0:
320,192,42148,1,0,0:0:0:0:
192,192,42236,1,0,0:0:0:0:
64,192,42236,1,0,0:0:0:0:
448,192,42412,1,0,0:0:0:0:
320,192,42456,1,0,0:0:0:0:
192,192,42500,1,0,0:0:0:0:
448,192,42588,1,0,0:0:0:0:
320,192,42632,1,0,0:0:0:0:
192,192,42676,1,0,0:0:0:0:
448,192,42764,1,0,0:0:0:0:
64,192,42852,1,0,0:0:0:0:
192,192,42940,1,0,0:0:0:0:
320,192,42940,1,0,0:0:0:0:
448,192,43028,1,0,0:0:0:0:
192,192,43116,1,0,0:0:0:0:
64,192,43116,128,0,43292:0:0:0:0:
320,192,43292,1,0,0:0:0:0:
320,192,43380,1,0,0:0:0:0:
192,192,43468,1,0,0:0:0:0:
64,192,43468,1,0,0:0:0:0:
448,192,43468,1,0,0:0:0:0:
320,192,43644,1,0,0:0:0:0:
448,192,43644,1,0,0:0:0:0:
64,192,43732,1,0,0:0:0:0:
192,192,43820,1,0,0:0:0:0:
448,192,43908,1,0,0:0:0:0:
320,192,43996,1,0,0:0:0:0:
192,192,43996,1,0,0:0:0:0:
64,192,43996,1,0,0:0:0:0:
448,192,44084,1,0,0:0:0:0:
64,192,44172,1,0,0:0:0:0:
192,192,44260,1,0,0:0:0:0:
320,192,44348,1,0,0:0:0:0:
448,192,44348,1,0,0:0:0:0:
64,192,44436,1,0,0:0:0:0:
192,192,44523,1,0,0:0:0:0:
320,192,44611,1,0,0:0:0:0:
448,192,44611,1,0,0:0:0:0:
192,192,44699,1,0,0:0:0:0:
320,192,44787,1,0,0:0:0:0:
448,192,44787,1,0,0:0:0:0:
448,192,44875,1,0,0:0:0:0:
320,192,44875,1,0,0:0:0:0:
320,192,44963,1,0,0:0:0:0:
448,192,44963,1,0,0:0:0:0:
64,192,45051,1,0,0:0:0:0:
192,192,45051,128,0,45403:0:0:0:0:
448,192,45403,1,0,0:0:0:0:
64,192,45491,1,0,0:0:0:0:
320,192,45579,1,0,0:0:0:0:
192,192,45667,1,0,0:0:0:0:
448,192,45755,128,0,45931:0:0:0:0:
64,192,45931,1,0,0:0:0:0:
320,192,46019,1,0,0:0:0:0:
64,192,46107,1,0,0:0:0:0:
320,192,46195,1,0,0:0:0:0:
192,192,46283,1,0,0:0:0:0:
448,192,46371,1,0,0:0:0:0:
64,192,46459,1,0,0:0:0:0:
320,192,46547,1,0,0:0:0:0:
64,192,46635,1,0,0:0:0:0:
64,192,46723,1,0,0:0:0:0:
320,192,46811,1,0,0:0:0:0:
320,192,46987,1,0,0:0:0:0:
192,192,47163,1,0,0:0:0:0:
448,192,47251,1,0,0:0:0:0:
64,192,47339,1,0,0:0:0:0:
192,192,47427,1,0,0:0:0:0:
320,192,47515,1,0,0:0:0:0:
448,192,47691,1,0,0:0:0:0:
64,192,47779,1,0,0:0:0:0:
192,192,47867,1,0,0:0:0:0:
320,192,48043,1,0,0:0:0:0:
192,192,48131,1,0,0:0:0:0:
64,192,48219,1,0,0:0:0:0:
320,192,48306,1,0,0:0:0:0:
64,192,48394,1,0,0:0:0:0:
320,192,48482,1,0,0:0:0:0:
192,192,48570,1,0,0:0:0:0:
448,192,48658,1,0,0:0:0:0:
320,192,48702,1,0,0:0:0:0:
192,192,48746,1,0,0:0:0:0:
64,192,48746,1,0,0:0:0:0:
320,192,48922,1,0,0:0:0:0:
192,192,49010,1,0,0:0:0:0:
64,192,49098,1,0,0:0:0:0:
448,192,49186,1,0,0:0:0:0:
320,192,49274,1,0,0:0:0:0:
320,192,49450,1,0,0:0:0:0:
192,192,49538,1,0,0:0:0:0:
448,192,49626,128,0,49802:0:0:0:0:
320,192,49802,128,0,49978:0:0:0:0:
192,192,49978,1,0,0:0:0:0:
64,192,49978,1,0,0:0:0:0:
448,192,50066,1,0,0:0:0:0:
320,192,50154,1,0,0:0:0:0:
192,192,50242,1,0,0:0:0:0:
320,192,50330,1,0,0:0:0:0:
320,192,50418,1,0,0:0:0:0:
320,192,50506,1,0,0:0:0:0:
64,192,50682,1,0,0:0:0:0:
192,192,50858,1,0,0:0:0:0:
320,192,50946,1,0,0:0:0:0:
64,192,51034,128,0,51298:0:0:0:0:
192,192,51298,1,0,0:0:0:0:
320,192,51386,1,0,0:0:0:0:
448,192,51386,1,0,0:0:0:0:
64,192,51562,1,0,0:0:0:0:
192,192,51650,1,0,0:0:0:0:
320,192,51738,1,0,0:0:0:0:
64,192,51826,1,0,0:0:0:0:
192,192,51914,1,0,0:0:0:0:
320,192,52002,1,0,0:0:0:0:
64,192,52089,1,0,0:0:0:0:
448,192,52265,1,0,0:0:0:0:
320,192,52353,1,0,0:0:0:0:
192,192,52441,1,0,0:0:0:0:
448,192,52529,1,0,0:0:0:0:
64,192,52617,1,0,0:0:0:0:
192,192,52793,1,0,0:0:0:0:
320,192,52881,1,0,0:0:0:0:
64,192,52969,1,0,0:0:0:0:
448,192,53057,1,0,0:0:0:0:
64,192,53145,1,0,0:0:0:0:
448,192,53233,1,0,0:0:0:0:
320,192,53321,1,0,0:0:0:0:
192,192,53409,1,0,0:0:0:0:
448,192,53497,1,0,0:0:0:0:
64,192,53673,1,0,0:0:0:0:
192,192,53761,1,0,0:0:0:0:
320,192,53849,1,0,0:0:0:0:
192,192,53937,1,0,0:0:0:0:
448,192,54025,1,0,0:0:0:0:
320,192,54113,1,0,0:0:0:0:
192,192,54201,128,0,54377:0:0:0:0:
64,192,54377,128,0,54553:0:0:0:0:
320,192,54553,1,0,0:0:0:0:
448,192,54553,1,0,0:0:0:0:
192,192,54641,1,0,0:0:0:0:
448,192,54729,1,0,0:0:0:0:
320,192,54817,1,0,0:0:0:0:
64,192,54905,1,0,0:0:0:0:
448,192,55081,1,0,0:0:0:0:
320,192,55169,1,0,0:0:0:0:
64,192,55257,1,0,0:0:0:0:
192,192,55345,1,0,0:0:0:0:
448,192,55433,1,0,0:0:0:0:
64,192,55521,1,0,0:0:0:0:
320,192,55609,1,0,0:0:0:0:
192,192,55872,1,0,0:0:0:0:
448,192,55960,1,0,0:0:0:0:
320,192,55960,128,0,56136:0:0:0:0:
64,192,56136,128,0,56312:0:0:0:0:
192,192,56312,1,0,0:0:0:0:
448,192,56312,1,0,0:0:0:0:
320,192,56488,1,0,0:0:0:0:
192,192,56576,1,0,0:0:0:0:
448,192,56664,1,0,0:0:0:0:
64,192,56840,1,0,0:0:0:0:
320,192,57016,1,0,0:0:0:0:
192,192,57104,1,0,0:0:0:0:
448,192,57192,1,0,0:0:0:0:
320,192,57280,1,0,0:0:0:0:
192,192,57368,1,0,0:0:0:0:
64,192,57368,1,0,0:0:0:0:
64,192,57544,1,0,0:0:0:0:
320,192,57720,1,0,0:0:0:0:
448,192,57720,1,0,0:0:0:0:
64,192,57896,1,0,0:0:0:0:
192,192,57984,1,0,0:0:0:0:
320,192,58072,1,0,0:0:0:0:
448,192,58072,1,0,0:0:0:0:
64,192,58248,1,0,0:0:0:0:
192,192,58424,1,0,0:0:0:0:
192,192,58688,1,0,0:0:0:0:
320,192,58776,1,0,0:0:0:0:
64,192,58864,1,0,0:0:0:0:
192,192,58864,1,0,0:0:0:0:
448,192,58952,1,0,0:0:0:0:
320,192,59040,1,0,0:0:0:0:
64,192,59128,1,0,0:0:0:0:
448,192,59128,1,0,0:0:0:0:
192,192,59216,1,0,0:0:0:0:
320,192,59304,1,0,0:0:0:0:
320,192,59392,1,0,0:0:0:0:
192,192,59480,1,0,0:0:0:0:
64,192,59480,1,0,0:0:0:0:
448,192,59567,1,0,0:0:0:0:
192,192,59655,1,0,0:0:0:0:
192,192,59743,1,0,0:0:0:0:
320,192,59831,1,0,0:0:0:0:
448,192,59831,1,0,0:0:0:0:
64,192,59919,1,0,0:0:0:0:
448,192,60007,1,0,0:0:0:0:
320,192,60095,1,0,0:0:0:0:
192,192,60183,1,0,0:0:0:0:
448,192,60271,1,0,0:0:0:0:
320,192,60315,1,0,0:0:0:0:
64,192,60359,1,0,0:0:0:0:
192,192,60447,1,0,0:0:0:0:
320,192,60535,1,0,0:0:0:0:
448,192,60535,1,0,0:0:0:0:
192,192,60711,1,0,0:0:0:0:
64,192,60887,1,0,0:0:0:0:
448,192,60887,1,0,0:0:0:0:
320,192,60975,1,0,0:0:0:0:
64,192,61063,1,0,0:0:0:0:
320,192,61239,1,0,0:0:0:0:
448,192,61239,1,0,0:0:0:0:
192,192,61327,1,0,0:0:0:0:
448,192,61415,1,0,0:0:0:0:
64,192,61415,1,0,0:0:0:0:
320,192,61503,1,0,0:0:0:0:
448,192,61591,1,0,0:0:0:0:
64,192,61591,1,0,0:0:0:0:
320,192,61679,1,0,0:0:0:0:
64,192,61767,1,0,0:0:0:0:
320,192,61943,1,0,0:0:0:0:
448,192,61943,1,0,0:0:0:0:
192,192,62119,1,0,0:0:0:0:
320,192,62207,1,0,0:0:0:0:
192,192,62295,1,0,0:0:0:0:
64,192,62295,1,0,0:0:0:0:
448,192,62383,1,0,0:0:0:0:
64,192,62471,1,0,0:0:0:0:
448,192,62559,1,0,0:0:0:0:
192,192,62647,128,0,62823:0:0:0:0:
320,192,62823,128,0,62999:0:0:0:0:
448,192,62999,1,0,0:0:0:0:
64,192,63087,1,0,0:0:0:0:
192,192,63175,1,0,0:0:0:0:
320,192,63262,1,0,0:0:0:0:
448,192,63350,1,0,0:0:0:0:
192,192,63438,1,0,0:0:0:0:
64,192,63526,1,0,0:0:0:0:
320,192,63702,1,0,0:0:0:0:
448,192,63702,1,0,0:0:0:0:
64,192,63790,1,0,0:0:0:0:
192,192,63878,1,0,0:0:0:0:
320,192,63922,1,0,0:0:0:0:
448,192,63966,1,0,0:0:0:0:
192,192,64054,1,0,0:0:0:0:
64,192,64054,128,0,64406:0:0:0:0:
320,192,64406,1,0,0:0:0:0:
448,192,64406,1,0,0:0:0:0:
192,192,64494,1,0,0:0:0:0:
448,192,64582,1,0,0:0:0:0:
320,192,64670,1,0,0:0:0:0:
192,192,64758,1,0,0:0:0:0:
64,192,64758,1,0,0:0:0:0:
448,192,64875,1,0,0:0:0:0:
320,192,64993,1,0,0:0:0:0:
192,192,65110,1,0,0:0:0:0:
64,192,65110,1,0,0:0:0:0:
320,192,65227,1,0,0:0:0:0:
320,192,65345,1,0,0:0:0:0:
192,192,65462,1,0,0:0:0:0:
64,192,65462,1,0,0:0:0:0:
320,192,65579,1,0,0:0:0:0:
320,192,65697,1,0,0:0:0:0:
192,192,65814,1,0,0:0:0:0:
64,192,65814,1,0,0:0:0:0:
320,192,65931,1,0,0:0:0:0:
448,192,65931,1,0,0:0:0:0:
320,192,66048,1,0,0:0:0:0:
448,192,66048,1,0,0:0:0:0:
192,192,66166,1,0,0:0:0:0:
64,192,66166,1,0,0:0:0:0:
192,192,66400,1,0,0:0:0:0:
64,192,66400,1,0,0:0:0:0:
320,192,66518,1,0,0:0:0:0:
320,192,66635,1,0,0:0:0:0:
320,192,66752,1,0,0:0:0:0:
192,192,66811,1,0,0:0:0:0:
448,192,66870,1,0,0:0:0:0:
64,192,66987,1,0,0:0:0:0:
448,192,67104,1,0,0:0:0:0:
192,192,67221,1,0,0:0:0:0:
64,192,67221,1,0,0:0:0:0:
192,192,67339,1,0,0:0:0:0:
64,192,67339,1,0,0:0:0:0:
448,192,67397,1,0,0:0:0:0:
320,192,67397,1,0,0:0:0:0:
192,192,67456,1,0,0:0:0:0:
64,192,67456,1,0,0:0:0:0:
320,192,67515,1,0,0:0:0:0:
448,192,67515,1,0,0:0:0:0:
192,192,67573,1,0,0:0:0:0:
64,192,67573,1,0,0:0:0:0:
320,192,67749,1,0,0:0:0:0:
64,192,67925,128,0,68101:0:0:0:0:
448,192,68101,1,0,0:0:0:0:
320,192,68189,1,0,0:0:0:0:
192,192,68277,1,0,0:0:0:0:
64,192,68277,1,0,0:0:0:0:
320,192,68453,1,0,0:0:0:0:
192,192,68541,1,0,0:0:0:0:
320,192,68629,1,0,0:0:0:0:
448,192,68629,1,0,0:0:0:0:
320,192,68717,1,0,0:0:0:0:
448,192,68717,1,0,0:0:0:0:
320,192,68805,1,0,0:0:0:0:
448,192,68805,1,0,0:0:0:0:
64,192,68893,1,0,0:0:0:0:
192,192,68981,1,0,0:0:0:0:
448,192,68981,1,0,0:0:0:0:
320,192,69157,1,0,0:0:0:0:
448,192,69245,1,0,0:0:0:0:
320,192,69333,1,0,0:0:0:0:
192,192,69333,1,0,0:0:0:0:
64,192,69333,1,0,0:0:0:0:
448,192,69421,1,0,0:0:0:0:
64,192,69509,1,0,0:0:0:0:
64,192,69597,1,0,0:0:0:0:
448,192,69685,1,0,0:0:0:0:
320,192,69861,1,0,0:0:0:0:
192,192,70037,1,0,0:0:0:0:
64,192,70037,1,0,0:0:0:0:
320,192,70125,1,0,0:0:0:0:
448,192,70213,1,0,0:0:0:0:
192,192,70389,1,0,0:0:0:0:
64,192,70389,1,0,0:0:0:0:
320,192,70565,1,0,0:0:0:0:
192,192,70653,1,0,0:0:0:0:
320,192,70741,1,0,0:0:0:0:
448,192,70741,1,0,0:0:0:0:
64,192,70741,1,0,0:0:0:0:
192,192,70828,1,0,0:0:0:0:
448,192,70916,1,0,0:0:0:0:
192,192,71004,1,0,0:0:0:0:
320,192,71092,1,0,0:0:0:0:
64,192,71092,1,0,0:0:0:0:
192,192,71268,1,0,0:0:0:0:
320,192,71356,1,0,0:0:0:0:
448,192,71444,1,0,0:0:0:0:
64,192,71444,1,0,0:0:0:0:
320,192,71532,1,0,0:0:0:0:
64,192,71620,1,0,0:0:0:0:
320,192,71796,1,0,0:0:0:0:
448,192,71796,1,0,0:0:0:0:
192,192,71972,1,0,0:0:0:0:
320,192,72060,1,0,0:0:0:0:
192,192,72148,1,0,0:0:0:0:
448,192,72236,1,0,0:0:0:0:
320,192,72324,1,0,0:0:0:0:
320,192,72412,1,0,0:0:0:0:
192,192,72500,1,0,0:0:0:0:
64,192,72500,1,0,0:0:0:0:
320,192,72676,1,0,0:0:0:0:
192,192,72764,1,0,0:0:0:0:
64,192,72852,1,0,0:0:0:0:
320,192,72852,1,0,0:0:0:0:
448,192,72852,1,0,0:0:0:0:
192,192,72940,1,0,0:0:0:0:
64,192,73028,1,0,0:0:0:0:
448,192,73028,1,0,0:0:0:0:
320,192,73116,1,0,0:0:0:0:
192,192,73204,1,0,0:0:0:0:
64,192,73204,1,0,0:0:0:0:
320,192,73556,1,0,0:0:0:0:
448,192,73556,1,0,0:0:0:0:
64,192,73732,1,0,0:0:0:0:
448,192,73732,1,0,0:0:0:0:
320,192,73820,1,0,0:0:0:0:
64,192,73908,1,0,0:0:0:0:
320,192,73996,1,0,0:0:0:0:
192,192,74084,1,0,0:0:0:0:
448,192,74172,1,0,0:0:0:0:
320,192,74260,1,0,0:0:0:0:
64,192,74260,1,0,0:0:0:0:
192,192,74348,1,0,0:0:0:0:
448,192,74436,1,0,0:0:0:0:
320,192,74523,1,0,0:0:0:0:
192,192,74611,1,0,0:0:0:0:
64,192,74611,1,0,0:0:0:0:
320,192,74787,1,0,0:0:0:0:
192,192,74875,1,0,0:0:0:0:
320,192,74963,1,0,0:0:0:0:
448,192,74963,1,0,0:0:0:0:
64,192,74963,1,0,0:0:0:0:
192,192,75051,1,0,0:0:0:0:
448,192,75139,1,0,0:0:0:0:
64,192,75227,1,0,0:0:0:0:
192,192,75315,1,0,0:0:0:0:
320,192,75315,1,0,0:0:0:0:
448,192,75403,1,0,0:0:0:0:
64,192,75491,1,0,0:0:0:0:
320,192,75579,1,0,0:0:0:0:
192,192,75667,1,0,0:0:0:0:
64,192,75667,1,0,0:0:0:0:
448,192,75667,1,0,0:0:0:0:
320,192,75755,1,0,0:0:0:0:
448,192,75843,1,0,0:0:0:0:
64,192,75931,1,0,0:0:0:0:
320,192,76019,1,0,0:0:0:0:
192,192,76019,1,0,0:0:0:0:
192,192,76195,1,0,0:0:0:0:
320,192,76195,1,0,0:0:0:0:
320,192,76283,1,0,0:0:0:0:
192,192,76283,1,0,0:0:0:0:
64,192,76371,128,0,76547:0:0:0:0:
320,192,76547,1,0,0:0:0:0:
192,192,76635,1,0,0:0:0:0:
320,192,76723,1,0,0:0:0:0:
192,192,76811,1,0,0:0:0:0:
448,192,76899,1,0,0:0:0:0:
64,192,77075,1,0,0:0:0:0:
192,192,77075,1,0,0:0:0:0:
320,192,77163,1,0,0:0:0:0:
64,192,77251,128,0,77427:0:0:0:0:
320,192,77427,1,0,0:0:0:0:
448,192,77427,1,0,0:0:0:0:
192,192,77603,1,0,0:0:0:0:
192,192,77691,1,0,0:0:0:0:
448,192,77779,1,0,0:0:0:0:
320,192,77955,128,0,78131:0:0:0:0:
64,192,78131,1,0,0:0:0:0:
192,192,78131,1,0,0:0:0:0:
448,192,78306,1,0,0:0:0:0:
64,192,78482,1,0,0:0:0:0:
192,192,78482,1,0,0:0:0:0:
320,192,78482,1,0,0:0:0:0:
448,192,78600,1,0,0:0:0:0:
192,192,78658,1,0,0:0:0:0:
64,192,78658,1,0,0:0:0:0:
320,192,78834,1,0,0:0:0:0:
64,192,78922,1,0,0:0:0:0:
192,192,79010,1,0,0:0:0:0:
448,192,79098,1,0,0:0:0:0:
320,192,79186,1,0,0:0:0:0:
64,192,79186,1,0,0:0:0:0:
192,192,79274,1,0,0:0:0:0:
448,192,79362,1,0,0:0:0:0:
320,192,79450,1,0,0:0:0:0:
192,192,79538,1,0,0:0:0:0:
64,192,79538,1,0,0:0:0:0:
320,192,79773,1,0,0:0:0:0:
192,192,79890,128,0,80242:0:0:0:0:
64,192,79890,1,0,0:0:0:0:
448,192,80066,1,0,0:0:0:0:
320,192,80242,1,0,0:0:0:0:
64,192,80242,1,0,0:0:0:0:
448,192,80418,1,0,0:0:0:0:
320,192,80506,1,0,0:0:0:0:
64,192,80506,1,0,0:0:0:0:
448,192,80682,1,0,0:0:0:0:
320,192,80770,1,0,0:0:0:0:
64,192,80770,1,0,0:0:0:0:
64,192,80858,1,0,0:0:0:0:
320,192,80858,1,0,0:0:0:0:
320,192,80946,1,0,0:0:0:0:
64,192,80946,1,0,0:0:0:0:
192,192,81034,1,0,0:0:0:0:
448,192,81122,1,0,0:0:0:0:
320,192,81210,1,0,0:0:0:0:
64,192,81298,1,0,0:0:0:0:
192,192,81298,1,0,0:0:0:0:
448,192,81298,1,0,0:0:0:0:
320,192,81386,1,0,0:0:0:0:
64,192,81474,1,0,0:0:0:0:
64,192,81562,1,0,0:0:0:0:
192,192,81650,1,0,0:0:0:0:
320,192,81650,1,0,0:0:0:0:
448,192,81738,1,0,0:0:0:0:
64,192,81826,1,0,0:0:0:0:
192,192,81914,1,0,0:0:0:0:
320,192,82002,1,0,0:0:0:0:
448,192,82002,1,0,0:0:0:0:
64,192,82002,1,0,0:0:0:0:
192,192,82089,1,0,0:0:0:0:
448,192,82177,1,0,0:0:0:0:
320,192,82265,1,0,0:0:0:0:
192,192,82353,1,0,0:0:0:0:
64,192,82353,1,0,0:0:0:0:
448,192,82441,1,0,0:0:0:0:
320,192,82529,1,0,0:0:0:0:
448,192,82617,1,0,0:0:0:0:
64,192,82705,1,0,0:0:0:0:
192,192,82764,1,0,0:0:0:0:
320,192,82823,1,0,0:0:0:0:
64,192,82881,1,0,0:0:0:0:
448,192,82940,1,0,0:0:0:0:
320,192,82999,1,0,0:0:0:0:
192,192,83057,1,0,0:0:0:0:
64,192,83057,1,0,0:0:0:0:
448,192,83145,1,0,0:0:0:0:
320,192,83233,1,0,0:0:0:0:
192,192,83321,1,0,0:0:0:0:
64,192,83321,1,0,0:0:0:0:
448,192,83409,1,0,0:0:0:0:
320,192,83497,1,0,0:0:0:0:
64,192,83585,1,0,0:0:0:0:
192,192,83673,1,0,0:0:0:0:
320,192,83761,1,0,0:0:0:0:
448,192,83761,1,0,0:0:0:0:
64,192,83849,1,0,0:0:0:0:
448,192,83937,1,0,0:0:0:0:
192,192,84025,1,0,0:0:0:0:
320,192,84113,128,0,84465:0:0:0:0:
192,192,84289,1,0,0:0:0:0:
64,192,84465,1,0,0:0:0:0:
448,192,84465,1,0,0:0:0:0:
192,192,84553,1,0,0:0:0:0:
320,192,84641,1,0,0:0:0:0:
64,192,84729,1,0,0:0:0:0:
448,192,84729,1,0,0:0:0:0:
192,192,84817,1,0,0:0:0:0:
320,192,84905,1,0,0:0:0:0:
448,192,84993,1,0,0:0:0:0:
64,192,84993,1,0,0:0:0:0:
192,192,85081,1,0,0:0:0:0:
320,192,85169,1,0,0:0:0:0:
64,192,85257,1,0,0:0:0:0:
192,192,85345,1,0,0:0:0:0:
320,192,85345,1,0,0:0:0:0:
448,192,85345,1,0,0:0:0:0:
64,192,85433,1,0,0:0:0:0:
448,192,85521,1,0,0:0:0:0:
64,192,85609,1,0,0:0:0:0:
320,192,85697,1,0,0:0:0:0:
192,192,85784,1,0,0:0:0:0:
320,192,85872,1,0,0:0:0:0:
448,192,85872,1,0,0:0:0:0:
64,192,85960,1,0,0:0:0:0:
192,192,86048,1,0,0:0:0:0:
320,192,86136,1,0,0:0:0:0:
448,192,86136,1,0,0:0:0:0:
64,192,86224,1,0,0:0:0:0:
192,192,86312,1,0,0:0:0:0:
320,192,86400,1,0,0:0:0:0:
448,192,86400,1,0,0:0:0:0:
320,192,86488,1,0,0:0:0:0:
448,192,86488,1,0,0:0:0:0:
448,192,86576,1,0,0:0:0:0:
320,192,86576,1,0,0:0:0:0:
192,192,86664,1,0,0:0:0:0:
64,192,86752,1,0,0:0:0:0:
320,192,86840,1,0,0:0:0:0:
192,192,86928,1,0,0:0:0:0:
64,192,86928,1,0,0:0:0:0:
448,192,87016,1,0,0:0:0:0:
320,192,87104,1,0,0:0:0:0:
64,192,87192,1,0,0:0:0:0:
192,192,87280,1,0,0:0:0:0:
448,192,87280,1,0,0:0:0:0:
320,192,87368,1,0,0:0:0:0:
64,192,87456,1,0,0:0:0:0:
192,192,87544,1,0,0:0:0:0:
320,192,87544,1,0,0:0:0:0:
448,192,87544,1,0,0:0:0:0:
64,192,87632,1,0,0:0:0:0:
448,192,87720,1,0,0:0:0:0:
320,192,87808,1,0,0:0:0:0:
192,192,87808,1,0,0:0:0:0:
64,192,87896,1,0,0:0:0:0:
320,192,87984,1,0,0:0:0:0:
192,192,87984,1,0,0:0:0:0:
64,192,88072,1,0,0:0:0:0:
448,192,88160,1,0,0:0:0:0:
320,192,88248,1,0,0:0:0:0:
64,192,88336,1,0,0:0:0:0:
448,192,88424,1,0,0:0:0:0:
192,192,88512,1,0,0:0:0:0:
320,192,88600,1,0,0:0:0:0:
448,192,88688,1,0,0:0:0:0:
192,192,88688,1,0,0:0:0:0:
64,192,88688,128,0,88864:0:0:0:0:
320,192,88952,128,0,89128:0:0:0:0:
192,192,89216,128,0,89392:0:0:0:0:
448,192,89392,128,0,89743:0:0:0:0:
448,192,89831,1,0,0:0:0:0:
448,192,89919,1,0,0:0:0:0:
64,192,90095,1,0,0:0:0:0:
320,192,90095,1,0,0:0:0:0:
192,192,90095,128,0,92999:0:0:0:0:
64,192,93087,128,0,93262:0:0:0:0:
448,192,93262,128,0,93350:0:0:0:0:
448,192,93438,1,0,0:0:0:0:
320,192,93526,1,0,0:0:0:0:
192,192,93614,1,0,0:0:0:0:
64,192,93702,1,0,0:0:0:0:
320,192,93790,128,0,93966:0:0:0:0:
192,192,93966,128,0,94318:0:0:0:0:
320,192,94318,128,0,96782:0:0:0:0:
64,192,94406,1,0,0:0:0:0:
192,192,94494,1,0,0:0:0:0:
64,192,94582,1,0,0:0:0:0:
192,192,94758,1,0,0:0:0:0:
64,192,94846,1,0,0:0:0:0:
192,192,94934,1,0,0:0:0:0:
64,192,95110,1,0,0:0:0:0:
192,192,95198,1,0,0:0:0:0:
64,192,95286,1,0,0:0:0:0:
192,192,95374,1,0,0:0:0:0:
64,192,95462,1,0,0:0:0:0:
192,192,95550,1,0,0:0:0:0:
64,192,95638,1,0,0:0:0:0:
192,192,95814,1,0,0:0:0:0:
64,192,95902,1,0,0:0:0:0:
192,192,95990,1,0,0:0:0:0:
64,192,96166,1,0,0:0:0:0:
192,192,96254,1,0,0:0:0:0:
64,192,96342,1,0,0:0:0:0:
192,192,96518,1,0,0:0:0:0:
64,192,96606,1,0,0:0:0:0:
192,192,96694,1,0,0:0:0:0:
64,192,96870,1,0,0:0:0:0:
192,192,96958,1,0,0:0:0:0:
320,192,97002,1,0,0:0:0:0:
448,192,97045,1,0,0:0:0:0:
64,192,97221,1,0,0:0:0:0:
192,192,97309,1,0,0:0:0:0:
64,192,97397,1,0,0:0:0:0:
320,192,97573,1,0,0:0:0:0:
448,192,97661,1,0,0:0:0:0:
320,192,97749,1,0,0:0:0:0:
192,192,97925,1,0,0:0:0:0:
320,192,98013,1,0,0:0:0:0:
192,192,98101,1,0,0:0:0:0:
448,192,98277,1,0,0:0:0:0:
320,192,98365,1,0,0:0:0:0:
192,192,98409,1,0,0:0:0:0:
64,192,98453,1,0,0:0:0:0:
448,192,98629,1,0,0:0:0:0:
320,192,98717,1,0,0:0:0:0:
192,192,98893,1,0,0:0:0:0:
320,192,98981,1,0,0:0:0:0:
192,192,99069,1,0,0:0:0:0:
320,192,99157,1,0,0:0:0:0:
192,192,99245,1,0,0:0:0:0:
320,192,99333,1,0,0:0:0:0:
192,192,99421,1,0,0:0:0:0:
320,192,99509,1,0,0:0:0:0:
192,192,99597,1,0,0:0:0:0:
320,192,99685,1,0,0:0:0:0:
192,192,99773,1,0,0:0:0:0:
320,192,99861,1,0,0:0:0:0:
192,192,101356,1,0,0:0:0:0:
320,192,101356,1,0,0:0:0:0:
448,192,101443,1,0,0:0:0:0:
448,192,101531,1,0,0:0:0:0:
448,192,101619,1,0,0:0:0:0:
64,192,101706,1,0,0:0:0:0:
320,192,101706,1,0,0:0:0:0:
192,192,101794,1,0,0:0:0:0:
192,192,101882,1,0,0:0:0:0:
192,192,101970,1,0,0:0:0:0:
64,192,102057,1,0,0:0:0:0:
448,192,102057,1,0,0:0:0:0:
320,192,102145,1,0,0:0:0:0:
192,192,102233,1,0,0:0:0:0:
320,192,102320,1,0,0:0:0:0:
192,192,102408,1,0,0:0:0:0:
320,192,102496,1,0,0:0:0:0:
192,192,102584,1,0,0:0:0:0:
320,192,102671,1,0,0:0:0:0:
64,192,102759,1,0,0:0:0:0:
448,192,102759,1,0,0:0:0:0:
192,192,102847,1,0,0:0:0:0:
192,192,102934,1,0,0:0:0:0:
192,192,103022,1,0,0:0:0:0:
64,192,103110,1,0,0:0:0:0:
320,192,103110,1,0,0:0:0:0:
448,192,103198,1,0,0:0:0:0:
448,192,103285,1,0,0:0:0:0:
448,192,103373,1,0,0:0:0:0:
320,192,103461,1,0,0:0:0:0:
192,192,103461,1,0,0:0:0:0:
64,192,103548,1,0,0:0:0:0:
64,192,103636,1,0,0:0:0:0:
64,192,103724,1,0,0:0:0:0:
192,192,103812,1,0,0:0:0:0:
448,192,103812,1,0,0:0:0:0:
320,192,103899,1,0,0:0:0:0:
192,192,103987,1,0,0:0:0:0:
192,192,104075,1,0,0:0:0:0:
64,192,104163,1,0,0:0:0:0:
448,192,104163,1,0,0:0:0:0:
192,192,104513,1,0,0:0:0:0:
64,192,104513,1,0,0:0:0:0:
320,192,104601,1,0,0:0:0:0:
320,192,104689,1,0,0:0:0:0:
320,192,104777,1,0,0:0:0:0:
448,192,104864,1,0,0:0:0:0:
192,192,104864,1,0,0:0:0:0:
64,192,104952,1,0,0:0:0:0:
64,192,105040,1,0,0:0:0:0:
64,192,105127,1,0,0:0:0:0:
192,192,105215,1,0,0:0:0:0:
448,192,105215,128,0,105391:0:0:0:0:
320,192,105391,1,0,0:0:0:0:
64,192,105449,1,0,0:0:0:0:
192,192,105508,1,0,0:0:0:0:
320,192,105566,1,0,0:0:0:0:
448,192,105566,1,0,0:0:0:0:
64,192,105654,1,0,0:0:0:0:
192,192,105741,1,0,0:0:0:0:
320,192,105785,1,0,0:0:0:0:
64,192,105829,1,0,0:0:0:0:
192,192,105873,1,0,0:0:0:0:
448,192,105917,1,0,0:0:0:0:
320,192,106005,1,0,0:0:0:0:
64,192,106092,1,0,0:0:0:0:
192,192,106180,1,0,0:0:0:0:
448,192,106180,1,0,0:0:0:0:
320,192,106268,1,0,0:0:0:0:
64,192,106356,1,0,0:0:0:0:
192,192,106443,1,0,0:0:0:0:
320,192,106531,1,0,0:0:0:0:
64,192,106619,1,0,0:0:0:0:
448,192,106619,1,0,0:0:0:0:
192,192,106794,1,0,0:0:0:0:
320,192,106794,1,0,0:0:0:0:
192,192,106970,1,0,0:0:0:0:
64,192,106970,1,0,0:0:0:0:
448,192,107057,1,0,0:0:0:0:
448,192,107145,1,0,0:0:0:0:
448,192,107233,1,0,0:0:0:0:
320,192,107320,1,0,0:0:0:0:
192,192,107496,128,0,107671:0:0:0:0:
320,192,107671,1,0,0:0:0:0:
448,192,107671,1,0,0:0:0:0:
64,192,107759,1,0,0:0:0:0:
320,192,107847,128,0,108022:0:0:0:0:
64,192,108022,1,0,0:0:0:0:
448,192,108022,1,0,0:0:0:0:
192,192,108110,1,0,0:0:0:0:
192,192,108198,1,0,0:0:0:0:
192,192,108285,1,0,0:0:0:0:
448,192,108373,1,0,0:0:0:0:
320,192,108373,1,0,0:0:0:0:
320,192,108461,1,0,0:0:0:0:
448,192,108461,1,0,0:0:0:0:
64,192,108548,1,0,0:0:0:0:
192,192,108636,1,0,0:0:0:0:
448,192,108724,1,0,0:0:0:0:
320,192,108812,1,0,0:0:0:0:
448,192,108899,1,0,0:0:0:0:
320,192,108987,1,0,0:0:0:0:
192,192,109075,1,0,0:0:0:0:
64,192,109075,1,0,0:0:0:0:
448,192,109163,1,0,0:0:0:0:
320,192,109250,128,0,109426:0:0:0:0:
192,192,109426,1,0,0:0:0:0:
64,192,109426,1,0,0:0:0:0:
448,192,109513,1,0,0:0:0:0:
192,192,109601,1,0,0:0:0:0:
64,192,109777,1,0,0:0:0:0:
448,192,109777,1,0,0:0:0:0:
320,192,109864,1,0,0:0:0:0:
192,192,109952,128,0,110127:0:0:0:0:
320,192,110127,1,0,0:0:0:0:
448,192,110127,1,0,0:0:0:0:
64,192,110215,1,0,0:0:0:0:
448,192,110303,1,0,0:0:0:0:
320,192,110391,1,0,0:0:0:0:
64,192,110478,1,0,0:0:0:0:
192,192,110654,1,0,0:0:0:0:
320,192,110829,1,0,0:0:0:0:
448,192,110829,1,0,0:0:0:0:
64,192,110917,1,0,0:0:0:0:
192,192,111005,1,0,0:0:0:0:
64,192,111180,1,0,0:0:0:0:
448,192,111180,1,0,0:0:0:0:
320,192,111268,1,0,0:0:0:0:
320,192,111356,1,0,0:0:0:0:
320,192,111443,1,0,0:0:0:0:
192,192,111531,1,0,0:0:0:0:
448,192,111531,1,0,0:0:0:0:
64,192,111619,1,0,0:0:0:0:
64,192,111706,1,0,0:0:0:0:
64,192,111794,1,0,0:0:0:0:
192,192,111882,1,0,0:0:0:0:
320,192,111882,1,0,0:0:0:0:
448,192,111970,1,0,0:0:0:0:
64,192,112057,1,0,0:0:0:0:
192,192,112145,1,0,0:0:0:0:
320,192,112233,1,0,0:0:0:0:
320,192,112320,1,0,0:0:0:0:
192,192,112408,1,0,0:0:0:0:
64,192,112408,1,0,0:0:0:0:
64,192,112496,1,0,0:0:0:0:
192,192,112496,1,0,0:0:0:0:
320,192,112584,1,0,0:0:0:0:
448,192,112584,1,0,0:0:0:0:
192,192,112677,1,0,0:0:0:0:
192,192,112771,1,0,0:0:0:0:
192,192,112865,1,0,0:0:0:0:
64,192,112959,1,0,0:0:0:0:
448,192,112959,1,0,0:0:0:0:
320,192,113046,1,0,0:0:0:0:
320,192,113134,1,0,0:0:0:0:
320,192,113222,1,0,0:0:0:0:
192,192,113310,1,0,0:0:0:0:
64,192,113310,1,0,0:0:0:0:
320,192,113486,128,0,113662:0:0:0:0:
64,192,113662,1,0,0:0:0:0:
448,192,113750,1,0,0:0:0:0:
64,192,113838,1,0,0:0:0:0:
448,192,113926,1,0,0:0:0:0:
320,192,114014,1,0,0:0:0:0:
64,192,114014,1,0,0:0:0:0:
192,192,114102,1,0,0:0:0:0:
192,192,114190,1,0,0:0:0:0:
192,192,114278,1,0,0:0:0:0:
448,192,114366,1,0,0:0:0:0:
64,192,114454,1,0,0:0:0:0:
192,192,114542,1,0,0:0:0:0:
320,192,114630,1,0,0:0:0:0:
448,192,114718,1,0,0:0:0:0:
64,192,114718,1,0,0:0:0:0:
192,192,114806,1,0,0:0:0:0:
448,192,114894,1,0,0:0:0:0:
320,192,114894,1,0,0:0:0:0:
64,192,114982,1,0,0:0:0:0:
192,192,115070,1,0,0:0:0:0:
320,192,115070,1,0,0:0:0:0:
448,192,115246,128,0,115422:0:0:0:0:
192,192,115422,1,0,0:0:0:0:
64,192,115422,1,0,0:0:0:0:
320,192,115510,1,0,0:0:0:0:
320,192,115598,1,0,0:0:0:0:
320,192,115686,1,0,0:0:0:0:
64,192,115774,1,0,0:0:0:0:
448,192,115774,1,0,0:0:0:0:
192,192,115950,1,0,0:0:0:0:
320,192,116038,1,0,0:0:0:0:
192,192,116126,1,0,0:0:0:0:
320,192,116214,1,0,0:0:0:0:
448,192,116302,1,0,0:0:0:0:
320,192,116390,1,0,0:0:0:0:
448,192,116478,1,0,0:0:0:0:
448,192,116654,1,0,0:0:0:0:
192,192,116829,1,0,0:0:0:0:
64,192,116829,1,0,0:0:0:0:
320,192,116917,1,0,0:0:0:0:
192,192,117005,1,0,0:0:0:0:
64,192,117005,1,0,0:0:0:0:
448,192,117093,1,0,0:0:0:0:
320,192,117181,1,0,0:0:0:0:
64,192,117181,1,0,0:0:0:0:
192,192,117269,1,0,0:0:0:0:
320,192,117357,1,0,0:0:0:0:
448,192,117357,128,0,117533:0:0:0:0:
64,192,117533,128,0,117885:0:0:0:0:
448,192,117885,128,0,118002:0:0:0:0:
320,192,118002,128,0,118120:0:0:0:0:
192,192,118120,128,0,118237:0:0:0:0:
448,192,118237,1,0,0:0:0:0:
64,192,118237,1,0,0:0:0:0:
320,192,118325,1,0,0:0:0:0:
320,192,118413,1,0,0:0:0:0:
320,192,118501,1,0,0:0:0:0:
448,192,118589,1,0,0:0:0:0:
64,192,118589,1,0,0:0:0:0:
320,192,118765,1,0,0:0:0:0:
64,192,118765,1,0,0:0:0:0:
320,192,118941,1,0,0:0:0:0:
448,192,118941,1,0,0:0:0:0:
192,192,119029,1,0,0:0:0:0:
448,192,119117,1,0,0:0:0:0:
192,192,119205,1,0,0:0:0:0:
320,192,119293,1,0,0:0:0:0:
64,192,119293,1,0,0:0:0:0:
192,192,119469,1,0,0:0:0:0:
192,192,119557,1,0,0:0:0:0:
64,192,119645,1,0,0:0:0:0:
448,192,119645,1,0,0:0:0:0:
320,192,119733,1,0,0:0:0:0:
320,192,119821,1,0,0:0:0:0:
320,192,119909,1,0,0:0:0:0:
192,192,119997,1,0,0:0:0:0:
448,192,119997,1,0,0:0:0:0:
64,192,120085,1,0,0:0:0:0:
64,192,120173,1,0,0:0:0:0:
64,192,120261,1,0,0:0:0:0:
320,192,120349,1,0,0:0:0:0:
448,192,120349,1,0,0:0:0:0:
448,192,120437,1,0,0:0:0:0:
320,192,120437,1,0,0:0:0:0:
320,192,120524,1,0,0:0:0:0:
448,192,120524,1,0,0:0:0:0:
448,192,120612,1,0,0:0:0:0:
320,192,120612,1,0,0:0:0:0:
192,192,120700,1,0,0:0:0:0:
64,192,120876,1,0,0:0:0:0:
448,192,120876,1,0,0:0:0:0:
320,192,120964,1,0,0:0:0:0:
192,192,121052,1,0,0:0:0:0:
64,192,121052,1,0,0:0:0:0:
320,192,121140,1,0,0:0:0:0:
448,192,121140,1,0,0:0:0:0:
192,192,121316,1,0,0:0:0:0:
320,192,121404,1,0,0:0:0:0:
448,192,121404,1,0,0:0:0:0:
64,192,121492,1,0,0:0:0:0:
192,192,121580,1,0,0:0:0:0:
448,192,121580,1,0,0:0:0:0:
320,192,121668,1,0,0:0:0:0:
64,192,121756,1,0,0:0:0:0:
448,192,121844,1,0,0:0:0:0:
64,192,121932,1,0,0:0:0:0:
448,192,122020,1,0,0:0:0:0:
192,192,122108,1,0,0:0:0:0:
320,192,122108,1,0,0:0:0:0:
64,192,122196,1,0,0:0:0:0:
448,192,122284,1,0,0:0:0:0:
448,192,122372,1,0,0:0:0:0:
64,192,122460,1,0,0:0:0:0:
320,192,122460,1,0,0:0:0:0:
192,192,122548,1,0,0:0:0:0:
192,192,122636,1,0,0:0:0:0:
192,192,122724,1,0,0:0:0:0:
448,192,122812,1,0,0:0:0:0:
320,192,122988,1,0,0:0:0:0:
320,192,123076,1,0,0:0:0:0:
64,192,123164,1,0,0:0:0:0:
192,192,123252,1,0,0:0:0:0:
448,192,123340,1,0,0:0:0:0:
448,192,123516,1,0,0:0:0:0:
448,192,123692,1,0,0:0:0:0:
320,192,123868,1,0,0:0:0:0:
64,192,123868,1,0,0:0:0:0:
192,192,123956,1,0,0:0:0:0:
192,192,124044,1,0,0:0:0:0:
192,192,124132,1,0,0:0:0:0:
320,192,124219,1,0,0:0:0:0:
448,192,124219,1,0,0:0:0:0:
448,192,124307,1,0,0:0:0:0:
320,192,124307,1,0,0:0:0:0:
320,192,124395,1,0,0:0:0:0:
448,192,124395,1,0,0:0:0:0:
192,192,124483,1,0,0:0:0:0:
64,192,124571,1,0,0:0:0:0:
448,192,124571,1,0,0:0:0:0:
192,192,124747,1,0,0:0:0:0:
320,192,124923,1,0,0:0:0:0:
448,192,124923,1,0,0:0:0:0:
192,192,125011,1,0,0:0:0:0:
64,192,125099,1,0,0:0:0:0:
448,192,125099,1,0,0:0:0:0:
320,192,125187,1,0,0:0:0:0:
192,192,125275,1,0,0:0:0:0:
64,192,125275,1,0,0:0:0:0:
320,192,125979,1,0,0:0:0:0:
448,192,125979,1,0,0:0:0:0:
192,192,126155,1,0,0:0:0:0:
192,192,126243,1,0,0:0:0:0:
64,192,126331,1,0,0:0:0:0:
448,192,126331,1,0,0:0:0:0:
320,192,126507,1,0,0:0:0:0:
192,192,126595,1,0,0:0:0:0:
320,192,126683,1,0,0:0:0:0:
448,192,126683,1,0,0:0:0:0:
64,192,126771,1,0,0:0:0:0:
64,192,126859,1,0,0:0:0:0:
64,192,126947,1,0,0:0:0:0:
192,192,127035,1,0,0:0:0:0:
320,192,127035,1,0,0:0:0:0:
448,192,127123,1,0,0:0:0:0:
448,192,127211,1,0,0:0:0:0:
448,192,127299,1,0,0:0:0:0:
320,192,127387,1,0,0:0:0:0:
64,192,127387,1,0,0:0:0:0:
192,192,127563,1,0,0:0:0:0:
320,192,127563,1,0,0:0:0:0:
448,192,127739,1,0,0:0:0:0:
448,192,127915,1,0,0:0:0:0:
320,192,128090,1,0,0:0:0:0:
192,192,128090,1,0,0:0:0:0:
64,192,128178,1,0,0:0:0:0:
64,192,128266,1,0,0:0:0:0:
64,192,128354,1,0,0:0:0:0:
448,192,128442,1,0,0:0:0:0:
320,192,128442,1,0,0:0:0:0:
192,192,128530,1,0,0:0:0:0:
448,192,128618,1,0,0:0:0:0:
448,192,128706,1,0,0:0:0:0:
320,192,128794,1,0,0:0:0:0:
64,192,128970,1,0,0:0:0:0:
192,192,129014,1,0,0:0:0:0:
448,192,129058,1,0,0:0:0:0:
320,192,129102,1,0,0:0:0:0:
64,192,129146,1,0,0:0:0:0:
320,192,129322,1,0,0:0:0:0:
448,192,129322,1,0,0:0:0:0:
448,192,129410,1,0,0:0:0:0:
320,192,129410,1,0,0:0:0:0:
192,192,129498,1,0,0:0:0:0:
64,192,129498,1,0,0:0:0:0:
448,192,129586,1,0,0:0:0:0:
448,192,129674,1,0,0:0:0:0:
448,192,129762,1,0,0:0:0:0:
320,192,129850,1,0,0:0:0:0:
64,192,129850,1,0,0:0:0:0:
192,192,129938,1,0,0:0:0:0:
192,192,130026,1,0,0:0:0:0:
192,192,130114,1,0,0:0:0:0:
448,192,130202,1,0,0:0:0:0:
320,192,130202,1,0,0:0:0:0:
192,192,130378,1,0,0:0:0:0:
64,192,130378,1,0,0:0:0:0:
192,192,130554,1,0,0:0:0:0:
320,192,130554,1,0,0:0:0:0:
448,192,130642,1,0,0:0:0:0:
320,192,130730,1,0,0:0:0:0:
192,192,130730,1,0,0:0:0:0:
448,192,130818,1,0,0:0:0:0:
64,192,130906,1,0,0:0:0:0:
320,192,130994,1,0,0:0:0:0:
192,192,131082,1,0,0:0:0:0:
64,192,131170,1,0,0:0:0:0:
448,192,131258,128,0,131434:0:0:0:0:
192,192,131434,1,0,0:0:0:0:
192,192,131522,1,0,0:0:0:0:
320,192,131610,1,0,0:0:0:0:
448,192,131610,1,0,0:0:0:0:
64,192,131698,1,0,0:0:0:0:
320,192,131785,1,0,0:0:0:0:
320,192,131873,1,0,0:0:0:0:
192,192,131961,1,0,0:0:0:0:
64,192,131961,1,0,0:0:0:0:
448,192,132049,1,0,0:0:0:0:
320,192,132137,1,0,0:0:0:0:
64,192,132313,1,0,0:0:0:0:
448,192,132313,1,0,0:0:0:0:
192,192,132401,1,0,0:0:0:0:
192,192,132489,1,0,0:0:0:0:
192,192,132577,1,0,0:0:0:0:
64,192,132665,1,0,0:0:0:0:
320,192,132665,1,0,0:0:0:0:
448,192,132753,1,0,0:0:0:0:
448,192,132841,1,0,0:0:0:0:
448,192,132929,1,0,0:0:0:0:
320,192,133017,1,0,0:0:0:0:
192,192,133017,1,0,0:0:0:0:
64,192,133105,1,0,0:0:0:0:
448,192,133193,128,0,133369:0:0:0:0:
320,192,133369,1,0,0:0:0:0:
64,192,133369,1,0,0:0:0:0:
192,192,133545,1,0,0:0:0:0:
192,192,133633,1,0,0:0:0:0:
64,192,133721,1,0,0:0:0:0:
320,192,133721,1,0,0:0:0:0:
448,192,133809,1,0,0:0:0:0:
448,192,133897,1,0,0:0:0:0:
448,192,133985,1,0,0:0:0:0:
192,192,134073,1,0,0:0:0:0:
320,192,134073,1,0,0:0:0:0:
448,192,134161,1,0,0:0:0:0:
64,192,134249,1,0,0:0:0:0:
192,192,134249,1,0,0:0:0:0:
448,192,134337,1,0,0:0:0:0:
320,192,134381,1,0,0:0:0:0:
192,192,134425,1,0,0:0:0:0:
64,192,134425,1,0,0:0:0:0:
192,192,134601,1,0,0:0:0:0:
64,192,134601,1,0,0:0:0:0:
192,192,134689,1,0,0:0:0:0:
64,192,134689,1,0,0:0:0:0:
192,192,134777,1,0,0:0:0:0:
64,192,134777,1,0,0:0:0:0:
320,192,134865,1,0,0:0:0:0:
64,192,135041,1,0,0:0:0:0:
448,192,135129,1,0,0:0:0:0:
192,192,135129,1,0,0:0:0:0:
320,192,135217,1,0,0:0:0:0:
320,192,135305,1,0,0:0:0:0:
320,192,135393,1,0,0:0:0:0:
64,192,135480,1,0,0:0:0:0:
448,192,135480,1,0,0:0:0:0:
192,192,135568,1,0,0:0:0:0:
192,192,135656,1,0,0:0:0:0:
192,192,135744,1,0,0:0:0:0:
320,192,135832,1,0,0:0:0:0:
448,192,135832,1,0,0:0:0:0:
192,192,136008,1,0,0:0:0:0:
64,192,136184,1,0,0:0:0:0:
448,192,136184,1,0,0:0:0:0:
320,192,136272,1,0,0:0:0:0:
320,192,136360,1,0,0:0:0:0:
320,192,136448,1,0,0:0:0:0:
192,192,136536,1,0,0:0:0:0:
448,192,136536,1,0,0:0:0:0:
64,192,136624,1,0,0:0:0:0:
64,192,136712,1,0,0:0:0:0:
64,192,136800,1,0,0:0:0:0:
192,192,136888,1,0,0:0:0:0:
320,192,136888,1,0,0:0:0:0:
448,192,136976,1,0,0:0:0:0:
448,192,137064,1,0,0:0:0:0:
448,192,137152,1,0,0:0:0:0:
64,192,137240,1,0,0:0:0:0:
320,192,137240,1,0,0:0:0:0:
192,192,137240,1,0,0:0:0:0:
64,192,137416,128,0,137592:0:0:0:0:
320,192,137592,1,0,0:0:0:0:
192,192,137768,1,0,0:0:0:0:
192,192,137856,1,0,0:0:0:0:
64,192,137944,1,0,0:0:0:0:
448,192,137944,1,0,0:0:0:0:
320,192,138032,1,0,0:0:0:0:
320,192,138120,1,0,0:0:0:0:
320,192,138208,1,0,0:0:0:0:
192,192,138296,1,0,0:0:0:0:
448,192,138296,1,0,0:0:0:0:
64,192,138384,1,0,0:0:0:0:
320,192,138472,1,0,0:0:0:0:
192,192,138560,1,0,0:0:0:0:
64,192,138648,128,0,138824:0:0:0:0:
448,192,138824,1,0,0:0:0:0:
320,192,138912,1,0,0:0:0:0:
192,192,139000,1,0,0:0:0:0:
64,192,139000,1,0,0:0:0:0:
448,192,139088,1,0,0:0:0:0:
320,192,139176,1,0,0:0:0:0:
64,192,139263,1,0,0:0:0:0:
320,192,139351,1,0,0:0:0:0:
448,192,139351,1,0,0:0:0:0:
320,192,139439,1,0,0:0:0:0:
448,192,139439,1,0,0:0:0:0:
192,192,139527,1,0,0:0:0:0:
64,192,139703,1,0,0:0:0:0:
448,192,139703,1,0,0:0:0:0:
192,192,139791,1,0,0:0:0:0:
320,192,139879,1,0,0:0:0:0:
448,192,139967,1,0,0:0:0:0:
64,192,140055,1,0,0:0:0:0:
192,192,140055,1,0,0:0:0:0:
64,192,140143,1,0,0:0:0:0:
192,192,140143,1,0,0:0:0:0:
64,192,140231,1,0,0:0:0:0:
192,192,140231,1,0,0:0:0:0:
64,192,140319,1,0,0:0:0:0:
192,192,140319,1,0,0:0:0:0:
320,192,140407,1,0,0:0:0:0:
320,192,140495,1,0,0:0:0:0:
64,192,140583,1,0,0:0:0:0:
64,192,140671,1,0,0:0:0:0:
192,192,140759,1,0,0:0:0:0:
320,192,140759,1,0,0:0:0:0:
448,192,140847,1,0,0:0:0:0:
448,192,140935,1,0,0:0:0:0:
448,192,141023,1,0,0:0:0:0:
320,192,141111,1,0,0:0:0:0:
192,192,141111,1,0,0:0:0:0:
64,192,141199,1,0,0:0:0:0:
64,192,141287,1,0,0:0:0:0:
64,192,141375,1,0,0:0:0:0:
192,192,141463,1,0,0:0:0:0:
448,192,141463,1,0,0:0:0:0:
320,192,141551,1,0,0:0:0:0:
320,192,141639,1,0,0:0:0:0:
320,192,141727,1,0,0:0:0:0:
64,192,141815,1,0,0:0:0:0:
448,192,141815,1,0,0:0:0:0:
192,192,141903,1,0,0:0:0:0:
320,192,141903,1,0,0:0:0:0:
64,192,141991,1,0,0:0:0:0:
448,192,141991,1,0,0:0:0:0:
320,192,142079,1,0,0:0:0:0:
192,192,142079,1,0,0:0:0:0:
64,192,142167,1,0,0:0:0:0:
320,192,142519,128,0,142871:0:0:0:0:
192,192,142871,1,0,0:0:0:0:
64,192,142871,1,0,0:0:0:0:
448,192,142958,1,0,0:0:0:0:
448,192,143046,1,0,0:0:0:0:
448,192,143134,1,0,0:0:0:0:
192,192,143222,1,0,0:0:0:0:
64,192,143222,1,0,0:0:0:0:
320,192,143340,1,0,0:0:0:0:
192,192,143457,1,0,0:0:0:0:
64,192,143574,1,0,0:0:0:0:
448,192,143574,1,0,0:0:0:0:
192,192,143662,1,0,0:0:0:0:
192,192,143750,1,0,0:0:0:0:
192,192,143838,1,0,0:0:0:0:
64,192,143926,1,0,0:0:0:0:
320,192,143926,1,0,0:0:0:0:
448,192,144014,1,0,0:0:0:0:
448,192,144102,1,0,0:0:0:0:
448,192,144190,1,0,0:0:0:0:
320,192,144278,1,0,0:0:0:0:
192,192,144278,1,0,0:0:0:0:
64,192,144366,1,0,0:0:0:0:
64,192,144454,1,0,0:0:0:0:
64,192,144542,1,0,0:0:0:0:
192,192,144630,1,0,0:0:0:0:
448,192,144630,1,0,0:0:0:0:
320,192,144806,1,0,0:0:0:0:
448,192,144806,1,0,0:0:0:0:
320,192,144894,1,0,0:0:0:0:
448,192,144894,1,0,0:0:0:0:
192,192,144982,1,0,0:0:0:0:
64,192,144982,1,0,0:0:0:0:
320,192,145070,1,0,0:0:0:0:
320,192,145158,1,0,0:0:0:0:
320,192,145246,1,0,0:0:0:0:
64,192,145334,1,0,0:0:0:0:
448,192,145334,1,0,0:0:0:0:
192,192,145422,1,0,0:0:0:0:
192,192,145510,1,0,0:0:0:0:
192,192,145598,1,0,0:0:0:0:
448,192,145686,128,0,146390:0:0:0:0:
320,192,146038,128,0,146390:0:0:0:0:
192,192,146390,1,0,0:0:0:0:
64,192,146390,1,0,0:0:0:0:
64,192,146566,128,0,146741:0:0:0:0:
192,192,146741,1,0,0:0:0:0:
448,192,146741,1,0,0:0:0:0:
320,192,146829,1,0,0:0:0:0:
192,192,146917,128,0,147093:0:0:0:0:
64,192,147093,1,0,0:0:0:0:
448,192,147093,1,0,0:0:0:0:
448,192,147269,128,0,147445:0:0:0:0:
320,192,147445,1,0,0:0:0:0:
192,192,147445,1,0,0:0:0:0:
64,192,147621,128,0,147797:0:0:0:0:
448,192,147797,1,0,0:0:0:0:
192,192,147797,1,0,0:0:0:0:
320,192,147973,1,0,0:0:0:0:
320,192,148061,1,0,0:0:0:0:
320,192,148149,1,0,0:0:0:0:
320,192,148325,1,0,0:0:0:0:
192,192,148501,1,0,0:0:0:0:
64,192,148501,1,0,0:0:0:0:
192,192,148677,1,0,0:0:0:0:
64,192,148677,1,0,0:0:0:0:
64,192,148853,1,0,0:0:0:0:
448,192,148853,1,0,0:0:0:0:
320,192,148941,1,0,0:0:0:0:
192,192,149029,1,0,0:0:0:0:
320,192,149117,1,0,0:0:0:0:
448,192,149205,1,0,0:0:0:0:
64,192,149205,1,0,0:0:0:0:
192,192,149381,128,0,149557:0:0:0:0:
320,192,149557,1,0,0:0:0:0:
448,192,149557,1,0,0:0:0:0:
448,192,149733,128,0,149909:0:0:0:0:
192,192,149909,1,0,0:0:0:0:
320,192,149909,1,0,0:0:0:0:
64,192,150085,128,0,150261:0:0:0:0:
192,192,150261,1,0,0:0:0:0:
448,192,150261,1,0,0:0:0:0:
320,192,150437,128,0,150612:0:0:0:0:
64,192,150612,1,0,0:0:0:0:
448,192,150612,1,0,0:0:0:0:
64,192,150700,1,0,0:0:0:0:
64,192,150788,1,0,0:0:0:0:
320,192,150964,1,0,0:0:0:0:
448,192,150964,1,0,0:0:0:0:
192,192,151140,128,0,151316:0:0:0:0:
64,192,151316,1,0,0:0:0:0:
448,192,151316,1,0,0:0:0:0:
320,192,151492,1,0,0:0:0:0:
320,192,151580,1,0,0:0:0:0:
192,192,151668,1,0,0:0:0:0:
448,192,151844,1,0,0:0:0:0:
64,192,152020,1,0,0:0:0:0:
192,192,152020,1,0,0:0:0:0:
320,192,152020,1,0,0:0:0:0:
320,192,152196,128,0,152372:0:0:0:0:
64,192,152372,1,0,0:0:0:0:
448,192,152372,1,0,0:0:0:0:
192,192,152548,128,0,152724:0:0:0:0:
320,192,152724,1,0,0:0:0:0:
448,192,152724,1,0,0:0:0:0:
320,192,152900,128,0,153076:0:0:0:0:
192,192,153076,1,0,0:0:0:0:
448,192,153076,1,0,0:0:0:0:
64,192,153252,128,0,153428:0:0:0:0:
448,192,153428,1,0,0:0:0:0:
320,192,153604,1,0,0:0:0:0:
192,192,153780,1,0,0:0:0:0:
64,192,153780,1,0,0:0:0:0:
320,192,153868,1,0,0:0:0:0:
192,192,153956,1,0,0:0:0:0:
320,192,154044,1,0,0:0:0:0:
64,192,154132,1,0,0:0:0:0:
448,192,154132,1,0,0:0:0:0:
192,192,154219,1,0,0:0:0:0:
320,192,154307,1,0,0:0:0:0:
64,192,154483,1,0,0:0:0:0:
192,192,154483,128,0,154659:0:0:0:0:
448,192,154659,128,0,154835:0:0:0:0:
320,192,154835,1,0,0:0:0:0:
64,192,154835,1,0,0:0:0:0:
192,192,155011,1,0,0:0:0:0:
320,192,155187,1,0,0:0:0:0:
448,192,155187,1,0,0:0:0:0:
64,192,155275,1,0,0:0:0:0:
192,192,155363,1,0,0:0:0:0:
64,192,155539,1,0,0:0:0:0:
448,192,155539,1,0,0:0:0:0:
448,192,155627,1,0,0:0:0:0:
320,192,155715,128,0,155891:0:0:0:0:
192,192,155891,1,0,0:0:0:0:
64,192,155891,1,0,0:0:0:0:
192,192,155979,1,0,0:0:0:0:
448,192,156067,1,0,0:0:0:0:
448,192,156243,1,0,0:0:0:0:
64,192,156243,1,0,0:0:0:0:
448,192,156331,1,0,0:0:0:0:
64,192,156331,1,0,0:0:0:0:
320,192,156419,1,0,0:0:0:0:
320,192,156507,1,0,0:0:0:0:
192,192,156595,1,0,0:0:0:0:
64,192,156595,1,0,0:0:0:0:
448,192,156683,1,0,0:0:0:0:
320,192,156771,1,0,0:0:0:0:
64,192,156947,1,0,0:0:0:0:
448,192,156947,1,0,0:0:0:0:
64,192,157035,1,0,0:0:0:0:
320,192,157123,1,0,0:0:0:0:
448,192,157123,1,0,0:0:0:0:
320,192,157211,1,0,0:0:0:0:
448,192,157211,1,0,0:0:0:0:
64,192,157299,1,0,0:0:0:0:
192,192,157299,1,0,0:0:0:0:
320,192,157387,1,0,0:0:0:0:
64,192,157475,1,0,0:0:0:0:
192,192,157563,1,0,0:0:0:0:
320,192,157651,1,0,0:0:0:0:
448,192,157651,1,0,0:0:0:0:
192,192,157827,128,0,158002:0:0:0:0:
320,192,158002,1,0,0:0:0:0:
448,192,158002,1,0,0:0:0:0:
320,192,158178,1,0,0:0:0:0:
448,192,158178,1,0,0:0:0:0:
448,192,158266,1,0,0:0:0:0:
320,192,158266,1,0,0:0:0:0:
320,192,158354,1,0,0:0:0:0:
448,192,158354,1,0,0:0:0:0:
192,192,158530,128,0,158706:0:0:0:0:
64,192,158706,1,0,0:0:0:0:
448,192,158706,1,0,0:0:0:0:
320,192,158794,1,0,0:0:0:0:
192,192,158882,1,0,0:0:0:0:
192,192,158970,1,0,0:0:0:0:
320,192,159058,1,0,0:0:0:0:
448,192,159058,1,0,0:0:0:0:
320,192,159234,1,0,0:0:0:0:
64,192,159234,1,0,0:0:0:0:
64,192,159410,1,0,0:0:0:0:
192,192,159410,128,0,159586:0:0:0:0:
320,192,159586,128,0,159762:0:0:0:0:
448,192,159762,128,0,160114:0:0:0:0:
192,192,160114,1,0,0:0:0:0:
64,192,160114,128,0,160466:0:0:0:0:
320,192,160466,1,0,0:0:0:0:
448,192,160466,1,0,0:0:0:0:
192,192,160642,128,0,160818:0:0:0:0:
64,192,160818,1,0,0:0:0:0:
448,192,160818,1,0,0:0:0:0:
320,192,160994,1,0,0:0:0:0:
192,192,161170,1,0,0:0:0:0:
64,192,161170,1,0,0:0:0:0:
320,192,161346,128,0,161522:0:0:0:0:
192,192,161522,1,0,0:0:0:0:
320,192,161873,1,0,0:0:0:0:
448,192,161873,1,0,0:0:0:0:
192,192,162049,1,0,0:0:0:0:
320,192,162137,1,0,0:0:0:0:
192,192,162225,1,0,0:0:0:0:
64,192,162225,1,0,0:0:0:0:
448,192,162313,1,0,0:0:0:0:
320,192,162401,1,0,0:0:0:0:
448,192,162577,1,0,0:0:0:0:
64,192,162577,1,0,0:0:0:0:
192,192,162665,1,0,0:0:0:0:
192,192,162753,1,0,0:0:0:0:
320,192,162929,1,0,0:0:0:0:
448,192,162929,1,0,0:0:0:0:
64,192,163105,1,0,0:0:0:0:
192,192,163281,1,0,0:0:0:0:
448,192,163281,1,0,0:0:0:0:
320,192,163457,128,0,163633:0:0:0:0:
192,192,163633,1,0,0:0:0:0:
64,192,163633,1,0,0:0:0:0:
448,192,163721,1,0,0:0:0:0:
192,192,163809,1,0,0:0:0:0:
64,192,163809,1,0,0:0:0:0:
448,192,163897,1,0,0:0:0:0:
192,192,163985,1,0,0:0:0:0:
320,192,163985,128,0,164161:0:0:0:0:
64,192,164161,1,0,0:0:0:0:
64,192,164249,1,0,0:0:0:0:
192,192,164337,1,0,0:0:0:0:
448,192,164337,1,0,0:0:0:0:
320,192,164513,128,0,164689:0:0:0:0:
192,192,164689,1,0,0:0:0:0:
64,192,164689,1,0,0:0:0:0:
320,192,164865,1,0,0:0:0:0:
64,192,165041,1,0,0:0:0:0:
448,192,165041,1,0,0:0:0:0:
192,192,165129,1,0,0:0:0:0:
64,192,165217,1,0,0:0:0:0:
448,192,165217,1,0,0:0:0:0:
192,192,165305,1,0,0:0:0:0:
320,192,165393,128,0,165744:0:0:0:0:
192,192,165744,1,0,0:0:0:0:
64,192,165744,128,0,166096:0:0:0:0:
192,192,166096,1,0,0:0:0:0:
320,192,166096,1,0,0:0:0:0:
448,192,166272,128,0,166448:0:0:0:0:
192,192,166448,1,0,0:0:0:0:
64,192,166448,1,0,0:0:0:0:
320,192,166624,1,0,0:0:0:0:
192,192,166624,1,0,0:0:0:0:
192,192,166800,1,0,0:0:0:0:
64,192,166800,1,0,0:0:0:0:
448,192,166976,1,0,0:0:0:0:
320,192,167152,1,0,0:0:0:0:
64,192,167152,1,0,0:0:0:0:
192,192,167240,1,0,0:0:0:0:
448,192,167328,1,0,0:0:0:0:
192,192,167504,1,0,0:0:0:0:
64,192,167504,1,0,0:0:0:0:
64,192,167592,1,0,0:0:0:0:
192,192,167592,1,0,0:0:0:0:
320,192,167680,1,0,0:0:0:0:
320,192,167768,1,0,0:0:0:0:
448,192,167856,1,0,0:0:0:0:
64,192,167856,1,0,0:0:0:0:
192,192,167944,1,0,0:0:0:0:
320,192,168032,1,0,0:0:0:0:
448,192,168208,1,0,0:0:0:0:
64,192,168208,1,0,0:0:0:0:
448,192,168296,1,0,0:0:0:0:
192,192,168384,1,0,0:0:0:0:
64,192,168384,1,0,0:0:0:0:
64,192,168472,1,0,0:0:0:0:
192,192,168472,1,0,0:0:0:0:
320,192,168560,1,0,0:0:0:0:
448,192,168560,1,0,0:0:0:0:
192,192,168736,1,0,0:0:0:0:
64,192,168736,1,0,0:0:0:0:
320,192,168824,1,0,0:0:0:0:
448,192,168912,128,0,172079:0:0:0:0:
64,192,172079,128,0,172783:0:0:0:0:
320,192,172871,1,0,0:0:0:0:
64,192,172958,1,0,0:0:0:0:
320,192,173046,1,0,0:0:0:0:
64,192,173134,1,0,0:0:0:0:
320,192,173222,1,0,0:0:0:0:
64,192,173310,1,0,0:0:0:0:
320,192,173398,1,0,0:0:0:0:
64,192,173486,1,0,0:0:0:0:
320,192,173574,1,0,0:0:0:0:
64,192,173662,1,0,0:0:0:0:
320,192,173750,1,0,0:0:0:0:
64,192,173838,1,0,0:0:0:0:
320,192,173926,1,0,0:0:0:0:
64,192,174014,1,0,0:0:0:0:
320,192,174102,1,0,0:0:0:0:
192,192,174235,128,0,176901:0:0:0:0:
448,192,176901,128,0,179568:0:0:0:0:
64,192,179568,128,0,182235:0:0:0:0:
320,192,182235,128,0,183235:0:0:0:0:
192,192,183318,1,0,0:0:0:0:
320,192,183401,1,0,0:0:0:0:
192,192,183485,1,0,0:0:0:0:
448,192,183568,128,0,183901:0:0:0:0:
64,192,183901,1,0,0:0:0:0:
192,192,183901,1,0,0:0:0:0:
64,192,184235,1,0,0:0:0:0:
192,192,184235,1,0,0:0:0:0:
64,192,184568,1,0,0:0:0:0:
192,192,184568,1,0,0:0:0:0:
64,192,184901,1,0,0:0:0:0:
192,192,184901,128,0,185568:0:0:0:0:
320,192,185568,128,0,185901:0:0:0:0:
192,192,185901,1,0,0:0:0:0:
320,192,185985,1,0,0:0:0:0:
192,192,186068,1,0,0:0:0:0:
320,192,186151,1,0,0:0:0:0:
64,192,186235,128,0,186568:0:0:0:0:
320,192,186568,1,0,0:0:0:0:
192,192,186651,1,0,0:0:0:0:
448,192,186735,128,0,187235:0:0:0:0:
192,192,187235,128,0,187568:0:0:0:0:
320,192,187568,1,0,0:0:0:0:
320,192,187735,1,0,0:0:0:0:
320,192,187901,1,0,0:0:0:0:
192,192,187985,1,0,0:0:0:0:
320,192,188068,1,0,0:0:0:0:
192,192,188151,1,0,0:0:0:0:
320,192,188235,1,0,0:0:0:0:
192,192,188318,1,0,0:0:0:0:
320,192,188401,1,0,0:0:0:0:
192,192,188485,1,0,0:0:0:0:
320,192,188568,1,0,0:0:0:0:
192,192,188651,1,0,0:0:0:0:
320,192,188734,1,0,0:0:0:0:
192,192,188818,1,0,0:0:0:0:
64,192,188901,1,0,0:0:0:0:
448,192,188901,1,0,0:0:0:0:
320,192,188984,1,0,0:0:0:0:
64,192,189068,1,0,0:0:0:0:
192,192,189151,1,0,0:0:0:0:
320,192,189234,1,0,0:0:0:0:
320,192,189318,1,0,0:0:0:0:
192,192,189401,1,0,0:0:0:0:
64,192,189484,1,0,0:0:0:0:
64,192,189568,1,0,0:0:0:0:
192,192,189651,1,0,0:0:0:0:
320,192,189734,1,0,0:0:0:0:
192,192,189818,1,0,0:0:0:0:
320,192,189901,1,0,0:0:0:0:
192,192,190068,1,0,0:0:0:0:
320,192,190151,1,0,0:0:0:0:
64,192,190234,1,0,0:0:0:0:
448,192,190318,1,0,0:0:0:0:
64,192,190401,1,0,0:0:0:0:
448,192,190484,1,0,0:0:0:0:
64,192,190568,1,0,0:0:0:0:
448,192,190651,1,0,0:0:0:0:
64,192,190734,1,0,0:0:0:0:
448,192,190818,1,0,0:0:0:0:
320,192,190901,1,0,0:0:0:0:
192,192,190984,1,0,0:0:0:0:
320,192,191068,1,0,0:0:0:0:
192,192,191151,1,0,0:0:0:0:
320,192,191234,1,0,0:0:0:0:
192,192,191318,1,0,0:0:0:0:
320,192,191401,1,0,0:0:0:0:
192,192,191484,1,0,0:0:0:0:
64,192,191568,1,0,0:0:0:0:
320,192,191651,1,0,0:0:0:0:
64,192,191734,1,0,0:0:0:0:
320,192,191818,1,0,0:0:0:0:
64,192,191901,1,0,0:0:0:0:
320,192,191984,1,0,0:0:0:0:
64,192,192068,1,0,0:0:0:0:
320,192,192151,1,0,0:0:0:0:
448,192,192234,1,0,0:0:0:0:
448,192,192401,1,0,0:0:0:0:
448,192,192568,1,0,0:0:0:0:
448,192,192734,1,0,0:0:0:0:
192,192,192901,1,0,0:0:0:0:
64,192,192901,1,0,0:0:0:0:
320,192,192984,1,0,0:0:0:0:
192,192,193068,1,0,0:0:0:0:
320,192,193151,1,0,0:0:0:0:
192,192,193234,1,0,0:0:0:0:
320,192,193318,1,0,0:0:0:0:
64,192,193568,1,0,0:0:0:0:
448,192,193568,1,0,0:0:0:0:
64,192,194234,1,0,0:0:0:0:
448,192,194234,1,0,0:0:0:0:
192,192,194318,1,0,0:0:0:0:
320,192,194401,1,0,0:0:0:0:
192,192,194651,1,0,0:0:0:0:
64,192,194651,1,0,0:0:0:0:
64,192,194901,1,0,0:0:0:0:
448,192,194901,1,0,0:0:0:0:
192,192,195068,1,0,0:0:0:0:
64,192,195068,1,0,0:0:0:0:
192,192,195234,1,0,0:0:0:0:
320,192,195568,1,0,0:0:0:0:
192,192,195651,1,0,0:0:0:0:
320,192,195734,1,0,0:0:0:0:
192,192,195818,1,0,0:0:0:0:
320,192,195901,1,0,0:0:0:0:
192,192,195984,1,0,0:0:0:0:
320,192,196068,1,0,0:0:0:0:
192,192,196151,1,0,0:0:0:0:
448,192,196234,1,0,0:0:0:0:
64,192,196318,1,0,0:0:0:0:
448,192,196401,1,0,0:0:0:0:
64,192,196484,1,0,0:0:0:0:
448,192,196568,1,0,0:0:0:0:
64,192,196651,1,0,0:0:0:0:
448,192,196734,1,0,0:0:0:0:
64,192,196818,1,0,0:0:0:0:
192,192,196901,1,0,0:0:0:0:
320,192,196984,1,0,0:0:0:0:
192,192,197068,1,0,0:0:0:0:
320,192,197151,1,0,0:0:0:0:
64,192,197234,1,0,0:0:0:0:
448,192,197318,1,0,0:0:0:0:
64,192,197401,1,0,0:0:0:0:
64,192,197484,1,0,0:0:0:0:
64,192,197568,1,0,0:0:0:0:
448,192,197651,1,0,0:0:0:0:
320,192,197734,1,0,0:0:0:0:
192,192,197734,1,0,0:0:0:0:
192,192,197901,1,0,0:0:0:0:
320,192,197901,1,0,0:0:0:0:
64,192,197984,1,0,0:0:0:0:
448,192,198068,1,0,0:0:0:0:
448,192,198151,1,0,0:0:0:0:
192,192,198234,1,0,0:0:0:0:
64,192,198234,1,0,0:0:0:0:
320,192,198318,1,0,0:0:0:0:
192,192,198401,1,0,0:0:0:0:
448,192,198484,1,0,0:0:0:0:
64,192,198568,1,0,0:0:0:0:
192,192,198651,1,0,0:0:0:0:
320,192,198734,1,0,0:0:0:0:
192,192,198901,1,0,0:0:0:0:
320,192,198984,1,0,0:0:0:0:
64,192,199151,1,0,0:0:0:0:
448,192,199234,1,0,0:0:0:0:
320,192,199318,1,0,0:0:0:0:
448,192,199401,1,0,0:0:0:0:
320,192,199484,1,0,0:0:0:0:
192,192,199568,1,0,0:0:0:0:
64,192,199734,1,0,0:0:0:0:
192,192,199818,1,0,0:0:0:0:
64,192,199984,1,0,0:0:0:0:
320,192,200068,1,0,0:0:0:0:
448,192,200068,1,0,0:0:0:0:
192,192,200151,1,0,0:0:0:0:
320,192,200234,1,0,0:0:0:0:
448,192,200234,1,0,0:0:0:0:
192,192,200318,1,0,0:0:0:0:
64,192,200401,1,0,0:0:0:0:
320,192,200568,1,0,0:0:0:0:
448,192,200568,1,0,0:0:0:0:
320,192,200651,1,0,0:0:0:0:
448,192,200651,1,0,0:0:0:0:
448,192,200734,1,0,0:0:0:0:
320,192,200734,1,0,0:0:0:0:
64,192,200818,1,0,0:0:0:0:
192,192,200901,1,0,0:0:0:0:
320,192,200984,1,0,0:0:0:0:
192,192,201068,1,0,0:0:0:0:
320,192,201151,1,0,0:0:0:0:
192,192,201234,1,0,0:0:0:0:
320,192,201318,1,0,0:0:0:0:
192,192,201401,1,0,0:0:0:0:
320,192,201484,1,0,0:0:0:0:
64,192,201568,1,0,0:0:0:0:
448,192,201651,1,0,0:0:0:0:
64,192,201734,1,0,0:0:0:0:
448,192,201818,1,0,0:0:0:0:
64,192,201901,1,0,0:0:0:0:
448,192,201984,1,0,0:0:0:0:
64,192,202068,1,0,0:0:0:0:
448,192,202151,1,0,0:0:0:0:
320,192,202234,1,0,0:0:0:0:
64,192,202318,1,0,0:0:0:0:
320,192,202401,1,0,0:0:0:0:
64,192,202484,1,0,0:0:0:0:
320,192,202568,1,0,0:0:0:0:
64,192,202651,1,0,0:0:0:0:
320,192,202734,1,0,0:0:0:0:
64,192,202818,1,0,0:0:0:0:
192,192,202901,128,0,203234:0:0:0:0:
320,192,203234,1,0,0:0:0:0:
448,192,203234,1,0,0:0:0:0:
64,192,203401,1,0,0:0:0:0:
448,192,203401,1,0,0:0:0:0:
320,192,203484,1,0,0:0:0:0:
192,192,203568,1,0,0:0:0:0:
64,192,203568,1,0,0:0:0:0:
192,192,203734,1,0,0:0:0:0:
64,192,203734,1,0,0:0:0:0:
192,192,203818,1,0,0:0:0:0:
64,192,203818,1,0,0:0:0:0:
320,192,203984,1,0,0:0:0:0:
448,192,203984,1,0,0:0:0:0:
192,192,204068,1,0,0:0:0:0:
448,192,204234,1,0,0:0:0:0:
64,192,204318,1,0,0:0:0:0:
192,192,204401,1,0,0:0:0:0:
320,192,204484,1,0,0:0:0:0:
64,192,204568,1,0,0:0:0:0:
448,192,204651,1,0,0:0:0:0:
320,192,204734,1,0,0:0:0:0:
192,192,204901,1,0,0:0:0:0:
448,192,204984,1,0,0:0:0:0:
192,192,205068,1,0,0:0:0:0:
448,192,205151,1,0,0:0:0:0:
64,192,205234,1,0,0:0:0:0:
320,192,205318,1,0,0:0:0:0:
64,192,205401,1,0,0:0:0:0:
320,192,205484,1,0,0:0:0:0:
192,192,205568,1,0,0:0:0:0:
64,192,205568,1,0,0:0:0:0:
192,192,206234,1,0,0:0:0:0:
64,192,206234,1,0,0:0:0:0:
320,192,206401,1,0,0:0:0:0:
64,192,206484,1,0,0:0:0:0:
448,192,206484,1,0,0:0:0:0:
192,192,206568,1,0,0:0:0:0:
320,192,206651,1,0,0:0:0:0:
192,192,206734,1,0,0:0:0:0:
64,192,206734,1,0,0:0:0:0:
448,192,206818,1,0,0:0:0:0:
64,192,206901,1,0,0:0:0:0:
192,192,206984,1,0,0:0:0:0:
320,192,206984,1,0,0:0:0:0:
448,192,207068,1,0,0:0:0:0:
64,192,207068,1,0,0:0:0:0:
320,192,207234,1,0,0:0:0:0:
192,192,207234,1,0,0:0:0:0:
192,192,207318,1,0,0:0:0:0:
320,192,207318,1,0,0:0:0:0:
448,192,207401,1,0,0:0:0:0:
64,192,207484,1,0,0:0:0:0:
320,192,207568,1,0,0:0:0:0:
448,192,207568,1,0,0:0:0:0:
192,192,207651,1,0,0:0:0:0:
64,192,207734,1,0,0:0:0:0:
320,192,207818,1,0,0:0:0:0:
192,192,207818,1,0,0:0:0:0:
448,192,207901,1,0,0:0:0:0:
64,192,207984,1,0,0:0:0:0:
320,192,208068,1,0,0:0:0:0:
448,192,208068,1,0,0:0:0:0:
192,192,208151,1,0,0:0:0:0:
320,192,208234,1,0,0:0:0:0:
64,192,208318,1,0,0:0:0:0:
448,192,208318,1,0,0:0:0:0:
192,192,208401,128,0,208568:0:0:0:0:
448,192,208568,1,0,0:0:0:0:
320,192,208568,1,0,0:0:0:0:
64,192,208651,1,0,0:0:0:0:
448,192,208734,1,0,0:0:0:0:
192,192,208901,1,0,0:0:0:0:
64,192,208901,1,0,0:0:0:0:
320,192,208901,1,0,0:0:0:0:
448,192,208984,1,0,0:0:0:0:
64,192,209068,1,0,0:0:0:0:
192,192,209151,1,0,0:0:0:0:
320,192,209151,1,0,0:0:0:0:
448,192,209234,1,0,0:0:0:0:
64,192,209318,1,0,0:0:0:0:
320,192,209401,1,0,0:0:0:0:
192,192,209484,1,0,0:0:0:0:
448,192,209568,1,0,0:0:0:0:
64,192,209651,1,0,0:0:0:0:
448,192,209818,1,0,0:0:0:0:
192,192,209901,1,0,0:0:0:0:
64,192,209901,1,0,0:0:0:0:
448,192,209984,1,0,0:0:0:0:
320,192,210068,1,0,0:0:0:0:
192,192,210151,1,0,0:0:0:0:
448,192,210234,1,0,0:0:0:0:
320,192,210234,1,0,0:0:0:0:
192,192,210318,1,0,0:0:0:0:
64,192,210401,1,0,0:0:0:0:
448,192,210401,1,0,0:0:0:0:
320,192,210484,1,0,0:0:0:0:
192,192,210484,1,0,0:0:0:0:
448,192,210568,1,0,0:0:0:0:
64,192,210651,1,0,0:0:0:0:
192,192,210734,1,0,0:0:0:0:
320,192,210901,1,0,0:0:0:0:
448,192,210901,1,0,0:0:0:0:
192,192,210984,1,0,0:0:0:0:
64,192,211068,1,0,0:0:0:0:
448,192,211151,1,0,0:0:0:0:
320,192,211234,1,0,0:0:0:0:
320,192,211318,1,0,0:0:0:0:
64,192,211401,128,0,211568:0:0:0:0:
192,192,211568,1,0,0:0:0:0:
448,192,211568,1,0,0:0:0:0:
320,192,211651,1,0,0:0:0:0:
64,192,211734,1,0,0:0:0:0:
320,192,211818,1,0,0:0:0:0:
448,192,211818,1,0,0:0:0:0:
192,192,211901,1,0,0:0:0:0:
448,192,211984,1,0,0:0:0:0:
64,192,212068,1,0,0:0:0:0:
192,192,212234,1,0,0:0:0:0:
320,192,212318,1,0,0:0:0:0:
448,192,212318,1,0,0:0:0:0:
64,192,212401,1,0,0:0:0:0:
192,192,212484,1,0,0:0:0:0:
448,192,212568,1,0,0:0:0:0:
192,192,212651,1,0,0:0:0:0:
320,192,212734,1,0,0:0:0:0:
64,192,212818,1,0,0:0:0:0:
320,192,212901,1,0,0:0:0:0:
448,192,212901,1,0,0:0:0:0:
192,192,212984,1,0,0:0:0:0:
448,192,213068,1,0,0:0:0:0:
320,192,213151,1,0,0:0:0:0:
64,192,213151,1,0,0:0:0:0:
192,192,213234,128,0,213401:0:0:0:0:
448,192,213401,1,0,0:0:0:0:
448,192,213484,1,0,0:0:0:0:
64,192,213568,1,0,0:0:0:0:
320,192,213651,1,0,0:0:0:0:
192,192,213734,1,0,0:0:0:0:
64,192,213818,1,0,0:0:0:0:
320,192,213901,1,0,0:0:0:0:
320,192,213984,1,0,0:0:0:0:
192,192,214068,128,0,214234:0:0:0:0:
320,192,214234,1,0,0:0:0:0:
448,192,214234,1,0,0:0:0:0:
64,192,214318,1,0,0:0:0:0:
192,192,214401,1,0,0:0:0:0:
320,192,214484,1,0,0:0:0:0:
448,192,214484,1,0,0:0:0:0:
192,192,214568,1,0,0:0:0:0:
64,192,214568,1,0,0:0:0:0:
448,192,214651,1,0,0:0:0:0:
320,192,214734,1,0,0:0:0:0:
192,192,214818,1,0,0:0:0:0:
64,192,214818,1,0,0:0:0:0:
448,192,214901,1,0,0:0:0:0:
320,192,214984,1,0,0:0:0:0:
192,192,215068,1,0,0:0:0:0:
64,192,215068,1,0,0:0:0:0:
448,192,215151,1,0,0:0:0:0:
192,192,215234,1,0,0:0:0:0:
64,192,215234,1,0,0:0:0:0:
448,192,215318,1,0,0:0:0:0:
192,192,215401,1,0,0:0:0:0:
64,192,215401,1,0,0:0:0:0:
448,192,215484,1,0,0:0:0:0:
192,192,215568,1,0,0:0:0:0:
64,192,215568,1,0,0:0:0:0:
320,192,215651,1,0,0:0:0:0:
448,192,215734,1,0,0:0:0:0:
64,192,215734,1,0,0:0:0:0:
192,192,215818,1,0,0:0:0:0:
320,192,215818,1,0,0:0:0:0:
448,192,215901,1,0,0:0:0:0:
64,192,215901,1,0,0:0:0:0:
192,192,215984,1,0,0:0:0:0:
320,192,216068,1,0,0:0:0:0:
64,192,216151,1,0,0:0:0:0:
320,192,216234,1,0,0:0:0:0:
448,192,216234,1,0,0:0:0:0:
192,192,216318,1,0,0:0:0:0:
448,192,216401,1,0,0:0:0:0:
320,192,216484,1,0,0:0:0:0:
192,192,216568,128,0,216734:0:0:0:0:
64,192,216734,128,0,216901:0:0:0:0:
320,192,216901,1,0,0:0:0:0:
448,192,216901,1,0,0:0:0:0:
192,192,217068,1,0,0:0:0:0:
320,192,217151,1,0,0:0:0:0:
448,192,217151,1,0,0:0:0:0:
64,192,217234,1,0,0:0:0:0:
192,192,217318,1,0,0:0:0:0:
320,192,217401,1,0,0:0:0:0:
448,192,217401,1,0,0:0:0:0:
320,192,217484,1,0,0:0:0:0:
192,192,217568,1,0,0:0:0:0:
448,192,217651,1,0,0:0:0:0:
64,192,217651,1,0,0:0:0:0:
320,192,217818,1,0,0:0:0:0:
192,192,217901,1,0,0:0:0:0:
64,192,217901,1,0,0:0:0:0:
448,192,217984,1,0,0:0:0:0:
192,192,218068,1,0,0:0:0:0:
64,192,218068,1,0,0:0:0:0:
448,192,218151,1,0,0:0:0:0:
320,192,218234,128,0,218401:0:0:0:0:
64,192,218401,1,0,0:0:0:0:
192,192,218484,1,0,0:0:0:0:
320,192,218568,1,0,0:0:0:0:
448,192,218568,1,0,0:0:0:0:
192,192,218651,1,0,0:0:0:0:
64,192,218734,1,0,0:0:0:0:
448,192,218734,1,0,0:0:0:0:
320,192,218818,1,0,0:0:0:0:
192,192,218901,1,0,0:0:0:0:
192,192,219234,1,0,0:0:0:0:
320,192,219318,1,0,0:0:0:0:
192,192,219401,1,0,0:0:0:0:
320,192,219484,1,0,0:0:0:0:
64,192,219568,1,0,0:0:0:0:
448,192,219568,1,0,0:0:0:0:
192,192,219651,1,0,0:0:0:0:
320,192,219734,1,0,0:0:0:0:
192,192,219818,1,0,0:0:0:0:
64,192,219818,1,0,0:0:0:0:
448,192,219901,1,0,0:0:0:0:
320,192,219984,1,0,0:0:0:0:
64,192,220068,1,0,0:0:0:0:
192,192,220068,1,0,0:0:0:0:
320,192,220151,1,0,0:0:0:0:
448,192,220151,1,0,0:0:0:0:
192,192,220234,1,0,0:0:0:0:
64,192,220234,1,0,0:0:0:0:
448,192,220318,1,0,0:0:0:0:
320,192,220401,1,0,0:0:0:0:
192,192,220484,1,0,0:0:0:0:
320,192,220568,1,0,0:0:0:0:
192,192,220651,1,0,0:0:0:0:
448,192,220734,1,0,0:0:0:0:
64,192,220734,1,0,0:0:0:0:
320,192,220818,1,0,0:0:0:0:
448,192,220901,1,0,0:0:0:0:
64,192,220901,1,0,0:0:0:0:
192,192,220984,1,0,0:0:0:0:
320,192,221068,1,0,0:0:0:0:
448,192,221068,1,0,0:0:0:0:
64,192,221151,1,0,0:0:0:0:
192,192,221234,1,0,0:0:0:0:
320,192,221234,1,0,0:0:0:0:
448,192,221318,1,0,0:0:0:0:
192,192,221401,1,0,0:0:0:0:
64,192,221401,1,0,0:0:0:0:
448,192,221484,1,0,0:0:0:0:
320,192,221568,1,0,0:0:0:0:
64,192,221568,1,0,0:0:0:0:
192,192,221651,1,0,0:0:0:0:
448,192,221651,1,0,0:0:0:0:
320,192,221734,1,0,0:0:0:0:
192,192,221818,1,0,0:0:0:0:
64,192,221818,1,0,0:0:0:0:
448,192,221901,1,0,0:0:0:0:
448,192,221984,1,0,0:0:0:0:
320,192,222068,1,0,0:0:0:0:
192,192,222068,1,0,0:0:0:0:
192,192,222151,1,0,0:0:0:0:
320,192,222151,1,0,0:0:0:0:
448,192,222234,1,0,0:0:0:0:
64,192,222234,1,0,0:0:0:0:
192,192,222401,1,0,0:0:0:0:
320,192,222484,1,0,0:0:0:0:
448,192,222484,1,0,0:0:0:0:
192,192,222651,1,0,0:0:0:0:
320,192,222734,1,0,0:0:0:0:
448,192,222734,1,0,0:0:0:0:
192,192,222901,1,0,0:0:0:0:
320,192,222984,1,0,0:0:0:0:
448,192,222984,1,0,0:0:0:0:
192,192,223151,1,0,0:0:0:0:
448,192,223234,1,0,0:0:0:0:
320,192,223401,128,0,223568:0:0:0:0:
192,192,223568,1,0,0:0:0:0:
64,192,223568,1,0,0:0:0:0:
448,192,223651,1,0,0:0:0:0:
64,192,223734,1,0,0:0:0:0:
192,192,223818,1,0,0:0:0:0:
320,192,223818,1,0,0:0:0:0:
448,192,223901,1,0,0:0:0:0:
64,192,223984,1,0,0:0:0:0:
320,192,224068,1,0,0:0:0:0:
448,192,224068,1,0,0:0:0:0:
192,192,224151,1,0,0:0:0:0:
320,192,224234,1,0,0:0:0:0:
448,192,224318,1,0,0:0:0:0:
64,192,224318,1,0,0:0:0:0:
64,192,224484,1,0,0:0:0:0:
448,192,224484,1,0,0:0:0:0:
320,192,224568,1,0,0:0:0:0:
192,192,224568,1,0,0:0:0:0:
448,192,224651,1,0,0:0:0:0:
64,192,224734,1,0,0:0:0:0:
448,192,224818,1,0,0:0:0:0:
320,192,224901,1,0,0:0:0:0:
192,192,224901,1,0,0:0:0:0:
64,192,224984,1,0,0:0:0:0:
448,192,225068,1,0,0:0:0:0:
320,192,225151,1,0,0:0:0:0:
192,192,225151,1,0,0:0:0:0:
64,192,225234,1,0,0:0:0:0:
448,192,225318,1,0,0:0:0:0:
320,192,225318,1,0,0:0:0:0:
64,192,225401,1,0,0:0:0:0:
320,192,225484,1,0,0:0:0:0:
448,192,225484,1,0,0:0:0:0:
192,192,225568,1,0,0:0:0:0:
64,192,225568,1,0,0:0:0:0:
320,192,225734,1,0,0:0:0:0:
192,192,225818,1,0,0:0:0:0:
320,192,225901,1,0,0:0:0:0:
448,192,225901,1,0,0:0:0:0:
448,192,226068,1,0,0:0:0:0:
320,192,226234,1,0,0:0:0:0:
64,192,226234,1,0,0:0:0:0:
192,192,226318,1,0,0:0:0:0:
320,192,226401,1,0,0:0:0:0:
64,192,226484,1,0,0:0:0:0:
448,192,226484,1,0,0:0:0:0:
192,192,226568,1,0,0:0:0:0:
320,192,226651,1,0,0:0:0:0:
64,192,226734,1,0,0:0:0:0:
448,192,226734,1,0,0:0:0:0:
192,192,226818,1,0,0:0:0:0:
320,192,226901,128,0,227068:0:0:0:0:
64,192,227068,1,0,0:0:0:0:
448,192,227151,1,0,0:0:0:0:
64,192,227234,1,0,0:0:0:0:
192,192,227234,128,0,227401:0:0:0:0:
320,192,227568,1,0,0:0:0:0:
448,192,227568,1,0,0:0:0:0:
64,192,227568,1,0,0:0:0:0:
192,192,227734,1,0,0:0:0:0:
320,192,227818,1,0,0:0:0:0:
192,192,227901,1,0,0:0:0:0:
448,192,227984,1,0,0:0:0:0:
320,192,228068,1,0,0:0:0:0:
64,192,228068,1,0,0:0:0:0:
192,192,228234,1,0,0:0:0:0:
64,192,228234,1,0,0:0:0:0:
448,192,228234,1,0,0:0:0:0:
320,192,228318,1,0,0:0:0:0:
192,192,228401,1,0,0:0:0:0:
448,192,228484,1,0,0:0:0:0:
320,192,228484,1,0,0:0:0:0:
192,192,228568,1,0,0:0:0:0:
64,192,228568,1,0,0:0:0:0:
448,192,228651,1,0,0:0:0:0:
320,192,228734,1,0,0:0:0:0:
320,192,228818,1,0,0:0:0:0:
64,192,228901,1,0,0:0:0:0:
448,192,228984,1,0,0:0:0:0:
64,192,229068,1,0,0:0:0:0:
320,192,229151,1,0,0:0:0:0:
192,192,229151,1,0,0:0:0:0:
64,192,229234,1,0,0:0:0:0:
320,192,229318,1,0,0:0:0:0:
192,192,229401,1,0,0:0:0:0:
64,192,229401,1,0,0:0:0:0:
448,192,229484,1,0,0:0:0:0:
192,192,229568,1,0,0:0:0:0:
64,192,229568,1,0,0:0:0:0:
448,192,229651,1,0,0:0:0:0:
320,192,229734,128,0,229901:0:0:0:0:
192,192,229901,1,0,0:0:0:0:
448,192,229984,1,0,0:0:0:0:
64,192,230068,1,0,0:0:0:0:
320,192,230151,1,0,0:0:0:0:
64,192,230234,1,0,0:0:0:0:
448,192,230234,1,0,0:0:0:0:
192,192,230318,1,0,0:0:0:0:
320,192,230401,1,0,0:0:0:0:
448,192,230484,1,0,0:0:0:0:
64,192,230484,1,0,0:0:0:0:
320,192,230568,1,0,0:0:0:0:
192,192,230568,1,0,0:0:0:0:
192,192,230734,1,0,0:0:0:0:
64,192,230734,1,0,0:0:0:0:
448,192,230734,1,0,0:0:0:0:
192,192,230901,1,0,0:0:0:0:
64,192,230901,1,0,0:0:0:0:
448,192,230901,1,0,0:0:0:0:
320,192,230984,1,0,0:0:0:0:
192,192,231068,1,0,0:0:0:0:
64,192,231068,1,0,0:0:0:0:
448,192,231151,1,0,0:0:0:0:
192,192,231234,1,0,0:0:0:0:
64,192,231234,1,0,0:0:0:0:
320,192,231318,1,0,0:0:0:0:
192,192,231401,1,0,0:0:0:0:
64,192,231401,1,0,0:0:0:0:
320,192,231484,1,0,0:0:0:0:
192,192,231568,1,0,0:0:0:0:
64,192,231568,1,0,0:0:0:0:
448,192,231651,1,0,0:0:0:0:
320,192,231734,1,0,0:0:0:0:
64,192,231818,1,0,0:0:0:0:
448,192,231818,1,0,0:0:0:0:
192,192,231901,128,0,232068:0:0:0:0:
320,192,232068,1,0,0:0:0:0:
448,192,232068,1,0,0:0:0:0:
64,192,232234,1,0,0:0:0:0:
192,192,232234,1,0,0:0:0:0:
320,192,232318,1,0,0:0:0:0:
448,192,232318,1,0,0:0:0:0:
192,192,232484,1,0,0:0:0:0:
320,192,232568,1,0,0:0:0:0:
448,192,232568,1,0,0:0:0:0:
64,192,232901,1,0,0:0:0:0:
320,192,232901,1,0,0:0:0:0:
448,192,232901,1,0,0:0:0:0:
192,192,232984,1,0,0:0:0:0:
320,192,233068,1,0,0:0:0:0:
64,192,233151,1,0,0:0:0:0:
448,192,233151,1,0,0:0:0:0:
320,192,233234,1,0,0:0:0:0:
192,192,233318,1,0,0:0:0:0:
64,192,233318,1,0,0:0:0:0:
320,192,233401,1,0,0:0:0:0:
192,192,233484,1,0,0:0:0:0:
448,192,233568,1,0,0:0:0:0:
64,192,233568,1,0,0:0:0:0:
192,192,233651,1,0,0:0:0:0:
320,192,233651,1,0,0:0:0:0:
448,192,233734,128,0,233901:0:0:0:0:
64,192,233901,128,0,234068:0:0:0:0:
320,192,234068,128,0,234234:0:0:0:0:
192,192,234234,1,0,0:0:0:0:
64,192,234234,1,0,0:0:0:0:
448,192,234318,1,0,0:0:0:0:
192,192,234401,1,0,0:0:0:0:
320,192,234484,1,0,0:0:0:0:
448,192,234484,1,0,0:0:0:0:
192,192,234734,1,0,0:0:0:0:
448,192,234818,1,0,0:0:0:0:
64,192,234901,1,0,0:0:0:0:
320,192,234984,1,0,0:0:0:0:
64,192,235068,1,0,0:0:0:0:
448,192,235151,1,0,0:0:0:0:
320,192,235234,1,0,0:0:0:0:
192,192,235234,1,0,0:0:0:0:
64,192,235401,1,0,0:0:0:0:
192,192,235568,1,0,0:0:0:0:
320,192,235568,1,0,0:0:0:0:
448,192,235568,1,0,0:0:0:0:
64,192,235651,1,0,0:0:0:0:
448,192,235734,1,0,0:0:0:0:
320,192,235818,1,0,0:0:0:0:
192,192,235818,1,0,0:0:0:0:
64,192,235901,1,0,0:0:0:0:
448,192,235984,1,0,0:0:0:0:
320,192,236068,1,0,0:0:0:0:
64,192,236068,1,0,0:0:0:0:
192,192,236151,1,0,0:0:0:0:
448,192,236234,1,0,0:0:0:0:
320,192,236318,1,0,0:0:0:0:
64,192,236401,1,0,0:0:0:0:
192,192,236484,1,0,0:0:0:0:
448,192,236568,1,0,0:0:0:0:
320,192,236651,1,0,0:0:0:0:
320,192,236734,1,0,0:0:0:0:
64,192,236901,1,0,0:0:0:0:
448,192,236901,1,0,0:0:0:0:
320,192,236984,1,0,0:0:0:0:
192,192,237068,1,0,0:0:0:0:
64,192,237068,1,0,0:0:0:0:
192,192,237151,1,0,0:0:0:0:
64,192,237151,1,0,0:0:0:0:
320,192,237234,1,0,0:0:0:0:
320,192,237318,1,0,0:0:0:0:
192,192,237401,128,0,237734:0:0:0:0:
448,192,237734,1,0,0:0:0:0:
320,192,237818,1,0,0:0:0:0:
64,192,237901,1,0,0:0:0:0:
448,192,237984,1,0,0:0:0:0:
64,192,238068,1,0,0:0:0:0:
448,192,238151,1,0,0:0:0:0:
320,192,238234,1,0,0:0:0:0:
192,192,238234,1,0,0:0:0:0:
64,192,238234,1,0,0:0:0:0:
448,192,238401,1,0,0:0:0:0:
64,192,238484,1,0,0:0:0:0:
448,192,238568,1,0,0:0:0:0:
192,192,238651,1,0,0:0:0:0:
448,192,238734,1,0,0:0:0:0:
320,192,238734,1,0,0:0:0:0:
64,192,238818,1,0,0:0:0:0:
192,192,238901,1,0,0:0:0:0:
320,192,238901,1,0,0:0:0:0:
448,192,238901,1,0,0:0:0:0:
64,192,238984,1,0,0:0:0:0:
448,192,239068,1,0,0:0:0:0:
64,192,239151,1,0,0:0:0:0:
192,192,239234,1,0,0:0:0:0:
320,192,239234,1,0,0:0:0:0:
192,192,239401,1,0,0:0:0:0:
64,192,239401,1,0,0:0:0:0:
320,192,239568,1,0,0:0:0:0:
448,192,239568,1,0,0:0:0:0:
192,192,239651,1,0,0:0:0:0:
64,192,239734,1,0,0:0:0:0:
64,192,239818,1,0,0:0:0:0:
320,192,239901,1,0,0:0:0:0:
448,192,239901,1,0,0:0:0:0:
320,192,240068,1,0,0:0:0:0:
192,192,240068,1,0,0:0:0:0:
64,192,240234,1,0,0:0:0:0:
192,192,240234,1,0,0:0:0:0:
448,192,240234,1,0,0:0:0:0:
320,192,240318,1,0,0:0:0:0:
64,192,240401,1,0,0:0:0:0:
192,192,240484,1,0,0:0:0:0:
320,192,240568,1,0,0:0:0:0:
448,192,240568,128,0,240901:0:0:0:0:
320,192,240901,1,0,0:0:0:0:
64,192,240901,1,0,0:0:0:0:
192,192,240901,1,0,0:0:0:0:
64,192,241068,1,0,0:0:0:0:
448,192,241068,1,0,0:0:0:0:
192,192,241151,1,0,0:0:0:0:
320,192,241234,1,0,0:0:0:0:
64,192,241318,1,0,0:0:0:0:
320,192,241401,1,0,0:0:0:0:
192,192,241484,1,0,0:0:0:0:
448,192,241568,1,0,0:0:0:0:
64,192,241651,1,0,0:0:0:0:
448,192,241734,1,0,0:0:0:0:
192,192,241818,1,0,0:0:0:0:
320,192,241901,1,0,0:0:0:0:
64,192,241984,1,0,0:0:0:0:
320,192,242068,1,0,0:0:0:0:
64,192,242151,1,0,0:0:0:0:
192,192,242234,1,0,0:0:0:0:
320,192,242318,1,0,0:0:0:0:
192,192,242401,1,0,0:0:0:0:
64,192,242484,1,0,0:0:0:0:
448,192,242484,1,0,0:0:0:0:
192,192,242568,1,0,0:0:0:0:
448,192,242651,1,0,0:0:0:0:
192,192,242734,1,0,0:0:0:0:
320,192,242818,1,0,0:0:0:0:
64,192,242901,1,0,0:0:0:0:
448,192,242901,1,0,0:0:0:0:
192,192,242984,1,0,0:0:0:0:
320,192,243068,1,0,0:0:0:0:
64,192,243234,1,0,0:0:0:0:
192,192,243401,1,0,0:0:0:0:
448,192,243401,1,0,0:0:0:0:
320,192,243484,1,0,0:0:0:0:
192,192,243568,1,0,0:0:0:0:
64,192,243568,1,0,0:0:0:0:
448,192,243651,1,0,0:0:0:0:
192,192,243818,1,0,0:0:0:0:
64,192,243818,1,0,0:0:0:0:
448,192,243901,1,0,0:0:0:0:
192,192,244068,1,0,0:0:0:0:
64,192,244068,1,0,0:0:0:0:
448,192,244151,1,0,0:0:0:0:
320,192,244234,1,0,0:0:0:0:
192,192,244318,1,0,0:0:0:0:
64,192,244401,1,0,0:0:0:0:
448,192,244401,1,0,0:0:0:0:
320,192,244484,1,0,0:0:0:0:
448,192,244568,1,0,0:0:0:0:
64,192,244568,1,0,0:0:0:0:
320,192,244651,1,0,0:0:0:0:
448,192,244734,1,0,0:0:0:0:
64,192,244734,1,0,0:0:0:0:
192,192,244818,1,0,0:0:0:0:
320,192,244901,1,0,0:0:0:0:
448,192,244901,1,0,0:0:0:0:
192,192,244984,1,0,0:0:0:0:
320,192,245068,1,0,0:0:0:0:
64,192,245151,1,0,0:0:0:0:
448,192,245151,1,0,0:0:0:0:
192,192,245234,1,0,0:0:0:0:
320,192,245318,1,0,0:0:0:0:
64,192,245401,1,0,0:0:0:0:
448,192,245401,1,0,0:0:0:0:
192,192,245484,1,0,0:0:0:0:
448,192,245568,1,0,0:0:0:0:
64,192,245568,1,0,0:0:0:0:
320,192,245651,1,0,0:0:0:0:
192,192,245734,1,0,0:0:0:0:
320,192,245818,1,0,0:0:0:0:
64,192,245901,1,0,0:0:0:0:
192,192,245984,1,0,0:0:0:0:
320,192,246068,1,0,0:0:0:0:
64,192,246151,1,0,0:0:0:0:
320,192,246234,1,0,0:0:0:0:
448,192,246234,1,0,0:0:0:0:
64,192,246318,1,0,0:0:0:0:
192,192,246401,1,0,0:0:0:0:
320,192,246484,1,0,0:0:0:0:
448,192,246484,1,0,0:0:0:0:
64,192,246568,1,0,0:0:0:0:
192,192,246651,1,0,0:0:0:0:
320,192,246734,1,0,0:0:0:0:
448,192,246734,1,0,0:0:0:0:
64,192,246901,1,0,0:0:0:0:
192,192,246984,1,0,0:0:0:0:
448,192,247068,1,0,0:0:0:0:
320,192,247151,1,0,0:0:0:0:
192,192,247234,1,0,0:0:0:0:
64,192,247318,1,0,0:0:0:0:
320,192,247401,1,0,0:0:0:0:
192,192,247484,1,0,0:0:0:0:
320,192,247568,1,0,0:0:0:0:
448,192,247568,1,0,0:0:0:0:
192,192,247734,1,0,0:0:0:0:
320,192,247818,1,0,0:0:0:0:
64,192,247984,1,0,0:0:0:0:
192,192,248068,1,0,0:0:0:0:
192,192,248568,1,0,0:0:0:0:
320,192,248651,1,0,0:0:0:0:
448,192,248734,1,0,0:0:0:0:
64,192,248901,128,0,259627:0:0:0:0:
448,192,249571,1,0,0:0:0:0:
320,192,250241,1,0,0:0:0:0:
192,192,251247,1,0,0:0:0:0:
192,192,252755,1,0,0:0:0:0:
448,192,254934,1,0,0:0:0:0:
320,192,255604,1,0,0:0:0:0:
192,192,256610,1,0,0:0:0:0:
320,192,256945,1,0,0:0:0:0:
448,192,258118,1,0,0:0:0:0:
320,192,258202,1,0,0:0:0:0:
192,192,258286,1,0,0:0:0:0:
448,192,259627,1,0,0:0:0:0:
448,192,260297,1,0,0:0:0:0:
320,192,260968,1,0,0:0:0:0:
192,192,261973,1,0,0:0:0:0:
64,192,262308,1,0,0:0:0:0:
192,192,264952,1,0,0:0:0:0:
192,192,265117,1,0,0:0:0:0:
320,192,265283,1,0,0:0:0:0:
192,192,265448,1,0,0:0:0:0:
192,192,265531,1,0,0:0:0:0:
448,192,265613,1,0,0:0:0:0:
64,192,265779,1,0,0:0:0:0:
320,192,265944,1,0,0:0:0:0:
192,192,266109,1,0,0:0:0:0:
192,192,266192,1,0,0:0:0:0:
448,192,266274,1,0,0:0:0:0:
320,192,266440,1,0,0:0:0:0:
192,192,266605,1,0,0:0:0:0:
448,192,266770,1,0,0:0:0:0:
448,192,266853,1,0,0:0:0:0:
64,192,266936,1,0,0:0:0:0:
320,192,267101,1,0,0:0:0:0:
192,192,267266,1,0,0:0:0:0:
320,192,267431,1,0,0:0:0:0:
320,192,267514,1,0,0:0:0:0:
192,192,267597,1,0,0:0:0:0:
192,192,267679,1,0,0:0:0:0:
448,192,267762,1,0,0:0:0:0:
448,192,267845,1,0,0:0:0:0:
64,192,267927,1,0,0:0:0:0:
64,192,268010,1,0,0:0:0:0:
320,192,268093,1,0,0:0:0:0:
320,192,268175,1,0,0:0:0:0:
192,192,268258,1,0,0:0:0:0:
192,192,268341,1,0,0:0:0:0:
448,192,268423,1,0,0:0:0:0:
448,192,268506,1,0,0:0:0:0:
64,192,268588,1,0,0:0:0:0:
64,192,268671,1,0,0:0:0:0:
320,192,268754,1,0,0:0:0:0:
320,192,268836,1,0,0:0:0:0:
192,192,268919,1,0,0:0:0:0:
192,192,269002,1,0,0:0:0:0:
448,192,269084,1,0,0:0:0:0:
448,192,269167,1,0,0:0:0:0:
64,192,269250,1,0,0:0:0:0:
64,192,269332,1,0,0:0:0:0:
320,192,269415,1,0,0:0:0:0:
320,192,269498,1,0,0:0:0:0:
64,192,269580,1,0,0:0:0:0:
64,192,269663,1,0,0:0:0:0:
448,192,269746,1,0,0:0:0:0:
448,192,269828,1,0,0:0:0:0:
192,192,269911,1,0,0:0:0:0:
320,192,269993,1,0,0:0:0:0:
448,192,270076,1,0,0:0:0:0:
64,192,270159,1,0,0:0:0:0:
192,192,270241,1,0,0:0:0:0:
448,192,270241,1,0,0:0:0:0:
320,192,270324,1,0,0:0:0:0:
192,192,270407,1,0,0:0:0:0:
448,192,270491,1,0,0:0:0:0:
320,192,270574,1,0,0:0:0:0:
64,192,270574,1,0,0:0:0:0:
192,192,270657,1,0,0:0:0:0:
320,192,270741,1,0,0:0:0:0:
64,192,270824,1,0,0:0:0:0:
320,192,270907,1,0,0:0:0:0:
448,192,270907,1,0,0:0:0:0:
64,192,270991,1,0,0:0:0:0:
448,192,271074,1,0,0:0:0:0:
320,192,271157,1,0,0:0:0:0:
192,192,271241,1,0,0:0:0:0:
64,192,271241,1,0,0:0:0:0:
320,192,271407,1,0,0:0:0:0:
320,192,271491,1,0,0:0:0:0:
192,192,271574,1,0,0:0:0:0:
64,192,271574,1,0,0:0:0:0:
320,192,271657,1,0,0:0:0:0:
64,192,271741,1,0,0:0:0:0:
448,192,271824,1,0,0:0:0:0:
320,192,271907,1,0,0:0:0:0:
192,192,271907,1,0,0:0:0:0:
64,192,271991,1,0,0:0:0:0:
448,192,272074,1,0,0:0:0:0:
192,192,272157,1,0,0:0:0:0:
64,192,272241,1,0,0:0:0:0:
320,192,272324,1,0,0:0:0:0:
64,192,272407,1,0,0:0:0:0:
320,192,272491,1,0,0:0:0:0:
448,192,272574,1,0,0:0:0:0:
64,192,272616,1,0,0:0:0:0:
448,192,272657,1,0,0:0:0:0:
64,192,272699,1,0,0:0:0:0:
448,192,272741,1,0,0:0:0:0:
64,192,272782,1,0,0:0:0:0:
448,192,272824,1,0,0:0:0:0:
64,192,272866,1,0,0:0:0:0:
320,192,272907,1,0,0:0:0:0:
192,192,272907,1,0,0:0:0:0:
448,192,272991,1,0,0:0:0:0:
192,192,273074,1,0,0:0:0:0:
320,192,273157,1,0,0:0:0:0:
192,192,273241,1,0,0:0:0:0:
64,192,273241,1,0,0:0:0:0:
448,192,273324,1,0,0:0:0:0:
320,192,273407,1,0,0:0:0:0:
64,192,273491,1,0,0:0:0:0:
320,192,273574,1,0,0:0:0:0:
448,192,273574,1,0,0:0:0:0:
192,192,273657,1,0,0:0:0:0:
64,192,273657,1,0,0:0:0:0:
448,192,273741,1,0,0:0:0:0:
320,192,273741,1,0,0:0:0:0:
64,192,273824,1,0,0:0:0:0:
192,192,273907,128,0,274241:0:0:0:0:
320,192,274241,1,0,0:0:0:0:
448,192,274241,1,0,0:0:0:0:
64,192,274324,1,0,0:0:0:0:
448,192,274407,1,0,0:0:0:0:
320,192,274491,1,0,0:0:0:0:
192,192,274574,1,0,0:0:0:0:
64,192,274574,1,0,0:0:0:0:
448,192,274657,1,0,0:0:0:0:
320,192,274741,1,0,0:0:0:0:
64,192,274824,1,0,0:0:0:0:
192,192,274907,1,0,0:0:0:0:
448,192,274907,1,0,0:0:0:0:
320,192,274991,1,0,0:0:0:0:
64,192,275074,1,0,0:0:0:0:
192,192,275157,1,0,0:0:0:0:
448,192,275241,1,0,0:0:0:0:
320,192,275241,128,0,275324:0:0:0:0:
320,192,275407,1,0,0:0:0:0:
320,192,275491,1,0,0:0:0:0:
192,192,275574,1,0,0:0:0:0:
64,192,275574,1,0,0:0:0:0:
448,192,275657,1,0,0:0:0:0:
320,192,275741,1,0,0:0:0:0:
64,192,275824,1,0,0:0:0:0:
192,192,275907,1,0,0:0:0:0:
448,192,275907,1,0,0:0:0:0:
320,192,275991,1,0,0:0:0:0:
64,192,276074,1,0,0:0:0:0:
192,192,276157,1,0,0:0:0:0:
320,192,276241,1,0,0:0:0:0:
448,192,276241,1,0,0:0:0:0:
64,192,276324,1,0,0:0:0:0:
448,192,276407,1,0,0:0:0:0:
320,192,276491,1,0,0:0:0:0:
192,192,276574,1,0,0:0:0:0:
64,192,276574,1,0,0:0:0:0:
448,192,276657,1,0,0:0:0:0:
192,192,276741,1,0,0:0:0:0:
320,192,276824,1,0,0:0:0:0:
448,192,276907,1,0,0:0:0:0:
64,192,276907,1,0,0:0:0:0:
192,192,276991,1,0,0:0:0:0:
320,192,277074,1,0,0:0:0:0:
192,192,277157,1,0,0:0:0:0:
320,192,277241,1,0,0:0:0:0:
448,192,277241,1,0,0:0:0:0:
64,192,277324,1,0,0:0:0:0:
192,192,277407,1,0,0:0:0:0:
448,192,277491,1,0,0:0:0:0:
320,192,277574,1,0,0:0:0:0:
64,192,277574,1,0,0:0:0:0:
192,192,277657,1,0,0:0:0:0:
448,192,277741,1,0,0:0:0:0:
320,192,277824,1,0,0:0:0:0:
192,192,277907,1,0,0:0:0:0:
64,192,277907,1,0,0:0:0:0:
448,192,277907,1,0,0:0:0:0:
64,192,278157,1,0,0:0:0:0:
320,192,278241,128,0,278324:0:0:0:0:
320,192,278407,128,0,278574:0:0:0:0:
192,192,278574,1,0,0:0:0:0:
64,192,278574,1,0,0:0:0:0:
448,192,278657,1,0,0:0:0:0:
64,192,278741,1,0,0:0:0:0:
320,192,278824,1,0,0:0:0:0:
192,192,278907,1,0,0:0:0:0:
64,192,278907,1,0,0:0:0:0:
448,192,278991,1,0,0:0:0:0:
320,192,279074,1,0,0:0:0:0:
64,192,279157,1,0,0:0:0:0:
192,192,279241,1,0,0:0:0:0:
448,192,279241,1,0,0:0:0:0:
320,192,279241,1,0,0:0:0:0:
64,192,279324,1,0,0:0:0:0:
64,192,279407,1,0,0:0:0:0:
192,192,279574,1,0,0:0:0:0:
320,192,279574,1,0,0:0:0:0:
448,192,279657,1,0,0:0:0:0:
64,192,279741,1,0,0:0:0:0:
192,192,279824,1,0,0:0:0:0:
448,192,279907,1,0,0:0:0:0:
320,192,279907,128,0,280074:0:0:0:0:
64,192,280074,128,0,280241:0:0:0:0:
192,192,280241,1,0,0:0:0:0:
192,192,280324,1,0,0:0:0:0:
320,192,280407,1,0,0:0:0:0:
320,192,280491,1,0,0:0:0:0:
192,192,280574,1,0,0:0:0:0:
64,192,280574,1,0,0:0:0:0:
192,192,280657,1,0,0:0:0:0:
64,192,280657,1,0,0:0:0:0:
448,192,280741,1,0,0:0:0:0:
64,192,280907,1,0,0:0:0:0:
320,192,280907,1,0,0:0:0:0:
192,192,280991,1,0,0:0:0:0:
448,192,281074,1,0,0:0:0:0:
320,192,281157,1,0,0:0:0:0:
64,192,281241,128,0,281574:0:0:0:0:
192,192,281574,1,0,0:0:0:0:
448,192,281574,1,0,0:0:0:0:
320,192,281657,1,0,0:0:0:0:
64,192,281741,1,0,0:0:0:0:
192,192,281824,1,0,0:0:0:0:
320,192,281907,1,0,0:0:0:0:
448,192,281907,1,0,0:0:0:0:
192,192,281991,1,0,0:0:0:0:
192,192,282074,1,0,0:0:0:0:
192,192,282157,1,0,0:0:0:0:
64,192,282241,1,0,0:0:0:0:
448,192,282241,1,0,0:0:0:0:
320,192,282324,1,0,0:0:0:0:
192,192,282407,1,0,0:0:0:0:
64,192,282407,1,0,0:0:0:0:
448,192,282407,1,0,0:0:0:0:
320,192,282574,1,0,0:0:0:0:
64,192,282657,1,0,0:0:0:0:
320,192,282741,1,0,0:0:0:0:
64,192,282824,1,0,0:0:0:0:
192,192,282907,1,0,0:0:0:0:
448,192,282907,1,0,0:0:0:0:
320,192,282991,1,0,0:0:0:0:
64,192,283074,1,0,0:0:0:0:
192,192,283157,1,0,0:0:0:0:
448,192,283241,128,0,283574:0:0:0:0:
64,192,283574,1,0,0:0:0:0:
320,192,283574,1,0,0:0:0:0:
192,192,283657,1,0,0:0:0:0:
448,192,283741,1,0,0:0:0:0:
64,192,283824,1,0,0:0:0:0:
320,192,283824,1,0,0:0:0:0:
192,192,283907,1,0,0:0:0:0:
448,192,283991,1,0,0:0:0:0:
64,192,284074,1,0,0:0:0:0:
192,192,284074,1,0,0:0:0:0:
320,192,284074,1,0,0:0:0:0:
448,192,284157,1,0,0:0:0:0:
192,192,284241,1,0,0:0:0:0:
320,192,284407,1,0,0:0:0:0:
448,192,284491,1,0,0:0:0:0:
192,192,284574,128,0,284657:0:0:0:0:
320,192,284741,128,0,284907:0:0:0:0:
192,192,284907,1,0,0:0:0:0:
64,192,284907,1,0,0:0:0:0:
448,192,284991,1,0,0:0:0:0:
192,192,285074,1,0,0:0:0:0:
448,192,285157,1,0,0:0:0:0:
320,192,285241,1,0,0:0:0:0:
64,192,285241,128,0,285574:0:0:0:0:
192,192,285574,1,0,0:0:0:0:
448,192,285574,1,0,0:0:0:0:
192,192,285741,1,0,0:0:0:0:
320,192,285824,1,0,0:0:0:0:
64,192,285907,1,0,0:0:0:0:
448,192,285907,1,0,0:0:0:0:
320,192,286074,1,0,0:0:0:0:
320,192,286157,1,0,0:0:0:0:
192,192,286241,1,0,0:0:0:0:
64,192,286241,1,0,0:0:0:0:
448,192,286324,1,0,0:0:0:0:
320,192,286407,1,0,0:0:0:0:
64,192,286574,1,0,0:0:0:0:
448,192,286574,1,0,0:0:0:0:
192,192,286657,1,0,0:0:0:0:
448,192,286741,1,0,0:0:0:0:
192,192,286824,1,0,0:0:0:0:
320,192,286907,1,0,0:0:0:0:
64,192,286991,1,0,0:0:0:0:
448,192,287074,1,0,0:0:0:0:
192,192,287157,1,0,0:0:0:0:
320,192,287241,1,0,0:0:0:0:
64,192,287324,1,0,0:0:0:0:
448,192,287407,1,0,0:0:0:0:
320,192,287491,1,0,0:0:0:0:
192,192,287574,1,0,0:0:0:0:
64,192,287574,1,0,0:0:0:0:
448,192,287657,1,0,0:0:0:0:
320,192,287741,1,0,0:0:0:0:
192,192,287824,1,0,0:0:0:0:
64,192,287907,1,0,0:0:0:0:
448,192,287907,1,0,0:0:0:0:
320,192,287991,1,0,0:0:0:0:
192,192,288074,1,0,0:0:0:0:
192,192,288157,1,0,0:0:0:0:
320,192,288241,1,0,0:0:0:0:
448,192,288241,1,0,0:0:0:0:
64,192,288324,1,0,0:0:0:0:
320,192,288407,1,0,0:0:0:0:
448,192,288407,1,0,0:0:0:0:
192,192,288574,1,0,0:0:0:0:
320,192,288741,1,0,0:0:0:0:
192,192,288824,1,0,0:0:0:0:
64,192,288907,1,0,0:0:0:0:
448,192,288907,1,0,0:0:0:0:
320,192,288991,1,0,0:0:0:0:
192,192,289074,1,0,0:0:0:0:
448,192,289157,1,0,0:0:0:0:
320,192,289241,1,0,0:0:0:0:
64,192,289241,1,0,0:0:0:0:
192,192,289324,1,0,0:0:0:0:
448,192,289407,1,0,0:0:0:0:
64,192,289491,1,0,0:0:0:0:
320,192,289574,1,0,0:0:0:0:
448,192,289574,1,0,0:0:0:0:
320,192,289657,1,0,0:0:0:0:
448,192,289657,1,0,0:0:0:0:
192,192,289741,1,0,0:0:0:0:
64,192,289741,1,0,0:0:0:0:
192,192,289824,1,0,0:0:0:0:
64,192,289824,1,0,0:0:0:0:
320,192,289907,1,0,0:0:0:0:
448,192,289907,1,0,0:0:0:0:
192,192,290074,1,0,0:0:0:0:
320,192,290157,1,0,0:0:0:0:
448,192,290241,1,0,0:0:0:0:
64,192,290241,1,0,0:0:0:0:
192,192,290324,1,0,0:0:0:0:
320,192,290407,1,0,0:0:0:0:
320,192,290491,1,0,0:0:0:0:
64,192,290574,128,0,290907:0:0:0:0:
192,192,290907,1,0,0:0:0:0:
320,192,290907,1,0,0:0:0:0:
448,192,290991,1,0,0:0:0:0:
192,192,291074,1,0,0:0:0:0:
192,192,291157,1,0,0:0:0:0:
448,192,291241,1,0,0:0:0:0:
320,192,291241,1,0,0:0:0:0:
448,192,291324,1,0,0:0:0:0:
320,192,291324,1,0,0:0:0:0:
64,192,291407,1,0,0:0:0:0:
192,192,291449,1,0,0:0:0:0:
320,192,291491,1,0,0:0:0:0:
448,192,291532,1,0,0:0:0:0:
192,192,291574,1,0,0:0:0:0:
192,192,291824,1,0,0:0:0:0:
192,192,291991,1,0,0:0:0:0:
192,192,292074,1,0,0:0:0:0:
192,192,292241,1,0,0:0:0:0:
192,192,292324,1,0,0:0:0:0:
192,192,292407,1,0,0:0:0:0:
192,192,292574,1,0,0:0:0:0:
192,192,292824,1,0,0:0:0:0:
192,192,293074,1,0,0:0:0:0:
448,192,293241,128,0,293407:0:0:0:0:
192,192,293407,1,0,0:0:0:0:
192,192,293491,1,0,0:0:0:0:
192,192,293574,1,0,0:0:0:0:
192,192,293741,1,0,0:0:0:0:
192,192,293824,1,0,0:0:0:0:
448,192,293907,1,0,0:0:0:0:
448,192,293991,1,0,0:0:0:0:
448,192,294074,1,0,0:0:0:0:
192,192,294241,1,0,0:0:0:0:
192,192,294407,1,0,0:0:0:0:
192,192,294574,1,0,0:0:0:0:
192,192,294657,1,0,0:0:0:0:
192,192,294824,1,0,0:0:0:0:
192,192,294907,1,0,0:0:0:0:
192,192,295074,1,0,0:0:0:0:
192,192,295241,1,0,0:0:0:0:
320,192,295324,1,0,0:0:0:0:
192,192,295491,1,0,0:0:0:0:
192,192,295574,1,0,0:0:0:0:
320,192,295657,1,0,0:0:0:0:
320,192,295741,1,0,0:0:0:0:
192,192,295824,1,0,0:0:0:0:
320,192,295907,1,0,0:0:0:0:
320,192,295991,1,0,0:0:0:0:
192,192,296074,1,0,0:0:0:0:
320,192,296157,1,0,0:0:0:0:
320,192,296241,1,0,0:0:0:0:
192,192,296324,1,0,0:0:0:0:
320,192,296407,1,0,0:0:0:0:
320,192,296491,1,0,0:0:0:0:
192,192,296574,1,0,0:0:0:0:
448,192,296574,1,0,0:0:0:0:
320,192,296907,1,0,0:0:0:0:
320,192,297157,1,0,0:0:0:0:
320,192,297324,1,0,0:0:0:0:
320,192,297407,1,0,0:0:0:0:
320,192,297574,1,0,0:0:0:0:
320,192,297657,1,0,0:0:0:0:
320,192,297741,1,0,0:0:0:0:
320,192,297907,1,0,0:0:0:0:
192,192,297991,1,0,0:0:0:0:
64,192,298074,1,0,0:0:0:0:
320,192,298157,1,0,0:0:0:0:
192,192,298241,1,0,0:0:0:0:
64,192,298324,1,0,0:0:0:0:
320,192,298407,1,0,0:0:0:0:
192,192,298491,1,0,0:0:0:0:
64,192,298574,1,0,0:0:0:0:
320,192,298741,1,0,0:0:0:0:
320,192,298824,1,0,0:0:0:0:
320,192,298907,1,0,0:0:0:0:
320,192,299074,1,0,0:0:0:0:
320,192,299157,1,0,0:0:0:0:
64,192,299240,1,0,0:0:0:0:
64,192,299324,1,0,0:0:0:0:
64,192,299407,1,0,0:0:0:0:
320,192,299574,1,0,0:0:0:0:
320,192,299740,1,0,0:0:0:0:
320,192,299907,1,0,0:0:0:0:
320,192,299990,1,0,0:0:0:0:
320,192,300157,1,0,0:0:0:0:
320,192,300240,1,0,0:0:0:0:
320,192,300324,1,0,0:0:0:0:
320,192,300407,1,0,0:0:0:0:
320,192,300574,1,0,0:0:0:0:
192,192,300657,1,0,0:0:0:0:
320,192,300824,1,0,0:0:0:0:
192,192,300907,1,0,0:0:0:0:
64,192,300907,1,0,0:0:0:0:
320,192,300990,1,0,0:0:0:0:
320,192,301074,1,0,0:0:0:0:
192,192,301157,1,0,0:0:0:0:
64,192,301157,1,0,0:0:0:0:
320,192,301240,1,0,0:0:0:0:
320,192,301324,1,0,0:0:0:0:
192,192,301407,1,0,0:0:0:0:
64,192,301407,1,0,0:0:0:0:
320,192,301490,1,0,0:0:0:0:
320,192,301574,1,0,0:0:0:0:
192,192,301657,1,0,0:0:0:0:
64,192,301657,1,0,0:0:0:0:
320,192,301740,1,0,0:0:0:0:
320,192,301824,1,0,0:0:0:0:
64,192,301907,1,0,0:0:0:0:
448,192,301907,1,0,0:0:0:0:
320,192,302240,1,0,0:0:0:0:
448,192,302240,1,0,0:0:0:0:
192,192,302407,1,0,0:0:0:0:
320,192,302490,1,0,0:0:0:0:
448,192,302490,1,0,0:0:0:0:
192,192,302657,1,0,0:0:0:0:
192,192,302740,1,0,0:0:0:0:
64,192,302907,1,0,0:0:0:0:
448,192,302907,1,0,0:0:0:0:
192,192,302990,1,0,0:0:0:0:
320,192,303074,1,0,0:0:0:0:
64,192,303157,1,0,0:0:0:0:
192,192,303240,1,0,0:0:0:0:
448,192,303324,1,0,0:0:0:0:
320,192,303407,1,0,0:0:0:0:
192,192,303490,1,0,0:0:0:0:
320,192,303574,128,0,303740:0:0:0:0:
448,192,303740,1,0,0:0:0:0:
64,192,303740,1,0,0:0:0:0:
320,192,303907,128,0,304074:0:0:0:0:
192,192,304074,1,0,0:0:0:0:
192,192,304157,1,0,0:0:0:0:
320,192,304240,1,0,0:0:0:0:
448,192,304240,1,0,0:0:0:0:
320,192,304407,1,0,0:0:0:0:
448,192,304407,1,0,0:0:0:0:
192,192,304574,1,0,0:0:0:0:
64,192,304574,1,0,0:0:0:0:
192,192,304907,1,0,0:0:0:0:
192,192,305074,1,0,0:0:0:0:
448,192,305074,1,0,0:0:0:0:
192,192,305240,1,0,0:0:0:0:
192,192,305324,1,0,0:0:0:0:
192,192,305490,1,0,0:0:0:0:
320,192,305574,1,0,0:0:0:0:
320,192,305740,1,0,0:0:0:0:
320,192,305824,1,0,0:0:0:0:
192,192,305907,1,0,0:0:0:0:
448,192,305990,1,0,0:0:0:0:
192,192,306157,1,0,0:0:0:0:
192,192,306240,1,0,0:0:0:0:
448,192,306407,1,0,0:0:0:0:
192,192,306490,1,0,0:0:0:0:
320,192,306574,1,0,0:0:0:0:
64,192,306657,1,0,0:0:0:0:
448,192,306740,1,0,0:0:0:0:
320,192,306907,1,0,0:0:0:0:
448,192,306907,1,0,0:0:0:0:
64,192,307074,1,0,0:0:0:0:
192,192,307157,1,0,0:0:0:0:
320,192,307240,1,0,0:0:0:0:
448,192,307240,1,0,0:0:0:0:
192,192,307574,1,0,0:0:0:0:
192,192,307740,1,0,0:0:0:0:
192,192,307907,1,0,0:0:0:0:
192,192,307990,1,0,0:0:0:0:
192,192,308157,1,0,0:0:0:0:
192,192,308240,1,0,0:0:0:0:
192,192,308324,1,0,0:0:0:0:
64,192,308407,1,0,0:0:0:0:
448,192,308407,1,0,0:0:0:0:
320,192,308574,1,0,0:0:0:0:
192,192,308740,1,0,0:0:0:0:
64,192,308740,1,0,0:0:0:0:
448,192,308907,1,0,0:0:0:0:
64,192,308907,1,0,0:0:0:0:
192,192,308990,1,0,0:0:0:0:
320,192,308990,1,0,0:0:0:0:
192,192,309074,1,0,0:0:0:0:
64,192,309157,1,0,0:0:0:0:
448,192,309157,1,0,0:0:0:0:
192,192,309240,1,0,0:0:0:0:
320,192,309240,1,0,0:0:0:0:
320,192,309324,1,0,0:0:0:0:
64,192,309407,1,0,0:0:0:0:
448,192,309407,1,0,0:0:0:0:
192,192,309490,1,0,0:0:0:0:
320,192,309490,1,0,0:0:0:0:
192,192,309574,1,0,0:0:0:0:
64,192,309657,1,0,0:0:0:0:
448,192,309657,1,0,0:0:0:0:
320,192,309740,1,0,0:0:0:0:
192,192,309907,1,0,0:0:0:0:
64,192,309907,1,0,0:0:0:0:
320,192,309990,1,0,0:0:0:0:
192,192,310074,1,0,0:0:0:0:
320,192,310240,1,0,0:0:0:0:
448,192,310240,128,0,310490:0:0:0:0:
192,192,310490,1,0,0:0:0:0:
192,192,310740,1,0,0:0:0:0:
448,192,310907,128,0,311074:0:0:0:0:
64,192,311074,128,0,311240:0:0:0:0:
320,192,311240,1,0,0:0:0:0:
448,192,311240,1,0,0:0:0:0:
64,192,311407,1,0,0:0:0:0:
448,192,311490,1,0,0:0:0:0:
192,192,311574,1,0,0:0:0:0:
320,192,311657,1,0,0:0:0:0:
448,192,311657,1,0,0:0:0:0:
192,192,311824,1,0,0:0:0:0:
320,192,311907,1,0,0:0:0:0:
448,192,311907,1,0,0:0:0:0:
192,192,312074,1,0,0:0:0:0:
320,192,312157,1,0,0:0:0:0:
448,192,312157,1,0,0:0:0:0:
448,192,312324,1,0,0:0:0:0:
192,192,312324,1,0,0:0:0:0:
320,192,312407,1,0,0:0:0:0:
448,192,312407,1,0,0:0:0:0:
64,192,312574,1,0,0:0:0:0:
320,192,312740,1,0,0:0:0:0:
192,192,312740,1,0,0:0:0:0:
64,192,312907,1,0,0:0:0:0:
448,192,312907,1,0,0:0:0:0:
192,192,313157,1,0,0:0:0:0:
192,192,313407,1,0,0:0:0:0:
192,192,313574,1,0,0:0:0:0:
448,192,313657,1,0,0:0:0:0:
64,192,313657,1,0,0:0:0:0:
192,192,313740,1,0,0:0:0:0:
320,192,313824,1,0,0:0:0:0:
448,192,313824,1,0,0:0:0:0:
192,192,313907,1,0,0:0:0:0:
320,192,313990,1,0,0:0:0:0:
448,192,313990,1,0,0:0:0:0:
64,192,314074,1,0,0:0:0:0:
192,192,314157,1,0,0:0:0:0:
320,192,314240,1,0,0:0:0:0:
448,192,314240,1,0,0:0:0:0:
320,192,314407,1,0,0:0:0:0:
448,192,314407,1,0,0:0:0:0:
192,192,314490,1,0,0:0:0:0:
320,192,314574,1,0,0:0:0:0:
448,192,314574,1,0,0:0:0:0:
192,192,314657,1,0,0:0:0:0:
64,192,314740,128,0,314907:0:0:0:0:
320,192,314907,1,0,0:0:0:0:
192,192,314990,1,0,0:0:0:0:
320,192,315074,1,0,0:0:0:0:
192,192,315157,1,0,0:0:0:0:
448,192,315240,1,0,0:0:0:0:
320,192,315324,1,0,0:0:0:0:
64,192,315407,1,0,0:0:0:0:
64,192,315574,1,0,0:0:0:0:
448,192,315574,1,0,0:0:0:0:
320,192,315574,1,0,0:0:0:0:
192,192,315824,1,0,0:0:0:0:
320,192,315907,128,0,316240:0:0:0:0:
448,192,316240,1,0,0:0:0:0:
64,192,316240,1,0,0:0:0:0:
192,192,316324,1,0,0:0:0:0:
448,192,316407,1,0,0:0:0:0:
320,192,316574,1,0,0:0:0:0:
320,192,316657,1,0,0:0:0:0:
320,192,316824,1,0,0:0:0:0:
64,192,316907,1,0,0:0:0:0:
192,192,316907,1,0,0:0:0:0:
320,192,316990,1,0,0:0:0:0:
320,192,317074,1,0,0:0:0:0:
64,192,317157,1,0,0:0:0:0:
192,192,317157,1,0,0:0:0:0:
320,192,317240,1,0,0:0:0:0:
320,192,317324,1,0,0:0:0:0:
64,192,317407,1,0,0:0:0:0:
448,192,317407,1,0,0:0:0:0:
64,192,317490,1,0,0:0:0:0:
192,192,317574,1,0,0:0:0:0:
192,192,317657,1,0,0:0:0:0:
448,192,317740,1,0,0:0:0:0:
64,192,317740,1,0,0:0:0:0:
320,192,317824,1,0,0:0:0:0:
192,192,317907,1,0,0:0:0:0:
64,192,317907,1,0,0:0:0:0:
448,192,317990,1,0,0:0:0:0:
320,192,318074,1,0,0:0:0:0:
64,192,318157,1,0,0:0:0:0:
192,192,318240,1,0,0:0:0:0:
320,192,318240,1,0,0:0:0:0:
448,192,318324,1,0,0:0:0:0:
192,192,318407,1,0,0:0:0:0:
64,192,318407,1,0,0:0:0:0:
192,192,318490,1,0,0:0:0:0:
64,192,318490,1,0,0:0:0:0:
320,192,318574,1,0,0:0:0:0:
448,192,318574,1,0,0:0:0:0:
192,192,318657,1,0,0:0:0:0:
192,192,318824,1,0,0:0:0:0:
320,192,318907,1,0,0:0:0:0:
448,192,318907,1,0,0:0:0:0:
320,192,319074,1,0,0:0:0:0:
448,192,319074,1,0,0:0:0:0:
64,192,319240,1,0,0:0:0:0:
192,192,319240,1,0,0:0:0:0:
320,192,319407,1,0,0:0:0:0:
64,192,319574,1,0,0:0:0:0:
448,192,319574,1,0,0:0:0:0:
320,192,319657,1,0,0:0:0:0:
448,192,319740,1,0,0:0:0:0:
64,192,319740,1,0,0:0:0:0:
320,192,319824,1,0,0:0:0:0:
320,192,319907,1,0,0:0:0:0:
448,192,319990,1,0,0:0:0:0:
64,192,319990,1,0,0:0:0:0:
320,192,320074,1,0,0:0:0:0:
320,192,320157,1,0,0:0:0:0:
64,192,320240,1,0,0:0:0:0:
192,192,320324,1,0,0:0:0:0:
320,192,320407,1,0,0:0:0:0:
64,192,320490,1,0,0:0:0:0:
320,192,320574,1,0,0:0:0:0:
192,192,320824,1,0,0:0:0:0:
320,192,320907,1,0,0:0:0:0:
448,192,320907,1,0,0:0:0:0:
64,192,321074,1,0,0:0:0:0:
320,192,321157,1,0,0:0:0:0:
448,192,321157,1,0,0:0:0:0:
64,192,321324,1,0,0:0:0:0:
192,192,321407,1,0,0:0:0:0:
320,192,321407,128,0,321574:0:0:0:0:
448,192,321574,1,0,0:0:0:0:
64,192,321574,1,0,0:0:0:0:
192,192,321740,1,0,0:0:0:0:
192,192,321824,1,0,0:0:0:0:
64,192,321907,128,0,322240:0:0:0:0:
320,192,322240,1,0,0:0:0:0:
448,192,322240,1,0,0:0:0:0:
320,192,322407,1,0,0:0:0:0:
320,192,322490,1,0,0:0:0:0:
192,192,322574,128,0,322657:0:0:0:0:
64,192,322740,1,0,0:0:0:0:
448,192,322740,1,0,0:0:0:0:
320,192,322824,1,0,0:0:0:0:
64,192,322990,1,0,0:0:0:0:
448,192,322990,1,0,0:0:0:0:
192,192,323074,1,0,0:0:0:0:
320,192,323157,1,0,0:0:0:0:
448,192,323240,1,0,0:0:0:0:
448,192,323324,1,0,0:0:0:0:
448,192,323407,1,0,0:0:0:0:
64,192,323574,1,0,0:0:0:0:
192,192,323574,128,0,324990:0:0:0:0:
192,192,325074,1,0,0:0:0:0:
192,192,325157,1,0,0:0:0:0:
192,192,325240,1,0,0:0:0:0:
320,192,325407,1,0,0:0:0:0:
448,192,325407,1,0,0:0:0:0:
192,192,325490,1,0,0:0:0:0:
192,192,325574,1,0,0:0:0:0:
192,192,325657,1,0,0:0:0:0:
192,192,325907,1,0,0:0:0:0:
320,192,326240,1,0,0:0:0:0:
448,192,326240,1,0,0:0:0:0:
64,192,326800,1,0,0:0:0:0:
448,192,326800,1,0,0:0:0:0:
192,192,327173,1,0,0:0:0:0:
448,192,327515,1,0,0:0:0:0:
320,192,327515,1,0,0:0:0:0:
192,192,327858,1,0,0:0:0:0:
64,192,328231,1,0,0:0:0:0:
448,192,328231,1,0,0:0:0:0:
320,192,328314,1,0,0:0:0:0:
192,192,328397,1,0,0:0:0:0:
64,192,328397,1,0,0:0:0:0:
320,192,328481,1,0,0:0:0:0:
64,192,328564,1,0,0:0:0:0:
448,192,328564,1,0,0:0:0:0:
192,192,328647,1,0,0:0:0:0:
320,192,328647,1,0,0:0:0:0:
448,192,328731,1,0,0:0:0:0:
192,192,328814,1,0,0:0:0:0:
64,192,328814,1,0,0:0:0:0:
320,192,328897,1,0,0:0:0:0:
448,192,328897,1,0,0:0:0:0:
192,192,328981,1,0,0:0:0:0:
64,192,328981,1,0,0:0:0:0:
320,192,329064,1,0,0:0:0:0:
448,192,329064,1,0,0:0:0:0:
192,192,329147,1,0,0:0:0:0:
64,192,329231,1,0,0:0:0:0:
448,192,329231,1,0,0:0:0:0:
320,192,329314,1,0,0:0:0:0:
192,192,329397,1,0,0:0:0:0:
64,192,329397,1,0,0:0:0:0:
320,192,329481,1,0,0:0:0:0:
448,192,329564,1,0,0:0:0:0:
192,192,329731,1,0,0:0:0:0:
192,192,329814,1,0,0:0:0:0:
448,192,329897,128,0,330064:0:0:0:0:
192,192,330064,1,0,0:0:0:0:
320,192,330231,1,0,0:0:0:0:
192,192,330314,1,0,0:0:0:0:
320,192,330397,1,0,0:0:0:0:
64,192,330481,1,0,0:0:0:0:
192,192,330564,1,0,0:0:0:0:
448,192,330564,1,0,0:0:0:0:
320,192,330647,1,0,0:0:0:0:
64,192,330731,1,0,0:0:0:0:
320,192,330814,1,0,0:0:0:0:
192,192,330897,1,0,0:0:0:0:
64,192,330981,1,0,0:0:0:0:
448,192,330981,1,0,0:0:0:0:
320,192,331064,1,0,0:0:0:0:
192,192,331147,1,0,0:0:0:0:
64,192,331231,1,0,0:0:0:0:
192,192,331564,1,0,0:0:0:0:
64,192,331564,1,0,0:0:0:0:
320,192,331647,1,0,0:0:0:0:
448,192,331647,1,0,0:0:0:0:
192,192,331731,1,0,0:0:0:0:
64,192,331814,1,0,0:0:0:0:
448,192,331814,1,0,0:0:0:0:
320,192,331897,128,0,332064:0:0:0:0:
192,192,332064,1,0,0:0:0:0:
64,192,332064,1,0,0:0:0:0:
448,192,332147,1,0,0:0:0:0:
64,192,332231,1,0,0:0:0:0:
320,192,332231,1,0,0:0:0:0:
192,192,332314,1,0,0:0:0:0:
448,192,332314,1,0,0:0:0:0:
320,192,332397,1,0,0:0:0:0:
192,192,332481,1,0,0:0:0:0:
64,192,332481,1,0,0:0:0:0:
320,192,332564,1,0,0:0:0:0:
448,192,332564,1,0,0:0:0:0:
64,192,332647,1,0,0:0:0:0:
448,192,332731,1,0,0:0:0:0:
320,192,332814,1,0,0:0:0:0:
192,192,332897,1,0,0:0:0:0:
64,192,332897,1,0,0:0:0:0:
320,192,332981,1,0,0:0:0:0:
320,192,333064,1,0,0:0:0:0:
192,192,333147,1,0,0:0:0:0:
64,192,333231,1,0,0:0:0:0:
320,192,333314,1,0,0:0:0:0:
448,192,333314,1,0,0:0:0:0:
192,192,333397,1,0,0:0:0:0:
64,192,333397,1,0,0:0:0:0:
320,192,333481,1,0,0:0:0:0:
192,192,333564,1,0,0:0:0:0:
448,192,333647,1,0,0:0:0:0:
64,192,333731,1,0,0:0:0:0:
320,192,333897,1,0,0:0:0:0:
448,192,333897,1,0,0:0:0:0:
192,192,334064,1,0,0:0:0:0:
320,192,334064,1,0,0:0:0:0:
64,192,334231,1,0,0:0:0:0:
192,192,334231,1,0,0:0:0:0:
320,192,334314,1,0,0:0:0:0:
448,192,334314,1,0,0:0:0:0:
192,192,334397,1,0,0:0:0:0:
64,192,334397,1,0,0:0:0:0:
320,192,334481,1,0,0:0:0:0:
448,192,334564,1,0,0:0:0:0:
64,192,334564,1,0,0:0:0:0:
192,192,334647,1,0,0:0:0:0:
320,192,334731,1,0,0:0:0:0:
64,192,334814,1,0,0:0:0:0:
448,192,334814,1,0,0:0:0:0:
192,192,334897,1,0,0:0:0:0:
192,192,334981,1,0,0:0:0:0:
320,192,335064,1,0,0:0:0:0:
64,192,335147,1,0,0:0:0:0:
448,192,335231,1,0,0:0:0:0:
320,192,335314,1,0,0:0:0:0:
192,192,335397,1,0,0:0:0:0:
320,192,335564,1,0,0:0:0:0:
448,192,335564,1,0,0:0:0:0:
64,192,335647,1,0,0:0:0:0:
320,192,335731,1,0,0:0:0:0:
448,192,335731,1,0,0:0:0:0:
192,192,335814,1,0,0:0:0:0:
448,192,335897,1,0,0:0:0:0:
64,192,335897,1,0,0:0:0:0:
192,192,335981,1,0,0:0:0:0:
320,192,335981,1,0,0:0:0:0:
64,192,336064,1,0,0:0:0:0:
192,192,336147,1,0,0:0:0:0:
320,192,336147,1,0,0:0:0:0:
448,192,336231,1,0,0:0:0:0:
192,192,336314,1,0,0:0:0:0:
64,192,336314,1,0,0:0:0:0:
448,192,336397,1,0,0:0:0:0:
320,192,336397,1,0,0:0:0:0:
192,192,336481,1,0,0:0:0:0:
64,192,336564,1,0,0:0:0:0:
448,192,336564,1,0,0:0:0:0:
320,192,336897,1,0,0:0:0:0:
448,192,336897,1,0,0:0:0:0:
192,192,336981,1,0,0:0:0:0:
64,192,336981,1,0,0:0:0:0:
320,192,337064,1,0,0:0:0:0:
64,192,337147,1,0,0:0:0:0:
448,192,337147,1,0,0:0:0:0:
192,192,337231,1,0,0:0:0:0:
320,192,337314,1,0,0:0:0:0:
192,192,337397,1,0,0:0:0:0:
64,192,337397,1,0,0:0:0:0:
448,192,337481,1,0,0:0:0:0:
320,192,337564,1,0,0:0:0:0:
192,192,337647,1,0,0:0:0:0:
64,192,337647,1,0,0:0:0:0:
320,192,337731,1,0,0:0:0:0:
448,192,337814,1,0,0:0:0:0:
64,192,337814,1,0,0:0:0:0:
192,192,337897,1,0,0:0:0:0:
320,192,337897,1,0,0:0:0:0:
64,192,337981,1,0,0:0:0:0:
192,192,338022,1,0,0:0:0:0:
448,192,338064,1,0,0:0:0:0:
64,192,338147,1,0,0:0:0:0:
320,192,338231,1,0,0:0:0:0:
448,192,338231,1,0,0:0:0:0:
64,192,338314,1,0,0:0:0:0:
192,192,338314,1,0,0:0:0:0:
448,192,338397,1,0,0:0:0:0:
320,192,338481,1,0,0:0:0:0:
192,192,338564,1,0,0:0:0:0:
192,192,338647,1,0,0:0:0:0:
448,192,338731,1,0,0:0:0:0:
64,192,338731,1,0,0:0:0:0:
320,192,338814,1,0,0:0:0:0:
192,192,338897,1,0,0:0:0:0:
448,192,338981,1,0,0:0:0:0:
64,192,339064,1,0,0:0:0:0:
192,192,339147,1,0,0:0:0:0:
448,192,339231,1,0,0:0:0:0:
320,192,339314,1,0,0:0:0:0:
192,192,339397,1,0,0:0:0:0:
64,192,339397,1,0,0:0:0:0:
448,192,339397,1,0,0:0:0:0:
320,192,339564,1,0,0:0:0:0:
192,192,339564,1,0,0:0:0:0:
448,192,339647,1,0,0:0:0:0:
320,192,339731,1,0,0:0:0:0:
192,192,339731,1,0,0:0:0:0:
64,192,339814,1,0,0:0:0:0:
448,192,339897,1,0,0:0:0:0:
320,192,339981,1,0,0:0:0:0:
192,192,340064,1,0,0:0:0:0:
64,192,340147,1,0,0:0:0:0:
448,192,340147,1,0,0:0:0:0:
320,192,340231,1,0,0:0:0:0:
192,192,340231,1,0,0:0:0:0:
64,192,340397,1,0,0:0:0:0:
192,192,340481,1,0,0:0:0:0:
320,192,340564,1,0,0:0:0:0:
64,192,340731,128,0,340897:0:0:0:0:
448,192,340897,1,0,0:0:0:0:
320,192,340897,1,0,0:0:0:0:
192,192,340981,1,0,0:0:0:0:
320,192,341064,1,0,0:0:0:0:
448,192,341064,1,0,0:0:0:0:
64,192,341147,1,0,0:0:0:0:
192,192,341231,1,0,0:0:0:0:
448,192,341231,1,0,0:0:0:0:
320,192,341397,1,0,0:0:0:0:
192,192,341481,1,0,0:0:0:0:
64,192,341481,1,0,0:0:0:0:
448,192,341564,1,0,0:0:0:0:
320,192,341647,1,0,0:0:0:0:
64,192,341647,1,0,0:0:0:0:
192,192,341731,1,0,0:0:0:0:
448,192,341731,1,0,0:0:0:0:
64,192,341814,1,0,0:0:0:0:
320,192,341897,1,0,0:0:0:0:
192,192,341953,1,0,0:0:0:0:
448,192,342064,1,0,0:0:0:0:
64,192,342147,1,0,0:0:0:0:
320,192,342231,1,0,0:0:0:0:
448,192,342231,1,0,0:0:0:0:
64,192,342314,1,0,0:0:0:0:
192,192,342314,1,0,0:0:0:0:
320,192,342397,1,0,0:0:0:0:
448,192,342481,1,0,0:0:0:0:
64,192,342481,1,0,0:0:0:0:
192,192,342564,1,0,0:0:0:0:
192,192,342647,1,0,0:0:0:0:
320,192,342731,1,0,0:0:0:0:
448,192,342731,1,0,0:0:0:0:
192,192,342814,1,0,0:0:0:0:
64,192,342814,1,0,0:0:0:0:
320,192,342897,1,0,0:0:0:0:
64,192,342981,1,0,0:0:0:0:
448,192,342981,1,0,0:0:0:0:
192,192,343064,1,0,0:0:0:0:
320,192,343147,1,0,0:0:0:0:
64,192,343231,1,0,0:0:0:0:
448,192,343231,1,0,0:0:0:0:
192,192,343314,1,0,0:0:0:0:
192,192,343397,1,0,0:0:0:0:
448,192,343481,1,0,0:0:0:0:
320,192,343564,1,0,0:0:0:0:
64,192,343564,1,0,0:0:0:0:
192,192,343647,1,0,0:0:0:0:
448,192,343731,1,0,0:0:0:0:
320,192,343814,1,0,0:0:0:0:
192,192,343897,128,0,344064:0:0:0:0:
448,192,344064,1,0,0:0:0:0:
320,192,344064,1,0,0:0:0:0:
64,192,344147,1,0,0:0:0:0:
64,192,344231,1,0,0:0:0:0:
192,192,344314,1,0,0:0:0:0:
448,192,344314,1,0,0:0:0:0:
320,192,344397,1,0,0:0:0:0:
64,192,344397,1,0,0:0:0:0:
320,192,344564,1,0,0:0:0:0:
320,192,344647,1,0,0:0:0:0:
192,192,344731,1,0,0:0:0:0:
64,192,344731,1,0,0:0:0:0:
448,192,344731,1,0,0:0:0:0:
64,192,344897,1,0,0:0:0:0:
192,192,344897,128,0,344981:0:0:0:0:
192,192,345064,1,0,0:0:0:0:
320,192,345106,1,0,0:0:0:0:
192,192,345147,1,0,0:0:0:0:
320,192,345189,1,0,0:0:0:0:
64,192,345231,1,0,0:0:0:0:
448,192,345231,1,0,0:0:0:0:
320,192,345314,1,0,0:0:0:0:
192,192,345314,1,0,0:0:0:0:
64,192,345397,1,0,0:0:0:0:
192,192,345481,1,0,0:0:0:0:
320,192,345564,1,0,0:0:0:0:
448,192,345564,1,0,0:0:0:0:
64,192,345619,1,0,0:0:0:0:
192,192,345731,1,0,0:0:0:0:
320,192,345731,1,0,0:0:0:0:
448,192,345814,1,0,0:0:0:0:
320,192,345897,1,0,0:0:0:0:
192,192,345897,1,0,0:0:0:0:
64,192,345981,1,0,0:0:0:0:
448,192,346064,1,0,0:0:0:0:
320,192,346147,1,0,0:0:0:0:
192,192,346231,1,0,0:0:0:0:
64,192,346231,1,0,0:0:0:0:
320,192,346314,1,0,0:0:0:0:
448,192,346314,1,0,0:0:0:0:
64,192,346397,1,0,0:0:0:0:
192,192,346397,1,0,0:0:0:0:
320,192,346481,1,0,0:0:0:0:
448,192,346564,1,0,0:0:0:0:
192,192,346647,1,0,0:0:0:0:
64,192,346647,1,0,0:0:0:0:
320,192,346731,1,0,0:0:0:0:
192,192,346814,1,0,0:0:0:0:
64,192,346814,1,0,0:0:0:0:
448,192,346897,1,0,0:0:0:0:
448,192,346981,1,0,0:0:0:0:
192,192,347064,1,0,0:0:0:0:
320,192,347147,1,0,0:0:0:0:
64,192,347231,1,0,0:0:0:0:
192,192,347314,1,0,0:0:0:0:
448,192,347397,1,0,0:0:0:0:
320,192,347397,1,0,0:0:0:0:
192,192,347564,1,0,0:0:0:0:
192,192,347647,1,0,0:0:0:0:
192,192,347731,1,0,0:0:0:0:
320,192,347814,1,0,0:0:0:0:
448,192,347814,1,0,0:0:0:0:
192,192,347897,1,0,0:0:0:0:
192,192,347981,1,0,0:0:0:0:
320,192,348064,1,0,0:0:0:0:
448,192,348064,1,0,0:0:0:0:
192,192,348147,1,0,0:0:0:0:
64,192,348231,1,0,0:0:0:0:
448,192,348231,1,0,0:0:0:0:
320,192,348314,1,0,0:0:0:0:
320,192,348397,1,0,0:0:0:0:
192,192,348481,1,0,0:0:0:0:
64,192,348481,1,0,0:0:0:0:
320,192,348564,1,0,0:0:0:0:
448,192,348647,1,0,0:0:0:0:
64,192,348647,1,0,0:0:0:0:
192,192,348731,1,0,0:0:0:0:
320,192,348814,1,0,0:0:0:0:
448,192,348814,1,0,0:0:0:0:
64,192,348897,1,0,0:0:0:0:
448,192,348981,1,0,0:0:0:0:
64,192,349064,1,0,0:0:0:0:
448,192,349147,1,0,0:0:0:0:
64,192,349231,1,0,0:0:0:0:
192,192,349314,1,0,0:0:0:0:
320,192,349314,1,0,0:0:0:0:
64,192,349564,1,0,0:0:0:0:
192,192,349592,1,0,0:0:0:0:
320,192,349619,1,0,0:0:0:0:
448,192,349647,1,0,0:0:0:0:
64,192,349675,1,0,0:0:0:0:
192,192,349703,1,0,0:0:0:0:
320,192,349731,1,0,0:0:0:0:
448,192,349814,1,0,0:0:0:0:
192,192,349897,1,0,0:0:0:0:
448,192,350064,1,0,0:0:0:0:
64,192,350231,128,0,351897:0:0:0:0:
448,192,351397,128,0,352231:0:0:0:0:
192,192,351897,128,0,352897:0:0:0:0:
64,192,355564,1,0,0:0:0:0:
448,192,355564,128,0,355897:0:0:0:0:
192,192,355897,128,0,355981:0:0:0:0:
320,192,356064,128,0,356147:0:0:0:0:
448,192,356231,1,0,0:0:0:0:
64,192,356231,128,0,356314:0:0:0:0:
320,192,356397,128,0,356564:0:0:0:0:
192,192,356564,128,0,356647:0:0:0:0:
448,192,356731,1,0,0:0:0:0:
320,192,356814,1,0,0:0:0:0:
192,192,356897,1,0,0:0:0:0:
64,192,356897,1,0,0:0:0:0:
448,192,357064,1,0,0:0:0:0:
64,192,357105,1,0,0:0:0:0:
448,192,357147,1,0,0:0:0:0:
64,192,357189,1,0,0:0:0:0:
192,192,357230,1,0,0:0:0:0:
320,192,357230,128,0,357314:0:0:0:0:
192,192,357397,128,0,357480:0:0:0:0:
64,192,357564,1,0,0:0:0:0:
320,192,357564,1,0,0:0:0:0:
448,192,357564,128,0,357730:0:0:0:0:
192,192,357730,128,0,357814:0:0:0:0:
320,192,357814,1,0,0:0:0:0:
64,192,357897,1,0,0:0:0:0:
448,192,357939,1,0,0:0:0:0:
64,192,357980,1,0,0:0:0:0:
448,192,358022,1,0,0:0:0:0:
192,192,358064,128,0,358147:0:0:0:0:
448,192,358230,1,0,0:0:0:0:
320,192,358230,128,0,358564:0:0:0:0:
192,192,358564,128,0,358647:0:0:0:0:
64,192,358730,1,0,0:0:0:0:
448,192,358730,1,0,0:0:0:0:
320,192,358814,1,0,0:0:0:0:
192,192,358814,1,0,0:0:0:0:
64,192,358897,1,0,0:0:0:0:
448,192,358897,128,0,359064:0:0:0:0:
320,192,359230,1,0,0:0:0:0:
192,192,359230,128,0,359564:0:0:0:0:
64,192,359564,1,0,0:0:0:0:
448,192,359564,128,0,359647:0:0:0:0:
320,192,359730,1,0,0:0:0:0:
320,192,359814,1,0,0:0:0:0:
64,192,359897,1,0,0:0:0:0:
192,192,359897,1,0,0:0:0:0:
448,192,359980,1,0,0:0:0:0:
320,192,360064,1,0,0:0:0:0:
64,192,360230,1,0,0:0:0:0:
448,192,360230,1,0,0:0:0:0:
192,192,360314,1,0,0:0:0:0:
320,192,360397,1,0,0:0:0:0:
320,192,360480,1,0,0:0:0:0:
64,192,360564,1,0,0:0:0:0:
448,192,360564,1,0,0:0:0:0:
448,192,360675,1,0,0:0:0:0:
448,192,360786,1,0,0:0:0:0:
192,192,360897,1,0,0:0:0:0:
320,192,360897,1,0,0:0:0:0:
64,192,361064,1,0,0:0:0:0:
64,192,361147,1,0,0:0:0:0:
64,192,361230,1,0,0:0:0:0:
64,192,361342,1,0,0:0:0:0:
64,192,361453,1,0,0:0:0:0:
448,192,361564,1,0,0:0:0:0:
320,192,361564,128,0,361647:0:0:0:0:
192,192,361730,128,0,361897:0:0:0:0:
64,192,361897,1,0,0:0:0:0:
448,192,361897,128,0,361980:0:0:0:0:
320,192,362064,1,0,0:0:0:0:
320,192,362147,1,0,0:0:0:0:
192,192,362230,1,0,0:0:0:0:
64,192,362230,1,0,0:0:0:0:
448,192,362397,1,0,0:0:0:0:
192,192,362439,1,0,0:0:0:0:
448,192,362480,1,0,0:0:0:0:
192,192,362522,1,0,0:0:0:0:
64,192,362564,1,0,0:0:0:0:
320,192,362564,128,0,362647:0:0:0:0:
192,192,362730,1,0,0:0:0:0:
64,192,362730,1,0,0:0:0:0:
192,192,362814,1,0,0:0:0:0:
64,192,362814,1,0,0:0:0:0:
448,192,362897,1,0,0:0:0:0:
320,192,362897,128,0,362980:0:0:0:0:
192,192,363064,128,0,363147:0:0:0:0:
448,192,363230,1,0,0:0:0:0:
64,192,363272,1,0,0:0:0:0:
448,192,363314,1,0,0:0:0:0:
64,192,363355,1,0,0:0:0:0:
320,192,363397,128,0,363480:0:0:0:0:
64,192,363564,1,0,0:0:0:0:
192,192,363564,128,0,363730:0:0:0:0:
192,192,363814,1,0,0:0:0:0:
192,192,363897,1,0,0:0:0:0:
192,192,364008,1,0,0:0:0:0:
192,192,364119,1,0,0:0:0:0:
320,192,364230,1,0,0:0:0:0:
448,192,364230,1,0,0:0:0:0:
320,192,364342,1,0,0:0:0:0:
448,192,364342,1,0,0:0:0:0:
320,192,364453,1,0,0:0:0:0:
448,192,364453,1,0,0:0:0:0:
64,192,364564,1,0,0:0:0:0:
192,192,364564,1,0,0:0:0:0:
448,192,364647,1,0,0:0:0:0:
192,192,364730,1,0,0:0:0:0:
64,192,364730,1,0,0:0:0:0:
192,192,364814,1,0,0:0:0:0:
64,192,364814,1,0,0:0:0:0:
320,192,364897,1,0,0:0:0:0:
320,192,365008,1,0,0:0:0:0:
192,192,365119,1,0,0:0:0:0:
64,192,365230,1,0,0:0:0:0:
448,192,365230,1,0,0:0:0:0:
320,192,365397,1,0,0:0:0:0:
448,192,365397,1,0,0:0:0:0:
64,192,365564,1,0,0:0:0:0:
448,192,365564,1,0,0:0:0:0:
192,192,365675,1,0,0:0:0:0:
320,192,365786,1,0,0:0:0:0:
192,192,365897,1,0,0:0:0:0:
192,192,366008,1,0,0:0:0:0:
192,192,366119,1,0,0:0:0:0:
320,192,366230,1,0,0:0:0:0:
448,192,366230,128,0,366397:0:0:0:0:
448,192,366480,1,0,0:0:0:0:
448,192,366564,1,0,0:0:0:0:
448,192,366647,1,0,0:0:0:0:
192,192,366730,1,0,0:0:0:0:
320,192,366814,1,0,0:0:0:0:
448,192,366897,1,0,0:0:0:0:
64,192,366897,1,0,0:0:0:0:
320,192,367064,1,0,0:0:0:0:
320,192,367147,1,0,0:0:0:0:
192,192,367230,128,0,367314:0:0:0:0:
64,192,367397,1,0,0:0:0:0:
64,192,367480,1,0,0:0:0:0:
320,192,367564,1,0,0:0:0:0:
448,192,367564,1,0,0:0:0:0:
192,192,367730,1,0,0:0:0:0:
448,192,367772,1,0,0:0:0:0:
192,192,367814,1,0,0:0:0:0:
448,192,367855,1,0,0:0:0:0:
64,192,367897,1,0,0:0:0:0:
320,192,368064,1,0,0:0:0:0:
192,192,368064,1,0,0:0:0:0:
64,192,368230,1,0,0:0:0:0:
320,192,368230,1,0,0:0:0:0:
448,192,368230,128,0,368397:0:0:0:0:
192,192,368397,128,0,368480:0:0:0:0:
64,192,368564,1,0,0:0:0:0:
448,192,368564,1,0,0:0:0:0:
192,192,368730,128,0,368897:0:0:0:0:
448,192,368897,1,0,0:0:0:0:
320,192,368897,128,0,369064:0:0:0:0:
64,192,369064,128,0,369230:0:0:0:0:
448,192,369230,128,0,369564:0:0:0:0:
64,192,369564,1,0,0:0:0:0:
192,192,369564,128,0,369814:0:0:0:0:
320,192,369814,128,0,369897:0:0:0:0:
448,192,369897,1,0,0:0:0:0:
64,192,369897,1,0,0:0:0:0:
320,192,370230,1,0,0:0:0:0:
192,192,370230,128,0,370397:0:0:0:0:
448,192,370397,128,0,370564:0:0:0:0:
320,192,370564,1,0,0:0:0:0:
64,192,370564,1,0,0:0:0:0:
320,192,370730,1,0,0:0:0:0:
320,192,370814,1,0,0:0:0:0:
192,192,370897,1,0,0:0:0:0:
192,192,370980,1,0,0:0:0:0:
448,192,371064,1,0,0:0:0:0:
64,192,371147,1,0,0:0:0:0:
320,192,371230,1,0,0:0:0:0:
448,192,371230,1,0,0:0:0:0:
192,192,371397,1,0,0:0:0:0:
192,192,371480,1,0,0:0:0:0:
64,192,371564,1,0,0:0:0:0:
320,192,371564,1,0,0:0:0:0:
448,192,371730,1,0,0:0:0:0:
448,192,371814,1,0,0:0:0:0:
448,192,371897,1,0,0:0:0:0:
448,192,372008,1,0,0:0:0:0:
448,192,372119,1,0,0:0:0:0:
192,192,372230,1,0,0:0:0:0:
64,192,372230,1,0,0:0:0:0:
