osu file format v14

[General]
AudioFilename: Reizoko Cj - CirnoRHTL.mp3
AudioLeadIn: 0
PreviewTime: 48
Countdown: 0
SampleSet: Soft
StackLeniency: 0.7
Mode: 3
LetterboxInBreaks: 0
SpecialStyle: 0
WidescreenStoryboard: 1

[Editor]
Bookmarks: 8048,16048,32048,48048,64048,84048,116048,140048,156048
DistanceSpacing: 1.2
BeatDivisor: 4
GridSize: 16
TimelineZoom: 3.799999

[Metadata]
Title:CirnoRHTL
TitleUnicode:CirnoRHTL
Artist:Reizoko Cj
ArtistUnicode:Reizoko Cj
Creator:Applequestria
Version:Perfect Math Class
Source:
Tags:
BeatmapID:1476490
BeatmapSetID:697035

[Difficulty]
HPDrainRate:8
CircleSize:4
OverallDifficulty:8
ApproachRate:5
SliderMultiplier:1.4
SliderTickRate:1

[Events]
//Background and Video events
0,0,"Reizoko Cj - CirnoRHTL.jpg",0,0
//Break Periods
//Storyboard Layer 0 (Background)
//Storyboard Layer 1 (Fail)
//Storyboard Layer 2 (Pass)
//Storyboard Layer 3 (Foreground)
//Storyboard Layer 4 (Overlay)
//Storyboard Sound Samples

[TimingPoints]
48,250,4,2,0,10,1,0

[HitObjects]
192,192,48,5,0,0:0:0:0:
320,192,48,1,0,0:0:0:0:
448,192,48,1,0,0:0:0:0:
64,192,173,1,0,0:0:0:0:
320,192,173,1,0,0:0:0:0:
448,192,173,1,0,0:0:0:0:
64,192,298,1,0,0:0:0:0:
448,192,298,1,0,0:0:0:0:
192,192,298,1,0,0:0:0:0:
192,192,423,1,0,0:0:0:0:
64,192,423,1,0,0:0:0:0:
320,192,423,1,0,0:0:0:0:
448,192,548,1,0,0:0:0:0:
320,192,610,1,0,0:0:0:0:
192,192,673,1,0,0:0:0:0:
64,192,673,1,0,0:0:0:0:
448,192,673,1,0,0:0:0:0:
64,192,798,1,0,0:0:0:0:
448,192,798,1,0,0:0:0:0:
320,192,798,1,0,0:0:0:0:
192,192,923,1,0,0:0:0:0:
448,192,923,1,0,0:0:0:0:
320,192,1048,1,0,0:0:0:0:
192,192,1048,1,0,0:0:0:0:
64,192,1048,1,0,0:0:0:0:
64,192,1173,1,0,0:0:0:0:
192,192,1173,1,0,0:0:0:0:
448,192,1173,1,0,0:0:0:0:
64,192,1298,1,0,0:0:0:0:
320,192,1298,1,0,0:0:0:0:
448,192,1298,1,0,0:0:0:0:
192,192,1423,1,0,0:0:0:0:
320,192,1423,1,0,0:0:0:0:
448,192,1423,1,0,0:0:0:0:
64,192,1548,1,0,0:0:0:0:
192,192,1610,1,0,0:0:0:0:
64,192,1673,1,0,0:0:0:0:
320,192,1673,1,0,0:0:0:0:
448,192,1673,1,0,0:0:0:0:
64,192,1798,1,0,0:0:0:0:
192,192,1798,1,0,0:0:0:0:
448,192,1798,1,0,0:0:0:0:
320,192,1923,1,0,0:0:0:0:
64,192,1923,1,0,0:0:0:0:
192,192,2048,1,0,0:0:0:0:
320,192,2048,1,0,0:0:0:0:
448,192,2048,1,0,0:0:0:0:
64,192,2173,1,0,0:0:0:0:
320,192,2173,1,0,0:0:0:0:
448,192,2173,1,0,0:0:0:0:
192,192,2235,1,0,0:0:0:0:
320,192,2298,1,0,0:0:0:0:
448,192,2298,1,0,0:0:0:0:
192,192,2360,1,0,0:0:0:0:
64,192,2360,1,0,0:0:0:0:
320,192,2423,1,0,0:0:0:0:
448,192,2423,1,0,0:0:0:0:
64,192,2548,1,0,0:0:0:0:
320,192,2548,1,0,0:0:0:0:
448,192,2673,1,0,0:0:0:0:
192,192,2673,1,0,0:0:0:0:
64,192,2735,1,0,0:0:0:0:
448,192,2798,1,0,0:0:0:0:
320,192,2798,1,0,0:0:0:0:
192,192,2923,1,0,0:0:0:0:
64,192,2923,1,0,0:0:0:0:
64,192,3048,1,0,0:0:0:0:
320,192,3048,1,0,0:0:0:0:
448,192,3048,1,0,0:0:0:0:
192,192,3173,1,0,0:0:0:0:
64,192,3173,1,0,0:0:0:0:
448,192,3173,1,0,0:0:0:0:
320,192,3298,1,0,0:0:0:0:
192,192,3298,1,0,0:0:0:0:
320,192,3423,1,0,0:0:0:0:
448,192,3423,1,0,0:0:0:0:
64,192,3423,1,0,0:0:0:0:
192,192,3548,1,0,0:0:0:0:
320,192,3610,1,0,0:0:0:0:
448,192,3673,1,0,0:0:0:0:
320,192,3798,1,0,0:0:0:0:
192,192,3860,1,0,0:0:0:0:
320,192,3923,1,0,0:0:0:0:
192,192,3985,1,0,0:0:0:0:
448,192,4048,1,0,0:0:0:0:
64,192,4048,1,0,0:0:0:0:
320,192,4048,1,0,0:0:0:0:
448,192,4173,1,0,0:0:0:0:
192,192,4173,1,0,0:0:0:0:
320,192,4173,1,0,0:0:0:0:
64,192,4298,1,0,0:0:0:0:
192,192,4298,1,0,0:0:0:0:
320,192,4298,1,0,0:0:0:0:
448,192,4423,1,0,0:0:0:0:
64,192,4423,1,0,0:0:0:0:
192,192,4423,1,0,0:0:0:0:
448,192,4548,1,0,0:0:0:0:
320,192,4548,1,0,0:0:0:0:
192,192,4610,1,0,0:0:0:0:
320,192,4673,1,0,0:0:0:0:
448,192,4673,1,0,0:0:0:0:
64,192,4673,1,0,0:0:0:0:
448,192,4798,1,0,0:0:0:0:
192,192,4798,1,0,0:0:0:0:
64,192,4798,1,0,0:0:0:0:
320,192,4923,1,0,0:0:0:0:
192,192,4923,1,0,0:0:0:0:
64,192,5048,1,0,0:0:0:0:
320,192,5048,1,0,0:0:0:0:
448,192,5048,1,0,0:0:0:0:
64,192,5173,1,0,0:0:0:0:
192,192,5173,1,0,0:0:0:0:
448,192,5173,1,0,0:0:0:0:
64,192,5298,1,0,0:0:0:0:
320,192,5298,1,0,0:0:0:0:
192,192,5298,1,0,0:0:0:0:
192,192,5423,1,0,0:0:0:0:
320,192,5423,1,0,0:0:0:0:
448,192,5423,1,0,0:0:0:0:
64,192,5548,1,0,0:0:0:0:
192,192,5610,1,0,0:0:0:0:
64,192,5673,1,0,0:0:0:0:
320,192,5673,1,0,0:0:0:0:
448,192,5673,1,0,0:0:0:0:
64,192,5798,1,0,0:0:0:0:
192,192,5798,1,0,0:0:0:0:
448,192,5798,1,0,0:0:0:0:
192,192,6048,1,0,0:0:0:0:
320,192,6048,1,0,0:0:0:0:
448,192,6048,1,0,0:0:0:0:
64,192,6173,1,0,0:0:0:0:
320,192,6173,1,0,0:0:0:0:
448,192,6173,1,0,0:0:0:0:
192,192,6235,1,0,0:0:0:0:
448,192,6298,1,0,0:0:0:0:
320,192,6298,1,0,0:0:0:0:
64,192,6360,1,0,0:0:0:0:
192,192,6360,1,0,0:0:0:0:
320,192,6423,1,0,0:0:0:0:
448,192,6423,1,0,0:0:0:0:
192,192,6548,1,0,0:0:0:0:
320,192,6548,1,0,0:0:0:0:
64,192,6548,1,0,0:0:0:0:
64,192,6673,1,0,0:0:0:0:
192,192,6673,1,0,0:0:0:0:
448,192,6673,1,0,0:0:0:0:
320,192,6798,1,0,0:0:0:0:
448,192,6798,1,0,0:0:0:0:
192,192,6860,1,0,0:0:0:0:
64,192,6923,1,0,0:0:0:0:
448,192,6923,1,0,0:0:0:0:
320,192,6985,1,0,0:0:0:0:
192,192,7048,1,0,0:0:0:0:
64,192,7048,1,0,0:0:0:0:
448,192,7048,1,0,0:0:0:0:
320,192,7173,1,0,0:0:0:0:
192,192,7173,1,0,0:0:0:0:
64,192,7235,1,0,0:0:0:0:
448,192,7298,1,0,0:0:0:0:
320,192,7298,1,0,0:0:0:0:
192,192,7360,1,0,0:0:0:0:
448,192,7423,1,0,0:0:0:0:
320,192,7423,1,0,0:0:0:0:
64,192,7423,1,0,0:0:0:0:
192,192,7548,1,0,0:0:0:0:
320,192,7610,1,0,0:0:0:0:
448,192,7673,128,0,7985:0:0:0:0:
64,192,7673,1,0,0:0:0:0:
192,192,7798,1,0,0:0:0:0:
320,192,7923,1,0,0:0:0:0:
64,192,8048,1,0,0:0:0:0:
192,192,8048,1,0,0:0:0:0:
448,192,8048,1,0,0:0:0:0:
192,192,8173,1,0,0:0:0:0:
320,192,8235,1,0,0:0:0:0:
320,192,8423,1,0,0:0:0:0:
448,192,8423,1,0,0:0:0:0:
64,192,8548,1,0,0:0:0:0:
192,192,8548,1,0,0:0:0:0:
320,192,8673,1,0,0:0:0:0:
448,192,8673,1,0,0:0:0:0:
64,192,8798,1,0,0:0:0:0:
192,192,8798,1,0,0:0:0:0:
192,192,8923,1,0,0:0:0:0:
448,192,8923,1,0,0:0:0:0:
64,192,9048,1,0,0:0:0:0:
320,192,9048,1,0,0:0:0:0:
64,192,9173,1,0,0:0:0:0:
320,192,9173,1,0,0:0:0:0:
192,192,9235,1,0,0:0:0:0:
64,192,9298,1,0,0:0:0:0:
448,192,9298,1,0,0:0:0:0:
192,192,9423,1,0,0:0:0:0:
320,192,9423,1,0,0:0:0:0:
320,192,9548,1,0,0:0:0:0:
448,192,9548,1,0,0:0:0:0:
64,192,9548,1,0,0:0:0:0:
64,192,9673,1,0,0:0:0:0:
192,192,9673,1,0,0:0:0:0:
192,192,9798,1,0,0:0:0:0:
320,192,9798,1,0,0:0:0:0:
320,192,9923,1,0,0:0:0:0:
448,192,9923,1,0,0:0:0:0:
64,192,10048,1,0,0:0:0:0:
192,192,10048,1,0,0:0:0:0:
448,192,10048,1,0,0:0:0:0:
192,192,10173,1,0,0:0:0:0:
320,192,10235,1,0,0:0:0:0:
448,192,10423,1,0,0:0:0:0:
320,192,10423,1,0,0:0:0:0:
64,192,10548,1,0,0:0:0:0:
192,192,10548,1,0,0:0:0:0:
64,192,10673,1,0,0:0:0:0:
192,192,10673,1,0,0:0:0:0:
448,192,10798,1,0,0:0:0:0:
320,192,10798,1,0,0:0:0:0:
192,192,10860,1,0,0:0:0:0:
64,192,10923,1,0,0:0:0:0:
320,192,10923,1,0,0:0:0:0:
192,192,11048,1,0,0:0:0:0:
448,192,11048,1,0,0:0:0:0:
320,192,11173,1,0,0:0:0:0:
448,192,11173,1,0,0:0:0:0:
192,192,11235,1,0,0:0:0:0:
64,192,11235,1,0,0:0:0:0:
448,192,11298,1,0,0:0:0:0:
320,192,11360,1,0,0:0:0:0:
64,192,11423,1,0,0:0:0:0:
192,192,11423,1,0,0:0:0:0:
448,192,11485,1,0,0:0:0:0:
320,192,11548,1,0,0:0:0:0:
64,192,11548,1,0,0:0:0:0:
192,192,11610,1,0,0:0:0:0:
448,192,11673,1,0,0:0:0:0:
320,192,11673,1,0,0:0:0:0:
64,192,11735,1,0,0:0:0:0:
448,192,11798,1,0,0:0:0:0:
192,192,11798,1,0,0:0:0:0:
320,192,11860,1,0,0:0:0:0:
64,192,11923,1,0,0:0:0:0:
192,192,11923,1,0,0:0:0:0:
448,192,11985,1,0,0:0:0:0:
64,192,12048,128,0,12485:0:0:0:0:
192,192,12048,128,0,12485:0:0:0:0:
320,192,12048,1,0,0:0:0:0:
448,192,12423,1,0,0:0:0:0:
64,192,12548,1,0,0:0:0:0:
192,192,12548,1,0,0:0:0:0:
320,192,12548,1,0,0:0:0:0:
448,192,12673,1,0,0:0:0:0:
320,192,12673,1,0,0:0:0:0:
64,192,12798,1,0,0:0:0:0:
448,192,12798,1,0,0:0:0:0:
192,192,12798,1,0,0:0:0:0:
192,192,12923,1,0,0:0:0:0:
320,192,12923,1,0,0:0:0:0:
320,192,13048,1,0,0:0:0:0:
448,192,13048,1,0,0:0:0:0:
192,192,13110,1,0,0:0:0:0:
64,192,13110,1,0,0:0:0:0:
320,192,13173,1,0,0:0:0:0:
448,192,13173,1,0,0:0:0:0:
192,192,13235,1,0,0:0:0:0:
64,192,13235,1,0,0:0:0:0:
320,192,13298,1,0,0:0:0:0:
448,192,13298,1,0,0:0:0:0:
192,192,13360,1,0,0:0:0:0:
64,192,13360,1,0,0:0:0:0:
320,192,13423,1,0,0:0:0:0:
448,192,13423,1,0,0:0:0:0:
192,192,13485,1,0,0:0:0:0:
320,192,13548,1,0,0:0:0:0:
448,192,13548,1,0,0:0:0:0:
64,192,13548,1,0,0:0:0:0:
320,192,13673,1,0,0:0:0:0:
64,192,13798,1,0,0:0:0:0:
192,192,13798,1,0,0:0:0:0:
448,192,13798,1,0,0:0:0:0:
192,192,13923,1,0,0:0:0:0:
448,192,14048,1,0,0:0:0:0:
320,192,14173,1,0,0:0:0:0:
64,192,14298,1,0,0:0:0:0:
448,192,14298,1,0,0:0:0:0:
192,192,14298,1,0,0:0:0:0:
320,192,14423,1,0,0:0:0:0:
448,192,14548,1,0,0:0:0:0:
64,192,14548,1,0,0:0:0:0:
192,192,14673,1,0,0:0:0:0:
64,192,14673,1,0,0:0:0:0:
448,192,14798,128,0,14985:0:0:0:0:
448,192,15048,1,0,0:0:0:0:
64,192,15048,1,0,0:0:0:0:
320,192,15173,1,0,0:0:0:0:
448,192,15235,1,0,0:0:0:0:
192,192,15298,1,0,0:0:0:0:
192,192,15423,1,0,0:0:0:0:
192,192,15548,1,0,0:0:0:0:
448,192,15673,128,0,15985:0:0:0:0:
64,192,15673,128,0,15985:0:0:0:0:
320,192,15798,128,0,15985:0:0:0:0:
64,192,16048,1,0,0:0:0:0:
448,192,16048,1,0,0:0:0:0:
320,192,16048,1,0,0:0:0:0:
192,192,16173,1,0,0:0:0:0:
320,192,16173,1,0,0:0:0:0:
64,192,16298,1,0,0:0:0:0:
192,192,16298,1,0,0:0:0:0:
448,192,16298,1,0,0:0:0:0:
320,192,16423,1,0,0:0:0:0:
448,192,16423,1,0,0:0:0:0:
192,192,16548,1,0,0:0:0:0:
64,192,16548,1,0,0:0:0:0:
448,192,16610,1,0,0:0:0:0:
320,192,16673,1,0,0:0:0:0:
64,192,16673,1,0,0:0:0:0:
192,192,16735,1,0,0:0:0:0:
448,192,16798,1,0,0:0:0:0:
320,192,16798,1,0,0:0:0:0:
64,192,16860,1,0,0:0:0:0:
448,192,16923,1,0,0:0:0:0:
192,192,16923,1,0,0:0:0:0:
320,192,16985,1,0,0:0:0:0:
192,192,17048,1,0,0:0:0:0:
64,192,17048,1,0,0:0:0:0:
320,192,17110,1,0,0:0:0:0:
64,192,17173,1,0,0:0:0:0:
448,192,17173,1,0,0:0:0:0:
192,192,17235,1,0,0:0:0:0:
64,192,17298,1,0,0:0:0:0:
448,192,17298,1,0,0:0:0:0:
320,192,17298,1,0,0:0:0:0:
192,192,17423,1,0,0:0:0:0:
448,192,17423,1,0,0:0:0:0:
320,192,17485,1,0,0:0:0:0:
64,192,17548,1,0,0:0:0:0:
192,192,17610,1,0,0:0:0:0:
448,192,17673,1,0,0:0:0:0:
320,192,17735,1,0,0:0:0:0:
192,192,17798,1,0,0:0:0:0:
64,192,17798,1,0,0:0:0:0:
448,192,17798,1,0,0:0:0:0:
320,192,17923,1,0,0:0:0:0:
448,192,17923,1,0,0:0:0:0:
192,192,17985,1,0,0:0:0:0:
64,192,18048,1,0,0:0:0:0:
320,192,18048,1,0,0:0:0:0:
448,192,18048,1,0,0:0:0:0:
192,192,18173,1,0,0:0:0:0:
320,192,18173,1,0,0:0:0:0:
64,192,18298,1,0,0:0:0:0:
192,192,18298,1,0,0:0:0:0:
448,192,18298,1,0,0:0:0:0:
320,192,18423,1,0,0:0:0:0:
448,192,18423,1,0,0:0:0:0:
64,192,18548,1,0,0:0:0:0:
192,192,18548,1,0,0:0:0:0:
448,192,18610,1,0,0:0:0:0:
320,192,18673,1,0,0:0:0:0:
64,192,18673,1,0,0:0:0:0:
192,192,18735,1,0,0:0:0:0:
448,192,18798,1,0,0:0:0:0:
320,192,18798,1,0,0:0:0:0:
64,192,18860,1,0,0:0:0:0:
448,192,18923,1,0,0:0:0:0:
192,192,18923,1,0,0:0:0:0:
320,192,18985,1,0,0:0:0:0:
448,192,19048,1,0,0:0:0:0:
192,192,19048,1,0,0:0:0:0:
64,192,19048,1,0,0:0:0:0:
64,192,19173,1,0,0:0:0:0:
192,192,19173,1,0,0:0:0:0:
448,192,19173,1,0,0:0:0:0:
64,192,19298,1,0,0:0:0:0:
192,192,19298,1,0,0:0:0:0:
448,192,19298,1,0,0:0:0:0:
64,192,19423,1,0,0:0:0:0:
192,192,19423,1,0,0:0:0:0:
448,192,19423,1,0,0:0:0:0:
320,192,19548,1,0,0:0:0:0:
192,192,19548,1,0,0:0:0:0:
64,192,19610,1,0,0:0:0:0:
320,192,19673,1,0,0:0:0:0:
448,192,19673,1,0,0:0:0:0:
192,192,19735,1,0,0:0:0:0:
448,192,19798,1,0,0:0:0:0:
320,192,19798,1,0,0:0:0:0:
64,192,19798,1,0,0:0:0:0:
192,192,19923,1,0,0:0:0:0:
64,192,19923,1,0,0:0:0:0:
320,192,19985,1,0,0:0:0:0:
64,192,20048,1,0,0:0:0:0:
448,192,20048,1,0,0:0:0:0:
192,192,20048,1,0,0:0:0:0:
192,192,20173,1,0,0:0:0:0:
320,192,20173,1,0,0:0:0:0:
64,192,20298,1,0,0:0:0:0:
448,192,20298,1,0,0:0:0:0:
320,192,20298,1,0,0:0:0:0:
192,192,20423,1,0,0:0:0:0:
448,192,20423,1,0,0:0:0:0:
64,192,20548,1,0,0:0:0:0:
320,192,20548,1,0,0:0:0:0:
448,192,20548,128,0,20673:0:0:0:0:
192,192,20673,1,0,0:0:0:0:
448,192,20798,1,0,0:0:0:0:
192,192,20798,1,0,0:0:0:0:
64,192,20798,128,0,20923:0:0:0:0:
320,192,20923,1,0,0:0:0:0:
64,192,21048,1,0,0:0:0:0:
320,192,21048,1,0,0:0:0:0:
448,192,21048,1,0,0:0:0:0:
192,192,21110,1,0,0:0:0:0:
64,192,21173,1,0,0:0:0:0:
448,192,21173,1,0,0:0:0:0:
320,192,21235,1,0,0:0:0:0:
64,192,21298,1,0,0:0:0:0:
192,192,21298,1,0,0:0:0:0:
448,192,21298,1,0,0:0:0:0:
320,192,21423,1,0,0:0:0:0:
448,192,21423,1,0,0:0:0:0:
192,192,21485,1,0,0:0:0:0:
64,192,21548,1,0,0:0:0:0:
320,192,21548,1,0,0:0:0:0:
448,192,21548,128,0,21673:0:0:0:0:
192,192,21673,1,0,0:0:0:0:
192,192,21798,1,0,0:0:0:0:
448,192,21798,1,0,0:0:0:0:
64,192,21798,128,0,21923:0:0:0:0:
320,192,21923,1,0,0:0:0:0:
64,192,22048,1,0,0:0:0:0:
320,192,22048,1,0,0:0:0:0:
448,192,22048,1,0,0:0:0:0:
192,192,22173,1,0,0:0:0:0:
448,192,22173,1,0,0:0:0:0:
320,192,22235,1,0,0:0:0:0:
64,192,22298,1,0,0:0:0:0:
448,192,22423,1,0,0:0:0:0:
64,192,22548,1,0,0:0:0:0:
448,192,22548,1,0,0:0:0:0:
320,192,22548,1,0,0:0:0:0:
192,192,22610,1,0,0:0:0:0:
64,192,22673,1,0,0:0:0:0:
448,192,22673,1,0,0:0:0:0:
320,192,22798,1,0,0:0:0:0:
192,192,22798,1,0,0:0:0:0:
64,192,22923,1,0,0:0:0:0:
448,192,22923,1,0,0:0:0:0:
192,192,23048,1,0,0:0:0:0:
64,192,23048,1,0,0:0:0:0:
320,192,23110,1,0,0:0:0:0:
448,192,23110,1,0,0:0:0:0:
64,192,23173,1,0,0:0:0:0:
192,192,23173,1,0,0:0:0:0:
320,192,23235,1,0,0:0:0:0:
448,192,23235,1,0,0:0:0:0:
192,192,23298,1,0,0:0:0:0:
64,192,23298,1,0,0:0:0:0:
320,192,23360,1,0,0:0:0:0:
448,192,23360,1,0,0:0:0:0:
192,192,23423,1,0,0:0:0:0:
64,192,23423,1,0,0:0:0:0:
320,192,23485,1,0,0:0:0:0:
192,192,23548,1,0,0:0:0:0:
448,192,23548,1,0,0:0:0:0:
64,192,23548,128,0,23673:0:0:0:0:
320,192,23673,128,0,23798:0:0:0:0:
448,192,23798,1,0,0:0:0:0:
64,192,23798,1,0,0:0:0:0:
192,192,23798,1,0,0:0:0:0:
320,192,23923,1,0,0:0:0:0:
192,192,24048,1,0,0:0:0:0:
448,192,24048,1,0,0:0:0:0:
320,192,24048,1,0,0:0:0:0:
64,192,24173,1,0,0:0:0:0:
192,192,24173,1,0,0:0:0:0:
320,192,24298,1,0,0:0:0:0:
448,192,24298,1,0,0:0:0:0:
64,192,24298,1,0,0:0:0:0:
192,192,24423,1,0,0:0:0:0:
448,192,24423,1,0,0:0:0:0:
192,192,24548,1,0,0:0:0:0:
64,192,24548,1,0,0:0:0:0:
320,192,24548,1,0,0:0:0:0:
64,192,24673,1,0,0:0:0:0:
192,192,24673,1,0,0:0:0:0:
320,192,24673,1,0,0:0:0:0:
64,192,24798,1,0,0:0:0:0:
192,192,24798,1,0,0:0:0:0:
448,192,24798,1,0,0:0:0:0:
320,192,24860,1,0,0:0:0:0:
192,192,24923,1,0,0:0:0:0:
64,192,24923,1,0,0:0:0:0:
448,192,24985,1,0,0:0:0:0:
320,192,25048,1,0,0:0:0:0:
192,192,25048,1,0,0:0:0:0:
64,192,25048,1,0,0:0:0:0:
320,192,25173,1,0,0:0:0:0:
448,192,25173,1,0,0:0:0:0:
192,192,25235,1,0,0:0:0:0:
64,192,25298,1,0,0:0:0:0:
448,192,25298,1,0,0:0:0:0:
320,192,25298,1,0,0:0:0:0:
320,192,25423,1,0,0:0:0:0:
192,192,25423,1,0,0:0:0:0:
448,192,25548,1,0,0:0:0:0:
192,192,25548,1,0,0:0:0:0:
64,192,25548,1,0,0:0:0:0:
320,192,25610,1,0,0:0:0:0:
192,192,25673,1,0,0:0:0:0:
320,192,25735,1,0,0:0:0:0:
64,192,25798,1,0,0:0:0:0:
192,192,25798,1,0,0:0:0:0:
448,192,25798,1,0,0:0:0:0:
320,192,25860,1,0,0:0:0:0:
192,192,25923,1,0,0:0:0:0:
448,192,26048,1,0,0:0:0:0:
320,192,26048,1,0,0:0:0:0:
64,192,26048,1,0,0:0:0:0:
320,192,26173,1,0,0:0:0:0:
192,192,26173,1,0,0:0:0:0:
448,192,26298,1,0,0:0:0:0:
64,192,26298,1,0,0:0:0:0:
192,192,26298,1,0,0:0:0:0:
448,192,26423,1,0,0:0:0:0:
320,192,26423,1,0,0:0:0:0:
64,192,26548,1,0,0:0:0:0:
192,192,26548,1,0,0:0:0:0:
448,192,26673,1,0,0:0:0:0:
64,192,26673,1,0,0:0:0:0:
320,192,26735,1,0,0:0:0:0:
192,192,26798,1,0,0:0:0:0:
64,192,26798,1,0,0:0:0:0:
448,192,26860,1,0,0:0:0:0:
320,192,26860,1,0,0:0:0:0:
192,192,26923,1,0,0:0:0:0:
64,192,26923,1,0,0:0:0:0:
448,192,26985,1,0,0:0:0:0:
192,192,27048,1,0,0:0:0:0:
64,192,27048,1,0,0:0:0:0:
320,192,27048,1,0,0:0:0:0:
320,192,27173,1,0,0:0:0:0:
448,192,27173,1,0,0:0:0:0:
192,192,27173,1,0,0:0:0:0:
64,192,27235,1,0,0:0:0:0:
320,192,27298,1,0,0:0:0:0:
448,192,27298,1,0,0:0:0:0:
192,192,27360,1,0,0:0:0:0:
64,192,27360,1,0,0:0:0:0:
320,192,27423,1,0,0:0:0:0:
448,192,27423,1,0,0:0:0:0:
192,192,27548,1,0,0:0:0:0:
64,192,27548,1,0,0:0:0:0:
320,192,27610,1,0,0:0:0:0:
448,192,27610,1,0,0:0:0:0:
192,192,27673,1,0,0:0:0:0:
64,192,27673,1,0,0:0:0:0:
320,192,27735,1,0,0:0:0:0:
448,192,27735,1,0,0:0:0:0:
192,192,27798,1,0,0:0:0:0:
64,192,27798,1,0,0:0:0:0:
320,192,27860,1,0,0:0:0:0:
448,192,27860,1,0,0:0:0:0:
64,192,27923,1,0,0:0:0:0:
192,192,27923,1,0,0:0:0:0:
320,192,27985,1,0,0:0:0:0:
192,192,28048,1,0,0:0:0:0:
64,192,28048,1,0,0:0:0:0:
448,192,28048,1,0,0:0:0:0:
192,192,28173,1,0,0:0:0:0:
320,192,28173,1,0,0:0:0:0:
64,192,28298,1,0,0:0:0:0:
320,192,28298,1,0,0:0:0:0:
448,192,28298,1,0,0:0:0:0:
64,192,28423,1,0,0:0:0:0:
320,192,28423,1,0,0:0:0:0:
448,192,28423,1,0,0:0:0:0:
320,192,28548,1,0,0:0:0:0:
192,192,28548,1,0,0:0:0:0:
64,192,28673,1,0,0:0:0:0:
192,192,28673,1,0,0:0:0:0:
448,192,28673,1,0,0:0:0:0:
64,192,28798,1,0,0:0:0:0:
320,192,28798,1,0,0:0:0:0:
448,192,28798,1,0,0:0:0:0:
192,192,28860,1,0,0:0:0:0:
320,192,28923,1,0,0:0:0:0:
192,192,28985,1,0,0:0:0:0:
64,192,29048,1,0,0:0:0:0:
320,192,29048,1,0,0:0:0:0:
448,192,29048,1,0,0:0:0:0:
64,192,29173,1,0,0:0:0:0:
192,192,29173,1,0,0:0:0:0:
448,192,29235,1,0,0:0:0:0:
320,192,29235,1,0,0:0:0:0:
192,192,29298,1,0,0:0:0:0:
64,192,29298,1,0,0:0:0:0:
448,192,29423,1,0,0:0:0:0:
320,192,29423,1,0,0:0:0:0:
192,192,29485,1,0,0:0:0:0:
64,192,29485,1,0,0:0:0:0:
320,192,29548,1,0,0:0:0:0:
448,192,29548,1,0,0:0:0:0:
192,192,29610,1,0,0:0:0:0:
64,192,29610,1,0,0:0:0:0:
320,192,29673,1,0,0:0:0:0:
448,192,29673,1,0,0:0:0:0:
192,192,29735,1,0,0:0:0:0:
64,192,29735,1,0,0:0:0:0:
448,192,29798,1,0,0:0:0:0:
320,192,29798,1,0,0:0:0:0:
64,192,29923,1,0,0:0:0:0:
192,192,29923,1,0,0:0:0:0:
320,192,29985,1,0,0:0:0:0:
448,192,30048,1,0,0:0:0:0:
64,192,30048,1,0,0:0:0:0:
192,192,30048,1,0,0:0:0:0:
64,192,30173,1,0,0:0:0:0:
192,192,30173,1,0,0:0:0:0:
448,192,30173,1,0,0:0:0:0:
64,192,30298,1,0,0:0:0:0:
320,192,30298,1,0,0:0:0:0:
448,192,30298,1,0,0:0:0:0:
64,192,30423,1,0,0:0:0:0:
448,192,30423,1,0,0:0:0:0:
320,192,30423,1,0,0:0:0:0:
448,192,30548,1,0,0:0:0:0:
320,192,30548,1,0,0:0:0:0:
192,192,30548,1,0,0:0:0:0:
320,192,30673,1,0,0:0:0:0:
448,192,30673,1,0,0:0:0:0:
192,192,30673,1,0,0:0:0:0:
320,192,30798,1,0,0:0:0:0:
64,192,30798,1,0,0:0:0:0:
192,192,30798,1,0,0:0:0:0:
320,192,30923,1,0,0:0:0:0:
64,192,30923,1,0,0:0:0:0:
192,192,30923,1,0,0:0:0:0:
448,192,31048,128,0,31235:0:0:0:0:
192,192,31298,128,0,31485:0:0:0:0:
192,192,31548,1,0,0:0:0:0:
64,192,31548,1,0,0:0:0:0:
320,192,31548,128,0,31735:0:0:0:0:
448,192,31548,1,0,0:0:0:0:
64,192,31798,128,0,31985:0:0:0:0:
192,192,31798,1,0,0:0:0:0:
448,192,31798,1,0,0:0:0:0:
64,192,32048,1,0,0:0:0:0:
448,192,32048,1,0,0:0:0:0:
192,192,32048,1,0,0:0:0:0:
320,192,32298,1,0,0:0:0:0:
448,192,32298,1,0,0:0:0:0:
64,192,32423,1,0,0:0:0:0:
192,192,32423,1,0,0:0:0:0:
448,192,32485,1,0,0:0:0:0:
192,192,32673,1,0,0:0:0:0:
64,192,32798,1,0,0:0:0:0:
320,192,32798,1,0,0:0:0:0:
448,192,32798,1,0,0:0:0:0:
192,192,32923,1,0,0:0:0:0:
320,192,32985,1,0,0:0:0:0:
64,192,33048,1,0,0:0:0:0:
192,192,33048,1,0,0:0:0:0:
448,192,33048,1,0,0:0:0:0:
320,192,33298,1,0,0:0:0:0:
448,192,33298,1,0,0:0:0:0:
192,192,33423,1,0,0:0:0:0:
64,192,33423,1,0,0:0:0:0:
448,192,33485,1,0,0:0:0:0:
64,192,33610,1,0,0:0:0:0:
320,192,33673,1,0,0:0:0:0:
64,192,33798,1,0,0:0:0:0:
192,192,33798,1,0,0:0:0:0:
448,192,33798,1,0,0:0:0:0:
320,192,33923,1,0,0:0:0:0:
192,192,33985,1,0,0:0:0:0:
64,192,34048,1,0,0:0:0:0:
320,192,34048,1,0,0:0:0:0:
448,192,34048,1,0,0:0:0:0:
192,192,34173,1,0,0:0:0:0:
320,192,34298,1,0,0:0:0:0:
448,192,34298,1,0,0:0:0:0:
192,192,34423,1,0,0:0:0:0:
448,192,34485,1,0,0:0:0:0:
64,192,34548,1,0,0:0:0:0:
192,192,34673,1,0,0:0:0:0:
64,192,34798,1,0,0:0:0:0:
448,192,34798,1,0,0:0:0:0:
320,192,34923,1,0,0:0:0:0:
192,192,34985,1,0,0:0:0:0:
64,192,35048,1,0,0:0:0:0:
320,192,35048,1,0,0:0:0:0:
448,192,35048,1,0,0:0:0:0:
192,192,35173,1,0,0:0:0:0:
320,192,35298,1,0,0:0:0:0:
448,192,35298,1,0,0:0:0:0:
192,192,35423,1,0,0:0:0:0:
320,192,35485,1,0,0:0:0:0:
64,192,35548,1,0,0:0:0:0:
448,192,35548,1,0,0:0:0:0:
192,192,35548,128,0,35735:0:0:0:0:
64,192,35798,1,0,0:0:0:0:
448,192,35798,1,0,0:0:0:0:
320,192,35798,128,0,35985:0:0:0:0:
64,192,36048,1,0,0:0:0:0:
448,192,36048,1,0,0:0:0:0:
192,192,36048,1,0,0:0:0:0:
320,192,36110,1,0,0:0:0:0:
192,192,36173,1,0,0:0:0:0:
64,192,36173,1,0,0:0:0:0:
448,192,36235,1,0,0:0:0:0:
320,192,36298,1,0,0:0:0:0:
192,192,36298,1,0,0:0:0:0:
64,192,36298,1,0,0:0:0:0:
448,192,36423,1,0,0:0:0:0:
192,192,36485,1,0,0:0:0:0:
64,192,36673,1,0,0:0:0:0:
192,192,36735,1,0,0:0:0:0:
448,192,36798,1,0,0:0:0:0:
320,192,36798,1,0,0:0:0:0:
192,192,36923,1,0,0:0:0:0:
320,192,36985,1,0,0:0:0:0:
64,192,37048,1,0,0:0:0:0:
448,192,37048,1,0,0:0:0:0:
320,192,37173,1,0,0:0:0:0:
64,192,37298,1,0,0:0:0:0:
192,192,37298,1,0,0:0:0:0:
320,192,37423,1,0,0:0:0:0:
64,192,37485,1,0,0:0:0:0:
448,192,37610,1,0,0:0:0:0:
192,192,37673,1,0,0:0:0:0:
64,192,37798,1,0,0:0:0:0:
320,192,37798,1,0,0:0:0:0:
448,192,37798,1,0,0:0:0:0:
64,192,37923,1,0,0:0:0:0:
192,192,37923,1,0,0:0:0:0:
320,192,37985,1,0,0:0:0:0:
64,192,38048,1,0,0:0:0:0:
192,192,38048,1,0,0:0:0:0:
448,192,38048,1,0,0:0:0:0:
320,192,38173,1,0,0:0:0:0:
192,192,38298,1,0,0:0:0:0:
64,192,38298,1,0,0:0:0:0:
320,192,38423,1,0,0:0:0:0:
64,192,38485,1,0,0:0:0:0:
448,192,38548,1,0,0:0:0:0:
64,192,38673,1,0,0:0:0:0:
192,192,38673,1,0,0:0:0:0:
320,192,38735,1,0,0:0:0:0:
64,192,38798,1,0,0:0:0:0:
192,192,38798,1,0,0:0:0:0:
448,192,38798,1,0,0:0:0:0:
320,192,38923,1,0,0:0:0:0:
192,192,38985,1,0,0:0:0:0:
64,192,39048,1,0,0:0:0:0:
320,192,39048,1,0,0:0:0:0:
448,192,39048,128,0,39235:0:0:0:0:
64,192,39298,128,0,39485:0:0:0:0:
448,192,39298,1,0,0:0:0:0:
320,192,39298,1,0,0:0:0:0:
448,192,39548,128,0,39735:0:0:0:0:
64,192,39548,1,0,0:0:0:0:
320,192,39548,1,0,0:0:0:0:
64,192,39798,128,0,39985:0:0:0:0:
448,192,39798,1,0,0:0:0:0:
320,192,39798,1,0,0:0:0:0:
64,192,40048,1,0,0:0:0:0:
448,192,40048,1,0,0:0:0:0:
192,192,40048,1,0,0:0:0:0:
320,192,40298,1,0,0:0:0:0:
448,192,40298,1,0,0:0:0:0:
64,192,40423,1,0,0:0:0:0:
192,192,40423,1,0,0:0:0:0:
448,192,40485,1,0,0:0:0:0:
192,192,40673,1,0,0:0:0:0:
64,192,40798,1,0,0:0:0:0:
320,192,40798,1,0,0:0:0:0:
448,192,40798,1,0,0:0:0:0:
192,192,40923,1,0,0:0:0:0:
320,192,40985,1,0,0:0:0:0:
448,192,41048,1,0,0:0:0:0:
192,192,41048,1,0,0:0:0:0:
64,192,41048,1,0,0:0:0:0:
320,192,41298,1,0,0:0:0:0:
448,192,41298,1,0,0:0:0:0:
64,192,41423,1,0,0:0:0:0:
192,192,41423,1,0,0:0:0:0:
448,192,41485,1,0,0:0:0:0:
64,192,41610,1,0,0:0:0:0:
320,192,41673,1,0,0:0:0:0:
64,192,41798,1,0,0:0:0:0:
192,192,41798,1,0,0:0:0:0:
448,192,41798,1,0,0:0:0:0:
320,192,41923,1,0,0:0:0:0:
192,192,41985,1,0,0:0:0:0:
64,192,42048,1,0,0:0:0:0:
320,192,42048,1,0,0:0:0:0:
448,192,42048,1,0,0:0:0:0:
192,192,42173,1,0,0:0:0:0:
64,192,42298,1,0,0:0:0:0:
192,192,42298,1,0,0:0:0:0:
448,192,42298,1,0,0:0:0:0:
320,192,42423,1,0,0:0:0:0:
64,192,42485,1,0,0:0:0:0:
192,192,42548,1,0,0:0:0:0:
64,192,42673,1,0,0:0:0:0:
320,192,42673,1,0,0:0:0:0:
448,192,42673,1,0,0:0:0:0:
192,192,42798,1,0,0:0:0:0:
448,192,42860,1,0,0:0:0:0:
320,192,42923,1,0,0:0:0:0:
192,192,43048,1,0,0:0:0:0:
64,192,43048,1,0,0:0:0:0:
448,192,43048,1,0,0:0:0:0:
64,192,43298,1,0,0:0:0:0:
192,192,43298,1,0,0:0:0:0:
448,192,43298,1,0,0:0:0:0:
64,192,43423,1,0,0:0:0:0:
192,192,43423,1,0,0:0:0:0:
448,192,43423,1,0,0:0:0:0:
320,192,43548,1,0,0:0:0:0:
64,192,43610,1,0,0:0:0:0:
192,192,43673,1,0,0:0:0:0:
64,192,43798,1,0,0:0:0:0:
320,192,43798,1,0,0:0:0:0:
448,192,43798,1,0,0:0:0:0:
64,192,43923,1,0,0:0:0:0:
320,192,43923,1,0,0:0:0:0:
448,192,43923,1,0,0:0:0:0:
192,192,44048,1,0,0:0:0:0:
64,192,44048,1,0,0:0:0:0:
448,192,44048,1,0,0:0:0:0:
320,192,44173,1,0,0:0:0:0:
192,192,44298,1,0,0:0:0:0:
64,192,44298,1,0,0:0:0:0:
320,192,44423,1,0,0:0:0:0:
64,192,44485,1,0,0:0:0:0:
320,192,44673,1,0,0:0:0:0:
64,192,44798,1,0,0:0:0:0:
448,192,44798,1,0,0:0:0:0:
320,192,44923,1,0,0:0:0:0:
192,192,44985,1,0,0:0:0:0:
64,192,45048,1,0,0:0:0:0:
448,192,45048,1,0,0:0:0:0:
320,192,45173,1,0,0:0:0:0:
192,192,45298,1,0,0:0:0:0:
64,192,45298,1,0,0:0:0:0:
320,192,45423,1,0,0:0:0:0:
64,192,45485,1,0,0:0:0:0:
448,192,45610,1,0,0:0:0:0:
192,192,45673,1,0,0:0:0:0:
64,192,45798,1,0,0:0:0:0:
320,192,45798,1,0,0:0:0:0:
448,192,45798,1,0,0:0:0:0:
192,192,45923,1,0,0:0:0:0:
64,192,45923,1,0,0:0:0:0:
320,192,45985,1,0,0:0:0:0:
64,192,46048,1,0,0:0:0:0:
192,192,46048,1,0,0:0:0:0:
448,192,46048,1,0,0:0:0:0:
320,192,46173,1,0,0:0:0:0:
448,192,46173,1,0,0:0:0:0:
192,192,46298,1,0,0:0:0:0:
64,192,46298,1,0,0:0:0:0:
320,192,46423,5,0,0:0:0:0:
448,192,46423,1,0,0:0:0:0:
192,192,46485,1,0,0:0:0:0:
64,192,46548,1,0,0:0:0:0:
320,192,46548,1,0,0:0:0:0:
448,192,46548,1,0,0:0:0:0:
192,192,46673,1,0,0:0:0:0:
64,192,46673,1,0,0:0:0:0:
192,192,46798,1,0,0:0:0:0:
320,192,46798,1,0,0:0:0:0:
448,192,46798,1,0,0:0:0:0:
64,192,46923,1,0,0:0:0:0:
320,192,46923,1,0,0:0:0:0:
64,192,47048,1,0,0:0:0:0:
192,192,47048,1,0,0:0:0:0:
448,192,47048,1,0,0:0:0:0:
192,192,47548,5,0,0:0:0:0:
64,192,47548,1,0,0:0:0:0:
448,192,47610,1,0,0:0:0:0:
320,192,47610,1,0,0:0:0:0:
192,192,47673,1,0,0:0:0:0:
64,192,47673,1,0,0:0:0:0:
320,192,47735,1,0,0:0:0:0:
192,192,47798,1,0,0:0:0:0:
64,192,47798,1,0,0:0:0:0:
448,192,47798,1,0,0:0:0:0:
192,192,47923,1,0,0:0:0:0:
64,192,47923,1,0,0:0:0:0:
448,192,47923,1,0,0:0:0:0:
64,192,48048,1,0,0:0:0:0:
448,192,48048,1,0,0:0:0:0:
192,192,48048,1,0,0:0:0:0:
320,192,48173,1,0,0:0:0:0:
64,192,48298,1,0,0:0:0:0:
448,192,48298,1,0,0:0:0:0:
320,192,48298,1,0,0:0:0:0:
192,192,48423,1,0,0:0:0:0:
64,192,48548,1,0,0:0:0:0:
448,192,48548,1,0,0:0:0:0:
192,192,48548,1,0,0:0:0:0:
320,192,48673,1,0,0:0:0:0:
448,192,48673,1,0,0:0:0:0:
64,192,48798,1,0,0:0:0:0:
192,192,48798,1,0,0:0:0:0:
320,192,48923,1,0,0:0:0:0:
448,192,48923,1,0,0:0:0:0:
448,192,49048,1,0,0:0:0:0:
64,192,49048,1,0,0:0:0:0:
192,192,49173,1,0,0:0:0:0:
64,192,49298,1,0,0:0:0:0:
192,192,49298,1,0,0:0:0:0:
448,192,49298,1,0,0:0:0:0:
320,192,49423,1,0,0:0:0:0:
64,192,49548,1,0,0:0:0:0:
320,192,49548,1,0,0:0:0:0:
448,192,49548,1,0,0:0:0:0:
192,192,49673,1,0,0:0:0:0:
64,192,49673,1,0,0:0:0:0:
320,192,49798,1,0,0:0:0:0:
448,192,49798,1,0,0:0:0:0:
192,192,49923,1,0,0:0:0:0:
64,192,49923,1,0,0:0:0:0:
64,192,50048,1,0,0:0:0:0:
448,192,50048,1,0,0:0:0:0:
320,192,50173,1,0,0:0:0:0:
64,192,50298,1,0,0:0:0:0:
320,192,50298,1,0,0:0:0:0:
448,192,50298,1,0,0:0:0:0:
192,192,50423,1,0,0:0:0:0:
448,192,50548,1,0,0:0:0:0:
64,192,50548,1,0,0:0:0:0:
192,192,50548,1,0,0:0:0:0:
320,192,50673,1,0,0:0:0:0:
448,192,50673,1,0,0:0:0:0:
192,192,50735,1,0,0:0:0:0:
64,192,50735,1,0,0:0:0:0:
320,192,50798,1,0,0:0:0:0:
448,192,50798,1,0,0:0:0:0:
320,192,50923,1,0,0:0:0:0:
448,192,50923,1,0,0:0:0:0:
192,192,50985,1,0,0:0:0:0:
320,192,51048,1,0,0:0:0:0:
448,192,51048,1,0,0:0:0:0:
64,192,51048,1,0,0:0:0:0:
192,192,51173,1,0,0:0:0:0:
64,192,51298,1,0,0:0:0:0:
448,192,51298,1,0,0:0:0:0:
320,192,51298,1,0,0:0:0:0:
64,192,51423,1,0,0:0:0:0:
192,192,51423,1,0,0:0:0:0:
448,192,51423,1,0,0:0:0:0:
320,192,51548,1,0,0:0:0:0:
192,192,51673,1,0,0:0:0:0:
64,192,51673,1,0,0:0:0:0:
448,192,51673,1,0,0:0:0:0:
320,192,51798,1,0,0:0:0:0:
448,192,51798,1,0,0:0:0:0:
192,192,51860,1,0,0:0:0:0:
64,192,51860,1,0,0:0:0:0:
320,192,51923,1,0,0:0:0:0:
448,192,51923,1,0,0:0:0:0:
192,192,51985,1,0,0:0:0:0:
320,192,52048,1,0,0:0:0:0:
448,192,52048,1,0,0:0:0:0:
64,192,52048,1,0,0:0:0:0:
192,192,52173,1,0,0:0:0:0:
64,192,52298,1,0,0:0:0:0:
192,192,52298,1,0,0:0:0:0:
448,192,52298,1,0,0:0:0:0:
320,192,52423,1,0,0:0:0:0:
64,192,52548,1,0,0:0:0:0:
320,192,52548,1,0,0:0:0:0:
448,192,52548,1,0,0:0:0:0:
192,192,52673,1,0,0:0:0:0:
64,192,52673,1,0,0:0:0:0:
320,192,52798,1,0,0:0:0:0:
448,192,52798,1,0,0:0:0:0:
192,192,52923,1,0,0:0:0:0:
64,192,52923,1,0,0:0:0:0:
64,192,53048,1,0,0:0:0:0:
448,192,53048,1,0,0:0:0:0:
320,192,53173,1,0,0:0:0:0:
64,192,53298,1,0,0:0:0:0:
320,192,53298,1,0,0:0:0:0:
448,192,53298,1,0,0:0:0:0:
192,192,53423,1,0,0:0:0:0:
64,192,53548,1,0,0:0:0:0:
192,192,53548,1,0,0:0:0:0:
448,192,53548,1,0,0:0:0:0:
320,192,53673,1,0,0:0:0:0:
448,192,53673,1,0,0:0:0:0:
192,192,53798,1,0,0:0:0:0:
64,192,53798,1,0,0:0:0:0:
320,192,53923,1,0,0:0:0:0:
448,192,53923,1,0,0:0:0:0:
64,192,54048,1,0,0:0:0:0:
448,192,54048,1,0,0:0:0:0:
192,192,54048,1,0,0:0:0:0:
320,192,54173,1,0,0:0:0:0:
192,192,54235,1,0,0:0:0:0:
64,192,54298,1,0,0:0:0:0:
448,192,54298,1,0,0:0:0:0:
320,192,54298,1,0,0:0:0:0:
192,192,54423,1,0,0:0:0:0:
320,192,54485,1,0,0:0:0:0:
64,192,54548,1,0,0:0:0:0:
448,192,54548,1,0,0:0:0:0:
192,192,54548,1,0,0:0:0:0:
64,192,54673,1,0,0:0:0:0:
192,192,54673,1,0,0:0:0:0:
448,192,54673,1,0,0:0:0:0:
64,192,54798,1,0,0:0:0:0:
448,192,54798,1,0,0:0:0:0:
192,192,54798,1,0,0:0:0:0:
64,192,54923,1,0,0:0:0:0:
192,192,54923,1,0,0:0:0:0:
448,192,54923,1,0,0:0:0:0:
320,192,55048,1,0,0:0:0:0:
448,192,55048,1,0,0:0:0:0:
192,192,55110,1,0,0:0:0:0:
64,192,55110,1,0,0:0:0:0:
320,192,55173,1,0,0:0:0:0:
448,192,55173,1,0,0:0:0:0:
192,192,55235,1,0,0:0:0:0:
320,192,55298,1,0,0:0:0:0:
448,192,55298,1,0,0:0:0:0:
64,192,55298,128,0,55423:0:0:0:0:
64,192,55485,1,0,0:0:0:0:
192,192,55485,1,0,0:0:0:0:
448,192,55485,128,0,55610:0:0:0:0:
448,192,55673,1,0,0:0:0:0:
64,192,55673,128,0,55798:0:0:0:0:
320,192,55673,1,0,0:0:0:0:
192,192,55860,1,0,0:0:0:0:
64,192,55860,1,0,0:0:0:0:
448,192,55860,128,0,55985:0:0:0:0:
64,192,56048,1,0,0:0:0:0:
192,192,56048,1,0,0:0:0:0:
448,192,56048,1,0,0:0:0:0:
320,192,56173,1,0,0:0:0:0:
64,192,56298,1,0,0:0:0:0:
320,192,56298,1,0,0:0:0:0:
448,192,56298,1,0,0:0:0:0:
192,192,56423,1,0,0:0:0:0:
64,192,56548,1,0,0:0:0:0:
192,192,56548,1,0,0:0:0:0:
448,192,56548,1,0,0:0:0:0:
448,192,56673,1,0,0:0:0:0:
320,192,56673,1,0,0:0:0:0:
64,192,56798,1,0,0:0:0:0:
192,192,56798,1,0,0:0:0:0:
448,192,56923,1,0,0:0:0:0:
320,192,56923,1,0,0:0:0:0:
64,192,57048,1,0,0:0:0:0:
320,192,57048,1,0,0:0:0:0:
64,192,57173,1,0,0:0:0:0:
192,192,57173,1,0,0:0:0:0:
448,192,57173,1,0,0:0:0:0:
320,192,57298,1,0,0:0:0:0:
192,192,57423,1,0,0:0:0:0:
64,192,57423,1,0,0:0:0:0:
448,192,57423,1,0,0:0:0:0:
64,192,57548,1,0,0:0:0:0:
192,192,57548,1,0,0:0:0:0:
320,192,57548,1,0,0:0:0:0:
192,192,57673,1,0,0:0:0:0:
320,192,57673,1,0,0:0:0:0:
448,192,57673,1,0,0:0:0:0:
64,192,57798,1,0,0:0:0:0:
320,192,57798,1,0,0:0:0:0:
448,192,57798,1,0,0:0:0:0:
192,192,57923,1,0,0:0:0:0:
64,192,58048,1,0,0:0:0:0:
192,192,58048,1,0,0:0:0:0:
448,192,58048,1,0,0:0:0:0:
320,192,58173,1,0,0:0:0:0:
320,192,58298,1,0,0:0:0:0:
448,192,58298,1,0,0:0:0:0:
64,192,58298,1,0,0:0:0:0:
192,192,58423,1,0,0:0:0:0:
64,192,58548,1,0,0:0:0:0:
192,192,58548,1,0,0:0:0:0:
448,192,58548,1,0,0:0:0:0:
320,192,58673,1,0,0:0:0:0:
448,192,58673,1,0,0:0:0:0:
192,192,58798,1,0,0:0:0:0:
64,192,58798,1,0,0:0:0:0:
320,192,58923,1,0,0:0:0:0:
448,192,58923,1,0,0:0:0:0:
64,192,59048,1,0,0:0:0:0:
192,192,59048,1,0,0:0:0:0:
448,192,59048,1,0,0:0:0:0:
64,192,59173,1,0,0:0:0:0:
320,192,59173,1,0,0:0:0:0:
192,192,59173,1,0,0:0:0:0:
320,192,59298,1,0,0:0:0:0:
448,192,59298,1,0,0:0:0:0:
192,192,59423,1,0,0:0:0:0:
64,192,59423,1,0,0:0:0:0:
64,192,59548,1,0,0:0:0:0:
448,192,59548,1,0,0:0:0:0:
320,192,59610,1,0,0:0:0:0:
192,192,59610,1,0,0:0:0:0:
64,192,59673,1,0,0:0:0:0:
448,192,59673,1,0,0:0:0:0:
192,192,59735,1,0,0:0:0:0:
320,192,59735,1,0,0:0:0:0:
64,192,59798,1,0,0:0:0:0:
448,192,59798,1,0,0:0:0:0:
192,192,59923,1,0,0:0:0:0:
64,192,59923,1,0,0:0:0:0:
320,192,59923,1,0,0:0:0:0:
64,192,60048,1,0,0:0:0:0:
192,192,60048,1,0,0:0:0:0:
448,192,60048,1,0,0:0:0:0:
320,192,60173,1,0,0:0:0:0:
320,192,60298,1,0,0:0:0:0:
64,192,60298,1,0,0:0:0:0:
448,192,60298,1,0,0:0:0:0:
192,192,60423,1,0,0:0:0:0:
64,192,60548,1,0,0:0:0:0:
192,192,60548,1,0,0:0:0:0:
448,192,60548,1,0,0:0:0:0:
320,192,60673,1,0,0:0:0:0:
448,192,60673,1,0,0:0:0:0:
192,192,60798,1,0,0:0:0:0:
64,192,60798,1,0,0:0:0:0:
320,192,60923,1,0,0:0:0:0:
448,192,60923,1,0,0:0:0:0:
64,192,61048,1,0,0:0:0:0:
192,192,61048,1,0,0:0:0:0:
448,192,61048,1,0,0:0:0:0:
320,192,61173,1,0,0:0:0:0:
448,192,61298,1,0,0:0:0:0:
320,192,61298,1,0,0:0:0:0:
64,192,61298,1,0,0:0:0:0:
192,192,61423,1,0,0:0:0:0:
320,192,61485,1,0,0:0:0:0:
448,192,61548,1,0,0:0:0:0:
64,192,61548,1,0,0:0:0:0:
192,192,61548,1,0,0:0:0:0:
64,192,61673,1,0,0:0:0:0:
320,192,61673,1,0,0:0:0:0:
64,192,61798,1,0,0:0:0:0:
320,192,61798,1,0,0:0:0:0:
192,192,61923,1,0,0:0:0:0:
448,192,61923,1,0,0:0:0:0:
64,192,61923,1,0,0:0:0:0:
320,192,61985,1,0,0:0:0:0:
64,192,62048,1,0,0:0:0:0:
192,192,62048,1,0,0:0:0:0:
448,192,62048,1,0,0:0:0:0:
320,192,62173,1,0,0:0:0:0:
192,192,62235,1,0,0:0:0:0:
64,192,62298,1,0,0:0:0:0:
320,192,62298,1,0,0:0:0:0:
448,192,62298,1,0,0:0:0:0:
192,192,62423,1,0,0:0:0:0:
320,192,62423,1,0,0:0:0:0:
192,192,62548,1,0,0:0:0:0:
448,192,62548,1,0,0:0:0:0:
64,192,62548,128,0,62673:0:0:0:0:
320,192,62673,1,0,0:0:0:0:
448,192,62798,128,0,62923:0:0:0:0:
64,192,62798,1,0,0:0:0:0:
320,192,62798,1,0,0:0:0:0:
192,192,62923,1,0,0:0:0:0:
64,192,63048,1,0,0:0:0:0:
192,192,63048,1,0,0:0:0:0:
320,192,63173,1,0,0:0:0:0:
448,192,63173,1,0,0:0:0:0:
64,192,63173,1,0,0:0:0:0:
192,192,63235,1,0,0:0:0:0:
448,192,63298,1,0,0:0:0:0:
320,192,63298,1,0,0:0:0:0:
192,192,63423,1,0,0:0:0:0:
64,192,63423,1,0,0:0:0:0:
320,192,63485,1,0,0:0:0:0:
64,192,63548,1,0,0:0:0:0:
448,192,63548,1,0,0:0:0:0:
192,192,63610,1,0,0:0:0:0:
320,192,63673,1,0,0:0:0:0:
448,192,63673,1,0,0:0:0:0:
64,192,63673,1,0,0:0:0:0:
192,192,63798,1,0,0:0:0:0:
320,192,63798,1,0,0:0:0:0:
64,192,63923,1,0,0:0:0:0:
192,192,63923,1,0,0:0:0:0:
448,192,63923,1,0,0:0:0:0:
64,192,64048,128,0,64235:0:0:0:0:
320,192,64048,128,0,64235:0:0:0:0:
448,192,64048,128,0,64235:0:0:0:0:
64,192,64298,1,0,0:0:0:0:
448,192,64298,1,0,0:0:0:0:
192,192,64298,1,0,0:0:0:0:
192,192,64423,1,0,0:0:0:0:
64,192,64548,1,0,0:0:0:0:
320,192,64548,1,0,0:0:0:0:
448,192,64548,1,0,0:0:0:0:
192,192,64673,1,0,0:0:0:0:
320,192,64735,1,0,0:0:0:0:
64,192,64798,1,0,0:0:0:0:
192,192,64798,1,0,0:0:0:0:
448,192,64798,1,0,0:0:0:0:
192,192,64923,1,0,0:0:0:0:
320,192,64923,1,0,0:0:0:0:
320,192,65048,128,0,65235:0:0:0:0:
64,192,65048,128,0,65235:0:0:0:0:
448,192,65048,128,0,65235:0:0:0:0:
64,192,65298,1,0,0:0:0:0:
448,192,65298,1,0,0:0:0:0:
192,192,65298,1,0,0:0:0:0:
320,192,65360,1,0,0:0:0:0:
192,192,65423,1,0,0:0:0:0:
320,192,65485,1,0,0:0:0:0:
64,192,65548,1,0,0:0:0:0:
448,192,65548,1,0,0:0:0:0:
192,192,65610,1,0,0:0:0:0:
320,192,65673,1,0,0:0:0:0:
448,192,65673,1,0,0:0:0:0:
64,192,65798,128,0,65985:0:0:0:0:
192,192,65798,1,0,0:0:0:0:
320,192,65798,1,0,0:0:0:0:
448,192,65923,1,0,0:0:0:0:
320,192,65923,1,0,0:0:0:0:
64,192,66048,1,0,0:0:0:0:
192,192,66048,1,0,0:0:0:0:
448,192,66048,1,0,0:0:0:0:
64,192,66173,1,0,0:0:0:0:
192,192,66235,1,0,0:0:0:0:
448,192,66298,1,0,0:0:0:0:
320,192,66360,1,0,0:0:0:0:
192,192,66423,1,0,0:0:0:0:
64,192,66423,1,0,0:0:0:0:
448,192,66423,1,0,0:0:0:0:
320,192,66485,1,0,0:0:0:0:
64,192,66548,1,0,0:0:0:0:
192,192,66548,1,0,0:0:0:0:
448,192,66610,1,0,0:0:0:0:
320,192,66673,1,0,0:0:0:0:
64,192,66798,1,0,0:0:0:0:
448,192,66798,1,0,0:0:0:0:
320,192,66798,1,0,0:0:0:0:
192,192,66923,1,0,0:0:0:0:
320,192,66985,1,0,0:0:0:0:
64,192,67048,1,0,0:0:0:0:
448,192,67048,1,0,0:0:0:0:
192,192,67048,1,0,0:0:0:0:
192,192,67173,1,0,0:0:0:0:
64,192,67173,1,0,0:0:0:0:
448,192,67173,1,0,0:0:0:0:
192,192,67298,1,0,0:0:0:0:
320,192,67298,1,0,0:0:0:0:
448,192,67298,1,0,0:0:0:0:
64,192,67360,1,0,0:0:0:0:
320,192,67423,1,0,0:0:0:0:
448,192,67423,1,0,0:0:0:0:
192,192,67485,1,0,0:0:0:0:
320,192,67548,1,0,0:0:0:0:
448,192,67548,1,0,0:0:0:0:
64,192,67548,128,0,67798:0:0:0:0:
448,192,67798,1,0,0:0:0:0:
320,192,67923,1,0,0:0:0:0:
64,192,68048,128,0,68235:0:0:0:0:
320,192,68048,128,0,68235:0:0:0:0:
448,192,68048,128,0,68235:0:0:0:0:
64,192,68298,128,0,68485:0:0:0:0:
320,192,68298,128,0,68485:0:0:0:0:
448,192,68298,128,0,68485:0:0:0:0:
320,192,68548,1,0,0:0:0:0:
448,192,68548,1,0,0:0:0:0:
192,192,68610,1,0,0:0:0:0:
64,192,68610,1,0,0:0:0:0:
320,192,68673,1,0,0:0:0:0:
448,192,68673,1,0,0:0:0:0:
64,192,68798,1,0,0:0:0:0:
192,192,68798,1,0,0:0:0:0:
448,192,68798,1,0,0:0:0:0:
320,192,68923,1,0,0:0:0:0:
64,192,69048,128,0,69235:0:0:0:0:
320,192,69048,128,0,69235:0:0:0:0:
448,192,69048,128,0,69235:0:0:0:0:
64,192,69298,1,0,0:0:0:0:
192,192,69423,1,0,0:0:0:0:
448,192,69548,1,0,0:0:0:0:
320,192,69610,1,0,0:0:0:0:
192,192,69673,1,0,0:0:0:0:
64,192,69673,1,0,0:0:0:0:
320,192,69735,1,0,0:0:0:0:
448,192,69735,1,0,0:0:0:0:
192,192,69798,1,0,0:0:0:0:
64,192,69798,1,0,0:0:0:0:
320,192,69860,1,0,0:0:0:0:
192,192,69923,1,0,0:0:0:0:
64,192,69923,1,0,0:0:0:0:
448,192,69923,1,0,0:0:0:0:
64,192,70048,128,0,70235:0:0:0:0:
320,192,70048,128,0,70235:0:0:0:0:
448,192,70048,128,0,70235:0:0:0:0:
192,192,70298,1,0,0:0:0:0:
320,192,70298,1,0,0:0:0:0:
448,192,70298,1,0,0:0:0:0:
64,192,70423,1,0,0:0:0:0:
192,192,70423,1,0,0:0:0:0:
64,192,70548,1,0,0:0:0:0:
320,192,70548,1,0,0:0:0:0:
448,192,70548,1,0,0:0:0:0:
192,192,70673,128,0,70798:0:0:0:0:
64,192,70798,128,0,70985:0:0:0:0:
320,192,71048,1,0,0:0:0:0:
448,192,71048,1,0,0:0:0:0:
192,192,71110,1,0,0:0:0:0:
448,192,71173,1,0,0:0:0:0:
320,192,71173,1,0,0:0:0:0:
64,192,71173,1,0,0:0:0:0:
192,192,71298,1,0,0:0:0:0:
320,192,71298,1,0,0:0:0:0:
448,192,71360,1,0,0:0:0:0:
64,192,71423,1,0,0:0:0:0:
192,192,71423,1,0,0:0:0:0:
320,192,71485,1,0,0:0:0:0:
448,192,71548,128,0,71985:0:0:0:0:
64,192,72048,128,0,72235:0:0:0:0:
192,192,72048,128,0,72235:0:0:0:0:
448,192,72048,128,0,72110:0:0:0:0:
448,192,72173,1,0,0:0:0:0:
320,192,72235,1,0,0:0:0:0:
64,192,72298,128,0,72485:0:0:0:0:
192,192,72298,128,0,72485:0:0:0:0:
448,192,72298,128,0,72485:0:0:0:0:
64,192,72548,1,0,0:0:0:0:
320,192,72548,1,0,0:0:0:0:
448,192,72548,1,0,0:0:0:0:
192,192,72673,1,0,0:0:0:0:
448,192,72673,1,0,0:0:0:0:
64,192,72798,1,0,0:0:0:0:
192,192,72798,1,0,0:0:0:0:
320,192,72923,1,0,0:0:0:0:
448,192,72923,1,0,0:0:0:0:
448,192,73048,1,0,0:0:0:0:
64,192,73173,1,0,0:0:0:0:
192,192,73173,1,0,0:0:0:0:
320,192,73173,1,0,0:0:0:0:
64,192,73298,1,0,0:0:0:0:
192,192,73298,1,0,0:0:0:0:
448,192,73298,1,0,0:0:0:0:
64,192,73423,1,0,0:0:0:0:
320,192,73423,1,0,0:0:0:0:
448,192,73423,1,0,0:0:0:0:
192,192,73548,1,0,0:0:0:0:
320,192,73548,1,0,0:0:0:0:
448,192,73548,1,0,0:0:0:0:
64,192,73673,1,0,0:0:0:0:
192,192,73673,1,0,0:0:0:0:
64,192,73798,1,0,0:0:0:0:
320,192,73798,1,0,0:0:0:0:
448,192,73798,1,0,0:0:0:0:
192,192,73923,1,0,0:0:0:0:
64,192,74048,128,0,74235:0:0:0:0:
192,192,74048,128,0,74235:0:0:0:0:
448,192,74048,128,0,74235:0:0:0:0:
64,192,74298,1,0,0:0:0:0:
192,192,74298,1,0,0:0:0:0:
448,192,74298,1,0,0:0:0:0:
64,192,74423,1,0,0:0:0:0:
192,192,74423,1,0,0:0:0:0:
320,192,74423,1,0,0:0:0:0:
320,192,74548,1,0,0:0:0:0:
448,192,74548,1,0,0:0:0:0:
64,192,74673,128,0,74735:0:0:0:0:
192,192,74673,128,0,74735:0:0:0:0:
448,192,74673,128,0,74735:0:0:0:0:
64,192,74798,1,0,0:0:0:0:
448,192,74798,1,0,0:0:0:0:
320,192,74798,1,0,0:0:0:0:
192,192,74923,1,0,0:0:0:0:
320,192,74923,1,0,0:0:0:0:
64,192,75048,1,0,0:0:0:0:
192,192,75048,1,0,0:0:0:0:
448,192,75048,1,0,0:0:0:0:
320,192,75173,1,0,0:0:0:0:
64,192,75298,1,0,0:0:0:0:
448,192,75298,1,0,0:0:0:0:
320,192,75298,1,0,0:0:0:0:
192,192,75423,1,0,0:0:0:0:
320,192,75548,1,0,0:0:0:0:
448,192,75548,1,0,0:0:0:0:
320,192,75673,1,0,0:0:0:0:
448,192,75673,1,0,0:0:0:0:
192,192,75798,1,0,0:0:0:0:
192,192,75923,1,0,0:0:0:0:
64,192,76048,1,0,0:0:0:0:
320,192,76048,1,0,0:0:0:0:
448,192,76048,128,0,76235:0:0:0:0:
448,192,76298,1,0,0:0:0:0:
192,192,76298,1,0,0:0:0:0:
64,192,76298,128,0,76485:0:0:0:0:
64,192,76548,128,0,76735:0:0:0:0:
192,192,76548,128,0,76735:0:0:0:0:
448,192,76548,128,0,76735:0:0:0:0:
64,192,76798,1,0,0:0:0:0:
448,192,76798,1,0,0:0:0:0:
192,192,76798,1,0,0:0:0:0:
320,192,76860,1,0,0:0:0:0:
192,192,76923,1,0,0:0:0:0:
320,192,76985,1,0,0:0:0:0:
64,192,77048,1,0,0:0:0:0:
192,192,77110,1,0,0:0:0:0:
448,192,77173,1,0,0:0:0:0:
320,192,77235,1,0,0:0:0:0:
64,192,77298,1,0,0:0:0:0:
192,192,77360,1,0,0:0:0:0:
64,192,77423,128,0,77485:0:0:0:0:
320,192,77423,128,0,77485:0:0:0:0:
448,192,77423,128,0,77485:0:0:0:0:
64,192,77548,128,0,77735:0:0:0:0:
192,192,77548,128,0,77735:0:0:0:0:
448,192,77548,128,0,77735:0:0:0:0:
64,192,77798,1,0,0:0:0:0:
320,192,77798,1,0,0:0:0:0:
448,192,77798,1,0,0:0:0:0:
192,192,77923,1,0,0:0:0:0:
448,192,77923,1,0,0:0:0:0:
320,192,77985,1,0,0:0:0:0:
64,192,78048,128,0,78235:0:0:0:0:
192,192,78048,128,0,78235:0:0:0:0:
448,192,78048,128,0,78235:0:0:0:0:
448,192,78298,1,0,0:0:0:0:
320,192,78360,1,0,0:0:0:0:
64,192,78423,1,0,0:0:0:0:
192,192,78423,1,0,0:0:0:0:
448,192,78423,1,0,0:0:0:0:
320,192,78548,1,0,0:0:0:0:
448,192,78548,1,0,0:0:0:0:
192,192,78610,1,0,0:0:0:0:
64,192,78610,1,0,0:0:0:0:
320,192,78673,1,0,0:0:0:0:
448,192,78673,1,0,0:0:0:0:
64,192,78735,1,0,0:0:0:0:
192,192,78735,1,0,0:0:0:0:
448,192,78798,128,0,78923:0:0:0:0:
192,192,78923,128,0,79048:0:0:0:0:
320,192,78923,1,0,0:0:0:0:
448,192,79048,1,0,0:0:0:0:
64,192,79048,1,0,0:0:0:0:
320,192,79048,1,0,0:0:0:0:
192,192,79173,1,0,0:0:0:0:
64,192,79298,1,0,0:0:0:0:
192,192,79298,1,0,0:0:0:0:
320,192,79423,1,0,0:0:0:0:
448,192,79423,1,0,0:0:0:0:
64,192,79548,1,0,0:0:0:0:
192,192,79548,1,0,0:0:0:0:
320,192,79610,1,0,0:0:0:0:
448,192,79673,1,0,0:0:0:0:
64,192,79673,1,0,0:0:0:0:
192,192,79735,1,0,0:0:0:0:
320,192,79798,1,0,0:0:0:0:
448,192,79798,1,0,0:0:0:0:
64,192,79860,1,0,0:0:0:0:
192,192,79923,1,0,0:0:0:0:
320,192,79923,1,0,0:0:0:0:
448,192,79985,1,0,0:0:0:0:
64,192,80048,1,0,0:0:0:0:
192,192,80048,1,0,0:0:0:0:
320,192,80110,1,0,0:0:0:0:
448,192,80173,1,0,0:0:0:0:
64,192,80235,1,0,0:0:0:0:
192,192,80298,1,0,0:0:0:0:
320,192,80298,1,0,0:0:0:0:
448,192,80360,1,0,0:0:0:0:
64,192,80423,1,0,0:0:0:0:
192,192,80485,1,0,0:0:0:0:
320,192,80548,1,0,0:0:0:0:
448,192,80548,1,0,0:0:0:0:
64,192,80610,1,0,0:0:0:0:
192,192,80673,1,0,0:0:0:0:
320,192,80735,1,0,0:0:0:0:
448,192,80798,1,0,0:0:0:0:
64,192,80798,1,0,0:0:0:0:
192,192,80860,1,0,0:0:0:0:
320,192,80923,1,0,0:0:0:0:
448,192,80985,1,0,0:0:0:0:
192,192,81048,1,0,0:0:0:0:
64,192,81048,128,0,81548:0:0:0:0:
320,192,81298,128,0,81548:0:0:0:0:
448,192,81548,128,0,82048:0:0:0:0:
192,192,81548,1,0,0:0:0:0:
192,192,81798,128,0,82048:0:0:0:0:
64,192,82048,128,0,82985:0:0:0:0:
320,192,82048,1,0,0:0:0:0:
320,192,82548,128,0,82735:0:0:0:0:
320,192,82798,128,0,82985:0:0:0:0:
192,192,83048,1,0,0:0:0:0:
64,192,83048,1,0,0:0:0:0:
448,192,83048,1,0,0:0:0:0:
320,192,83048,1,0,0:0:0:0:
64,192,83548,1,0,0:0:0:0:
192,192,83579,1,0,0:0:0:0:
320,192,83610,1,0,0:0:0:0:
448,192,83641,1,0,0:0:0:0:
64,192,83673,1,0,0:0:0:0:
192,192,83704,1,0,0:0:0:0:
320,192,83735,1,0,0:0:0:0:
448,192,83766,1,0,0:0:0:0:
64,192,83798,1,0,0:0:0:0:
192,192,83829,1,0,0:0:0:0:
320,192,83860,1,0,0:0:0:0:
448,192,83891,1,0,0:0:0:0:
64,192,83923,1,0,0:0:0:0:
192,192,83954,1,0,0:0:0:0:
320,192,83985,1,0,0:0:0:0:
448,192,84016,1,0,0:0:0:0:
192,192,84048,1,0,0:0:0:0:
64,192,84048,1,0,0:0:0:0:
320,192,84173,1,0,0:0:0:0:
64,192,84298,1,0,0:0:0:0:
320,192,84298,1,0,0:0:0:0:
448,192,84298,1,0,0:0:0:0:
192,192,84423,1,0,0:0:0:0:
320,192,84548,1,0,0:0:0:0:
448,192,84548,1,0,0:0:0:0:
448,192,84673,1,0,0:0:0:0:
64,192,84673,1,0,0:0:0:0:
320,192,84798,1,0,0:0:0:0:
192,192,84798,1,0,0:0:0:0:
64,192,84923,1,0,0:0:0:0:
320,192,85048,1,0,0:0:0:0:
448,192,85048,1,0,0:0:0:0:
64,192,85173,1,0,0:0:0:0:
448,192,85173,1,0,0:0:0:0:
192,192,85298,1,0,0:0:0:0:
320,192,85298,1,0,0:0:0:0:
448,192,85423,1,0,0:0:0:0:
64,192,85548,1,0,0:0:0:0:
192,192,85548,1,0,0:0:0:0:
320,192,85673,1,0,0:0:0:0:
64,192,85798,1,0,0:0:0:0:
320,192,85798,1,0,0:0:0:0:
448,192,85798,1,0,0:0:0:0:
192,192,85923,1,0,0:0:0:0:
320,192,86048,1,0,0:0:0:0:
448,192,86048,1,0,0:0:0:0:
192,192,86173,1,0,0:0:0:0:
320,192,86173,1,0,0:0:0:0:
64,192,86298,1,0,0:0:0:0:
448,192,86298,1,0,0:0:0:0:
192,192,86298,1,0,0:0:0:0:
320,192,86423,1,0,0:0:0:0:
192,192,86548,1,0,0:0:0:0:
64,192,86548,1,0,0:0:0:0:
320,192,86673,1,0,0:0:0:0:
64,192,86798,1,0,0:0:0:0:
448,192,86798,1,0,0:0:0:0:
320,192,86798,1,0,0:0:0:0:
192,192,86923,1,0,0:0:0:0:
320,192,87048,1,0,0:0:0:0:
448,192,87048,1,0,0:0:0:0:
64,192,87173,1,0,0:0:0:0:
448,192,87173,1,0,0:0:0:0:
192,192,87298,1,0,0:0:0:0:
320,192,87298,1,0,0:0:0:0:
192,192,87423,1,0,0:0:0:0:
320,192,87423,1,0,0:0:0:0:
448,192,87548,1,0,0:0:0:0:
64,192,87548,1,0,0:0:0:0:
192,192,87548,1,0,0:0:0:0:
320,192,87610,1,0,0:0:0:0:
192,192,87673,1,0,0:0:0:0:
64,192,87798,1,0,0:0:0:0:
448,192,87798,1,0,0:0:0:0:
320,192,87798,1,0,0:0:0:0:
448,192,88048,1,0,0:0:0:0:
320,192,88048,1,0,0:0:0:0:
192,192,88173,1,0,0:0:0:0:
64,192,88298,1,0,0:0:0:0:
192,192,88298,1,0,0:0:0:0:
448,192,88298,1,0,0:0:0:0:
320,192,88423,1,0,0:0:0:0:
192,192,88673,1,0,0:0:0:0:
64,192,88798,1,0,0:0:0:0:
448,192,88798,1,0,0:0:0:0:
192,192,88798,1,0,0:0:0:0:
64,192,88923,1,0,0:0:0:0:
320,192,88923,1,0,0:0:0:0:
448,192,88923,1,0,0:0:0:0:
448,192,89048,1,0,0:0:0:0:
320,192,89048,1,0,0:0:0:0:
192,192,89048,1,0,0:0:0:0:
64,192,89173,1,0,0:0:0:0:
192,192,89173,1,0,0:0:0:0:
320,192,89235,1,0,0:0:0:0:
64,192,89298,1,0,0:0:0:0:
192,192,89298,1,0,0:0:0:0:
448,192,89298,1,0,0:0:0:0:
320,192,89423,1,0,0:0:0:0:
192,192,89423,1,0,0:0:0:0:
64,192,89548,1,0,0:0:0:0:
320,192,89548,1,0,0:0:0:0:
448,192,89548,1,0,0:0:0:0:
64,192,89673,1,0,0:0:0:0:
320,192,89673,1,0,0:0:0:0:
448,192,89673,1,0,0:0:0:0:
64,192,89798,1,0,0:0:0:0:
192,192,89798,1,0,0:0:0:0:
448,192,89798,1,0,0:0:0:0:
64,192,89923,1,0,0:0:0:0:
192,192,89923,1,0,0:0:0:0:
448,192,89923,1,0,0:0:0:0:
64,192,90048,1,0,0:0:0:0:
320,192,90048,1,0,0:0:0:0:
192,192,90048,1,0,0:0:0:0:
448,192,90173,1,0,0:0:0:0:
320,192,90173,1,0,0:0:0:0:
64,192,90298,1,0,0:0:0:0:
192,192,90298,1,0,0:0:0:0:
448,192,90298,1,0,0:0:0:0:
320,192,90423,1,0,0:0:0:0:
64,192,90423,1,0,0:0:0:0:
320,192,90548,1,0,0:0:0:0:
448,192,90548,1,0,0:0:0:0:
192,192,90548,1,0,0:0:0:0:
448,192,90673,1,0,0:0:0:0:
64,192,90673,1,0,0:0:0:0:
320,192,90673,1,0,0:0:0:0:
64,192,90798,1,0,0:0:0:0:
192,192,90798,1,0,0:0:0:0:
448,192,90798,1,0,0:0:0:0:
320,192,90860,1,0,0:0:0:0:
192,192,90923,1,0,0:0:0:0:
64,192,90923,1,0,0:0:0:0:
320,192,91048,1,0,0:0:0:0:
448,192,91048,1,0,0:0:0:0:
192,192,91048,1,0,0:0:0:0:
64,192,91173,1,0,0:0:0:0:
320,192,91173,1,0,0:0:0:0:
448,192,91173,1,0,0:0:0:0:
192,192,91298,1,0,0:0:0:0:
64,192,91298,1,0,0:0:0:0:
320,192,91423,1,0,0:0:0:0:
448,192,91423,1,0,0:0:0:0:
192,192,91548,1,0,0:0:0:0:
64,192,91548,1,0,0:0:0:0:
448,192,91548,1,0,0:0:0:0:
320,192,91673,1,0,0:0:0:0:
64,192,91798,1,0,0:0:0:0:
448,192,91798,1,0,0:0:0:0:
192,192,91860,1,0,0:0:0:0:
320,192,91860,1,0,0:0:0:0:
64,192,91923,1,0,0:0:0:0:
448,192,91923,1,0,0:0:0:0:
64,192,92048,1,0,0:0:0:0:
192,192,92048,1,0,0:0:0:0:
320,192,92173,1,0,0:0:0:0:
448,192,92298,1,0,0:0:0:0:
320,192,92298,1,0,0:0:0:0:
64,192,92298,1,0,0:0:0:0:
192,192,92423,1,0,0:0:0:0:
448,192,92548,1,0,0:0:0:0:
64,192,92548,1,0,0:0:0:0:
192,192,92548,1,0,0:0:0:0:
64,192,92798,1,0,0:0:0:0:
192,192,92798,1,0,0:0:0:0:
448,192,92798,1,0,0:0:0:0:
64,192,92923,1,0,0:0:0:0:
192,192,92923,1,0,0:0:0:0:
320,192,92923,1,0,0:0:0:0:
448,192,93048,1,0,0:0:0:0:
320,192,93048,1,0,0:0:0:0:
64,192,93173,1,0,0:0:0:0:
448,192,93173,1,0,0:0:0:0:
64,192,93298,1,0,0:0:0:0:
192,192,93298,1,0,0:0:0:0:
448,192,93423,1,0,0:0:0:0:
320,192,93423,1,0,0:0:0:0:
192,192,93548,1,0,0:0:0:0:
64,192,93548,1,0,0:0:0:0:
448,192,93548,1,0,0:0:0:0:
320,192,93673,1,0,0:0:0:0:
448,192,93798,1,0,0:0:0:0:
320,192,93798,1,0,0:0:0:0:
64,192,93798,1,0,0:0:0:0:
192,192,93923,1,0,0:0:0:0:
448,192,94048,1,0,0:0:0:0:
192,192,94048,1,0,0:0:0:0:
64,192,94048,1,0,0:0:0:0:
320,192,94173,1,0,0:0:0:0:
192,192,94173,1,0,0:0:0:0:
448,192,94298,1,0,0:0:0:0:
320,192,94298,1,0,0:0:0:0:
192,192,94423,1,0,0:0:0:0:
64,192,94548,1,0,0:0:0:0:
192,192,94548,1,0,0:0:0:0:
320,192,94673,1,0,0:0:0:0:
192,192,94673,1,0,0:0:0:0:
448,192,94798,1,0,0:0:0:0:
320,192,94798,1,0,0:0:0:0:
64,192,94798,1,0,0:0:0:0:
192,192,94923,1,0,0:0:0:0:
448,192,95048,1,0,0:0:0:0:
320,192,95048,1,0,0:0:0:0:
320,192,95173,1,0,0:0:0:0:
192,192,95173,1,0,0:0:0:0:
64,192,95298,1,0,0:0:0:0:
448,192,95298,1,0,0:0:0:0:
192,192,95298,1,0,0:0:0:0:
64,192,95423,1,0,0:0:0:0:
320,192,95423,1,0,0:0:0:0:
448,192,95423,1,0,0:0:0:0:
192,192,95485,1,0,0:0:0:0:
64,192,95548,1,0,0:0:0:0:
448,192,95548,1,0,0:0:0:0:
320,192,95548,1,0,0:0:0:0:
64,192,95673,1,0,0:0:0:0:
192,192,95673,1,0,0:0:0:0:
320,192,95735,1,0,0:0:0:0:
192,192,95798,1,0,0:0:0:0:
64,192,95798,1,0,0:0:0:0:
448,192,95798,1,0,0:0:0:0:
320,192,95923,1,0,0:0:0:0:
64,192,96048,1,0,0:0:0:0:
192,192,96048,1,0,0:0:0:0:
320,192,96173,1,0,0:0:0:0:
448,192,96298,1,0,0:0:0:0:
64,192,96298,1,0,0:0:0:0:
320,192,96298,1,0,0:0:0:0:
192,192,96423,1,0,0:0:0:0:
64,192,96548,1,0,0:0:0:0:
192,192,96548,1,0,0:0:0:0:
448,192,96548,1,0,0:0:0:0:
320,192,96673,1,0,0:0:0:0:
64,192,96798,1,0,0:0:0:0:
320,192,96798,1,0,0:0:0:0:
448,192,96798,1,0,0:0:0:0:
448,192,96923,1,0,0:0:0:0:
192,192,96923,1,0,0:0:0:0:
64,192,97048,1,0,0:0:0:0:
320,192,97048,1,0,0:0:0:0:
320,192,97173,1,0,0:0:0:0:
448,192,97173,1,0,0:0:0:0:
448,192,97298,1,0,0:0:0:0:
192,192,97298,1,0,0:0:0:0:
64,192,97298,1,0,0:0:0:0:
320,192,97423,1,0,0:0:0:0:
448,192,97423,1,0,0:0:0:0:
64,192,97423,1,0,0:0:0:0:
192,192,97548,1,0,0:0:0:0:
320,192,97548,1,0,0:0:0:0:
64,192,97673,1,0,0:0:0:0:
448,192,97798,1,0,0:0:0:0:
320,192,97798,1,0,0:0:0:0:
64,192,97798,1,0,0:0:0:0:
192,192,97923,1,0,0:0:0:0:
320,192,98048,1,0,0:0:0:0:
448,192,98048,1,0,0:0:0:0:
192,192,98173,1,0,0:0:0:0:
448,192,98298,1,0,0:0:0:0:
192,192,98298,1,0,0:0:0:0:
64,192,98298,1,0,0:0:0:0:
320,192,98423,1,0,0:0:0:0:
192,192,98423,1,0,0:0:0:0:
64,192,98548,1,0,0:0:0:0:
320,192,98548,1,0,0:0:0:0:
448,192,98548,1,0,0:0:0:0:
64,192,98673,1,0,0:0:0:0:
448,192,98673,1,0,0:0:0:0:
320,192,98673,1,0,0:0:0:0:
448,192,98798,1,0,0:0:0:0:
192,192,98798,1,0,0:0:0:0:
64,192,98798,1,0,0:0:0:0:
320,192,98923,1,0,0:0:0:0:
192,192,98923,1,0,0:0:0:0:
448,192,99048,1,0,0:0:0:0:
320,192,99048,1,0,0:0:0:0:
64,192,99048,1,0,0:0:0:0:
448,192,99173,1,0,0:0:0:0:
192,192,99173,1,0,0:0:0:0:
64,192,99298,1,0,0:0:0:0:
320,192,99298,1,0,0:0:0:0:
192,192,99423,1,0,0:0:0:0:
448,192,99548,1,0,0:0:0:0:
192,192,99548,1,0,0:0:0:0:
64,192,99548,128,0,99735:0:0:0:0:
320,192,99673,1,0,0:0:0:0:
64,192,99798,1,0,0:0:0:0:
320,192,99798,1,0,0:0:0:0:
448,192,99798,128,0,99985:0:0:0:0:
192,192,99923,1,0,0:0:0:0:
448,192,100048,1,0,0:0:0:0:
64,192,100048,1,0,0:0:0:0:
192,192,100048,1,0,0:0:0:0:
320,192,100173,1,0,0:0:0:0:
64,192,100298,1,0,0:0:0:0:
320,192,100298,1,0,0:0:0:0:
448,192,100298,1,0,0:0:0:0:
192,192,100423,1,0,0:0:0:0:
320,192,100548,1,0,0:0:0:0:
448,192,100548,1,0,0:0:0:0:
448,192,100673,1,0,0:0:0:0:
64,192,100673,1,0,0:0:0:0:
320,192,100798,1,0,0:0:0:0:
192,192,100798,1,0,0:0:0:0:
64,192,100923,1,0,0:0:0:0:
448,192,101048,1,0,0:0:0:0:
64,192,101048,1,0,0:0:0:0:
192,192,101048,1,0,0:0:0:0:
448,192,101173,1,0,0:0:0:0:
320,192,101173,1,0,0:0:0:0:
192,192,101235,1,0,0:0:0:0:
64,192,101298,1,0,0:0:0:0:
448,192,101298,1,0,0:0:0:0:
320,192,101298,1,0,0:0:0:0:
192,192,101423,1,0,0:0:0:0:
64,192,101423,1,0,0:0:0:0:
320,192,101485,1,0,0:0:0:0:
64,192,101548,1,0,0:0:0:0:
192,192,101548,1,0,0:0:0:0:
448,192,101548,1,0,0:0:0:0:
320,192,101673,1,0,0:0:0:0:
64,192,101798,1,0,0:0:0:0:
320,192,101798,1,0,0:0:0:0:
448,192,101798,1,0,0:0:0:0:
192,192,101923,1,0,0:0:0:0:
320,192,101923,1,0,0:0:0:0:
448,192,102048,1,0,0:0:0:0:
64,192,102048,1,0,0:0:0:0:
192,192,102048,1,0,0:0:0:0:
320,192,102173,1,0,0:0:0:0:
64,192,102298,1,0,0:0:0:0:
448,192,102298,1,0,0:0:0:0:
320,192,102298,1,0,0:0:0:0:
192,192,102423,1,0,0:0:0:0:
320,192,102548,1,0,0:0:0:0:
448,192,102548,1,0,0:0:0:0:
64,192,102673,1,0,0:0:0:0:
192,192,102673,1,0,0:0:0:0:
320,192,102735,1,0,0:0:0:0:
64,192,102798,1,0,0:0:0:0:
448,192,102798,1,0,0:0:0:0:
192,192,102798,1,0,0:0:0:0:
320,192,102923,1,0,0:0:0:0:
192,192,103048,1,0,0:0:0:0:
64,192,103048,1,0,0:0:0:0:
320,192,103173,1,0,0:0:0:0:
192,192,103173,1,0,0:0:0:0:
64,192,103298,1,0,0:0:0:0:
448,192,103298,1,0,0:0:0:0:
320,192,103298,1,0,0:0:0:0:
64,192,103423,1,0,0:0:0:0:
448,192,103423,1,0,0:0:0:0:
192,192,103423,1,0,0:0:0:0:
320,192,103485,1,0,0:0:0:0:
448,192,103548,1,0,0:0:0:0:
64,192,103548,1,0,0:0:0:0:
192,192,103548,1,0,0:0:0:0:
320,192,103673,1,0,0:0:0:0:
64,192,103673,1,0,0:0:0:0:
192,192,103798,1,0,0:0:0:0:
448,192,103798,1,0,0:0:0:0:
64,192,103923,1,0,0:0:0:0:
448,192,104048,1,0,0:0:0:0:
320,192,104048,1,0,0:0:0:0:
192,192,104173,1,0,0:0:0:0:
64,192,104298,1,0,0:0:0:0:
192,192,104298,1,0,0:0:0:0:
448,192,104298,1,0,0:0:0:0:
320,192,104423,1,0,0:0:0:0:
192,192,104548,1,0,0:0:0:0:
64,192,104548,1,0,0:0:0:0:
64,192,104673,1,0,0:0:0:0:
448,192,104673,1,0,0:0:0:0:
320,192,104798,1,0,0:0:0:0:
192,192,104798,1,0,0:0:0:0:
320,192,104923,1,0,0:0:0:0:
192,192,104923,1,0,0:0:0:0:
448,192,105048,1,0,0:0:0:0:
320,192,105048,1,0,0:0:0:0:
64,192,105048,1,0,0:0:0:0:
64,192,105173,1,0,0:0:0:0:
192,192,105173,1,0,0:0:0:0:
448,192,105173,1,0,0:0:0:0:
320,192,105298,1,0,0:0:0:0:
192,192,105298,1,0,0:0:0:0:
320,192,105423,1,0,0:0:0:0:
64,192,105423,1,0,0:0:0:0:
64,192,105548,1,0,0:0:0:0:
448,192,105548,1,0,0:0:0:0:
192,192,105548,1,0,0:0:0:0:
320,192,105673,1,0,0:0:0:0:
448,192,105673,1,0,0:0:0:0:
64,192,105798,1,0,0:0:0:0:
192,192,105798,1,0,0:0:0:0:
320,192,105798,1,0,0:0:0:0:
448,192,105923,1,0,0:0:0:0:
64,192,106048,1,0,0:0:0:0:
192,192,106048,1,0,0:0:0:0:
320,192,106173,1,0,0:0:0:0:
64,192,106298,1,0,0:0:0:0:
448,192,106298,1,0,0:0:0:0:
320,192,106298,1,0,0:0:0:0:
192,192,106423,1,0,0:0:0:0:
448,192,106548,1,0,0:0:0:0:
320,192,106548,1,0,0:0:0:0:
64,192,106610,1,0,0:0:0:0:
192,192,106673,1,0,0:0:0:0:
448,192,106673,1,0,0:0:0:0:
320,192,106735,1,0,0:0:0:0:
64,192,106798,1,0,0:0:0:0:
192,192,106798,1,0,0:0:0:0:
448,192,106860,1,0,0:0:0:0:
64,192,106923,1,0,0:0:0:0:
320,192,106923,1,0,0:0:0:0:
192,192,106985,1,0,0:0:0:0:
448,192,107048,1,0,0:0:0:0:
64,192,107048,1,0,0:0:0:0:
320,192,107048,1,0,0:0:0:0:
64,192,107173,1,0,0:0:0:0:
192,192,107235,1,0,0:0:0:0:
320,192,107298,1,0,0:0:0:0:
448,192,107298,1,0,0:0:0:0:
448,192,107423,1,0,0:0:0:0:
320,192,107485,1,0,0:0:0:0:
64,192,107548,1,0,0:0:0:0:
448,192,107548,1,0,0:0:0:0:
192,192,107548,1,0,0:0:0:0:
320,192,107673,1,0,0:0:0:0:
64,192,107798,1,0,0:0:0:0:
320,192,107798,1,0,0:0:0:0:
448,192,107798,1,0,0:0:0:0:
192,192,107923,1,0,0:0:0:0:
64,192,108048,1,0,0:0:0:0:
192,192,108048,1,0,0:0:0:0:
448,192,108048,1,0,0:0:0:0:
320,192,108173,1,0,0:0:0:0:
448,192,108298,1,0,0:0:0:0:
320,192,108298,1,0,0:0:0:0:
64,192,108298,1,0,0:0:0:0:
192,192,108423,1,0,0:0:0:0:
448,192,108548,1,0,0:0:0:0:
320,192,108548,1,0,0:0:0:0:
64,192,108673,1,0,0:0:0:0:
448,192,108673,1,0,0:0:0:0:
192,192,108798,1,0,0:0:0:0:
320,192,108798,1,0,0:0:0:0:
64,192,108923,1,0,0:0:0:0:
448,192,109048,1,0,0:0:0:0:
320,192,109048,1,0,0:0:0:0:
192,192,109173,1,0,0:0:0:0:
64,192,109298,1,0,0:0:0:0:
320,192,109298,1,0,0:0:0:0:
448,192,109298,1,0,0:0:0:0:
192,192,109360,1,0,0:0:0:0:
448,192,109423,1,0,0:0:0:0:
320,192,109423,1,0,0:0:0:0:
64,192,109423,1,0,0:0:0:0:
192,192,109548,1,0,0:0:0:0:
448,192,109548,1,0,0:0:0:0:
320,192,109673,1,0,0:0:0:0:
448,192,109798,1,0,0:0:0:0:
64,192,109798,1,0,0:0:0:0:
192,192,109798,1,0,0:0:0:0:
64,192,109923,1,0,0:0:0:0:
448,192,109923,1,0,0:0:0:0:
192,192,109923,1,0,0:0:0:0:
448,192,110048,1,0,0:0:0:0:
320,192,110048,1,0,0:0:0:0:
192,192,110173,1,0,0:0:0:0:
192,192,110298,1,0,0:0:0:0:
448,192,110298,1,0,0:0:0:0:
64,192,110298,1,0,0:0:0:0:
320,192,110423,1,0,0:0:0:0:
64,192,110548,128,0,110735:0:0:0:0:
192,192,110548,128,0,110735:0:0:0:0:
448,192,110548,128,0,110735:0:0:0:0:
448,192,110798,128,0,110985:0:0:0:0:
64,192,110798,128,0,110985:0:0:0:0:
192,192,110798,128,0,110985:0:0:0:0:
64,192,111048,1,0,0:0:0:0:
320,192,111048,1,0,0:0:0:0:
448,192,111048,1,0,0:0:0:0:
192,192,111173,1,0,0:0:0:0:
320,192,111298,1,0,0:0:0:0:
448,192,111298,1,0,0:0:0:0:
64,192,111423,1,0,0:0:0:0:
448,192,111423,1,0,0:0:0:0:
320,192,111423,1,0,0:0:0:0:
448,192,111548,1,0,0:0:0:0:
192,192,111548,1,0,0:0:0:0:
64,192,111548,1,0,0:0:0:0:
320,192,111631,1,0,0:0:0:0:
192,192,111714,1,0,0:0:0:0:
320,192,111798,1,0,0:0:0:0:
64,192,111798,1,0,0:0:0:0:
448,192,111798,1,0,0:0:0:0:
192,192,111923,1,0,0:0:0:0:
320,192,111923,1,0,0:0:0:0:
64,192,112048,1,0,0:0:0:0:
448,192,112048,1,0,0:0:0:0:
192,192,112048,1,0,0:0:0:0:
320,192,112173,1,0,0:0:0:0:
448,192,112298,1,0,0:0:0:0:
64,192,112298,1,0,0:0:0:0:
320,192,112298,1,0,0:0:0:0:
192,192,112423,1,0,0:0:0:0:
448,192,112548,1,0,0:0:0:0:
320,192,112548,1,0,0:0:0:0:
448,192,112673,1,0,0:0:0:0:
64,192,112673,1,0,0:0:0:0:
192,192,112798,1,0,0:0:0:0:
320,192,112798,1,0,0:0:0:0:
64,192,112923,1,0,0:0:0:0:
64,192,113048,1,0,0:0:0:0:
192,192,113048,1,0,0:0:0:0:
448,192,113048,1,0,0:0:0:0:
320,192,113173,1,0,0:0:0:0:
192,192,113173,1,0,0:0:0:0:
448,192,113298,1,0,0:0:0:0:
320,192,113298,1,0,0:0:0:0:
64,192,113298,1,0,0:0:0:0:
192,192,113423,1,0,0:0:0:0:
64,192,113423,1,0,0:0:0:0:
320,192,113548,1,0,0:0:0:0:
192,192,113548,1,0,0:0:0:0:
448,192,113548,1,0,0:0:0:0:
64,192,113673,1,0,0:0:0:0:
192,192,113798,1,0,0:0:0:0:
64,192,113798,1,0,0:0:0:0:
448,192,113798,1,0,0:0:0:0:
320,192,113923,1,0,0:0:0:0:
64,192,114048,1,0,0:0:0:0:
192,192,114048,1,0,0:0:0:0:
192,192,114173,1,0,0:0:0:0:
64,192,114173,1,0,0:0:0:0:
448,192,114298,1,0,0:0:0:0:
64,192,114298,1,0,0:0:0:0:
320,192,114298,1,0,0:0:0:0:
320,192,114423,1,0,0:0:0:0:
192,192,114423,1,0,0:0:0:0:
448,192,114548,1,0,0:0:0:0:
64,192,114548,1,0,0:0:0:0:
192,192,114548,1,0,0:0:0:0:
320,192,114673,1,0,0:0:0:0:
64,192,114673,1,0,0:0:0:0:
448,192,114673,1,0,0:0:0:0:
192,192,114798,1,0,0:0:0:0:
320,192,114798,1,0,0:0:0:0:
64,192,114923,1,0,0:0:0:0:
448,192,114923,1,0,0:0:0:0:
64,192,115048,128,0,115110:0:0:0:0:
192,192,115048,128,0,115110:0:0:0:0:
320,192,115298,128,0,115360:0:0:0:0:
448,192,115298,128,0,115360:0:0:0:0:
448,192,115548,128,0,115610:0:0:0:0:
320,192,115548,128,0,115610:0:0:0:0:
64,192,115798,128,0,115860:0:0:0:0:
192,192,115798,128,0,115860:0:0:0:0:
64,192,116048,1,0,0:0:0:0:
448,192,116048,1,0,0:0:0:0:
320,192,116048,1,0,0:0:0:0:
64,192,116173,1,0,0:0:0:0:
192,192,116173,1,0,0:0:0:0:
448,192,116173,1,0,0:0:0:0:
448,192,116298,1,0,0:0:0:0:
320,192,116298,1,0,0:0:0:0:
320,192,116423,1,0,0:0:0:0:
448,192,116423,1,0,0:0:0:0:
192,192,116548,128,0,116985:0:0:0:0:
64,192,116548,128,0,116985:0:0:0:0:
64,192,117048,1,0,0:0:0:0:
192,192,117048,1,0,0:0:0:0:
448,192,117048,1,0,0:0:0:0:
320,192,117173,128,0,117485:0:0:0:0:
448,192,117173,128,0,117485:0:0:0:0:
64,192,117548,1,0,0:0:0:0:
320,192,117548,1,0,0:0:0:0:
448,192,117548,1,0,0:0:0:0:
448,192,117798,1,0,0:0:0:0:
320,192,117798,1,0,0:0:0:0:
64,192,117798,1,0,0:0:0:0:
448,192,117923,1,0,0:0:0:0:
320,192,117923,1,0,0:0:0:0:
448,192,118048,1,0,0:0:0:0:
64,192,118048,1,0,0:0:0:0:
192,192,118048,1,0,0:0:0:0:
64,192,118173,128,0,118485:0:0:0:0:
192,192,118173,128,0,118485:0:0:0:0:
448,192,118548,1,0,0:0:0:0:
64,192,118548,1,0,0:0:0:0:
192,192,118548,1,0,0:0:0:0:
320,192,118714,1,0,0:0:0:0:
192,192,118881,1,0,0:0:0:0:
64,192,119048,1,0,0:0:0:0:
320,192,119048,1,0,0:0:0:0:
448,192,119048,1,0,0:0:0:0:
448,192,119173,128,0,119485:0:0:0:0:
320,192,119173,128,0,119485:0:0:0:0:
320,192,119548,1,0,0:0:0:0:
448,192,119548,1,0,0:0:0:0:
64,192,119548,128,0,119985:0:0:0:0:
64,192,120048,1,0,0:0:0:0:
448,192,120048,1,0,0:0:0:0:
320,192,120048,1,0,0:0:0:0:
448,192,120173,1,0,0:0:0:0:
64,192,120173,128,0,120485:0:0:0:0:
192,192,120173,128,0,120485:0:0:0:0:
64,192,120548,1,0,0:0:0:0:
192,192,120548,1,0,0:0:0:0:
448,192,120548,1,0,0:0:0:0:
320,192,120673,1,0,0:0:0:0:
192,192,120798,128,0,120985:0:0:0:0:
320,192,120798,1,0,0:0:0:0:
64,192,120798,128,0,120985:0:0:0:0:
64,192,121048,1,0,0:0:0:0:
448,192,121048,1,0,0:0:0:0:
192,192,121048,1,0,0:0:0:0:
320,192,121173,128,0,121548:0:0:0:0:
448,192,121173,128,0,121548:0:0:0:0:
64,192,121548,1,0,0:0:0:0:
192,192,121673,1,0,0:0:0:0:
448,192,121798,1,0,0:0:0:0:
64,192,121798,1,0,0:0:0:0:
320,192,121798,1,0,0:0:0:0:
64,192,122048,1,0,0:0:0:0:
448,192,122048,1,0,0:0:0:0:
320,192,122048,1,0,0:0:0:0:
64,192,122173,128,0,122548:0:0:0:0:
192,192,122173,128,0,122548:0:0:0:0:
448,192,122298,1,0,0:0:0:0:
448,192,122548,1,0,0:0:0:0:
64,192,123048,1,0,0:0:0:0:
192,192,123048,1,0,0:0:0:0:
448,192,123048,1,0,0:0:0:0:
192,192,123173,1,0,0:0:0:0:
64,192,123173,1,0,0:0:0:0:
320,192,123548,1,0,0:0:0:0:
192,192,123673,1,0,0:0:0:0:
320,192,123798,1,0,0:0:0:0:
64,192,124048,1,0,0:0:0:0:
192,192,124048,1,0,0:0:0:0:
320,192,124048,1,0,0:0:0:0:
448,192,124173,128,0,124610:0:0:0:0:
192,192,124298,1,0,0:0:0:0:
64,192,124673,1,0,0:0:0:0:
320,192,124673,1,0,0:0:0:0:
192,192,124798,1,0,0:0:0:0:
320,192,124798,1,0,0:0:0:0:
448,192,124798,1,0,0:0:0:0:
64,192,124923,1,0,0:0:0:0:
192,192,124923,1,0,0:0:0:0:
320,192,125048,1,0,0:0:0:0:
448,192,125048,1,0,0:0:0:0:
64,192,125048,128,0,125235:0:0:0:0:
64,192,125298,1,0,0:0:0:0:
448,192,125298,1,0,0:0:0:0:
192,192,125298,1,0,0:0:0:0:
320,192,125423,1,0,0:0:0:0:
192,192,125548,1,0,0:0:0:0:
64,192,125548,1,0,0:0:0:0:
64,192,125673,1,0,0:0:0:0:
320,192,125673,1,0,0:0:0:0:
448,192,125673,1,0,0:0:0:0:
448,192,125860,1,0,0:0:0:0:
192,192,125923,1,0,0:0:0:0:
64,192,125923,1,0,0:0:0:0:
64,192,126048,1,0,0:0:0:0:
320,192,126048,1,0,0:0:0:0:
448,192,126048,128,0,126298:0:0:0:0:
64,192,126298,128,0,126485:0:0:0:0:
64,192,126548,1,0,0:0:0:0:
320,192,126548,1,0,0:0:0:0:
448,192,126548,128,0,126673:0:0:0:0:
192,192,126798,128,0,126923:0:0:0:0:
64,192,126798,1,0,0:0:0:0:
448,192,126798,1,0,0:0:0:0:
64,192,127048,1,0,0:0:0:0:
320,192,127048,1,0,0:0:0:0:
448,192,127048,1,0,0:0:0:0:
320,192,127214,1,0,0:0:0:0:
192,192,127298,1,0,0:0:0:0:
64,192,127298,1,0,0:0:0:0:
320,192,127381,1,0,0:0:0:0:
448,192,127381,1,0,0:0:0:0:
192,192,127548,1,0,0:0:0:0:
64,192,127548,1,0,0:0:0:0:
448,192,127548,1,0,0:0:0:0:
192,192,127714,1,0,0:0:0:0:
64,192,127798,1,0,0:0:0:0:
320,192,127798,1,0,0:0:0:0:
448,192,127798,1,0,0:0:0:0:
192,192,127881,1,0,0:0:0:0:
448,192,128047,1,0,0:0:0:0:
192,192,128048,1,0,0:0:0:0:
320,192,128048,1,0,0:0:0:0:
64,192,128173,128,0,128485:0:0:0:0:
320,192,128548,1,0,0:0:0:0:
64,192,128610,1,0,0:0:0:0:
320,192,128673,1,0,0:0:0:0:
64,192,128735,1,0,0:0:0:0:
448,192,128798,1,0,0:0:0:0:
192,192,128860,1,0,0:0:0:0:
448,192,128923,1,0,0:0:0:0:
192,192,128985,1,0,0:0:0:0:
64,192,129048,128,0,129298:0:0:0:0:
448,192,129298,128,0,129485:0:0:0:0:
64,192,129548,1,0,0:0:0:0:
320,192,129548,1,0,0:0:0:0:
448,192,129548,1,0,0:0:0:0:
64,192,129673,1,0,0:0:0:0:
192,192,129673,1,0,0:0:0:0:
448,192,129673,1,0,0:0:0:0:
320,192,129798,1,0,0:0:0:0:
192,192,129798,1,0,0:0:0:0:
64,192,130048,1,0,0:0:0:0:
448,192,130048,1,0,0:0:0:0:
192,192,130048,1,0,0:0:0:0:
320,192,130173,1,0,0:0:0:0:
448,192,130298,128,0,130485:0:0:0:0:
192,192,130548,1,0,0:0:0:0:
64,192,130548,1,0,0:0:0:0:
448,192,130548,1,0,0:0:0:0:
320,192,130673,1,0,0:0:0:0:
64,192,130797,1,0,0:0:0:0:
192,192,130881,1,0,0:0:0:0:
320,192,130964,1,0,0:0:0:0:
448,192,131048,1,0,0:0:0:0:
192,192,131048,1,0,0:0:0:0:
64,192,131048,1,0,0:0:0:0:
320,192,131131,1,0,0:0:0:0:
192,192,131464,1,0,0:0:0:0:
320,192,131548,1,0,0:0:0:0:
448,192,131548,1,0,0:0:0:0:
64,192,131548,128,0,131985:0:0:0:0:
64,192,132048,1,0,0:0:0:0:
192,192,132048,1,0,0:0:0:0:
448,192,132048,1,0,0:0:0:0:
320,192,132173,1,0,0:0:0:0:
64,192,132298,1,0,0:0:0:0:
320,192,132298,1,0,0:0:0:0:
448,192,132298,1,0,0:0:0:0:
192,192,132423,1,0,0:0:0:0:
64,192,132548,1,0,0:0:0:0:
192,192,132548,1,0,0:0:0:0:
448,192,132548,1,0,0:0:0:0:
64,192,132798,1,0,0:0:0:0:
192,192,132798,1,0,0:0:0:0:
448,192,132798,1,0,0:0:0:0:
320,192,132923,1,0,0:0:0:0:
64,192,133048,1,0,0:0:0:0:
192,192,133048,1,0,0:0:0:0:
448,192,133048,1,0,0:0:0:0:
320,192,133173,1,0,0:0:0:0:
64,192,133298,1,0,0:0:0:0:
320,192,133298,1,0,0:0:0:0:
448,192,133298,1,0,0:0:0:0:
192,192,133423,1,0,0:0:0:0:
64,192,133548,1,0,0:0:0:0:
192,192,133548,1,0,0:0:0:0:
320,192,133548,1,0,0:0:0:0:
320,192,133673,1,0,0:0:0:0:
448,192,133673,1,0,0:0:0:0:
64,192,133798,1,0,0:0:0:0:
192,192,133798,1,0,0:0:0:0:
448,192,133798,1,0,0:0:0:0:
320,192,133923,1,0,0:0:0:0:
64,192,134048,1,0,0:0:0:0:
320,192,134048,1,0,0:0:0:0:
448,192,134048,1,0,0:0:0:0:
192,192,134173,1,0,0:0:0:0:
64,192,134298,1,0,0:0:0:0:
192,192,134298,1,0,0:0:0:0:
448,192,134298,1,0,0:0:0:0:
320,192,134423,1,0,0:0:0:0:
64,192,134548,1,0,0:0:0:0:
320,192,134548,1,0,0:0:0:0:
448,192,134548,1,0,0:0:0:0:
64,192,134798,1,0,0:0:0:0:
448,192,134798,1,0,0:0:0:0:
320,192,134798,1,0,0:0:0:0:
192,192,134923,5,0,0:0:0:0:
192,192,135048,1,0,0:0:0:0:
64,192,135048,128,0,135173:0:0:0:0:
448,192,135173,128,0,135298:0:0:0:0:
320,192,135298,128,0,135548:0:0:0:0:
64,192,135548,1,0,0:0:0:0:
448,192,135548,1,0,0:0:0:0:
192,192,135548,128,0,135798:0:0:0:0:
320,192,135798,1,0,0:0:0:0:
448,192,135798,128,0,135985:0:0:0:0:
64,192,136048,5,0,0:0:0:0:
192,192,136048,1,0,0:0:0:0:
448,192,136048,1,0,0:0:0:0:
64,192,136173,1,0,0:0:0:0:
192,192,136173,1,0,0:0:0:0:
448,192,136173,1,0,0:0:0:0:
320,192,136298,1,0,0:0:0:0:
64,192,136298,1,0,0:0:0:0:
448,192,136298,1,0,0:0:0:0:
64,192,136423,1,0,0:0:0:0:
320,192,136423,1,0,0:0:0:0:
448,192,136423,1,0,0:0:0:0:
192,192,136548,1,0,0:0:0:0:
448,192,136548,1,0,0:0:0:0:
320,192,136548,1,0,0:0:0:0:
192,192,136673,1,0,0:0:0:0:
320,192,136673,1,0,0:0:0:0:
448,192,136673,1,0,0:0:0:0:
64,192,136798,1,0,0:0:0:0:
192,192,136798,1,0,0:0:0:0:
320,192,136798,1,0,0:0:0:0:
192,192,136923,1,0,0:0:0:0:
64,192,136923,1,0,0:0:0:0:
320,192,136923,1,0,0:0:0:0:
448,192,137048,1,0,0:0:0:0:
320,192,137048,1,0,0:0:0:0:
64,192,137173,1,0,0:0:0:0:
448,192,137173,1,0,0:0:0:0:
192,192,137173,1,0,0:0:0:0:
192,192,137298,1,0,0:0:0:0:
320,192,137298,1,0,0:0:0:0:
64,192,137423,1,0,0:0:0:0:
320,192,137423,1,0,0:0:0:0:
448,192,137423,1,0,0:0:0:0:
192,192,137548,1,0,0:0:0:0:
64,192,137548,1,0,0:0:0:0:
192,192,137673,1,0,0:0:0:0:
320,192,137673,1,0,0:0:0:0:
448,192,137673,1,0,0:0:0:0:
64,192,137798,1,0,0:0:0:0:
448,192,137798,1,0,0:0:0:0:
64,192,137923,1,0,0:0:0:0:
192,192,137923,1,0,0:0:0:0:
320,192,137923,1,0,0:0:0:0:
64,192,138048,1,0,0:0:0:0:
192,192,138048,1,0,0:0:0:0:
448,192,138048,1,0,0:0:0:0:
64,192,138173,1,0,0:0:0:0:
192,192,138173,1,0,0:0:0:0:
448,192,138173,1,0,0:0:0:0:
64,192,138298,1,0,0:0:0:0:
320,192,138298,1,0,0:0:0:0:
448,192,138298,1,0,0:0:0:0:
64,192,138423,1,0,0:0:0:0:
320,192,138423,1,0,0:0:0:0:
448,192,138423,1,0,0:0:0:0:
192,192,138548,1,0,0:0:0:0:
320,192,138548,1,0,0:0:0:0:
448,192,138548,1,0,0:0:0:0:
192,192,138673,1,0,0:0:0:0:
448,192,138673,1,0,0:0:0:0:
320,192,138673,1,0,0:0:0:0:
64,192,138798,1,0,0:0:0:0:
192,192,138798,1,0,0:0:0:0:
320,192,138798,1,0,0:0:0:0:
64,192,138923,1,0,0:0:0:0:
192,192,138923,1,0,0:0:0:0:
320,192,138923,1,0,0:0:0:0:
64,192,139048,1,0,0:0:0:0:
448,192,139048,1,0,0:0:0:0:
192,192,139048,1,0,0:0:0:0:
320,192,139173,1,0,0:0:0:0:
448,192,139173,1,0,0:0:0:0:
192,192,139235,1,0,0:0:0:0:
64,192,139235,1,0,0:0:0:0:
320,192,139298,1,0,0:0:0:0:
448,192,139298,1,0,0:0:0:0:
448,192,139423,1,0,0:0:0:0:
320,192,139423,1,0,0:0:0:0:
192,192,139485,1,0,0:0:0:0:
64,192,139485,1,0,0:0:0:0:
320,192,139548,1,0,0:0:0:0:
448,192,139548,1,0,0:0:0:0:
320,192,139798,1,0,0:0:0:0:
192,192,140048,1,0,0:0:0:0:
64,192,140048,1,0,0:0:0:0:
448,192,140048,1,0,0:0:0:0:
320,192,140298,1,0,0:0:0:0:
64,192,140298,1,0,0:0:0:0:
448,192,140423,1,0,0:0:0:0:
192,192,140423,1,0,0:0:0:0:
64,192,140423,1,0,0:0:0:0:
320,192,140548,1,0,0:0:0:0:
64,192,140673,1,0,0:0:0:0:
320,192,140673,1,0,0:0:0:0:
448,192,140673,1,0,0:0:0:0:
192,192,140798,1,0,0:0:0:0:
64,192,140798,1,0,0:0:0:0:
320,192,140923,1,0,0:0:0:0:
192,192,140985,1,0,0:0:0:0:
64,192,141048,1,0,0:0:0:0:
448,192,141048,1,0,0:0:0:0:
192,192,141173,1,0,0:0:0:0:
64,192,141173,1,0,0:0:0:0:
320,192,141298,1,0,0:0:0:0:
64,192,141423,1,0,0:0:0:0:
320,192,141423,1,0,0:0:0:0:
448,192,141423,1,0,0:0:0:0:
320,192,141548,1,0,0:0:0:0:
192,192,141548,1,0,0:0:0:0:
64,192,141673,1,0,0:0:0:0:
192,192,141673,1,0,0:0:0:0:
448,192,141673,1,0,0:0:0:0:
320,192,141798,1,0,0:0:0:0:
448,192,141798,1,0,0:0:0:0:
320,192,141923,1,0,0:0:0:0:
192,192,141923,1,0,0:0:0:0:
64,192,142048,1,0,0:0:0:0:
320,192,142048,1,0,0:0:0:0:
448,192,142048,1,0,0:0:0:0:
192,192,142173,1,0,0:0:0:0:
64,192,142173,1,0,0:0:0:0:
192,192,142298,1,0,0:0:0:0:
448,192,142298,1,0,0:0:0:0:
320,192,142423,1,0,0:0:0:0:
192,192,142485,1,0,0:0:0:0:
448,192,142548,1,0,0:0:0:0:
64,192,142548,1,0,0:0:0:0:
448,192,142673,1,0,0:0:0:0:
320,192,142673,1,0,0:0:0:0:
64,192,142673,1,0,0:0:0:0:
192,192,142798,1,0,0:0:0:0:
320,192,142860,1,0,0:0:0:0:
64,192,142923,1,0,0:0:0:0:
448,192,142923,1,0,0:0:0:0:
64,192,143048,1,0,0:0:0:0:
448,192,143048,1,0,0:0:0:0:
192,192,143173,1,0,0:0:0:0:
64,192,143173,1,0,0:0:0:0:
320,192,143298,1,0,0:0:0:0:
320,192,143423,1,0,0:0:0:0:
64,192,143423,1,0,0:0:0:0:
448,192,143423,1,0,0:0:0:0:
192,192,143548,1,0,0:0:0:0:
64,192,143673,1,0,0:0:0:0:
192,192,143673,1,0,0:0:0:0:
448,192,143673,1,0,0:0:0:0:
320,192,143798,1,0,0:0:0:0:
320,192,143923,1,0,0:0:0:0:
64,192,143923,1,0,0:0:0:0:
64,192,144048,1,0,0:0:0:0:
192,192,144048,1,0,0:0:0:0:
448,192,144110,1,0,0:0:0:0:
320,192,144110,1,0,0:0:0:0:
64,192,144173,1,0,0:0:0:0:
192,192,144173,1,0,0:0:0:0:
320,192,144298,1,0,0:0:0:0:
64,192,144423,1,0,0:0:0:0:
448,192,144423,1,0,0:0:0:0:
320,192,144423,1,0,0:0:0:0:
192,192,144548,1,0,0:0:0:0:
64,192,144673,1,0,0:0:0:0:
448,192,144673,1,0,0:0:0:0:
192,192,144673,1,0,0:0:0:0:
64,192,144798,1,0,0:0:0:0:
192,192,144798,1,0,0:0:0:0:
192,192,144923,1,0,0:0:0:0:
64,192,144923,1,0,0:0:0:0:
320,192,144985,1,0,0:0:0:0:
448,192,145048,128,0,145298:0:0:0:0:
192,192,145048,128,0,145298:0:0:0:0:
64,192,145048,128,0,145298:0:0:0:0:
64,192,145548,128,0,145798:0:0:0:0:
192,192,145548,128,0,145798:0:0:0:0:
448,192,145548,128,0,145735:0:0:0:0:
320,192,145735,128,0,145923:0:0:0:0:
192,192,145923,128,0,146048:0:0:0:0:
64,192,146048,1,0,0:0:0:0:
320,192,146048,1,0,0:0:0:0:
448,192,146048,1,0,0:0:0:0:
64,192,146173,1,0,0:0:0:0:
192,192,146173,1,0,0:0:0:0:
448,192,146173,1,0,0:0:0:0:
64,192,146298,1,0,0:0:0:0:
192,192,146298,1,0,0:0:0:0:
320,192,146298,1,0,0:0:0:0:
320,192,146423,1,0,0:0:0:0:
448,192,146423,1,0,0:0:0:0:
64,192,146485,1,0,0:0:0:0:
192,192,146485,1,0,0:0:0:0:
320,192,146548,1,0,0:0:0:0:
448,192,146548,1,0,0:0:0:0:
64,192,146673,1,0,0:0:0:0:
192,192,146673,1,0,0:0:0:0:
320,192,146735,1,0,0:0:0:0:
448,192,146735,1,0,0:0:0:0:
64,192,146798,1,0,0:0:0:0:
192,192,146798,1,0,0:0:0:0:
448,192,146860,1,0,0:0:0:0:
64,192,146923,1,0,0:0:0:0:
320,192,146923,1,0,0:0:0:0:
192,192,146985,1,0,0:0:0:0:
320,192,147048,1,0,0:0:0:0:
448,192,147048,1,0,0:0:0:0:
64,192,147110,1,0,0:0:0:0:
192,192,147110,1,0,0:0:0:0:
320,192,147173,1,0,0:0:0:0:
448,192,147173,1,0,0:0:0:0:
192,192,147298,1,0,0:0:0:0:
320,192,147360,1,0,0:0:0:0:
192,192,147423,1,0,0:0:0:0:
64,192,147423,1,0,0:0:0:0:
448,192,147423,1,0,0:0:0:0:
320,192,147548,1,0,0:0:0:0:
320,192,147673,1,0,0:0:0:0:
448,192,147673,1,0,0:0:0:0:
192,192,147798,1,0,0:0:0:0:
64,192,147798,1,0,0:0:0:0:
192,192,147923,1,0,0:0:0:0:
64,192,147923,1,0,0:0:0:0:
64,192,148048,1,0,0:0:0:0:
448,192,148048,1,0,0:0:0:0:
320,192,148048,1,0,0:0:0:0:
320,192,148298,1,0,0:0:0:0:
64,192,148423,1,0,0:0:0:0:
192,192,148423,1,0,0:0:0:0:
448,192,148423,1,0,0:0:0:0:
448,192,148548,1,0,0:0:0:0:
64,192,148548,1,0,0:0:0:0:
320,192,148548,1,0,0:0:0:0:
192,192,148673,1,0,0:0:0:0:
448,192,148798,1,0,0:0:0:0:
320,192,148798,1,0,0:0:0:0:
192,192,148923,1,0,0:0:0:0:
320,192,149048,1,0,0:0:0:0:
64,192,149048,1,0,0:0:0:0:
192,192,149173,1,0,0:0:0:0:
448,192,149173,1,0,0:0:0:0:
64,192,149173,1,0,0:0:0:0:
320,192,149298,1,0,0:0:0:0:
448,192,149298,1,0,0:0:0:0:
64,192,149423,1,0,0:0:0:0:
320,192,149423,1,0,0:0:0:0:
192,192,149423,1,0,0:0:0:0:
192,192,149548,1,0,0:0:0:0:
448,192,149548,1,0,0:0:0:0:
64,192,149673,1,0,0:0:0:0:
448,192,149673,1,0,0:0:0:0:
320,192,149673,1,0,0:0:0:0:
192,192,149735,1,0,0:0:0:0:
320,192,149798,1,0,0:0:0:0:
192,192,149923,1,0,0:0:0:0:
448,192,149923,1,0,0:0:0:0:
320,192,150048,1,0,0:0:0:0:
64,192,150048,1,0,0:0:0:0:
64,192,150173,1,0,0:0:0:0:
192,192,150173,1,0,0:0:0:0:
448,192,150298,1,0,0:0:0:0:
192,192,150298,1,0,0:0:0:0:
320,192,150423,1,0,0:0:0:0:
64,192,150548,1,0,0:0:0:0:
448,192,150548,1,0,0:0:0:0:
192,192,150548,1,0,0:0:0:0:
320,192,150610,1,0,0:0:0:0:
64,192,150673,1,0,0:0:0:0:
192,192,150673,1,0,0:0:0:0:
64,192,150798,1,0,0:0:0:0:
320,192,150798,1,0,0:0:0:0:
448,192,150798,1,0,0:0:0:0:
192,192,150860,1,0,0:0:0:0:
448,192,150923,1,0,0:0:0:0:
320,192,150923,1,0,0:0:0:0:
448,192,151048,1,0,0:0:0:0:
64,192,151048,1,0,0:0:0:0:
192,192,151048,1,0,0:0:0:0:
64,192,151173,1,0,0:0:0:0:
320,192,151173,1,0,0:0:0:0:
448,192,151173,1,0,0:0:0:0:
320,192,151298,1,0,0:0:0:0:
192,192,151298,1,0,0:0:0:0:
448,192,151298,1,0,0:0:0:0:
320,192,151423,1,0,0:0:0:0:
64,192,151423,1,0,0:0:0:0:
192,192,151423,1,0,0:0:0:0:
448,192,151548,1,0,0:0:0:0:
320,192,151548,1,0,0:0:0:0:
448,192,151673,1,0,0:0:0:0:
64,192,151673,1,0,0:0:0:0:
192,192,151673,1,0,0:0:0:0:
64,192,151798,1,0,0:0:0:0:
320,192,151798,1,0,0:0:0:0:
448,192,151798,1,0,0:0:0:0:
448,192,151923,1,0,0:0:0:0:
320,192,151923,1,0,0:0:0:0:
192,192,151923,1,0,0:0:0:0:
192,192,152048,1,0,0:0:0:0:
64,192,152048,1,0,0:0:0:0:
320,192,152110,1,0,0:0:0:0:
448,192,152110,1,0,0:0:0:0:
192,192,152173,1,0,0:0:0:0:
64,192,152173,1,0,0:0:0:0:
320,192,152298,1,0,0:0:0:0:
320,192,152423,1,0,0:0:0:0:
448,192,152423,1,0,0:0:0:0:
64,192,152423,1,0,0:0:0:0:
192,192,152548,1,0,0:0:0:0:
64,192,152548,1,0,0:0:0:0:
448,192,152548,1,0,0:0:0:0:
320,192,152673,1,0,0:0:0:0:
192,192,152673,1,0,0:0:0:0:
64,192,152798,1,0,0:0:0:0:
320,192,152798,1,0,0:0:0:0:
448,192,152798,1,0,0:0:0:0:
192,192,152923,1,0,0:0:0:0:
448,192,152923,1,0,0:0:0:0:
320,192,153048,1,0,0:0:0:0:
64,192,153048,1,0,0:0:0:0:
320,192,153173,1,0,0:0:0:0:
448,192,153173,1,0,0:0:0:0:
192,192,153298,1,0,0:0:0:0:
64,192,153423,1,0,0:0:0:0:
448,192,153423,1,0,0:0:0:0:
192,192,153423,1,0,0:0:0:0:
64,192,153548,1,0,0:0:0:0:
320,192,153548,1,0,0:0:0:0:
448,192,153548,1,0,0:0:0:0:
192,192,153610,1,0,0:0:0:0:
320,192,153673,1,0,0:0:0:0:
448,192,153673,1,0,0:0:0:0:
64,192,153798,1,0,0:0:0:0:
448,192,153798,1,0,0:0:0:0:
192,192,153860,1,0,0:0:0:0:
320,192,153860,1,0,0:0:0:0:
64,192,153923,1,0,0:0:0:0:
448,192,153923,1,0,0:0:0:0:
64,192,154048,1,0,0:0:0:0:
192,192,154048,1,0,0:0:0:0:
448,192,154173,1,0,0:0:0:0:
64,192,154173,1,0,0:0:0:0:
192,192,154173,1,0,0:0:0:0:
320,192,154298,1,0,0:0:0:0:
448,192,154298,1,0,0:0:0:0:
64,192,154298,1,0,0:0:0:0:
192,192,154423,1,0,0:0:0:0:
320,192,154485,1,0,0:0:0:0:
448,192,154548,1,0,0:0:0:0:
192,192,154548,1,0,0:0:0:0:
64,192,154548,1,0,0:0:0:0:
64,192,154673,1,0,0:0:0:0:
320,192,154673,1,0,0:0:0:0:
192,192,154798,1,0,0:0:0:0:
448,192,154798,1,0,0:0:0:0:
320,192,154798,1,0,0:0:0:0:
64,192,154923,1,0,0:0:0:0:
64,192,155048,1,0,0:0:0:0:
192,192,155048,1,0,0:0:0:0:
448,192,155048,1,0,0:0:0:0:
192,192,155173,1,0,0:0:0:0:
64,192,155173,1,0,0:0:0:0:
448,192,155173,1,0,0:0:0:0:
192,192,155298,1,0,0:0:0:0:
64,192,155298,1,0,0:0:0:0:
448,192,155298,1,0,0:0:0:0:
64,192,155423,1,0,0:0:0:0:
192,192,155423,1,0,0:0:0:0:
320,192,155485,1,0,0:0:0:0:
448,192,155485,1,0,0:0:0:0:
64,192,155798,1,0,0:0:0:0:
192,192,155798,1,0,0:0:0:0:
320,192,156048,1,0,0:0:0:0:
64,192,156048,128,0,158048:0:0:0:0:
192,192,158048,128,0,160048:0:0:0:0:
448,192,158048,1,0,0:0:0:0:
320,192,160048,128,0,162048:0:0:0:0:
64,192,160048,1,0,0:0:0:0:
192,192,162048,128,0,164048:0:0:0:0:
448,192,162048,1,0,0:0:0:0:
64,192,164048,128,0,165964:0:0:0:0:
448,192,164048,1,0,0:0:0:0:
448,192,164214,1,0,0:0:0:0:
192,192,164381,1,0,0:0:0:0:
192,192,164548,1,0,0:0:0:0:
320,192,164714,1,0,0:0:0:0:
320,192,164881,1,0,0:0:0:0:
192,192,165048,1,0,0:0:0:0:
192,192,165214,1,0,0:0:0:0:
448,192,165381,1,0,0:0:0:0:
448,192,165548,1,0,0:0:0:0:
192,192,165714,1,0,0:0:0:0:
192,192,165881,1,0,0:0:0:0:
192,192,166048,128,0,167964:0:0:0:0:
320,192,166048,1,0,0:0:0:0:
448,192,166214,1,0,0:0:0:0:
320,192,166381,1,0,0:0:0:0:
64,192,166548,1,0,0:0:0:0:
320,192,166714,1,0,0:0:0:0:
448,192,166881,1,0,0:0:0:0:
320,192,167048,1,0,0:0:0:0:
64,192,167214,1,0,0:0:0:0:
320,192,167381,1,0,0:0:0:0:
448,192,167548,1,0,0:0:0:0:
320,192,167714,1,0,0:0:0:0:
64,192,167881,1,0,0:0:0:0:
320,192,168048,128,0,169964:0:0:0:0:
192,192,168048,1,0,0:0:0:0:
448,192,168214,1,0,0:0:0:0:
192,192,168381,1,0,0:0:0:0:
64,192,168548,1,0,0:0:0:0:
192,192,168714,1,0,0:0:0:0:
448,192,168881,1,0,0:0:0:0:
192,192,169048,1,0,0:0:0:0:
64,192,169214,1,0,0:0:0:0:
192,192,169381,1,0,0:0:0:0:
448,192,169548,1,0,0:0:0:0:
192,192,169714,1,0,0:0:0:0:
64,192,169881,1,0,0:0:0:0:
192,192,170048,128,0,171964:0:0:0:0:
320,192,170048,1,0,0:0:0:0:
448,192,170214,1,0,0:0:0:0:
320,192,170381,1,0,0:0:0:0:
64,192,170548,1,0,0:0:0:0:
320,192,170714,1,0,0:0:0:0:
448,192,170881,1,0,0:0:0:0:
320,192,171048,1,0,0:0:0:0:
64,192,171214,1,0,0:0:0:0:
320,192,171381,1,0,0:0:0:0:
448,192,171548,1,0,0:0:0:0:
320,192,171714,1,0,0:0:0:0:
64,192,171881,1,0,0:0:0:0:
448,192,172048,1,0,0:0:0:0:
192,192,172048,1,0,0:0:0:0:
64,192,172048,128,0,175048:0:0:0:0:
