osu file format v14

[General]
AudioFilename: audio.mp3
AudioLeadIn: 0
PreviewTime: 10052
Countdown: 0
SampleSet: Soft
StackLeniency: 0.7
Mode: 0
LetterboxInBreaks: 0
WidescreenStoryboard: 1

[Editor]
DistanceSpacing: 1.1
BeatDivisor: 4
GridSize: 4
TimelineZoom: 1

[Metadata]
Title:Scatmaaaa
TitleUnicode:Scatmaaaa
Artist:Reipia
ArtistUnicode:Reipia
Creator:Girl
Version:Ultimate Reverberant Gonkokokokokokoko
Source:Nico Nico Douga
Tags:ご注文はうさぎですか? 桐間紗路 gochuumon wa usagi desuka? kirima syaro scatman
BeatmapID:1090771
BeatmapSetID:513329

[Difficulty]
HPDrainRate:6
CircleSize:4
OverallDifficulty:8
ApproachRate:9.6
SliderMultiplier:3.59999990463257
SliderTickRate:1

[Events]
//Background and Video events
0,0,"syarochan.jpg",0,0
Video,0,"Scatmaaaa.mp4"
//Break Periods
//Storyboard Layer 0 (Background)
//Storyboard Layer 1 (Fail)
//Storyboard Layer 2 (Pass)
//Storyboard Layer 3 (Foreground)
//Storyboard Sound Samples

[TimingPoints]
8288,441.176470588235,4,2,1,70,1,0
8729,-125,4,2,1,70,0,0
9611,-83.3333333333333,4,2,1,70,0,0
10052,-83.3333333333333,4,2,1,70,0,1
24170,-100,4,2,1,70,0,0

[Colours]
Combo1 : 255,192,0
Combo2 : 255,128,128
Combo3 : 254,240,141
Combo4 : 247,162,253

[HitObjects]
256,192,457,12,0,7846,0:0:0:0:
141,13,8729,6,0,P|110:75|127:144,1,143.999996185303
321,167,9060,1,0,0:0:0:0:
320,166,9170,2,0,P|281:106|213:87,1,143.999996185303,8|0,0:0|0:0,0:0:0:0:
99,244,9501,1,0,0:0:0:0:
99,244,9611,6,0,P|208:320|416:208,1,323.999981529237,4|0,0:0|0:0,0:0:0:0:
452,32,10052,6,0,B|460:83|460:83|473:117|473:117|471:154|471:154|490:272,1,215.999987686158,12|0,0:0|0:0,0:0:0:0:
448,356,10383,1,0,0:0:0:0:
252,152,10493,2,0,P|304:136|400:160,1,107.999993843079,8|0,0:0|0:0,0:0:0:0:
320,312,10714,2,0,P|268:328|172:304,1,107.999993843079
88,120,10935,1,8,0:0:0:0:
12,248,11045,1,0,0:0:0:0:
356,140,11265,1,8,0:0:0:0:
148,328,11486,1,0,0:0:0:0:
252,384,11596,2,0,L|276:232,1,107.999993843079,8|0,0:0|0:0,0:0:0:0:
300,80,11817,6,0,B|290:24|227:11|227:11|188:74|261:142,1,215.999987686158,8|0,0:0|0:0,0:0:0:0:
512,140,12148,1,0,0:0:0:0:
424,56,12258,2,0,L|400:204,1,107.999993843079,8|0,0:0|0:0,0:0:0:0:
360,384,12479,2,0,L|342:277,1,107.999993843079
304,12,12699,1,8,0:0:0:0:
112,104,12810,1,0,0:0:0:0:
224,352,13030,1,8,0:0:0:0:
384,148,13251,1,0,0:0:0:0:
408,236,13361,2,0,L|288:216,1,107.999993843079,8|0,0:0|0:0,0:0:0:0:
112,104,13582,6,0,P|148:236|76:308,1,215.999987686158,12|0,0:0|0:0,0:0:0:0:
32,196,13912,1,0,0:0:0:0:
112,104,14023,2,0,L|256:80,1,107.999993843079,8|0,0:0|0:0,0:0:0:0:
490,130,14243,2,0,L|383:147,1,107.999993843079
332,352,14464,1,8,0:0:0:0:
212,184,14574,1,0,0:0:0:0:
496,256,14795,1,8,0:0:0:0:
144,320,15015,1,0,0:0:0:0:
248,376,15126,2,0,L|260:252,1,107.999993843079,8|0,0:0|0:0,0:0:0:0:
236,32,15346,5,8,0:0:0:0:
132,124,15457,2,0,B|183:132|183:132|217:145|217:145|254:143|254:143|372:162,1,215.999987686158
512,356,15787,2,0,L|488:232,1,107.999993843079,8|0,0:0|0:0,0:0:0:0:
492,0,16008,2,0,L|471:106,1,107.999993843079
380,264,16229,1,8,0:0:0:0:
459,179,16449,5,8,0:0:0:0:
491,249,16559,1,8,0:0:0:0:
472,325,16669,1,8,0:0:0:0:
408,373,16779,1,8,0:0:0:0:
330,371,16890,1,8,0:0:0:0:
270,319,17000,1,8,0:0:0:0:
256,243,17111,6,0,P|124:206|52:278,1,215.999987686158,12|0,0:0|0:0,0:0:0:0:
163,322,17441,1,0,0:0:0:0:
256,243,17552,2,0,L|280:98,1,107.999993843079,8|0,0:0|0:0,0:0:0:0:
88,0,17773,2,0,L|70:106,1,107.999993843079
244,48,17993,1,8,0:0:0:0:
424,112,18104,1,0,0:0:0:0:
288,368,18324,1,8,0:0:0:0:
356,20,18545,1,0,0:0:0:0:
244,48,18655,2,0,L|268:216,1,107.999993843079,8|0,0:0|0:0,0:0:0:0:
273,309,18876,6,0,B|270:369|196:375|196:375|169:317|208:276,1,215.999987686158,8|0,0:0|0:0,0:0:0:0:
432,104,19207,1,0,0:0:0:0:
368,192,19317,2,0,L|500:220,1,107.999993843079,8|0,0:0|0:0,0:0:0:0:
504,364,19537,2,0,L|398:341,1,107.999993843079
268,112,19758,1,8,0:0:0:0:
64,196,19868,1,0,0:0:0:0:
194,345,20089,6,8,L|218:225,1,107.999993843079,8|8,0:0|0:0,0:0:0:0:
258,33,20310,1,8,0:0:0:0:
268,112,20420,1,8,0:0:0:0:
279,191,20530,1,8,0:0:0:0:
289,270,20640,6,0,P|412:280|484:128,1,215.999987686158,12|0,0:0|0:0,0:0:0:0:
336,44,20971,1,0,0:0:0:0:
424,28,21082,2,0,L|400:156,1,107.999993843079,8|0,0:0|0:0,0:0:0:0:
220,384,21302,2,0,L|200:277,1,107.999993843079
164,44,21523,1,8,0:0:0:0:
40,116,21633,1,0,0:0:0:0:
376,248,21854,1,8,0:0:0:0:
84,320,22074,1,0,0:0:0:0:
187,384,22185,2,0,L|203:248,1,107.999993843079,8|0,0:0|0:0,0:0:0:0:
220,48,22405,1,8,0:0:0:0:
108,168,22515,6,0,B|159:165|159:165|194:155|194:155|231:161|231:161|350:155,1,215.999987686158
448,360,22846,2,0,P|404:296|408:224,1,107.999993843079,8|0,0:0|0:0,0:0:0:0:
412,52,23067,2,0,P|456:116|452:188,1,107.999993843079
320,352,23287,1,8,0:0:0:0:
248,228,23398,2,0,B|258:172|321:159|321:159|360:222|287:290,1,215.999987686158,0|8,0:0|0:0,0:0:0:0:
156,268,23729,1,0,0:0:0:0:
112,24,24170,6,0,P|112:92|148:128,1,89.9999976158143,8|0,0:0|0:0,0:0:0:0:
224,192,24390,2,0,P|224:124|188:88,1,89.9999976158143
120,108,24612,1,8,0:0:0:0:
70,165,24722,1,0,0:0:0:0:
71,241,24832,1,0,0:0:0:0:
122,297,24942,1,0,0:0:0:0:
204,280,25052,6,0,P|268:268|324:304,1,89.9999976158143,8|0,0:0|0:0,0:0:0:0:
340,364,25218,1,0,0:0:0:0:
340,364,25273,2,0,P|276:376|220:340,1,89.9999976158143
400,192,25493,6,0,P|388:256|424:312,1,89.9999976158143,8|0,0:0|0:0,0:0:0:0:
484,328,25714,2,0,P|496:264|460:208,1,89.9999976158143
292,232,25935,2,0,P|256:244|184:220,1,89.9999976158143,8|0,0:0|0:0,0:0:0:0:
160,144,26100,1,0,0:0:0:0:
160,144,26155,2,0,P|196:132|268:156,1,89.9999976158143
292,232,26376,1,8,0:0:0:0:
267,307,26486,1,0,0:0:0:0:
322,366,26596,1,0,0:0:0:0:
399,346,26706,1,0,0:0:0:0:
419,268,26817,6,0,P|404:208|436:136,1,89.9999976158143,8|0,0:0|0:0,0:0:0:0:
512,48,27037,2,0,P|466:91|388:100,1,89.9999976158143
272,76,27258,2,0,P|332:93|378:156,1,89.9999976158143,8|0,0:0|0:0,0:0:0:0:
272,184,27479,1,0,0:0:0:0:
88,64,27699,6,0,P|104:112|72:184,1,89.9999976158143,8|0,0:0|0:0,0:0:0:0:
48,244,27865,1,0,0:0:0:0:
48,244,27920,2,0,P|32:292|64:364,1,89.9999976158143
208,296,28140,1,8,0:0:0:0:
208,296,28251,1,0,0:0:0:0:
208,296,28361,2,0,B|256:308|256:308|312:292,1,89.9999976158143
352,232,28582,5,8,0:0:0:0:
425,198,28692,1,0,0:0:0:0:
458,272,28802,1,0,0:0:0:0:
384,305,28912,1,0,0:0:0:0:
480,292,29023,6,0,L|464:412,2,89.9999976158143,8|0|0,0:0|0:0|0:0,0:0:0:0:
256,192,29464,12,4,32993,0:0:0:0:
