osu file format v14

[General]
AudioFilename: Gunther-Ding Dong Song (metal cover)(myfreemp3.eu).mp3
AudioLeadIn: 0
PreviewTime: 26429
Countdown: 0
SampleSet: Normal
StackLeniency: 0.7
Mode: 1
LetterboxInBreaks: 0
StoryFireInFront: 0
EpilepsyWarning: 1
WidescreenStoryboard: 0

[Editor]
Bookmarks: 9067,16032,25246,26317,33175,41639,48603,55460,62317,69175,86425,100139,117282,132603,146425,163567,177282,194425,208139,214996,221853
DistanceSpacing: 0.8
BeatDivisor: 4
GridSize: 32
TimelineZoom: 2.599999

[Metadata]
Title:Ding Dong Song
TitleUnicode:Ding Dong Song
Artist:ReinXeed
ArtistUnicode:ReinXeed
Creator:DarkDunskin
Version:Oni
Source:
Tags:metal cover power gunther and the sunshine girls english you touch my tralala
BeatmapID:987804
BeatmapSetID:458093

[Difficulty]
HPDrainRate:5
CircleSize:2
OverallDifficulty:5
ApproachRate:5
SliderMultiplier:1.40399990653992
SliderTickRate:1

[Events]
//Background and Video events
0,0,"BG.jpg",0,0
//Break Periods
//Storyboard Layer 0 (Background)
//Storyboard Layer 1 (Fail)
//Storyboard Layer 2 (Pass)
//Storyboard Layer 3 (Foreground)
//Storyboard Layer 4 (Overlay)
//Storyboard Sound Samples

[TimingPoints]
2420,428.571428571429,4,1,0,80,1,0
26420,-100,4,1,0,80,0,1
40134,-100,4,1,0,80,0,0
100134,-100,4,1,0,80,0,1
113848,-100,4,1,0,80,0,0
149848,-100,4,1,0,80,0,1
163562,-100,4,1,0,80,0,0
194420,-100,4,1,0,80,0,1
221848,-100,4,1,0,80,0,0

[HitObjects]
256,192,9277,5,0,0:0:0:0:
256,192,9491,1,8,0:0:0:0:
256,192,9598,1,0,0:0:0:0:
256,192,9920,1,0,0:0:0:0:
256,192,10348,1,0,0:0:0:0:
256,192,10562,1,8,0:0:0:0:
256,192,10777,1,8,0:0:0:0:
256,192,10991,1,0,0:0:0:0:
256,192,11205,1,8,0:0:0:0:
256,192,11312,1,0,0:0:0:0:
256,192,11634,1,0,0:0:0:0:
256,192,12062,1,0,0:0:0:0:
256,192,12276,1,0,0:0:0:0:
256,192,12491,1,8,0:0:0:0:
256,192,12705,1,0,0:0:0:0:
256,192,12920,1,8,0:0:0:0:
256,192,13027,1,0,0:0:0:0:
256,192,13348,1,0,0:0:0:0:
256,192,13777,1,0,0:0:0:0:
256,192,13991,1,8,0:0:0:0:
256,192,14205,1,8,0:0:0:0:
256,192,14420,1,0,0:0:0:0:
256,192,14634,1,8,0:0:0:0:
256,192,14741,1,0,0:0:0:0:
256,192,15062,1,0,0:0:0:0:
256,192,15491,1,0,0:0:0:0:
256,192,15705,1,0,0:0:0:0:
256,192,15920,1,8,0:0:0:0:
256,192,16134,1,4,0:0:0:0:
256,192,16562,1,0,0:0:0:0:
256,192,16777,1,0,0:0:0:0:
256,192,17205,1,0,0:0:0:0:
256,192,17312,1,0,0:0:0:0:
256,192,17419,1,8,0:0:0:0:
256,192,17634,1,8,0:0:0:0:
256,192,17848,1,0,0:0:0:0:
256,192,18277,1,0,0:0:0:0:
256,192,18491,1,0,0:0:0:0:
256,192,18919,1,0,0:0:0:0:
256,192,19026,1,0,0:0:0:0:
256,192,19133,1,8,0:0:0:0:
256,192,19348,1,0,0:0:0:0:
256,192,19562,1,0,0:0:0:0:
256,192,19991,1,0,0:0:0:0:
256,192,20205,1,0,0:0:0:0:
256,192,20634,1,0,0:0:0:0:
256,192,20741,1,0,0:0:0:0:
256,192,20848,1,8,0:0:0:0:
256,192,21062,1,8,0:0:0:0:
256,192,21277,1,0,0:0:0:0:
256,192,21705,1,0,0:0:0:0:
256,192,21919,1,0,0:0:0:0:
256,192,22348,1,0,0:0:0:0:
256,192,22455,1,0,0:0:0:0:
256,192,22562,1,8,0:0:0:0:
256,192,22777,1,0,0:0:0:0:
256,192,22991,1,4,0:0:0:0:
256,192,23205,12,0,25134,0:0:0:0:
256,192,25348,5,8,0:0:0:0:
256,192,25455,1,8,0:0:0:0:
256,192,25562,1,8,0:0:0:0:
256,192,25777,1,8,0:0:0:0:
256,192,25991,1,8,0:0:0:0:
256,192,26205,1,8,0:0:0:0:
256,192,26420,1,4,0:0:0:0:
256,192,26848,1,8,0:0:0:0:
256,192,27062,1,0,0:0:0:0:
256,192,27277,1,8,0:0:0:0:
256,192,27491,1,0,0:0:0:0:
256,192,27598,1,0,0:0:0:0:
256,192,27705,1,8,0:0:0:0:
256,192,27920,1,0,0:0:0:0:
256,192,28134,1,8,0:0:0:0:
256,192,28348,1,0,0:0:0:0:
256,192,28455,1,0,0:0:0:0:
256,192,28562,1,8,0:0:0:0:
256,192,28670,1,8,0:0:0:0:
256,192,28777,1,0,0:0:0:0:
256,192,28991,1,8,0:0:0:0:
256,192,29205,1,0,0:0:0:0:
256,192,29312,1,0,0:0:0:0:
256,192,29420,1,8,0:0:0:0:
256,192,29527,1,8,0:0:0:0:
256,192,29634,1,0,0:0:0:0:
256,192,29848,1,4,0:0:0:0:
256,192,30062,1,0,0:0:0:0:
256,192,30170,1,0,0:0:0:0:
256,192,30277,1,8,0:0:0:0:
256,192,30491,1,0,0:0:0:0:
256,192,30705,1,8,0:0:0:0:
256,192,30920,1,0,0:0:0:0:
256,192,31027,1,0,0:0:0:0:
256,192,31134,1,8,0:0:0:0:
256,192,31348,1,0,0:0:0:0:
256,192,31562,1,8,0:0:0:0:
256,192,31777,1,0,0:0:0:0:
256,192,31884,1,0,0:0:0:0:
256,192,31991,1,8,0:0:0:0:
256,192,32098,1,8,0:0:0:0:
256,192,32205,1,0,0:0:0:0:
256,192,32420,1,8,0:0:0:0:
256,192,32634,1,0,0:0:0:0:
256,192,32741,1,0,0:0:0:0:
256,192,32848,1,8,0:0:0:0:
256,192,32955,1,8,0:0:0:0:
256,192,33062,1,0,0:0:0:0:
256,192,33277,5,4,0:0:0:0:
256,192,33705,1,8,0:0:0:0:
256,192,33920,1,0,0:0:0:0:
256,192,34134,1,8,0:0:0:0:
256,192,34348,1,0,0:0:0:0:
256,192,34455,1,0,0:0:0:0:
256,192,34562,1,8,0:0:0:0:
256,192,34777,1,0,0:0:0:0:
256,192,34991,1,8,0:0:0:0:
256,192,35205,1,0,0:0:0:0:
256,192,35312,1,0,0:0:0:0:
256,192,35420,1,8,0:0:0:0:
256,192,35527,1,0,0:0:0:0:
256,192,35634,1,8,0:0:0:0:
256,192,35848,1,8,0:0:0:0:
256,192,36062,1,0,0:0:0:0:
256,192,36170,1,0,0:0:0:0:
256,192,36277,1,8,0:0:0:0:
256,192,36384,1,0,0:0:0:0:
256,192,36491,1,0,0:0:0:0:
256,192,36705,1,4,0:0:0:0:
256,192,36920,1,0,0:0:0:0:
256,192,37027,1,0,0:0:0:0:
256,192,37134,1,8,0:0:0:0:
256,192,37349,1,0,0:0:0:0:
256,192,37563,1,8,0:0:0:0:
256,192,37777,1,0,0:0:0:0:
256,192,37884,1,0,0:0:0:0:
256,192,37991,1,8,0:0:0:0:
256,192,38206,1,0,0:0:0:0:
256,192,38420,1,8,0:0:0:0:
256,192,38634,1,0,0:0:0:0:
256,192,38741,1,0,0:0:0:0:
256,192,38849,1,8,0:0:0:0:
256,192,38956,1,0,0:0:0:0:
256,192,39063,1,8,0:0:0:0:
256,192,39277,1,8,0:0:0:0:
256,192,39491,1,0,0:0:0:0:
256,192,39599,1,0,0:0:0:0:
256,192,39706,1,8,0:0:0:0:
256,192,39813,1,0,0:0:0:0:
256,192,39920,1,0,0:0:0:0:
256,192,40134,1,4,0:0:0:0:
256,192,41848,5,4,0:0:0:0:
256,192,42277,1,0,0:0:0:0:
256,192,42491,1,0,0:0:0:0:
256,192,42705,1,8,0:0:0:0:
256,192,43134,1,0,0:0:0:0:
256,192,43348,1,0,0:0:0:0:
256,192,43455,1,0,0:0:0:0:
256,192,43562,1,8,0:0:0:0:
256,192,43777,1,0,0:0:0:0:
256,192,43991,1,0,0:0:0:0:
256,192,44098,1,0,0:0:0:0:
256,192,44205,1,8,0:0:0:0:
256,192,44420,1,0,0:0:0:0:
256,192,44634,1,0,0:0:0:0:
256,192,44741,1,0,0:0:0:0:
256,192,44848,1,8,0:0:0:0:
256,192,45062,1,0,0:0:0:0:
256,192,45277,1,0,0:0:0:0:
256,192,45705,1,0,0:0:0:0:
256,192,45920,1,0,0:0:0:0:
256,192,46134,1,8,0:0:0:0:
256,192,46562,1,0,0:0:0:0:
256,192,46777,1,0,0:0:0:0:
256,192,46885,1,0,0:0:0:0:
256,192,46992,1,8,0:0:0:0:
256,192,47205,1,0,0:0:0:0:
256,192,47420,1,0,0:0:0:0:
256,192,47528,1,0,0:0:0:0:
256,192,47635,1,8,0:0:0:0:
256,192,47848,1,4,0:0:0:0:
256,192,48277,1,4,0:0:0:0:
256,192,48705,1,4,0:0:0:0:
256,192,49134,1,0,0:0:0:0:
256,192,49348,1,0,0:0:0:0:
256,192,49562,1,8,0:0:0:0:
256,192,49992,1,0,0:0:0:0:
256,192,50206,1,0,0:0:0:0:
256,192,50312,1,0,0:0:0:0:
256,192,50420,1,8,0:0:0:0:
256,192,50634,1,8,0:0:0:0:
256,192,50848,1,0,0:0:0:0:
256,192,50955,1,0,0:0:0:0:
256,192,51062,1,8,0:0:0:0:
256,192,51276,1,8,0:0:0:0:
256,192,51491,1,0,0:0:0:0:
256,192,51599,1,0,0:0:0:0:
256,192,51706,1,8,0:0:0:0:
256,192,51920,1,8,0:0:0:0:
256,192,52134,1,4,0:0:0:0:
256,192,52562,1,0,0:0:0:0:
256,192,52776,1,0,0:0:0:0:
256,192,52990,1,8,0:0:0:0:
256,192,53420,1,0,0:0:0:0:
256,192,53634,1,0,0:0:0:0:
256,192,53741,1,0,0:0:0:0:
256,192,53848,1,8,0:0:0:0:
256,192,54062,1,8,0:0:0:0:
256,192,54277,1,0,0:0:0:0:
256,192,54383,1,0,0:0:0:0:
256,192,54490,1,8,0:0:0:0:
256,192,54704,1,8,0:0:0:0:
256,192,54812,1,8,0:0:0:0:
256,192,54919,1,0,0:0:0:0:
256,192,55027,1,0,0:0:0:0:
256,192,55134,1,8,0:0:0:0:
256,192,55241,1,8,0:0:0:0:
256,192,55348,1,8,0:0:0:0:
256,192,55562,5,4,0:0:0:0:
256,192,55991,1,0,0:0:0:0:
256,192,56205,1,0,0:0:0:0:
256,192,56419,1,8,0:0:0:0:
256,192,56849,1,0,0:0:0:0:
256,192,57063,1,0,0:0:0:0:
256,192,57170,1,0,0:0:0:0:
256,192,57277,1,8,0:0:0:0:
256,192,57491,1,0,0:0:0:0:
256,192,57705,1,0,0:0:0:0:
256,192,57812,1,0,0:0:0:0:
256,192,57919,1,8,0:0:0:0:
256,192,58133,1,0,0:0:0:0:
256,192,58348,1,0,0:0:0:0:
256,192,58456,1,0,0:0:0:0:
256,192,58563,1,8,0:0:0:0:
256,192,58777,1,0,0:0:0:0:
256,192,58991,1,0,0:0:0:0:
256,192,59419,1,0,0:0:0:0:
256,192,59633,1,0,0:0:0:0:
256,192,59848,1,8,0:0:0:0:
256,192,60277,1,0,0:0:0:0:
256,192,60491,1,0,0:0:0:0:
256,192,60598,1,0,0:0:0:0:
256,192,60705,1,8,0:0:0:0:
256,192,60919,1,0,0:0:0:0:
256,192,61134,1,0,0:0:0:0:
256,192,61240,1,0,0:0:0:0:
256,192,61347,1,8,0:0:0:0:
256,192,61561,1,0,0:0:0:0:
256,192,61776,1,0,0:0:0:0:
256,192,61884,1,0,0:0:0:0:
256,192,61991,1,8,0:0:0:0:
256,192,62098,1,0,0:0:0:0:
256,192,62205,1,8,0:0:0:0:
256,192,62419,1,4,0:0:0:0:
256,192,62848,1,0,0:0:0:0:
256,192,63062,1,0,0:0:0:0:
256,192,63276,1,8,0:0:0:0:
256,192,63705,1,0,0:0:0:0:
256,192,63920,1,0,0:0:0:0:
256,192,64027,1,0,0:0:0:0:
256,192,64134,1,8,0:0:0:0:
256,192,64348,1,8,0:0:0:0:
256,192,64562,1,0,0:0:0:0:
256,192,64669,1,0,0:0:0:0:
256,192,64776,1,8,0:0:0:0:
256,192,64991,1,8,0:0:0:0:
256,192,65205,1,0,0:0:0:0:
256,192,65313,1,0,0:0:0:0:
256,192,65420,1,8,0:0:0:0:
256,192,65634,1,8,0:0:0:0:
256,192,65848,1,4,0:0:0:0:
256,192,66276,1,0,0:0:0:0:
256,192,66490,1,0,0:0:0:0:
256,192,66705,1,8,0:0:0:0:
256,192,67134,1,0,0:0:0:0:
256,192,67348,1,0,0:0:0:0:
256,192,67455,1,0,0:0:0:0:
256,192,67562,1,8,0:0:0:0:
256,192,67776,1,0,0:0:0:0:
256,192,67884,1,0,0:0:0:0:
256,192,67990,1,8,0:0:0:0:
256,192,68097,1,8,0:0:0:0:
256,192,68205,1,0,0:0:0:0:
256,192,68420,1,8,0:0:0:0:
256,192,68527,1,8,0:0:0:0:
256,192,68634,1,0,0:0:0:0:
256,192,68741,1,0,0:0:0:0:
256,192,68848,1,8,0:0:0:0:
256,192,68955,1,8,0:0:0:0:
256,192,69062,1,8,0:0:0:0:
256,192,69277,1,4,0:0:0:0:
256,192,69491,1,8,0:0:0:0:
256,192,69598,1,8,0:0:0:0:
256,192,69706,1,8,0:0:0:0:
256,192,69920,1,8,0:0:0:0:
256,192,70348,1,8,0:0:0:0:
256,192,70562,1,8,0:0:0:0:
256,192,70670,1,8,0:0:0:0:
256,192,70777,1,0,0:0:0:0:
256,192,70991,1,0,0:0:0:0:
256,192,71205,1,8,0:0:0:0:
256,192,71312,1,8,0:0:0:0:
256,192,71420,1,8,0:0:0:0:
256,192,71634,1,8,0:0:0:0:
256,192,72062,1,8,0:0:0:0:
256,192,72277,1,8,0:0:0:0:
256,192,72384,1,8,0:0:0:0:
256,192,72491,1,0,0:0:0:0:
256,192,72705,1,4,0:0:0:0:
256,192,72920,1,8,0:0:0:0:
256,192,73027,1,8,0:0:0:0:
256,192,73134,1,8,0:0:0:0:
256,192,73348,1,8,0:0:0:0:
256,192,73777,1,8,0:0:0:0:
256,192,73991,1,8,0:0:0:0:
256,192,74098,1,8,0:0:0:0:
256,192,74205,1,8,0:0:0:0:
256,192,74420,1,0,0:0:0:0:
256,192,74634,1,8,0:0:0:0:
256,192,74741,1,8,0:0:0:0:
256,192,74848,1,8,0:0:0:0:
256,192,75062,1,0,0:0:0:0:
256,192,75277,1,4,0:0:0:0:
256,192,75491,1,8,0:0:0:0:
256,192,75705,1,4,0:0:0:0:
256,192,75920,1,8,0:0:0:0:
256,192,76134,1,4,0:0:0:0:
256,192,76348,1,8,0:0:0:0:
256,192,76455,1,8,0:0:0:0:
256,192,76563,1,8,0:0:0:0:
256,192,76777,1,8,0:0:0:0:
256,192,77205,1,8,0:0:0:0:
256,192,77419,1,8,0:0:0:0:
256,192,77527,1,8,0:0:0:0:
256,192,77634,1,0,0:0:0:0:
256,192,77848,1,0,0:0:0:0:
256,192,78062,1,8,0:0:0:0:
256,192,78169,1,8,0:0:0:0:
256,192,78277,1,8,0:0:0:0:
256,192,78491,1,8,0:0:0:0:
256,192,78919,1,8,0:0:0:0:
256,192,79134,1,8,0:0:0:0:
256,192,79241,1,8,0:0:0:0:
256,192,79348,1,0,0:0:0:0:
256,192,79562,1,4,0:0:0:0:
256,192,79777,1,8,0:0:0:0:
256,192,79884,1,8,0:0:0:0:
256,192,79991,1,8,0:0:0:0:
256,192,80420,1,8,0:0:0:0:
256,192,80527,1,8,0:0:0:0:
256,192,80634,1,0,0:0:0:0:
256,192,80741,1,0,0:0:0:0:
256,192,80848,1,8,0:0:0:0:
256,192,80955,1,0,0:0:0:0:
256,192,81062,1,8,0:0:0:0:
256,192,81491,1,4,0:0:0:0:
256,192,81920,1,4,0:0:0:0:
256,192,82348,1,4,0:0:0:0:
256,192,82991,1,4,0:0:0:0:
256,192,83205,12,0,85134,0:0:0:0:
256,192,85348,5,8,0:0:0:0:
256,192,85455,1,8,0:0:0:0:
256,192,85562,1,8,0:0:0:0:
256,192,85777,1,8,0:0:0:0:
256,192,85991,1,8,0:0:0:0:
256,192,86205,1,8,0:0:0:0:
256,192,86420,1,4,0:0:0:0:
256,192,86634,1,0,0:0:0:0:
256,192,86741,1,0,0:0:0:0:
256,192,86848,1,8,0:0:0:0:
256,192,87062,1,0,0:0:0:0:
256,192,87277,1,8,0:0:0:0:
256,192,87598,1,0,0:0:0:0:
256,192,87705,1,8,0:0:0:0:
256,192,87920,1,0,0:0:0:0:
256,192,88134,1,8,0:0:0:0:
256,192,88348,1,0,0:0:0:0:
256,192,88455,1,0,0:0:0:0:
256,192,88562,1,8,0:0:0:0:
256,192,88777,1,0,0:0:0:0:
256,192,88991,1,8,0:0:0:0:
256,192,89098,1,8,0:0:0:0:
256,192,89312,1,0,0:0:0:0:
256,192,89420,1,8,0:0:0:0:
256,192,89634,1,0,0:0:0:0:
256,192,89848,1,4,0:0:0:0:
256,192,90062,1,0,0:0:0:0:
256,192,90170,1,0,0:0:0:0:
256,192,90277,1,8,0:0:0:0:
256,192,90491,1,0,0:0:0:0:
256,192,90705,1,8,0:0:0:0:
256,192,91027,1,0,0:0:0:0:
256,192,91134,1,8,0:0:0:0:
256,192,91348,1,0,0:0:0:0:
256,192,91562,1,8,0:0:0:0:
256,192,91777,1,0,0:0:0:0:
256,192,91884,1,0,0:0:0:0:
256,192,91991,1,8,0:0:0:0:
256,192,92205,1,0,0:0:0:0:
256,192,92420,1,8,0:0:0:0:
256,192,92527,1,8,0:0:0:0:
256,192,92741,1,0,0:0:0:0:
256,192,92848,1,8,0:0:0:0:
256,192,93062,1,0,0:0:0:0:
256,192,93277,5,4,0:0:0:0:
256,192,93491,1,0,0:0:0:0:
256,192,93598,1,0,0:0:0:0:
256,192,93705,1,8,0:0:0:0:
256,192,93920,1,0,0:0:0:0:
256,192,94134,1,8,0:0:0:0:
256,192,94455,1,0,0:0:0:0:
256,192,94562,1,8,0:0:0:0:
256,192,94777,1,0,0:0:0:0:
256,192,94991,1,8,0:0:0:0:
256,192,95205,1,0,0:0:0:0:
256,192,95312,1,0,0:0:0:0:
256,192,95420,1,8,0:0:0:0:
256,192,95634,1,0,0:0:0:0:
256,192,95848,1,8,0:0:0:0:
256,192,95955,1,8,0:0:0:0:
256,192,96170,1,0,0:0:0:0:
256,192,96277,1,8,0:0:0:0:
256,192,96491,1,0,0:0:0:0:
256,192,96705,1,4,0:0:0:0:
256,192,96920,1,0,0:0:0:0:
256,192,97027,1,0,0:0:0:0:
256,192,97134,1,8,0:0:0:0:
256,192,97349,1,0,0:0:0:0:
256,192,97563,1,8,0:0:0:0:
256,192,97884,1,0,0:0:0:0:
256,192,97991,1,8,0:0:0:0:
256,192,98206,1,0,0:0:0:0:
256,192,98420,1,8,0:0:0:0:
256,192,98634,1,0,0:0:0:0:
256,192,98741,1,0,0:0:0:0:
256,192,98849,1,8,0:0:0:0:
256,192,99063,1,0,0:0:0:0:
256,192,99277,1,8,0:0:0:0:
256,192,99384,1,8,0:0:0:0:
256,192,99599,1,0,0:0:0:0:
256,192,99706,1,8,0:0:0:0:
256,192,99920,1,0,0:0:0:0:
256,192,100134,1,4,0:0:0:0:
256,192,100562,1,8,0:0:0:0:
256,192,100777,1,0,0:0:0:0:
256,192,100991,1,8,0:0:0:0:
256,192,101205,1,0,0:0:0:0:
256,192,101312,1,0,0:0:0:0:
256,192,101419,1,8,0:0:0:0:
256,192,101634,1,0,0:0:0:0:
256,192,101848,1,8,0:0:0:0:
256,192,102062,1,0,0:0:0:0:
256,192,102169,1,0,0:0:0:0:
256,192,102276,1,8,0:0:0:0:
256,192,102384,1,8,0:0:0:0:
256,192,102491,1,0,0:0:0:0:
256,192,102705,1,8,0:0:0:0:
256,192,102919,1,0,0:0:0:0:
256,192,103026,1,0,0:0:0:0:
256,192,103134,1,8,0:0:0:0:
256,192,103241,1,8,0:0:0:0:
256,192,103348,1,0,0:0:0:0:
256,192,103562,1,4,0:0:0:0:
256,192,103776,1,0,0:0:0:0:
256,192,103884,1,0,0:0:0:0:
256,192,103991,1,8,0:0:0:0:
256,192,104205,1,0,0:0:0:0:
256,192,104419,1,8,0:0:0:0:
256,192,104634,1,0,0:0:0:0:
256,192,104741,1,0,0:0:0:0:
256,192,104848,1,8,0:0:0:0:
256,192,105062,1,0,0:0:0:0:
256,192,105277,1,8,0:0:0:0:
256,192,105491,1,0,0:0:0:0:
256,192,105598,1,0,0:0:0:0:
256,192,105705,1,8,0:0:0:0:
256,192,105812,1,8,0:0:0:0:
256,192,105919,1,0,0:0:0:0:
256,192,106134,1,8,0:0:0:0:
256,192,106348,1,0,0:0:0:0:
256,192,106455,1,0,0:0:0:0:
256,192,106562,1,8,0:0:0:0:
256,192,106669,1,8,0:0:0:0:
256,192,106776,1,0,0:0:0:0:
256,192,106991,5,4,0:0:0:0:
256,192,107419,1,8,0:0:0:0:
256,192,107634,1,0,0:0:0:0:
256,192,107848,1,8,0:0:0:0:
256,192,108062,1,0,0:0:0:0:
256,192,108169,1,0,0:0:0:0:
256,192,108276,1,8,0:0:0:0:
256,192,108491,1,0,0:0:0:0:
256,192,108705,1,8,0:0:0:0:
256,192,108919,1,0,0:0:0:0:
256,192,109026,1,0,0:0:0:0:
256,192,109134,1,8,0:0:0:0:
256,192,109241,1,0,0:0:0:0:
256,192,109348,1,8,0:0:0:0:
256,192,109562,1,8,0:0:0:0:
256,192,109776,1,0,0:0:0:0:
256,192,109884,1,0,0:0:0:0:
256,192,109991,1,8,0:0:0:0:
256,192,110098,1,0,0:0:0:0:
256,192,110205,1,0,0:0:0:0:
256,192,110419,1,4,0:0:0:0:
256,192,110634,1,0,0:0:0:0:
256,192,110741,1,0,0:0:0:0:
256,192,110848,1,8,0:0:0:0:
256,192,111063,1,0,0:0:0:0:
256,192,111277,1,8,0:0:0:0:
256,192,111491,1,0,0:0:0:0:
256,192,111598,1,0,0:0:0:0:
256,192,111705,1,8,0:0:0:0:
256,192,111920,1,0,0:0:0:0:
256,192,112134,1,8,0:0:0:0:
256,192,112348,1,0,0:0:0:0:
256,192,112455,1,0,0:0:0:0:
256,192,112563,1,8,0:0:0:0:
256,192,112670,1,0,0:0:0:0:
256,192,112777,1,8,0:0:0:0:
256,192,112991,1,8,0:0:0:0:
256,192,113205,1,0,0:0:0:0:
256,192,113420,1,12,0:0:0:0:
256,192,113634,1,0,0:0:0:0:
256,192,113848,1,4,0:0:0:0:
256,192,114170,1,4,0:0:0:0:
256,192,114491,1,4,0:0:0:0:
256,192,114812,1,4,0:0:0:0:
256,192,115134,1,4,0:0:0:0:
256,192,115348,1,12,0:0:0:0:
256,192,115562,1,4,0:0:0:0:
256,192,115884,1,4,0:0:0:0:
256,192,116205,1,4,0:0:0:0:
256,192,116527,1,4,0:0:0:0:
256,192,116848,1,4,0:0:0:0:
256,192,117062,1,12,0:0:0:0:
256,192,117277,1,4,0:0:0:0:
256,192,117920,1,8,0:0:0:0:
256,192,118134,1,4,0:0:0:0:
256,192,118348,1,0,0:0:0:0:
256,192,118455,1,0,0:0:0:0:
256,192,118562,1,8,0:0:0:0:
256,192,118991,5,4,0:0:0:0:
256,192,119420,1,0,0:0:0:0:
256,192,119634,1,0,0:0:0:0:
256,192,119848,1,8,0:0:0:0:
256,192,120277,1,0,0:0:0:0:
256,192,120491,1,0,0:0:0:0:
256,192,120598,1,0,0:0:0:0:
256,192,120705,1,8,0:0:0:0:
256,192,120920,1,0,0:0:0:0:
256,192,121134,1,0,0:0:0:0:
256,192,121241,1,0,0:0:0:0:
256,192,121348,1,8,0:0:0:0:
256,192,121563,1,0,0:0:0:0:
256,192,121777,1,0,0:0:0:0:
256,192,121884,1,0,0:0:0:0:
256,192,121991,1,8,0:0:0:0:
256,192,122205,1,0,0:0:0:0:
256,192,122420,1,0,0:0:0:0:
256,192,122848,1,0,0:0:0:0:
256,192,123063,1,0,0:0:0:0:
256,192,123277,1,8,0:0:0:0:
256,192,123705,1,0,0:0:0:0:
256,192,123920,1,0,0:0:0:0:
256,192,124028,1,0,0:0:0:0:
256,192,124135,1,8,0:0:0:0:
256,192,124348,1,0,0:0:0:0:
256,192,124563,1,0,0:0:0:0:
256,192,124671,1,0,0:0:0:0:
256,192,124778,1,8,0:0:0:0:
256,192,124991,1,4,0:0:0:0:
256,192,125420,1,4,0:0:0:0:
256,192,125848,1,4,0:0:0:0:
256,192,126277,1,0,0:0:0:0:
256,192,126491,1,0,0:0:0:0:
256,192,126705,1,8,0:0:0:0:
256,192,127135,1,0,0:0:0:0:
256,192,127349,1,0,0:0:0:0:
256,192,127455,1,0,0:0:0:0:
256,192,127563,1,8,0:0:0:0:
256,192,127777,1,8,0:0:0:0:
256,192,127991,1,0,0:0:0:0:
256,192,128098,1,0,0:0:0:0:
256,192,128205,1,8,0:0:0:0:
256,192,128420,1,8,0:0:0:0:
256,192,128634,1,0,0:0:0:0:
256,192,128742,1,0,0:0:0:0:
256,192,128849,1,8,0:0:0:0:
256,192,129063,1,8,0:0:0:0:
256,192,129277,1,4,0:0:0:0:
256,192,129705,1,0,0:0:0:0:
256,192,129919,1,0,0:0:0:0:
256,192,130133,1,8,0:0:0:0:
256,192,130562,1,0,0:0:0:0:
256,192,130777,1,0,0:0:0:0:
256,192,130884,1,0,0:0:0:0:
256,192,130991,1,8,0:0:0:0:
256,192,131205,1,8,0:0:0:0:
256,192,131420,1,0,0:0:0:0:
256,192,131526,1,0,0:0:0:0:
256,192,131633,1,8,0:0:0:0:
256,192,131847,1,8,0:0:0:0:
256,192,132062,1,0,0:0:0:0:
256,192,132170,1,0,0:0:0:0:
256,192,132277,1,8,0:0:0:0:
256,192,132384,1,8,0:0:0:0:
256,192,132491,1,8,0:0:0:0:
256,192,132705,1,4,0:0:0:0:
256,192,132919,1,8,0:0:0:0:
256,192,133026,1,8,0:0:0:0:
256,192,133134,1,8,0:0:0:0:
256,192,133348,1,8,0:0:0:0:
256,192,133776,1,8,0:0:0:0:
256,192,133990,1,8,0:0:0:0:
256,192,134098,1,8,0:0:0:0:
256,192,134205,1,0,0:0:0:0:
256,192,134419,1,0,0:0:0:0:
256,192,134633,1,8,0:0:0:0:
256,192,134740,1,8,0:0:0:0:
256,192,134848,1,8,0:0:0:0:
256,192,135062,1,8,0:0:0:0:
256,192,135490,1,8,0:0:0:0:
256,192,135705,1,8,0:0:0:0:
256,192,135812,1,8,0:0:0:0:
256,192,135919,1,0,0:0:0:0:
256,192,136133,1,4,0:0:0:0:
256,192,136348,1,8,0:0:0:0:
256,192,136455,1,8,0:0:0:0:
256,192,136562,1,8,0:0:0:0:
256,192,136776,1,8,0:0:0:0:
256,192,137205,1,8,0:0:0:0:
256,192,137419,1,8,0:0:0:0:
256,192,137526,1,8,0:0:0:0:
256,192,137633,1,8,0:0:0:0:
256,192,137848,1,0,0:0:0:0:
256,192,138062,1,8,0:0:0:0:
256,192,138169,1,8,0:0:0:0:
256,192,138276,1,8,0:0:0:0:
256,192,138490,1,0,0:0:0:0:
256,192,138705,1,0,0:0:0:0:
256,192,138919,1,8,0:0:0:0:
256,192,139027,1,8,0:0:0:0:
256,192,139133,1,0,0:0:0:0:
256,192,139348,1,8,0:0:0:0:
256,192,139562,1,4,0:0:0:0:
256,192,139776,1,8,0:0:0:0:
256,192,139883,1,8,0:0:0:0:
256,192,139991,1,8,0:0:0:0:
256,192,140205,1,8,0:0:0:0:
256,192,140633,1,8,0:0:0:0:
256,192,140847,1,8,0:0:0:0:
256,192,140955,1,8,0:0:0:0:
256,192,141062,1,0,0:0:0:0:
256,192,141277,1,0,0:0:0:0:
256,192,141490,1,8,0:0:0:0:
256,192,141597,1,8,0:0:0:0:
256,192,141705,1,8,0:0:0:0:
256,192,141919,1,8,0:0:0:0:
256,192,142347,1,8,0:0:0:0:
256,192,142562,1,8,0:0:0:0:
256,192,142669,1,8,0:0:0:0:
256,192,142776,1,0,0:0:0:0:
256,192,142990,1,4,0:0:0:0:
256,192,143205,1,8,0:0:0:0:
256,192,143312,1,8,0:0:0:0:
256,192,143419,1,8,0:0:0:0:
256,192,143848,1,8,0:0:0:0:
256,192,143955,1,8,0:0:0:0:
256,192,144062,1,0,0:0:0:0:
256,192,144169,1,0,0:0:0:0:
256,192,144276,1,8,0:0:0:0:
256,192,144383,1,0,0:0:0:0:
256,192,144490,1,8,0:0:0:0:
256,192,144919,1,4,0:0:0:0:
256,192,145348,1,4,0:0:0:0:
256,192,145776,1,4,0:0:0:0:
256,192,146419,1,4,0:0:0:0:
256,192,146634,12,0,148563,0:0:0:0:
256,192,148777,5,8,0:0:0:0:
256,192,148884,1,8,0:0:0:0:
256,192,148991,1,8,0:0:0:0:
256,192,149206,1,8,0:0:0:0:
256,192,149420,1,8,0:0:0:0:
256,192,149634,1,8,0:0:0:0:
256,192,149848,1,4,0:0:0:0:
256,192,150276,1,8,0:0:0:0:
256,192,150490,1,0,0:0:0:0:
256,192,150705,1,8,0:0:0:0:
256,192,150919,1,0,0:0:0:0:
256,192,151026,1,0,0:0:0:0:
256,192,151133,1,8,0:0:0:0:
256,192,151348,1,0,0:0:0:0:
256,192,151562,1,8,0:0:0:0:
256,192,151776,1,0,0:0:0:0:
256,192,151883,1,0,0:0:0:0:
256,192,151990,1,8,0:0:0:0:
256,192,152098,1,8,0:0:0:0:
256,192,152205,1,0,0:0:0:0:
256,192,152419,1,8,0:0:0:0:
256,192,152633,1,0,0:0:0:0:
256,192,152740,1,0,0:0:0:0:
256,192,152848,1,8,0:0:0:0:
256,192,152955,1,8,0:0:0:0:
256,192,153062,1,0,0:0:0:0:
256,192,153276,1,4,0:0:0:0:
256,192,153490,1,0,0:0:0:0:
256,192,153598,1,0,0:0:0:0:
256,192,153705,1,8,0:0:0:0:
256,192,153919,1,0,0:0:0:0:
256,192,154133,1,8,0:0:0:0:
256,192,154348,1,0,0:0:0:0:
256,192,154455,1,0,0:0:0:0:
256,192,154562,1,8,0:0:0:0:
256,192,154776,1,0,0:0:0:0:
256,192,154991,1,8,0:0:0:0:
256,192,155205,1,0,0:0:0:0:
256,192,155312,1,0,0:0:0:0:
256,192,155419,1,8,0:0:0:0:
256,192,155526,1,8,0:0:0:0:
256,192,155633,1,0,0:0:0:0:
256,192,155848,1,8,0:0:0:0:
256,192,156062,1,0,0:0:0:0:
256,192,156169,1,0,0:0:0:0:
256,192,156276,1,8,0:0:0:0:
256,192,156383,1,8,0:0:0:0:
256,192,156490,1,0,0:0:0:0:
256,192,156705,5,4,0:0:0:0:
256,192,157133,1,8,0:0:0:0:
256,192,157348,1,0,0:0:0:0:
256,192,157562,1,8,0:0:0:0:
256,192,157776,1,0,0:0:0:0:
256,192,157883,1,0,0:0:0:0:
256,192,157990,1,8,0:0:0:0:
256,192,158205,1,0,0:0:0:0:
256,192,158420,1,8,0:0:0:0:
256,192,158633,1,0,0:0:0:0:
256,192,158740,1,0,0:0:0:0:
256,192,158848,1,8,0:0:0:0:
256,192,158955,1,0,0:0:0:0:
256,192,159062,1,8,0:0:0:0:
256,192,159276,1,8,0:0:0:0:
256,192,159490,1,0,0:0:0:0:
256,192,159598,1,0,0:0:0:0:
256,192,159705,1,8,0:0:0:0:
256,192,159812,1,0,0:0:0:0:
256,192,159919,1,0,0:0:0:0:
256,192,160133,1,4,0:0:0:0:
256,192,160348,1,0,0:0:0:0:
256,192,160455,1,0,0:0:0:0:
256,192,160562,1,8,0:0:0:0:
256,192,160777,1,0,0:0:0:0:
256,192,160991,1,8,0:0:0:0:
256,192,161205,1,0,0:0:0:0:
256,192,161312,1,0,0:0:0:0:
256,192,161419,1,8,0:0:0:0:
256,192,161634,1,0,0:0:0:0:
256,192,161848,1,8,0:0:0:0:
256,192,162062,1,0,0:0:0:0:
256,192,162169,1,0,0:0:0:0:
256,192,162277,1,8,0:0:0:0:
256,192,162384,1,0,0:0:0:0:
256,192,162491,1,8,0:0:0:0:
256,192,162705,1,8,0:0:0:0:
256,192,162919,1,0,0:0:0:0:
256,192,163027,1,0,0:0:0:0:
256,192,163134,1,8,0:0:0:0:
256,192,163241,1,0,0:0:0:0:
256,192,163348,1,0,0:0:0:0:
256,192,163562,5,4,0:0:0:0:
256,192,163776,1,8,0:0:0:0:
256,192,163883,1,0,0:0:0:0:
256,192,164205,1,0,0:0:0:0:
256,192,164633,1,0,0:0:0:0:
256,192,164847,1,8,0:0:0:0:
256,192,165062,1,8,0:0:0:0:
256,192,165276,1,0,0:0:0:0:
256,192,165490,1,8,0:0:0:0:
256,192,165597,1,0,0:0:0:0:
256,192,165919,1,0,0:0:0:0:
256,192,166347,1,0,0:0:0:0:
256,192,166561,1,0,0:0:0:0:
256,192,166776,1,8,0:0:0:0:
256,192,166990,1,0,0:0:0:0:
256,192,167205,1,8,0:0:0:0:
256,192,167312,1,0,0:0:0:0:
256,192,167633,1,0,0:0:0:0:
256,192,168062,1,0,0:0:0:0:
256,192,168276,1,8,0:0:0:0:
256,192,168490,1,8,0:0:0:0:
256,192,168705,1,0,0:0:0:0:
256,192,168919,1,8,0:0:0:0:
256,192,169026,1,0,0:0:0:0:
256,192,169347,1,0,0:0:0:0:
256,192,169776,1,0,0:0:0:0:
256,192,169990,1,0,0:0:0:0:
256,192,170205,1,8,0:0:0:0:
256,192,170419,1,4,0:0:0:0:
256,192,170848,1,0,0:0:0:0:
256,192,171062,1,0,0:0:0:0:
256,192,171490,1,0,0:0:0:0:
256,192,171597,1,0,0:0:0:0:
256,192,171704,1,8,0:0:0:0:
256,192,171919,1,8,0:0:0:0:
256,192,172133,1,0,0:0:0:0:
256,192,172562,1,0,0:0:0:0:
256,192,172776,1,0,0:0:0:0:
256,192,173204,1,0,0:0:0:0:
256,192,173311,1,0,0:0:0:0:
256,192,173420,1,8,0:0:0:0:
256,192,173633,1,0,0:0:0:0:
256,192,173847,1,0,0:0:0:0:
256,192,174276,1,0,0:0:0:0:
256,192,174490,1,0,0:0:0:0:
256,192,174919,1,0,0:0:0:0:
256,192,175026,1,0,0:0:0:0:
256,192,175133,1,8,0:0:0:0:
256,192,175347,1,8,0:0:0:0:
256,192,175562,1,0,0:0:0:0:
256,192,175990,1,0,0:0:0:0:
256,192,176204,1,0,0:0:0:0:
256,192,176420,1,0,0:0:0:0:
256,192,176527,1,0,0:0:0:0:
256,192,176634,1,8,0:0:0:0:
256,192,176741,1,8,0:0:0:0:
256,192,176847,1,0,0:0:0:0:
256,192,176955,1,0,0:0:0:0:
256,192,177062,1,8,0:0:0:0:
256,192,177277,1,4,0:0:0:0:
256,192,177491,1,0,0:0:0:0:
256,192,177598,1,0,0:0:0:0:
256,192,177705,1,8,0:0:0:0:
256,192,177919,1,0,0:0:0:0:
256,192,178134,1,8,0:0:0:0:
256,192,178455,1,0,0:0:0:0:
256,192,178562,1,8,0:0:0:0:
256,192,178777,1,0,0:0:0:0:
256,192,178991,1,8,0:0:0:0:
256,192,179205,1,0,0:0:0:0:
256,192,179312,1,0,0:0:0:0:
256,192,179419,1,8,0:0:0:0:
256,192,179634,1,0,0:0:0:0:
256,192,179848,1,8,0:0:0:0:
256,192,179955,1,8,0:0:0:0:
256,192,180169,1,0,0:0:0:0:
256,192,180277,1,8,0:0:0:0:
256,192,180491,1,0,0:0:0:0:
256,192,180705,1,4,0:0:0:0:
256,192,180919,1,0,0:0:0:0:
256,192,181027,1,0,0:0:0:0:
256,192,181134,1,8,0:0:0:0:
256,192,181348,1,0,0:0:0:0:
256,192,181562,1,8,0:0:0:0:
256,192,181884,1,0,0:0:0:0:
256,192,181991,1,8,0:0:0:0:
256,192,182205,1,0,0:0:0:0:
256,192,182420,1,8,0:0:0:0:
256,192,182634,1,0,0:0:0:0:
256,192,182741,1,0,0:0:0:0:
256,192,182848,1,8,0:0:0:0:
256,192,183062,1,0,0:0:0:0:
256,192,183277,1,8,0:0:0:0:
256,192,183384,1,8,0:0:0:0:
256,192,183598,1,0,0:0:0:0:
256,192,183705,1,8,0:0:0:0:
256,192,183919,1,0,0:0:0:0:
256,192,184134,5,4,0:0:0:0:
256,192,184348,1,0,0:0:0:0:
256,192,184455,1,0,0:0:0:0:
256,192,184562,1,8,0:0:0:0:
256,192,184777,1,0,0:0:0:0:
256,192,184991,1,8,0:0:0:0:
256,192,185312,1,0,0:0:0:0:
256,192,185419,1,8,0:0:0:0:
256,192,185634,1,0,0:0:0:0:
256,192,185848,1,8,0:0:0:0:
256,192,186062,1,0,0:0:0:0:
256,192,186169,1,0,0:0:0:0:
256,192,186277,1,8,0:0:0:0:
256,192,186491,1,0,0:0:0:0:
256,192,186705,1,8,0:0:0:0:
256,192,186812,1,8,0:0:0:0:
256,192,187027,1,0,0:0:0:0:
256,192,187134,1,8,0:0:0:0:
256,192,187348,1,0,0:0:0:0:
256,192,187562,1,4,0:0:0:0:
256,192,187777,1,0,0:0:0:0:
256,192,187884,1,0,0:0:0:0:
256,192,187991,1,8,0:0:0:0:
256,192,188206,1,0,0:0:0:0:
256,192,188420,1,8,0:0:0:0:
256,192,188741,1,0,0:0:0:0:
256,192,188848,1,8,0:0:0:0:
256,192,189063,1,0,0:0:0:0:
256,192,189277,1,8,0:0:0:0:
256,192,189491,1,0,0:0:0:0:
256,192,189598,1,0,0:0:0:0:
256,192,189706,1,8,0:0:0:0:
256,192,189920,1,0,0:0:0:0:
256,192,190134,1,8,0:0:0:0:
256,192,190241,1,8,0:0:0:0:
256,192,190456,1,0,0:0:0:0:
256,192,190563,1,8,0:0:0:0:
256,192,190777,1,0,0:0:0:0:
256,192,190991,1,4,0:0:0:0:
256,192,191205,12,0,194205,0:0:0:0:
256,192,194420,5,4,0:0:0:0:
256,192,194848,1,8,0:0:0:0:
256,192,195062,1,0,0:0:0:0:
256,192,195277,1,8,0:0:0:0:
256,192,195491,1,0,0:0:0:0:
256,192,195598,1,0,0:0:0:0:
256,192,195705,1,8,0:0:0:0:
256,192,195920,1,0,0:0:0:0:
256,192,196134,1,8,0:0:0:0:
256,192,196348,1,0,0:0:0:0:
256,192,196455,1,0,0:0:0:0:
256,192,196562,1,8,0:0:0:0:
256,192,196670,1,8,0:0:0:0:
256,192,196777,1,0,0:0:0:0:
256,192,196991,1,8,0:0:0:0:
256,192,197205,1,0,0:0:0:0:
256,192,197312,1,0,0:0:0:0:
256,192,197420,1,8,0:0:0:0:
256,192,197527,1,8,0:0:0:0:
256,192,197634,1,0,0:0:0:0:
256,192,197848,1,4,0:0:0:0:
256,192,198062,1,0,0:0:0:0:
256,192,198170,1,0,0:0:0:0:
256,192,198277,1,8,0:0:0:0:
256,192,198491,1,0,0:0:0:0:
256,192,198705,1,8,0:0:0:0:
256,192,198920,1,0,0:0:0:0:
256,192,199027,1,0,0:0:0:0:
256,192,199134,1,8,0:0:0:0:
256,192,199348,1,0,0:0:0:0:
256,192,199562,1,8,0:0:0:0:
256,192,199777,1,0,0:0:0:0:
256,192,199884,1,0,0:0:0:0:
256,192,199991,1,8,0:0:0:0:
256,192,200098,1,8,0:0:0:0:
256,192,200205,1,0,0:0:0:0:
256,192,200420,1,8,0:0:0:0:
256,192,200634,1,0,0:0:0:0:
256,192,200741,1,0,0:0:0:0:
256,192,200848,1,8,0:0:0:0:
256,192,200955,1,8,0:0:0:0:
256,192,201062,1,0,0:0:0:0:
256,192,201277,5,4,0:0:0:0:
256,192,201491,1,0,0:0:0:0:
256,192,201598,1,0,0:0:0:0:
256,192,201705,1,8,0:0:0:0:
256,192,201920,1,0,0:0:0:0:
256,192,202134,1,8,0:0:0:0:
256,192,202348,1,0,0:0:0:0:
256,192,202455,1,0,0:0:0:0:
256,192,202562,1,8,0:0:0:0:
256,192,202777,1,0,0:0:0:0:
256,192,202991,1,8,0:0:0:0:
256,192,203205,1,0,0:0:0:0:
256,192,203312,1,0,0:0:0:0:
256,192,203420,1,8,0:0:0:0:
256,192,203527,1,0,0:0:0:0:
256,192,203634,1,8,0:0:0:0:
256,192,203848,1,8,0:0:0:0:
256,192,204062,1,0,0:0:0:0:
256,192,204170,1,0,0:0:0:0:
256,192,204277,1,8,0:0:0:0:
256,192,204384,1,0,0:0:0:0:
256,192,204491,1,0,0:0:0:0:
256,192,204705,1,4,0:0:0:0:
256,192,204920,1,0,0:0:0:0:
256,192,205027,1,0,0:0:0:0:
256,192,205134,1,8,0:0:0:0:
256,192,205349,1,0,0:0:0:0:
256,192,205563,1,8,0:0:0:0:
256,192,205777,1,0,0:0:0:0:
256,192,205884,1,0,0:0:0:0:
256,192,205991,1,8,0:0:0:0:
256,192,206206,1,0,0:0:0:0:
256,192,206420,1,8,0:0:0:0:
256,192,206634,1,0,0:0:0:0:
256,192,206741,1,0,0:0:0:0:
256,192,206849,1,8,0:0:0:0:
256,192,206956,1,0,0:0:0:0:
256,192,207063,1,8,0:0:0:0:
256,192,207277,1,8,0:0:0:0:
256,192,207491,1,0,0:0:0:0:
256,192,207705,1,12,0:0:0:0:
256,192,207920,1,0,0:0:0:0:
256,192,208134,1,4,0:0:0:0:
256,192,208562,1,8,0:0:0:0:
256,192,208669,1,0,0:0:0:0:
256,192,208776,1,0,0:0:0:0:
256,192,208884,1,0,0:0:0:0:
256,192,208991,1,8,0:0:0:0:
256,192,209205,1,0,0:0:0:0:
256,192,209312,1,0,0:0:0:0:
256,192,209419,1,8,0:0:0:0:
256,192,209526,1,0,0:0:0:0:
256,192,209634,1,0,0:0:0:0:
256,192,209741,1,0,0:0:0:0:
256,192,209848,1,8,0:0:0:0:
256,192,210062,1,0,0:0:0:0:
256,192,210169,1,0,0:0:0:0:
256,192,210276,1,8,0:0:0:0:
256,192,210491,1,0,0:0:0:0:
256,192,210705,1,8,0:0:0:0:
256,192,210919,1,0,0:0:0:0:
256,192,211026,1,0,0:0:0:0:
256,192,211134,1,8,0:0:0:0:
256,192,211348,1,0,0:0:0:0:
256,192,211562,1,4,0:0:0:0:
256,192,211776,1,0,0:0:0:0:
256,192,211884,1,0,0:0:0:0:
256,192,211991,1,8,0:0:0:0:
256,192,212098,1,0,0:0:0:0:
256,192,212205,1,0,0:0:0:0:
256,192,212312,1,0,0:0:0:0:
256,192,212419,1,8,0:0:0:0:
256,192,212634,1,0,0:0:0:0:
256,192,212741,1,0,0:0:0:0:
256,192,212848,1,8,0:0:0:0:
256,192,212955,1,0,0:0:0:0:
256,192,213062,1,0,0:0:0:0:
256,192,213170,1,0,0:0:0:0:
256,192,213277,1,8,0:0:0:0:
256,192,213491,1,0,0:0:0:0:
256,192,213598,1,0,0:0:0:0:
256,192,213705,1,8,0:0:0:0:
256,192,213919,1,0,0:0:0:0:
256,192,214134,1,8,0:0:0:0:
256,192,214348,1,0,0:0:0:0:
256,192,214455,1,0,0:0:0:0:
256,192,214562,1,8,0:0:0:0:
256,192,214776,1,0,0:0:0:0:
256,192,214991,5,4,0:0:0:0:
256,192,215205,1,0,0:0:0:0:
256,192,215312,1,0,0:0:0:0:
256,192,215419,1,8,0:0:0:0:
256,192,215526,1,8,0:0:0:0:
256,192,215634,1,0,0:0:0:0:
256,192,215741,1,0,0:0:0:0:
256,192,215848,1,8,0:0:0:0:
256,192,216062,1,0,0:0:0:0:
256,192,216169,1,0,0:0:0:0:
256,192,216276,1,8,0:0:0:0:
256,192,216384,1,8,0:0:0:0:
256,192,216491,1,0,0:0:0:0:
256,192,216598,1,0,0:0:0:0:
256,192,216705,1,8,0:0:0:0:
256,192,216919,1,0,0:0:0:0:
256,192,217026,1,0,0:0:0:0:
256,192,217134,1,8,0:0:0:0:
256,192,217348,1,0,0:0:0:0:
256,192,217562,1,8,0:0:0:0:
256,192,217776,1,8,0:0:0:0:
256,192,217884,1,0,0:0:0:0:
256,192,217991,1,8,0:0:0:0:
256,192,218205,1,0,0:0:0:0:
256,192,218419,1,4,0:0:0:0:
256,192,218634,1,0,0:0:0:0:
256,192,218741,1,0,0:0:0:0:
256,192,218848,1,8,0:0:0:0:
256,192,218955,1,8,0:0:0:0:
256,192,219063,1,0,0:0:0:0:
256,192,219170,1,8,0:0:0:0:
256,192,219277,1,8,0:0:0:0:
256,192,219491,1,0,0:0:0:0:
256,192,219598,1,0,0:0:0:0:
256,192,219705,1,8,0:0:0:0:
256,192,219813,1,8,0:0:0:0:
256,192,219920,1,0,0:0:0:0:
256,192,220027,1,8,0:0:0:0:
256,192,220134,1,8,0:0:0:0:
256,192,220348,1,0,0:0:0:0:
256,192,220455,1,0,0:0:0:0:
256,192,220563,1,8,0:0:0:0:
256,192,220777,1,0,0:0:0:0:
256,192,220991,1,8,0:0:0:0:
256,192,221098,1,8,0:0:0:0:
256,192,221205,1,0,0:0:0:0:
256,192,221313,1,0,0:0:0:0:
256,192,221420,1,8,0:0:0:0:
256,192,221527,1,0,0:0:0:0:
256,192,221634,1,8,0:0:0:0:
256,192,221848,1,4,0:0:0:0:
