osu file format v14

[General]
AudioFilename: Ahee_Reid_Speed_feat_Heartwurkz_-_Overtaken_feat_Heartwurkz.mp3
AudioLeadIn: 0
PreviewTime: 44105
Countdown: 0
SampleSet: Soft
StackLeniency: 0.7
Mode: 0
LetterboxInBreaks: 0
WidescreenStoryboard: 1

[Editor]
Bookmarks: 29328,110363,132432,176570,198639
DistanceSpacing: 0.5
BeatDivisor: 8
GridSize: 8
TimelineZoom: 2.050002

[Metadata]
Title:Overtaken (feat. Heartwurkz)
TitleUnicode:Overtaken (feat. Heartwurkz)
Artist:Reid Speed & Ahee
ArtistUnicode:Reid Speed & Ahee
Creator:Rue
Version:Seikatu's Insane
Source:
Tags:drum and bass dnb jungle h4d0uk3n1 seikatu play me records
BeatmapID:1944888
BeatmapSetID:898881

[Difficulty]
HPDrainRate:5.5
CircleSize:4
OverallDifficulty:7
ApproachRate:9
SliderMultiplier:1.52
SliderTickRate:1

[Events]
//Background and Video events
0,0,"allmine.jpg",0,0
//Break Periods
2,110573,120807
//Storyboard Layer 0 (Background)
//Storyboard Layer 1 (Fail)
//Storyboard Layer 2 (Pass)
//Storyboard Layer 3 (Foreground)
//Storyboard Sound Samples

[TimingPoints]
11063,344.827586206897,4,2,0,25,1,0
11063,-200,4,2,0,25,0,0
19338,-200,4,2,0,35,0,0
20718,-200,4,2,0,50,0,0
20890,-200,4,2,0,35,0,0
21063,-200,4,2,0,35,0,0
21235,-200,4,2,0,35,0,0
21407,-200,4,2,0,35,0,0
21752,-200,4,2,0,35,0,0
22097,-100,4,2,0,65,0,0
42787,-100,4,2,0,65,0,0
43649,-100,4,2,0,45,0,0
43821,-200,4,2,0,50,0,0
44166,-100,4,1,0,65,0,0
63649,-80,4,1,0,50,0,0
66149,-100,4,1,0,65,0,0
66235,-100,4,1,0,65,0,0
76149,-100,4,1,0,65,0,0
76235,-80,4,1,0,65,0,0
76494,-100,4,1,0,65,0,0
76580,-80,4,1,0,65,0,0
76838,-100,4,1,0,65,0,0
76925,-80,4,1,0,65,0,0
77269,-100,4,1,0,50,0,0
82787,-133.333333333333,4,1,0,50,0,0
83476,-100,4,1,0,50,0,0
84338,-133.333333333333,4,1,0,50,0,0
84856,-100,4,1,0,50,0,0
86925,-133.333333333333,4,1,0,50,0,0
87959,-200,4,1,0,50,0,0
88304,-100,4,1,0,65,0,0
88390,-100,4,2,0,55,0,0
107614,-133.333333333333,4,2,0,50,0,0
108563,-100,4,2,0,55,0,0
108735,-100,4,2,0,55,0,0
121407,-100,4,2,0,55,0,0
129683,-100,4,2,0,55,0,0
131063,-100,4,2,0,50,0,0
131752,-100,4,2,0,35,0,0
132442,-100,4,2,0,75,0,1
132700,-100,4,2,0,75,0,1
132787,-80,4,2,0,75,0,1
135200,-80,4,2,0,75,0,1
140718,-100,4,2,0,75,0,1
140804,-100,4,2,0,75,0,1
141407,-66.6666666666667,4,2,0,50,0,1
142269,-80,4,2,0,50,0,1
142787,-100,4,2,0,50,0,1
143131,-80,4,2,0,50,0,1
143821,-66.6666666666667,4,2,0,75,0,1
143907,-100,4,2,0,75,0,1
145028,-80,4,2,0,50,0,1
146235,-80,4,2,0,75,0,1
146838,-80,4,2,0,75,0,1
148994,-80,4,2,0,75,0,1
149683,-100,4,2,0,75,0,1
151063,-100,4,2,0,75,0,1
151752,-100,4,2,0,75,0,1
153131,-66.6666666666667,4,2,0,50,0,1
153821,-100,4,2,0,50,0,1
154856,-66.6666666666667,4,2,0,50,0,1
155200,-80,4,2,0,50,0,1
157269,-80,4,2,0,75,0,1
158304,-80,4,2,0,75,0,1
158994,-100,4,2,0,75,0,1
159166,-100,4,2,0,75,0,1
159338,-80,4,2,0,75,0,1
159511,-80,4,2,0,75,0,1
159683,-80,4,2,0,75,0,1
159856,-80,4,2,0,75,0,1
160028,-80,4,2,0,75,0,1
163476,-66.6666666666667,4,2,0,50,0,1
164166,-80,4,2,0,50,0,1
164856,-100,4,2,0,50,0,1
165200,-80,4,2,0,50,0,1
165890,-66.6666666666667,4,2,0,75,0,1
166235,-80,4,2,0,50,0,1
175200,-66.6666666666667,4,2,0,50,0,1
176580,-100,4,2,0,75,0,0

[Colours]
Combo1 : 244,106,15
Combo2 : 233,233,233
Combo3 : 128,0,255
Combo4 : 255,0,128

[HitObjects]
64,116,11063,6,0,P|135:88|208:107,1,152,4|8,1:2|1:0,0:0:0:0:
151,262,12097,1,0,1:0:0:0:
151,262,12183,1,0,0:0:0:0:
151,262,12269,1,2,0:0:0:0:
151,262,12356,1,0,0:0:0:0:
151,262,12442,6,0,P|149:224|141:178,1,76,4|0,0:0|0:0,0:0:0:0:
262,37,13131,1,8,1:0:0:0:
247,205,13476,1,0,1:0:0:0:
247,205,13563,1,0,0:0:0:0:
247,205,13649,1,2,0:0:0:0:
262,37,13821,5,4,1:2:0:0:
328,113,13994,2,0,P|385:100|441:97,1,114,4|8,1:2|1:0,0:0:0:0:
440,96,14856,1,0,1:0:0:0:
440,96,14942,1,0,0:0:0:0:
440,96,15028,1,2,0:0:0:0:
396,188,15200,6,0,L|390:348,1,152,4|8,0:0|1:0,0:0:0:0:
217,280,16235,1,0,1:2:0:0:
217,280,16321,1,0,0:0:0:0:
217,280,16407,1,2,0:0:0:0:
217,280,16494,1,0,0:0:0:0:
217,280,16580,6,0,P|254:262|290:345,1,152,4|8,1:2|1:0,0:0:0:0:
195,381,17614,1,2,0:0:0:0:
195,381,17700,1,0,0:0:0:0:
195,381,17787,1,0,1:0:0:0:
111,331,17959,6,0,L|119:172,1,152,4|8,0:0|1:0,0:0:0:0:
118,179,18821,1,2,0:0:0:0:
21,239,18994,2,0,L|22:277,1,38,4|2,0:0|0:0,0:0:0:0:
209,259,19338,5,4,0:2:0:0:
217,158,19511,2,0,L|224:34,1,114,4|8,0:0|1:0,0:0:0:0:
223,44,20200,1,2,0:0:0:0:
116,120,20373,2,0,L|119:167,1,38,4|0,0:0|0:0,0:0:0:0:
296,217,20718,5,4,0:2:0:0:
354,129,20890,1,0,1:0:0:0:
354,119,20976,1,0,1:0:0:0:
354,109,21063,1,0,1:2:0:0:
443,181,21235,1,0,1:0:0:0:
445,190,21321,1,0,1:0:0:0:
447,199,21407,1,0,1:0:0:0:
354,99,21580,1,0,1:0:0:0:
298,226,21752,1,0,1:0:0:0:
226,77,21925,1,0,1:0:0:0:
151,248,22097,6,0,L|161:335,1,76,4|2,1:0|2:0,0:0:0:0:
57,193,22442,2,0,L|43:38,1,152,8|0,1:0|0:0,0:0:0:0:
150,105,22959,1,4,1:0:0:0:
34,212,23131,6,0,L|45:293,1,76,8|0,1:0|0:0,0:0:0:0:
215,220,23476,2,0,L|136:232,1,76,2|6,0:0|1:2,0:0:0:0:
151,51,23821,2,0,L|162:132,1,76,8|2,1:0|0:0,0:0:0:0:
332,59,24166,2,0,L|253:71,1,76,4|0,0:0|0:0,0:0:0:0:
325,173,24511,2,0,L|442:156,1,114,0|0,1:0|0:0,0:0:0:0:
453,146,24856,6,0,P|446:194|445:237,1,76,4|2,1:0|0:0,0:0:0:0:
350,384,25200,2,0,P|392:342|348:267,1,152,8|2,1:0|0:0,0:0:0:0:
278,327,25718,1,0,1:0:0:0:
242,155,25890,6,0,P|243:198|257:237,1,76,8|0,1:0|0:0,0:0:0:0:
188,383,26235,2,0,P|187:340|173:301,1,76,4|0,0:0|0:0,0:0:0:0:
162,106,26580,2,0,P|151:142|150:180,1,76,8|2,1:0|0:0,0:0:0:0:
70,331,26925,2,0,P|80:294|81:256,1,76,2|4,0:0|1:0,0:0:0:0:
117,17,27269,2,0,P|82:54|60:119,1,114,8|0,1:0|0:0,0:0:0:0:
41,111,27614,6,0,P|34:150|10:196,1,76,4|2,1:0|0:0,0:0:0:0:
172,299,27959,2,0,P|245:273|319:292,1,152,8|2,1:0|0:2,0:0:0:0:
317,291,28476,1,0,1:0:0:0:
239,184,28649,2,0,L|236:104,1,76,8|2,1:0|0:0,0:0:0:0:
234,19,28994,5,4,0:0:0:0:
337,139,29166,1,0,1:0:0:0:
133,152,29338,2,0,L|138:53,1,76,8|4,1:0|0:0,0:0:0:0:
256,173,29683,2,0,L|263:328,1,152,0|8,0:0|1:0,0:0:0:0:
162,260,30200,1,2,0:0:0:0:
351,251,30373,6,0,P|413:217|493:257,1,152,4|8,1:0|1:0,0:0:0:0:
484,245,30890,1,4,0:0:0:0:
417,381,31063,2,0,P|421:343|422:300,1,76,0|0,0:0|1:0,0:0:0:0:
512,150,31407,2,0,P|506:112|495:70,1,76,8|2,1:0|0:0,0:0:0:0:
368,8,31752,5,4,0:0:0:0:
497,75,31925,1,0,1:0:0:0:
374,153,32097,2,0,L|221:145,1,152,8|2,1:0|0:0,0:0:0:0:
222,145,32614,1,0,1:2:0:0:
374,244,32787,2,0,L|370:329,1,76,12|0,1:2|0:0,0:0:0:0:
192,255,33131,6,0,L|272:258,1,76,4|2,1:0|0:0,0:0:0:0:
116,322,33476,2,0,P|93:274|120:183,1,152,8|0,1:0|0:0,0:0:0:0:
119,183,33994,1,0,1:0:0:0:
207,44,34166,2,0,P|205:93|184:128,1,76,8|2,1:0|0:0,0:0:0:0:
17,82,34511,6,0,L|103:93,1,76,0|0,0:0|1:0,0:0:0:0:
229,207,34856,2,0,L|389:227,1,152,12|2,1:2|0:0,0:0:0:0:
379,225,35373,1,0,1:0:0:0:
499,123,35545,2,0,L|412:128,1,76,12|0,1:2|0:0,0:0:0:0:
464,301,35890,6,0,P|482:268|487:227,1,76,4|2,1:0|0:0,0:0:0:0:
412,110,36235,2,0,B|257:117,1,152,8|2,1:0|0:0,0:0:0:0:
71,123,36752,1,0,1:0:0:0:
165,80,36925,2,0,L|168:166,1,76,8|4,1:0|0:0,0:0:0:0:
254,285,37269,6,0,L|251:209,1,76,4|0,0:0|1:0,0:0:0:0:
13,259,37614,2,0,B|168:252,1,152,8|10,1:0|0:0,0:0:0:0:
164,252,38131,1,0,1:0:0:0:
347,242,38304,2,0,L|352:159,1,76,8|0,1:0|0:0,0:0:0:0:
199,56,38649,6,0,L|202:132,1,76,4|2,1:0|0:0,0:0:0:0:
433,112,38994,2,0,P|372:73|297:88,1,152,4|2,0:0|0:0,0:0:0:0:
458,218,39511,1,0,1:0:0:0:
454,99,39683,2,0,P|448:63|447:19,1,76,8|4,1:0|0:0,0:0:0:0:
351,166,40028,5,0,0:0:0:0:
458,218,40200,1,0,1:0:0:0:
368,304,40373,2,0,P|294:312|213:328,1,152,8|2,1:0|0:0,0:0:0:0:
217,326,40890,1,0,1:0:0:0:
63,286,41063,2,0,P|102:277|149:273,1,76,8|4,1:0|0:0,0:0:0:0:
75,142,41407,5,4,1:0:0:0:
75,142,41752,5,4,1:2:0:0:
75,142,42097,5,4,1:2:0:0:
75,142,42442,5,4,1:2:0:0:
72,148,42787,5,4,1:2:0:0:
153,93,42959,1,4,1:2:0:0:
239,206,43131,1,4,1:2:0:0:
336,74,43304,1,4,1:2:0:0:
397,263,43476,1,2,0:0:0:0:
404,225,43563,1,0,1:0:0:0:
411,187,43649,1,0,1:0:0:0:
418,149,43735,1,0,1:0:0:0:
426,111,43821,6,0,L|432:168,1,57,0|2,1:0|2:0,0:0:0:0:
331,152,44166,5,4,1:0:0:0:
236,160,44338,2,2,L|149:167,1,76,2|8,1:0|1:0,1:1:0:0:
331,152,44683,1,0,0:0:0:0:
188,75,44856,2,2,P|190:37|182:-3,1,76,2|4,0:0|1:0,0:0:0:0:
78,143,45200,2,2,P|76:181|84:221,1,76,8|2,0:0|0:0,0:0:0:0:
272,366,45545,5,0,0:0:0:0:
283,266,45718,1,0,0:0:0:0:
183,255,45890,1,10,0:0:0:0:
172,355,46063,1,0,0:0:0:0:
371,373,46235,2,2,L|502:361,1,114,2|0,0:0|0:0,0:0:0:0:
496,347,46580,1,10,1:0:0:0:
505,137,46752,1,0,0:0:0:0:
500,240,46925,5,4,1:0:0:0:
403,169,47097,2,0,L|398:86,1,76,0|10,0:0|1:0,0:0:0:0:
500,240,47442,1,0,0:0:0:0:
394,276,47614,2,2,P|352:264|316:258,1,76,2|0,0:0|0:0,0:0:0:0:
228,157,47959,2,0,P|270:145|306:139,1,76,10|0,0:0|0:0,0:0:0:0:
214,270,48304,5,2,0:0:0:0:
111,306,48476,1,2,0:0:0:0:
20,160,48649,1,10,0:0:0:0:
123,196,48821,1,2,0:0:0:0:
119,43,48994,2,2,L|240:52,1,114,2|0,0:0|0:0,0:0:0:0:
228,32,49338,2,0,L|308:38,1,76,2|0,0:0|0:0,0:0:0:0:
497,58,49683,5,6,0:0:0:0:
412,158,49856,2,2,P|401:109|388:78,1,76,2|10,0:0|0:0,0:0:0:0:
497,58,50200,1,4,2:0:0:0:
316,157,50373,2,2,P|303:197|296:247,1,76,2|2,0:0|1:0,0:0:0:0:
239,355,50718,2,2,P|232:317|220:281,1,76,0|2,0:0|0:0,0:0:0:0:
111,144,51063,5,2,0:0:0:0:
205,181,51235,1,2,0:0:0:0:
196,68,51407,1,10,0:0:0:0:
120,257,51580,1,0,0:0:0:0:
258,342,51752,2,2,P|316:331|379:333,1,114,2|0,0:0|0:0,0:0:0:0:
359,316,52097,1,10,0:0:0:0:
512,355,52269,1,0,0:0:0:0:
469,203,52442,5,4,0:0:0:0:
369,212,52614,2,2,L|359:126,1,76,2|10,0:0|0:0,0:0:0:0:
469,203,52959,1,0,2:0:0:0:
345,120,53131,2,0,L|335:34,1,76,2|0,0:0|0:0,0:0:0:0:
434,71,53476,1,10,0:0:0:0:
246,95,53649,1,0,0:0:0:0:
370,244,53821,5,2,0:0:0:0:
370,244,54166,1,8,0:0:0:0:
375,248,54683,1,0,0:0:0:0:
312,329,54856,2,0,P|268:313|234:310,1,76,10|0,0:0|0:0,0:0:0:0:
91,342,55200,5,6,1:0:0:0:
230,289,55373,2,2,P|186:273|152:270,1,76,2|10,0:0|0:0,0:0:0:0:
17,171,55718,1,0,0:0:0:0:
213,188,55890,2,0,P|175:163|99:198,1,114,2|0,0:0|0:0,0:0:0:0:
103,197,56235,2,2,P|107:158|95:117,1,76,8|2,2:0|0:0,0:0:0:0:
281,123,56580,5,2,0:0:0:0:
357,55,56752,2,0,L|435:50,1,76,0|10,1:0|0:0,0:0:0:0:
432,50,57097,1,2,0:0:0:0:
267,24,57269,2,2,L|150:18,1,114,2|0,0:0|0:0,0:0:0:0:
134,19,57614,1,10,0:0:0:0:
281,123,57787,1,0,0:0:0:0:
441,57,57959,5,6,0:0:0:0:
492,143,58131,2,2,P|448:159|411:155,1,76,2|10,0:0|0:0,0:0:0:0:
449,261,58476,1,2,1:0:0:0:
477,352,58649,2,2,P|430:356|395:342,1,76,2|0,0:0|1:0,0:0:0:0:
275,244,58994,2,2,P|321:239|356:253,1,76,10|2,0:0|0:0,0:0:0:0:
232,340,59338,5,2,0:0:0:0:
132,322,59511,1,2,0:0:0:0:
203,191,59683,1,8,0:0:0:0:
103,208,59856,1,0,0:0:0:0:
141,64,60028,6,2,P|85:75|23:99,1,114,2|0,0:0|0:0,0:0:0:0:
40,111,60373,2,0,P|12:145|-3:173,1,76,6|0,2:0|0:0,0:0:0:0:
26,347,60718,5,6,1:0:0:0:
132,322,60890,2,2,P|139:274|140:238,1,76,2|10,0:0|0:0,0:0:0:0:
126,146,61235,1,0,0:0:0:0:
245,293,61407,2,2,P|242:242|234:202,1,76,0|2,0:0|0:0,0:0:0:0:
209,40,61752,2,2,P|212:91|220:131,1,76,0|2,0:0|0:0,0:0:0:0:
434,177,62097,5,2,0:0:0:0:
417,77,62269,1,0,1:0:0:0:
317,94,62442,1,8,0:0:0:0:
334,194,62614,1,2,0:0:0:0:
506,244,62787,6,2,P|502:309|497:367,1,114,2|0,0:0|2:0,0:0:0:0:
481,367,63131,1,10,0:0:0:0:
394,325,63304,1,0,0:0:0:0:
257,380,63476,5,4,0:0:0:0:
199,276,63649,2,2,L|210:181,1,95,0|8,0:0|0:0,0:0:0:0:
248,369,63994,1,0,0:0:0:0:
110,319,64166,6,2,P|62:304|15:307,1,95,2|2,0:0|2:0,0:0:0:0:
0,229,64425,2,2,P|48:214|95:212,1,95,2|2,0:0|2:0,0:0:0:0:
137,133,64683,2,0,P|133:103|135:66,1,47.5,4|0,1:2|0:0,0:0:0:0:
200,30,64856,6,0,P|248:15|295:13,1,95,4|0,0:0|0:0,0:0:0:0:
361,138,65200,2,2,P|313:123|261:121,1,95,10|2,0:0|2:0,0:0:0:0:
401,18,65545,6,2,P|447:56|470:92,1,95,0|0,0:0|0:0,0:0:0:0:
512,162,65804,2,2,P|484:199|452:168,1,95,0|0,0:0|0:0,0:0:0:0:
392,252,66063,2,2,P|366:236|337:227,1,47.5,6|2,0:0|2:0,0:0:0:0:
270,286,66235,6,0,P|207:288|172:297,1,76,4|2,1:0|2:0,0:0:0:0:
120,333,66580,1,8,0:0:0:0:
226,197,66752,1,0,0:0:0:0:
147,40,66925,6,2,P|123:75|103:118,1,76,2|2,0:0|2:0,0:0:0:0:
29,124,67183,2,2,P|31:166|37:218,1,76,2|0,0:0|2:0,0:0:0:0:
14,277,67442,2,0,P|25:300|41:321,1,38,2|0,0:0|0:0,0:0:0:0:
120,333,67614,5,6,0:0:0:0:
284,313,67787,1,0,0:0:0:0:
130,347,67959,2,2,L|219:341,1,76,8|6,0:0|0:0,0:0:0:0:
406,295,68304,6,2,P|366:271|360:294,1,76,0|2,2:0|0:0,0:0:0:0:
284,313,68563,2,0,P|275:266|270:228,1,76,0|0,0:0|0:0,0:0:0:0:
339,191,68821,2,2,P|339:174|343:153,1,38,2|0,0:0|2:0,0:0:0:0:
394,88,68994,5,6,0:0:0:0:
253,154,69166,1,0,0:0:0:0:
321,28,69338,2,2,P|269:22|214:66,1,114,10|0,0:0|0:0,0:0:0:0:
174,124,69683,6,2,P|146:89|114:66,1,76,0|4,2:0|0:2,0:0:0:0:
64,130,69942,2,0,P|92:165|124:188,1,76,0|0,0:0|0:0,0:0:0:0:
192,209,70200,2,0,P|188:234|187:259,1,38,0|0,2:0|0:0,0:0:0:0:
112,267,70373,5,4,0:0:0:0:
200,376,70545,1,0,0:0:0:0:
270,230,70718,2,0,P|328:222|388:224,1,114,8|0,0:0|0:0,0:0:0:0:
439,280,71063,6,0,P|413:244|398:206,1,76,2|0,2:0|0:0,0:0:0:0:
462,163,71321,2,0,P|446:121|441:80,1,76,0|0,0:0|0:0,0:0:0:0:
363,65,71580,2,0,P|363:44|367:16,1,38,0|0,0:0|0:0,0:0:0:0:
288,4,71752,6,0,P|246:2|204:11,1,76,4|0,1:0|2:0,0:0:0:0:
121,22,72097,1,8,0:0:0:0:
279,91,72269,1,2,2:0:0:0:
64,91,72442,6,0,P|114:101|153:118,1,76,2|0,2:0|1:0,0:0:0:0:
213,140,72700,2,0,P|215:176|179:179,1,76,0|0,0:0|2:0,0:0:0:0:
100,185,72959,2,2,P|103:202|105:224,1,38,2|0,0:0|2:0,0:0:0:0:
179,267,73131,5,0,0:0:0:0:
19,216,73304,1,0,0:0:0:0:
172,285,73476,2,2,P|221:276|269:271,1,76,8|6,0:0|2:0,0:0:0:0:
423,340,73821,6,2,P|374:331|326:326,1,76,0|6,0:0|2:0,0:0:0:0:
329,248,74080,2,0,P|320:207|340:183,1,76,0|0,0:0|0:0,0:0:0:0:
416,211,74338,2,0,P|436:207|458:206,1,38,2|2,0:0|2:0,0:0:0:0:
512,149,74511,5,6,0:0:0:0:
415,2,74683,1,0,2:0:0:0:
432,95,74856,6,2,P|377:87|317:89,1,114,10|0,0:0|0:0,0:0:0:0:
274,21,75200,6,2,P|237:31|236:64,1,76,0|6,2:0|2:0,0:0:0:0:
261,143,75459,2,0,P|221:146|180:155,1,76,0|0,0:0|0:0,0:0:0:0:
157,76,75718,2,0,P|137:81|119:91,1,38,2|0,2:0|2:0,0:0:0:0:
109,171,75890,5,4,0:0:0:0:
68,24,76063,1,2,0:2:0:0:
99,184,76235,6,2,P|45:167|24:240,1,142.5,6|2,1:2|2:0,0:0:0:0:
101,264,76580,2,2,P|117:221|123:171,1,95,6|0,1:2|0:0,0:0:0:0:
31,358,76925,2,2,P|106:348|179:352,1,142.5,6|0,1:2|0:0,0:0:0:0:
191,271,77269,6,0,P|233:275|280:289,1,76,4|2,1:0|0:0,0:0:0:0:
409,233,77614,1,10,0:0:0:0:
271,264,77787,1,0,2:0:0:0:
387,353,77959,6,0,P|354:319|374:297,1,76,2|0,0:0|0:0,0:0:0:0:
409,233,78218,2,2,P|419:196|410:140,1,76,2|0,0:0|2:0,0:0:0:0:
336,159,78476,2,2,P|313:155|293:155,1,38,2|0,0:0|2:0,0:0:0:0:
330,76,78649,5,2,0:0:0:0:
479,112,78821,1,0,1:0:0:0:
343,63,78994,2,2,P|294:60|252:63,1,76,8|2,0:0|0:0,0:0:0:0:
144,159,79338,2,2,P|184:160|213:129,1,76,0|2,0:0|0:0,0:0:0:0:
184,60,79597,2,0,P|135:57|93:60,1,76,0|0,0:0|2:0,0:0:0:0:
54,121,79856,2,2,P|58:141|60:168,1,38,2|0,0:0|2:0,0:0:0:0:
99,228,80028,5,2,0:0:0:0:
32,366,80200,1,0,0:0:0:0:
117,322,80373,2,0,P|163:317|225:352,1,114,8|0,0:0|2:0,0:0:0:0:
303,340,80718,6,2,P|258:341|219:323,1,76,0|2,0:0|0:0,0:0:0:0:
210,250,80976,2,0,P|246:227|254:250,1,76,0|0,0:0|0:0,0:0:0:0:
336,258,81235,2,0,P|357:258|377:262,1,38,0|0,0:0|2:0,0:0:0:0:
447,297,81407,5,4,0:0:0:0:
312,358,81580,1,0,1:0:0:0:
461,278,81752,2,0,P|452:225|450:158,1,114,8|0,1:0|2:0,2:2:0:0:
505,104,82097,2,0,P|472:84|416:89,1,76,2|0,2:0|0:0,2:2:0:0:
375,139,82356,2,2,P|337:128|285:147,1,76,2|0,0:0|2:0,0:0:0:0:
236,89,82614,2,2,P|239:70|240:44,1,38,2|0,0:0|2:0,0:0:0:0:
156,67,82787,5,4,0:0:0:0:
57,156,82959,2,2,P|115:146|176:152,1,114.000004348755,6|0,0:2|0:0,0:0:0:0:
244,217,83476,6,2,P|203:231|168:260,1,76,6|2,0:2|0:0,0:0:0:0:
96,237,83735,2,2,L|103:317,1,76,6|2,0:2|0:0,0:0:0:0:
182,332,83994,2,0,L|225:328,1,38,2|0,0:0|0:0,0:0:0:0:
294,293,84166,5,6,0:0:0:0:
437,246,84338,2,2,P|380:223|319:216,1,114.000004348755,0|4,0:0|0:2,0:0:0:0:
274,75,84856,6,2,P|279:115|279:161,1,76,0|2,0:0|0:0,0:0:0:0:
202,124,85114,2,0,P|168:106|157:137,1,76,0|0,0:0|0:0,0:0:0:0:
75,114,85373,2,0,P|74:138|79:167,1,38,2|0,2:0|2:0,0:0:0:0:
129,211,85545,5,10,0:0:0:0:
261,250,85718,2,0,P|298:237|339:229,1,76,2|12,1:0|0:2,0:0:0:0:
471,244,86063,1,4,0:2:0:0:
342,207,86235,2,0,P|305:194|264:186,1,76,4|0,0:2|0:0,0:0:0:0:
133,191,86580,1,8,0:0:0:0:
286,99,86752,1,4,2:0:0:0:
124,105,86925,6,0,P|66:108|52:156,1,114.000004348755,4|0,0:2|0:0,0:0:0:0:
48,168,87356,1,0,0:0:0:0:
44,181,87442,1,0,0:0:0:0:
40,194,87528,1,0,0:0:0:0:
36,207,87614,1,0,0:0:0:0:
68,379,87787,1,0,0:0:0:0:
92,286,87959,2,0,L|157:289,1,57,6|0,0:2|0:0,0:0:0:0:
215,237,88304,6,0,L|333:231,1,114,4|0,0:0|0:0,0:0:0:0:
343,243,88649,2,0,P|357:211|360:162,1,76,8|0,1:0|0:0,0:0:0:0:
427,295,88994,1,0,0:0:0:0:
427,295,89080,1,0,0:0:0:0:
427,295,89166,1,0,1:2:0:0:
470,214,89338,2,0,P|474:178|466:131,1,76,8|2,1:0|0:0,0:0:0:0:
420,55,89683,5,6,0:2:0:0:
420,55,89769,1,0,0:0:0:0:
420,55,89856,1,0,0:0:0:0:
265,87,90028,2,0,P|308:96|349:116,1,76,8|4,1:2|0:0,0:0:0:0:
198,151,90373,2,0,L|202:194,2,38,2|0|4,0:0|0:0|0:0,0:0:0:0:
137,87,90718,1,0,0:0:0:0:
284,182,90890,1,2,0:0:0:0:
166,275,91063,6,0,P|126:266|12:257,1,152,4|8,1:0|1:0,0:0:0:0:
47,175,91580,1,4,0:0:0:0:
115,355,91752,1,0,0:0:0:0:
115,355,91838,1,0,0:0:0:0:
115,355,91925,1,4,1:2:0:0:
246,319,92097,2,0,P|292:312|333:311,1,76,0|0,0:0|0:0,0:0:0:0:
485,322,92442,5,2,0:0:0:0:
485,322,92528,1,0,0:0:0:0:
485,322,92614,1,2,1:2:0:0:
350,220,92787,2,0,P|412:222|473:235,1,114,12|0,1:2|0:0,0:0:0:0:
480,224,93131,2,0,P|485:175|493:142,1,76,2|0,0:0|1:0,0:0:0:0:
381,9,93476,2,0,P|400:69|383:120,1,114,8|0,1:0|0:0,0:0:0:0:
369,127,93821,6,0,P|297:125|217:111,1,152,4|8,1:0|1:0,0:0:0:0:
151,55,94338,1,0,0:0:0:0:
104,215,94511,2,0,P|122:179|135:138,1,76,0|0,1:0|1:0,0:0:0:0:
162,290,94856,2,0,P|144:326|131:367,1,76,8|2,1:0|0:0,0:0:0:0:
255,266,95200,5,4,1:2:0:0:
255,266,95287,1,0,0:0:0:0:
255,266,95373,1,0,0:0:0:0:
302,340,95545,2,0,P|342:330|384:323,1,76,12|4,1:2|0:2,0:0:0:0:
489,202,95890,1,2,0:0:0:0:
489,202,95976,1,0,0:0:0:0:
489,202,96063,1,4,0:0:0:0:
497,319,96235,1,0,0:0:0:0:
365,209,96407,1,2,0:0:0:0:
444,103,96580,6,0,L|280:91,1,152,4|0,1:0|1:0,0:0:0:0:
174,51,97097,1,4,0:0:0:0:
232,187,97269,1,0,0:0:0:0:
232,187,97356,1,0,0:0:0:0:
232,187,97442,1,4,0:0:0:0:
109,148,97614,2,0,B|108:148|28:142,1,76,0|0,0:0|0:0,0:0:0:0:
62,254,97959,5,0,0:0:0:0:
62,254,98045,1,0,0:0:0:0:
62,254,98131,1,0,1:0:0:0:
88,47,98304,2,2,L|221:42,1,114,10|0,1:0|2:0,1:1:0:0:
215,56,98649,2,2,P|232:99|235:139,1,76,2|0,1:0|0:0,1:1:0:0:
295,266,98994,2,2,P|294:212|345:169,1,114,2|0,1:0|0:0,1:1:0:0:
349,183,99338,6,0,L|506:176,1,152,6|8,1:0|1:0,0:0:0:0:
459,97,99856,1,2,0:0:0:0:
403,268,100028,1,2,0:0:0:0:
403,268,100114,1,0,0:0:0:0:
403,268,100200,1,0,1:0:0:0:
295,103,100373,2,0,L|211:97,1,76,8|6,1:0|0:0,0:0:0:0:
43,82,100718,5,4,0:0:0:0:
43,82,100804,1,0,0:0:0:0:
43,82,100890,1,0,0:0:0:0:
138,33,101063,1,8,1:0:0:0:
123,158,101235,1,4,0:0:0:0:
108,283,101407,2,0,L|105:325,2,38,0|0|4,0:0|0:0|0:0,0:0:0:0:
281,225,101752,2,0,P|241:225|196:230,1,76,0|2,0:0|0:0,0:0:0:0:
327,326,102097,6,0,P|408:322|484:311,1,152,4|2,1:0|0:0,0:0:0:0:
440,236,102614,1,4,0:0:0:0:
488,77,102787,1,0,0:0:0:0:
488,77,102873,1,0,0:0:0:0:
488,77,102959,1,12,1:2:0:0:
368,137,103131,1,0,0:0:0:0:
294,14,103304,1,2,0:0:0:0:
238,104,103476,5,0,0:0:0:0:
238,104,103563,1,0,0:0:0:0:
238,104,103649,1,0,1:0:0:0:
91,57,103821,2,0,L|101:180,1,114,8|0,1:0|0:0,0:0:0:0:
119,170,104166,2,0,L|106:247,1,76,4|0,0:0|1:0,0:0:0:0:
181,373,104511,2,0,L|199:257,1,114,8|0,1:0|0:0,0:0:0:0:
212,273,104856,6,0,L|237:116,1,152,4|8,1:0|1:0,0:0:0:0:
301,264,105373,1,0,0:0:0:0:
326,110,105545,1,2,0:0:0:0:
326,110,105631,1,0,0:0:0:0:
326,110,105718,1,0,1:0:0:0:
392,244,105890,2,0,L|393:162,1,76,8|4,1:0|0:0,0:0:0:0:
277,27,106235,6,0,P|255:29|224:34,2,38,4|0|0,0:0|0:0|0:0,0:0:0:0:
413,80,106580,1,8,1:0:0:0:
310,202,106752,1,4,0:0:0:0:
484,271,106925,1,2,0:0:0:0:
484,271,107011,1,0,0:0:0:0:
484,271,107097,1,4,0:0:0:0:
381,332,107269,2,0,P|346:338|302:351,1,76,0|0,0:0|0:0,0:0:0:0:
140,303,107614,6,0,P|185:288|262:272,2,114.000004348755,4|2|4,1:0|0:0|0:0,0:0:0:0:
85,232,108476,1,0,1:0:0:0:
256,192,108563,12,4,110373,1:0:0:0:
158,131,121407,5,4,1:2:0:0:
158,131,122097,1,0,1:0:0:0:
158,131,122787,1,0,1:0:0:0:
158,131,123476,1,0,1:0:0:0:
328,255,124166,5,4,1:0:0:0:
328,255,124856,1,0,1:0:0:0:
328,255,125545,1,0,1:0:0:0:
328,255,126235,1,0,1:0:0:0:
173,124,126925,5,4,1:0:0:0:
324,109,127270,5,12,1:2:0:0:
339,260,127615,5,0,1:0:0:0:
188,275,127959,5,0,1:0:0:0:
211,156,128304,5,4,1:2:0:0:
292,147,128649,5,0,1:0:0:0:
301,228,128994,5,4,1:2:0:0:
220,237,129338,5,0,1:0:0:0:
239,177,129683,5,0,1:0:0:0:
271,175,129856,5,0,1:0:0:0:
273,207,130028,5,0,1:0:0:0:
241,209,130200,5,0,1:0:0:0:
127,169,130373,5,0,1:0:0:0:
129,154,130459,1,0,1:0:0:0:
131,139,130545,1,0,1:0:0:0:
133,124,130631,1,0,1:0:0:0:
114,101,130718,5,0,1:0:0:0:
112,86,130804,1,0,1:0:0:0:
109,71,130890,1,0,1:0:0:0:
107,56,130976,1,0,1:0:0:0:
132,42,131063,6,0,L|140:6,2,19,4|0|0,1:2|0:0|0:0,0:0:0:0:
214,83,131235,5,0,1:0:0:0:
214,83,131321,1,2,1:2:0:0:
214,83,131407,6,0,L|207:117,2,19,4|0|0,1:2|0:0|0:0,0:0:0:0:
299,53,131580,5,0,1:2:0:0:
299,53,131666,1,2,1:2:0:0:
299,53,131752,6,0,L|292:21,2,19,0|0|0,1:2|1:2|1:2,1:1:0:0:
344,134,131925,6,0,L|341:164,2,19,0|0|0,1:0|1:0|1:0,1:1:0:0:
404,73,132097,6,0,L|402:51,2,19,0|0|0,1:0|1:0|1:0,1:1:0:0:
474,122,132269,6,0,L|469:146,2,19,0|0|0,1:0|1:0|1:0,1:1:0:0:
489,89,132442,6,0,L|503:211,1,114,4|0,1:0|0:0,0:0:0:0:
472,313,132787,6,2,L|485:216,1,95,4|0,0:0|0:0,1:1:0:0:
356,156,133131,1,0,1:0:0:0:
359,179,133218,1,2,0:0:0:0:
362,202,133304,1,0,1:0:0:0:
366,225,133390,1,2,0:0:0:0:
324,248,133476,6,0,L|334:298,3,47.5,2|2|2|2,0:0|0:0|0:0|0:0,0:0:0:0:
254,199,133821,5,2,0:0:0:0:
259,163,133907,1,2,0:0:0:0:
264,127,133994,1,0,1:0:0:0:
269,91,134080,1,2,0:0:0:0:
235,57,134166,5,2,1:0:0:0:
208,220,134338,1,2,1:0:0:0:
83,91,134511,1,10,1:0:0:0:
161,129,134683,1,2,1:0:0:0:
106,197,134856,1,2,1:0:0:0:
24,161,135028,1,4,1:2:0:0:
93,322,135200,6,0,P|140:308|188:301,1,95,6|0,1:0|0:0,0:0:0:0:
241,356,135459,2,0,P|267:355|294:354,1,47.5,0|2,0:0|0:0,0:0:0:0:
419,306,135718,1,4,1:2:0:0:
269,272,135890,2,0,P|273:251|274:221,1,47.5,0|0,0:0|0:0,0:0:0:0:
269,141,136063,1,2,0:0:0:0:
410,209,136235,2,0,P|403:157|387:106,1,95,4|2,1:2|0:0,0:0:0:0:
390,116,136494,1,2,0:0:0:0:
390,116,136580,5,2,1:0:0:0:
465,37,136752,1,2,1:0:0:0:
500,133,136925,1,2,1:0:0:0:
359,22,137097,1,2,1:0:0:0:
289,157,137269,6,0,P|296:186|299:215,1,47.5,2|0,1:0|0:0,0:0:0:0:
221,201,137442,6,0,P|215:230|205:257,1,47.5,2|0,1:0|0:0,0:0:0:0:
282,278,137614,6,0,P|289:307|292:336,1,47.5,0|0,1:0|0:0,0:0:0:0:
214,328,137787,6,0,P|208:357|198:384,1,47.5,2|0,1:0|0:0,0:0:0:0:
132,303,137959,6,0,P|94:283|43:268,1,95,4|0,1:0|0:0,0:0:0:0:
50,347,138218,2,0,P|27:348|2:352,1,47.5,0|4,0:0|0:0,0:0:0:0:
139,211,138476,2,0,P|138:189|137:155,1,47.5,2|0,0:0|0:0,0:0:0:0:
192,99,138649,1,0,1:0:0:0:
188,75,138735,1,2,0:0:0:0:
185,51,138821,1,0,1:0:0:0:
182,27,138907,1,2,0:0:0:0:
227,42,138994,5,2,0:0:0:0:
233,76,139080,1,2,0:0:0:0:
239,110,139166,1,2,0:0:0:0:
245,144,139252,1,2,0:0:0:0:
284,117,139338,6,0,L|276:58,3,47.5,2|2|0|2,0:0|0:0|1:0|0:0,0:0:0:0:
321,89,139683,5,2,1:0:0:0:
481,110,139856,1,2,1:0:0:0:
379,232,140028,1,2,1:0:0:0:
379,232,140200,1,2,1:0:0:0:
393,144,140373,1,2,1:0:0:0:
454,278,140545,1,2,0:0:0:0:
304,271,140718,6,2,P|254:258|90:247,1,190,6|0,1:0|2:0,1:1:0:0:
116,245,141235,1,0,1:0:0:0:
0,147,141407,2,0,P|53:148|122:162,1,114.000004348755,12|0,1:2|0:0,0:0:0:0:
204,134,141666,2,0,P|210:75|223:18,1,114.000004348755,0|0,1:0|0:0,0:0:0:0:
309,12,141925,2,0,P|336:14|365:21,1,57.0000021743775,2|0,1:2|0:0,0:0:0:0:
444,55,142097,5,4,0:0:0:0:
297,197,142269,2,0,P|287:137|397:130,1,190,4|2,0:0|0:0,0:0:0:0:
497,233,142787,2,0,P|429:215|383:212,1,114,4|0,1:0|0:0,0:0:0:0:
396,233,143131,2,0,P|383:282|377:331,1,95,6|0,0:0|0:0,0:0:0:0:
297,336,143476,5,4,1:0:0:0:
297,336,143821,6,0,P|207:287|195:378,1,228.00000869751,6|8,0:0|1:0,0:0:0:0:
122,256,144338,5,0,1:0:0:0:
107,279,144425,1,0,0:0:0:0:
98,306,144511,1,4,0:0:0:0:
34,241,144683,1,4,0:0:0:0:
190,200,144856,5,2,0:0:0:0:
21,147,145028,1,0,1:0:0:0:
19,123,145114,1,0,0:0:0:0:
17,99,145200,1,4,2:0:0:0:
205,111,145373,1,4,2:0:0:0:
112,127,145545,5,2,1:0:0:0:
112,127,145718,1,2,1:0:0:0:
297,93,145890,1,2,1:0:0:0:
199,84,146063,1,2,1:0:0:0:
384,50,146235,6,0,P|377:99|374:160,1,95,6|0,1:0|0:0,0:0:0:0:
455,169,146494,2,0,P|451:148|450:117,1,47.5,0|4,0:0|0:0,0:0:0:0:
337,293,146752,2,0,P|327:273|318:244,1,47.5,2|0,1:0|0:0,0:0:0:0:
302,174,146925,1,0,0:0:0:0:
417,251,147097,1,0,1:0:0:0:
417,251,147183,1,0,0:0:0:0:
417,251,147269,1,4,0:0:0:0:
286,355,147442,1,4,0:0:0:0:
176,270,147614,5,2,0:0:0:0:
104,338,147787,1,0,1:0:0:0:
104,338,147873,1,2,0:0:0:0:
104,338,147959,1,4,0:0:0:0:
125,183,148131,1,4,0:0:0:0:
146,28,148304,6,0,P|148:54|155:86,1,47.5,2|0,1:0|2:0,0:0:0:0:
231,79,148476,6,0,P|243:101|263:127,1,47.5,2|0,1:0|2:0,0:0:0:0:
331,157,148649,6,0,P|329:183|322:215,1,47.5,2|0,1:0|2:0,0:0:0:0:
246,208,148821,6,0,P|233:230|213:256,1,47.5,2|0,1:0|2:0,0:0:0:0:
276,318,148994,6,0,P|341:301|383:342,1,95,4|0,1:0|0:0,0:0:0:0:
435,323,149252,2,0,P|436:351|430:377,1,47.5,0|4,0:0|0:0,0:0:0:0:
191,376,149511,2,0,P|190:348|196:322,1,47.5,2|0,1:0|0:0,0:0:0:0:
127,273,149683,1,8,1:0:0:0:
103,269,149769,1,2,0:0:0:0:
79,266,149856,1,0,1:0:0:0:
55,263,149942,1,2,0:0:0:0:
41,217,150028,5,4,0:0:0:0:
183,156,150200,1,4,0:0:0:0:
50,31,150373,1,0,1:0:0:0:
94,127,150545,1,0,1:0:0:0:
94,127,150631,1,2,0:0:0:0:
94,127,150718,1,4,0:0:0:0:
157,57,150890,1,4,0:0:0:0:
276,159,151063,5,2,1:0:0:0:
371,31,151235,1,2,1:0:0:0:
512,146,151407,1,2,0:0:0:0:
396,152,151580,1,2,0:0:0:0:
486,293,151752,6,2,P|419:281|297:270,1,190,6|0,1:0|0:0,1:1:0:0:
469,308,152269,1,0,1:0:0:0:
325,355,152442,2,2,P|250:345|218:306,1,114,8|2,1:0|0:0,1:1:0:0:
207,326,152787,2,0,P|214:278|213:240,1,76,0|2,1:0|0:0,0:0:0:0:
231,89,153131,6,0,P|275:149|248:218,1,114.000004348755,2|0,0:0|1:0,0:0:0:0:
188,168,153390,2,0,P|135:167|71:177,1,114.000004348755,0|0,0:0|0:0,0:0:0:0:
65,260,153649,2,0,P|39:246|7:237,1,57.0000021743775,2|0,0:0|0:0,0:0:0:0:
7,125,153821,6,0,P|15:37|119:71,1,228,12|0,1:0|0:0,0:0:0:0:
230,61,154511,5,4,1:0:0:0:
230,61,154856,6,2,P|280:47|345:38,1,114.000004348755,2|0,1:0|0:0,1:1:0:0:
503,134,155200,5,4,1:0:0:0:
479,131,155287,1,2,0:0:0:0:
455,128,155373,1,0,1:0:0:0:
431,125,155459,1,2,0:0:0:0:
391,151,155545,6,0,L|385:207,3,47.5,2|2|2|2,0:0|0:0|0:0|0:0,0:0:0:0:
318,248,155890,5,2,0:0:0:0:
287,229,155976,1,2,0:0:0:0:
251,224,156063,1,0,1:0:0:0:
217,236,156149,1,2,0:0:0:0:
218,188,156235,5,2,1:0:0:0:
206,346,156407,1,2,1:0:0:0:
121,211,156580,1,2,1:0:0:0:
111,313,156752,1,2,1:0:0:0:
32,233,156925,1,2,1:0:0:0:
30,278,157097,1,2,1:0:0:0:
43,132,157269,6,0,L|51:36,1,95,4|0,1:0|0:0,0:0:0:0:
130,57,157528,2,0,L|126:8,1,47.5,0|0,0:0|0:0,0:0:0:0:
334,23,157787,1,6,1:2:0:0:
195,164,157959,2,0,L|204:117,1,47.5,0|0,0:0|0:0,0:0:0:0:
230,38,158131,1,0,0:0:0:0:
286,178,158304,2,0,P|295:221|296:283,1,95,6|2,1:2|0:0,0:0:0:0:
296,271,158563,1,0,0:0:0:0:
296,271,158649,5,6,0:0:0:0:
200,190,158821,1,6,0:0:0:0:
142,368,158994,1,2,1:0:0:0:
205,294,159166,1,2,1:0:0:0:
56,348,159338,6,0,P|52:326|37:291,1,47.5,6|0,1:0|0:0,0:0:0:0:
106,252,159511,6,0,P|93:233|64:208,1,47.5,2|0,1:0|0:0,0:0:0:0:
132,155,159683,6,0,P|136:133|151:98,1,47.5,2|0,1:0|0:0,0:0:0:0:
82,59,159856,6,0,P|94:40|123:15,1,47.5,6|0,1:2|0:0,0:0:0:0:
193,36,160028,6,0,L|299:28,1,95,6|0,1:0|0:0,0:0:0:0:
368,7,160287,2,0,L|374:61,1,47.5,0|4,0:0|0:0,0:0:0:0:
279,193,160545,2,0,L|272:135,1,47.5,2|0,1:0|0:0,0:0:0:0:
360,160,160718,1,8,1:0:0:0:
383,158,160804,1,2,0:0:0:0:
406,156,160890,1,0,1:0:0:0:
429,154,160976,1,2,0:0:0:0:
461,189,161063,5,2,0:0:0:0:
429,205,161149,1,2,0:0:0:0:
424,240,161235,1,2,0:0:0:0:
441,271,161321,1,2,0:0:0:0:
409,312,161407,6,0,P|416:342|417:367,3,47.5,2|2|0|2,0:0|0:0|1:0|0:0,0:0:0:0:
334,355,161752,5,2,1:0:0:0:
155,341,161925,1,2,1:0:0:0:
256,308,162097,1,10,1:0:0:0:
256,308,162269,1,2,1:0:0:0:
263,215,162442,1,2,1:0:0:0:
177,119,162614,1,6,0:0:0:0:
337,68,162787,6,6,P|249:48|145:31,1,190,4|2,1:0|2:0,1:1:0:0:
150,31,163304,1,0,1:0:0:0:
353,49,163476,6,0,P|417:40|467:75,1,114.000004348755,8|0,1:0|0:0,0:0:0:0:
512,136,163735,2,0,P|465:176|437:141,1,114.000004348755,0|0,0:0|0:0,0:0:0:0:
369,204,163994,2,0,P|359:177|353:139,1,57.0000021743775,6|0,0:0|0:0,0:0:0:0:
279,201,164166,5,2,1:0:0:0:
440,256,164338,2,0,P|424:326|338:289,1,190,2|2,1:0|1:0,0:0:0:0:
168,185,164856,2,0,P|209:178|264:219,1,114,10|0,1:0|0:0,0:0:0:0:
252,240,165200,2,0,P|252:287|259:334,1,95,6|0,1:2|0:0,0:0:0:0:
183,375,165545,5,6,1:0:0:0:
183,375,165890,2,2,P|134:328|42:362,1,171.000006523133,2|0,1:0|2:0,1:1:0:0:
44,357,166235,1,8,1:0:0:0:
1,213,166407,1,0,1:0:0:0:
24,210,166494,1,2,0:0:0:0:
47,207,166580,2,0,L|52:154,3,47.5,2|2|2|2,0:0|0:0|0:0|0:0,0:0:0:0:
116,107,166925,5,2,0:0:0:0:
151,110,167011,1,2,0:0:0:0:
186,113,167097,1,0,1:0:0:0:
221,116,167183,1,2,0:0:0:0:
248,154,167269,5,2,1:0:0:0:
385,84,167442,1,2,1:0:0:0:
290,55,167614,1,10,1:0:0:0:
290,55,167787,1,2,1:0:0:0:
352,183,167959,1,2,1:0:0:0:
492,50,168131,1,2,1:0:0:0:
426,258,168304,6,0,P|372:266|322:284,1,95,6|0,1:0|0:0,0:0:0:0:
342,362,168563,2,0,P|316:357|288:355,1,47.5,0|4,0:0|0:0,0:0:0:0:
139,281,168821,2,0,P|164:273|198:266,1,47.5,2|0,1:0|0:0,0:0:0:0:
223,194,168994,1,0,0:0:0:0:
185,354,169166,1,0,1:0:0:0:
45,250,169338,1,2,0:0:0:0:
41,226,169425,1,2,0:0:0:0:
37,202,169511,1,2,0:0:0:0:
33,178,169597,1,2,0:0:0:0:
65,143,169683,5,6,0:0:0:0:
49,49,169856,1,2,1:0:0:0:
178,4,170028,1,2,1:0:0:0:
170,78,170200,1,2,1:0:0:0:
298,179,170373,1,10,1:0:0:0:
280,50,170545,1,2,1:0:0:0:
409,32,170718,1,2,1:0:0:0:
427,161,170890,1,0,1:0:0:0:
276,171,171063,6,0,P|283:222|287:278,1,95,6|0,1:0|0:0,0:0:0:0:
363,288,171321,2,0,P|353:316|345:346,1,47.5,0|4,0:0|0:0,0:0:0:0:
194,194,171580,2,0,P|194:172|192:135,1,47.5,6|0,1:0|0:0,0:0:0:0:
186,66,171752,1,8,1:0:0:0:
166,52,171838,1,2,0:0:0:0:
142,46,171925,1,0,1:0:0:0:
118,48,172011,1,2,0:0:0:0:
75,26,172097,5,2,0:0:0:0:
68,60,172183,1,2,0:0:0:0:
53,92,172269,1,2,0:0:0:0:
32,121,172356,1,2,0:0:0:0:
52,163,172442,6,0,P|53:190|56:218,3,47.5,2|2|0|0,0:0|0:0|1:0|0:0,0:0:0:0:
80,288,172787,5,2,1:0:0:0:
80,288,172959,1,2,1:0:0:0:
172,214,173131,1,10,1:0:0:0:
251,329,173304,1,2,1:0:0:0:
349,210,173476,2,0,P|351:181|355:156,1,47.5,6|0,1:2|0:0,0:0:0:0:
353,162,173821,6,2,P|311:83|251:143,1,190,4|0,1:0|0:0,1:1:0:0:
251,130,174338,1,0,1:0:0:0:
281,300,174511,2,0,P|335:292|434:296,1,142.5,8|0,1:0|0:0,0:0:0:0:
445,300,174856,2,0,P|441:237|443:194,1,95,2|4,1:0|0:0,0:0:0:0:
289,279,175200,6,0,P|230:286|165:287,1,114.000004348755,6|0,0:0|1:0,0:0:0:0:
95,323,175459,2,0,P|69:277|118:237,1,114.000004348755,0|0,0:0|0:0,0:0:0:0:
153,157,175718,2,0,P|175:184|186:208,1,57.0000021743775,0|0,1:0|1:0,0:0:0:0:
180,293,175890,5,8,1:0:0:0:
63,158,176235,1,6,1:2:0:0:
188,29,176580,6,0,L|334:37,1,114,4|0,1:0|0:0,0:0:0:0:
311,51,176925,2,0,L|398:45,1,76,0|2,0:0|0:0,0:0:0:0:
479,41,177269,1,8,1:0:0:0:
361,140,177442,2,0,P|356:204|355:304,1,152,0|2,1:2|0:0,0:0:0:0:
441,256,177959,5,4,0:0:0:0:
265,253,178131,2,0,P|212:212|134:260,1,152,0|4,0:0|0:0,0:0:0:0:
32,368,178649,2,0,P|90:376|153:379,1,114,8|0,1:0|0:0,0:0:0:0:
164,374,178994,2,0,P|183:331|210:293,1,76,0|2,0:0|0:0,0:0:0:0:
50,227,179338,6,0,L|46:73,1,152,4|2,1:0|0:0,0:0:0:0:
118,7,179856,1,4,0:0:0:0:
137,152,180028,1,8,1:0:0:0:
211,35,180200,2,0,P|283:13|359:38,1,152,4|2,1:2|0:0,0:0:0:0:
410,158,180718,6,0,P|422:98|444:45,1,114,2|0,0:0|0:0,0:0:0:0:
445,68,181063,2,0,P|490:74|520:84,1,76,4|0,0:0|0:0,0:0:0:0:
512,200,181407,1,8,1:0:0:0:
401,247,181580,2,0,P|401:300|492:313,1,152,0|0,1:0|0:0,0:0:0:0:
352,380,182097,6,0,P|296:364|201:353,1,152,4|2,1:0|0:0,0:0:0:0:
109,366,182614,1,0,0:0:0:0:
250,269,182787,1,8,1:0:0:0:
81,281,182959,2,0,P|77:233|63:123,1,152,0|2,1:0|0:0,0:0:0:0:
146,0,183476,5,4,0:0:0:0:
225,53,183649,2,0,P|159:106|156:169,1,152,0|4,0:0|0:0,0:0:0:0:
359,160,184166,2,0,P|306:146|230:138,1,114,8|0,1:0|0:0,0:0:0:0:
256,155,184511,2,0,P|243:202|239:238,1,76,0|2,0:0|0:0,0:0:0:0:
314,369,184856,6,0,P|358:316|335:242,1,152,4|2,1:0|0:0,0:0:0:0:
240,319,185373,1,4,1:2:0:0:
429,368,185545,2,0,P|469:329|441:283,1,114,8|0,1:0|0:0,0:0:0:0:
461,274,185890,2,0,L|468:186,1,76,0|2,0:0|0:0,0:0:0:0:
489,17,186235,5,2,0:0:0:0:
478,104,186407,2,0,P|404:92|323:89,1,152,0|0,1:0|0:0,0:0:0:0:
160,131,186925,2,0,P|209:162|265:143,1,114,8|0,1:0|0:0,0:0:0:0:
254,129,187269,2,0,P|246:82|254:44,1,76,4|0,0:0|0:0,0:0:0:0:
343,173,187614,6,0,P|365:245|323:313,1,152,0|2,1:0|0:0,0:0:0:0:
250,257,188131,1,2,0:0:0:0:
160,358,188304,1,8,1:0:0:0:
68,298,188476,2,0,L|57:132,1,152,0|0,1:0|0:0,0:0:0:0:
151,237,188994,5,0,0:0:0:0:
133,93,189166,2,0,P|183:63|230:135,1,152,0|0,1:0|0:0,0:0:0:0:
338,219,189683,2,0,P|330:160|325:103,1,114,8|0,1:0|0:0,0:0:0:0:
340,117,190028,2,0,P|380:108|416:107,1,76,0|2,0:0|0:0,0:0:0:0:
449,219,190373,6,0,P|442:273|424:371,1,152,4|4,1:0|0:0,0:0:0:0:
424,368,190890,1,0,0:0:0:0:
277,276,191063,1,8,1:0:0:0:
338,379,191235,2,0,P|264:363|182:356,1,152,4|2,1:2|0:0,0:0:0:0:
126,208,191752,6,0,P|133:262|87:306,1,114,2|0,0:0|0:0,0:0:0:0:
99,321,192097,2,0,P|56:312|19:309,1,76,4|2,0:0|0:0,0:0:0:0:
26,205,192442,1,8,1:0:0:0:
151,120,192614,2,0,P|200:111|308:102,1,152,0|0,1:0|0:0,0:0:0:0:
505,151,193131,6,0,P|451:128|377:175,1,152,4|2,1:0|0:0,0:0:0:0:
289,193,193649,1,2,0:0:0:0:
378,60,193821,1,8,1:0:0:0:
452,216,193994,2,0,P|443:290|438:367,1,152,0|2,1:0|0:0,0:0:0:0:
343,257,194511,5,4,0:0:0:0:
253,285,194683,2,0,P|267:351|345:355,1,152,0|4,1:0|0:0,0:0:0:0:
265,196,195200,2,0,P|216:199|146:214,1,114,8|0,1:0|0:0,0:0:0:0:
135,203,195545,2,0,P|128:158|119:119,1,76,0|2,0:0|0:0,0:0:0:0:
67,274,195890,6,0,P|74:329|166:346,1,152,4|2,1:0|0:0,0:0:0:0:
253,285,196407,1,4,1:2:0:0:
241,379,196580,2,0,P|314:360|357:355,1,114,8|0,1:0|0:0,0:0:0:0:
348,336,196925,2,0,P|357:271|362:248,1,76,0|2,0:0|0:0,0:0:0:0:
390,182,197269,5,2,0:0:0:0:
256,192,197442,1,0,0:0:0:0:
256,192,197528,12,4,198649,1:0:0:0:
