osu file format v14

[General]
AudioFilename: Nc - I&U.mp3
AudioLeadIn: 0
PreviewTime: -1
Countdown: 1
SampleSet: Normal
StackLeniency: 0.7
Mode: 0
LetterboxInBreaks: 1
WidescreenStoryboard: 1

[Editor]
DistanceSpacing: 1.1
BeatDivisor: 4
GridSize: 4
TimelineZoom: 1

[Metadata]
Title:I&U
TitleUnicode:I&U
Artist:Rei Yasuda
ArtistUnicode:Rei Yasuda(安田レイ)
Creator:[Kamikazy]
Version:You
Source:
Tags:
BeatmapID:1890982
BeatmapSetID:906112

[Difficulty]
HPDrainRate:5
CircleSize:3
OverallDifficulty:8
ApproachRate:9
SliderMultiplier:1.8
SliderTickRate:1

[Events]
//Background and Video events
0,0,"38215125_p0.jpg",0,0
//Break Periods
2,79125,84881
2,148553,160226
//Storyboard Layer 0 (Background)
//Storyboard Layer 1 (Fail)
//Storyboard Layer 2 (Pass)
//Storyboard Layer 3 (Foreground)
//Storyboard Sound Samples

[TimingPoints]
30,394.477317554241,4,1,0,100,1,0
2766,-100,4,1,0,100,0,0
17789,-100,4,1,0,45,0,0
41449,-133.333333333333,4,1,0,45,0,0
50523,-100,4,1,0,45,0,0
53876,-66.6666666666667,4,1,0,45,0,1
53876,-100,4,1,0,45,0,0
53876,-76.9230769230769,4,1,0,45,0,1
53976,-100,4,1,0,45,0,0
78925,-76.9230769230769,4,1,0,45,0,0
79025,-100,4,1,0,45,0,0
101805,-200,4,1,0,45,0,0
102298,-76.9230769230769,4,1,0,45,0,0
102791,-100,4,1,0,45,0,0
110878,-133.333333333333,4,1,0,45,0,0
110878,-100,4,1,0,45,0,0
123106,-76.9230769230769,4,1,0,45,0,1
148353,-76.9230769230769,4,1,0,45,0,0
160878,-100,4,1,0,45,0,0
175177,-76.9230769230769,4,1,0,45,0,1
200424,-76.9230769230769,4,1,0,45,0,0

[HitObjects]
248,68,16006,5,0,0:0:0:0:
360,112,16203,1,0,0:0:0:0:
360,112,16598,2,0,P|356:200|260:204,1,180
104,68,17189,5,0,0:0:0:0:
256,136,17387,5,0,0:0:0:0:
80,228,17584,5,0,0:0:0:0:
104,68,17781,5,0,0:0:0:0:
168,144,17978,5,0,0:0:0:0:
244,212,18175,2,0,B|328:256|328:256|416:200,1,180
484,156,18777,1,0,0:0:0:0:
108,84,19162,5,0,0:0:0:0:
81,179,19359,2,0,P|100:236|220:264,1,180
206,269,20148,1,0,0:0:0:0:
284,208,20345,2,0,P|332:128|276:40,1,180
232,124,20937,1,0,0:0:0:0:
400,216,21134,1,0,0:0:0:0:
324,280,21331,2,0,P|264:304|172:272,1,135
144,204,21726,2,0,P|108:240|136:368,1,180
440,340,22317,1,0,0:0:0:0:
388,256,22515,1,0,0:0:0:0:
312,192,22712,1,0,0:0:0:0:
268,104,22909,2,0,P|224:144|212:200,1,90
96,328,23501,5,0,0:0:0:0:
144,240,23698,1,0,0:0:0:0:
200,320,23895,1,0,0:0:0:0:
260,148,24093,1,0,0:0:0:0:
284,244,24290,1,0,0:0:0:0:
360,308,24487,2,0,B|404:332|404:332|448:292|528:328,2,180
68,288,25473,1,0,0:0:0:0:
112,200,25671,1,0,0:0:0:0:
16,172,25868,1,0,0:0:0:0:
164,304,26065,2,0,P|244:340|336:300,1,180
436,76,26657,5,0,0:0:0:0:
308,128,26854,1,0,0:0:0:0:
436,76,27051,2,0,L|416:184,1,90
308,128,27446,2,0,L|320:228,1,90
269,303,27840,1,0,0:0:0:0:
184,252,28037,1,0,0:0:0:0:
155,217,28135,1,0,0:0:0:0:
142,174,28234,1,0,0:0:0:0:
147,130,28332,1,0,0:0:0:0:
169,91,28431,1,4,0:0:0:0:
260,203,28826,6,0,P|298:161|285:105,2,90
161,109,29418,1,0,0:0:0:0:
56,69,29615,1,0,0:0:0:0:
62,162,29813,1,0,0:0:0:0:
114,237,30010,1,0,0:0:0:0:
141,251,30108,1,0,0:0:0:0:
178,260,30207,1,0,0:0:0:0:
277,234,30404,2,0,P|293:154|269:142,1,90
189,150,30799,2,0,P|189:74|221:66,1,90
285,60,31193,1,0,0:0:0:0:
313,76,31292,1,0,0:0:0:0:
321,111,31390,1,0,0:0:0:0:
401,181,31588,6,0,P|375:235|358:263,1,90
275,240,31982,5,0,0:0:0:0:
226,160,32179,1,0,0:0:0:0:
226,160,32278,1,0,0:0:0:0:
226,160,32377,1,0,0:0:0:0:
135,126,32574,1,0,0:0:0:0:
88,285,32771,2,0,P|112:229|80:205,1,90
288,92,33166,2,0,P|248:140|288:184,1,90
283,289,33560,1,0,0:0:0:0:
176,271,33757,1,0,0:0:0:0:
180,235,33856,1,0,0:0:0:0:
208,215,33955,1,0,0:0:0:0:
328,184,34152,2,0,P|368:144|368:104,2,90
201,263,34744,6,0,P|260:292|307:297,1,90
404,293,35138,5,0,0:0:0:0:
297,239,35335,1,0,0:0:0:0:
373,147,35532,1,0,0:0:0:0:
269,99,35730,1,0,0:0:0:0:
99,116,35927,1,0,0:0:0:0:
64,303,36124,1,0,0:0:0:0:
216,280,36321,6,0,L|160:196,1,90
296,280,36716,2,0,L|352:200,1,90
257,76,37110,2,0,L|256:192,1,90
204,247,37505,2,0,P|127:273|111:247,1,90
76,194,37899,1,0,0:0:0:0:
74,105,38097,2,0,P|62:49|90:9,1,90
168,52,38491,1,0,0:0:0:0:
204,79,38590,1,0,0:0:0:0:
216,117,38688,1,0,0:0:0:0:
277,193,38886,6,0,P|301:239|343:266,1,90
256,192,39280,12,0,41055,0:0:0:0:
175,129,41450,5,0,0:0:0:0:
269,162,41647,2,0,P|329:141|346:73,1,135.000005149842
450,96,42239,1,0,0:0:0:0:
435,197,42436,1,0,0:0:0:0:
416,231,42534,1,0,0:0:0:0:
392,266,42633,1,0,0:0:0:0:
278,284,42830,5,0,0:0:0:0:
187,223,43028,1,0,0:0:0:0:
143,138,43225,2,0,P|151:79|76:57,1,135.000005149842
40,135,43816,1,0,0:0:0:0:
38,183,43915,1,0,0:0:0:0:
50,224,44014,1,0,0:0:0:0:
256,192,44211,12,0,47367,0:0:0:0:
438,206,47761,5,0,0:0:0:0:
394,111,47958,2,0,P|326:74|266:85,1,135.000005149842
221,159,48550,1,0,0:0:0:0:
191,258,48747,2,0,P|125:271|60:240,1,135.000005149842
72,138,49339,1,0,0:0:0:0:
163,90,49536,1,0,0:0:0:0:
204,88,49635,1,0,0:0:0:0:
244,110,49734,1,0,0:0:0:0:
451,238,49931,5,0,0:0:0:0:
384,324,50128,1,0,0:0:0:0:
258,331,50325,1,0,0:0:0:0:
275,228,50720,2,0,L|283:139,1,90
260,46,51114,5,0,0:0:0:0:
110,187,51312,2,0,P|140:245|193:245,1,90
213,165,51706,1,0,0:0:0:0:
311,185,51903,1,0,0:0:0:0:
189,71,52101,1,0,0:0:0:0:
316,71,52298,1,0,0:0:0:0:
101,157,52495,1,0,0:0:0:0:
401,165,52692,1,0,0:0:0:0:
179,277,52889,1,0,0:0:0:0:
311,282,53087,1,0,0:0:0:0:
255,192,53284,1,0,0:0:0:0:
260,68,53678,1,0,0:0:0:0:
81,88,53876,5,0,0:0:0:0:
88,245,54073,1,0,0:0:0:0:
172,163,54270,1,0,0:0:0:0:
276,160,54467,1,0,0:0:0:0:
375,111,54665,1,0,0:0:0:0:
449,184,54862,1,0,0:0:0:0:
373,245,55059,2,0,P|314:283|284:268,1,90
193,265,55454,2,0,P|156:224|113:224,1,90
86,127,55848,1,0,0:0:0:0:
86,127,55947,1,0,0:0:0:0:
86,127,56045,1,0,0:0:0:0:
211,102,56243,1,0,0:0:0:0:
332,73,56440,1,0,0:0:0:0:
309,172,56637,5,0,0:0:0:0:
274,195,56736,1,0,0:0:0:0:
239,218,56834,1,0,0:0:0:0:
287,295,57031,2,0,L|378:231,1,90
429,171,57426,2,0,P|429:119|384:98,1,90
304,72,57820,1,0,0:0:0:0:
304,72,57919,1,0,0:0:0:0:
304,72,58018,1,0,0:0:0:0:
209,105,58215,1,0,0:0:0:0:
209,105,58314,1,0,0:0:0:0:
209,105,58412,1,0,0:0:0:0:
304,72,58609,6,0,L|396:114,1,90
209,105,59004,2,0,L|160:189,1,90
219,255,59398,1,0,0:0:0:0:
134,303,59596,1,0,0:0:0:0:
85,226,59793,1,0,0:0:0:0:
77,139,59990,1,0,0:0:0:0:
130,68,60187,1,0,0:0:0:0:
206,111,60385,1,0,0:0:0:0:
272,196,60582,5,0,0:0:0:0:
272,196,60680,1,0,0:0:0:0:
272,196,60779,1,0,0:0:0:0:
175,195,61173,2,0,L|116:295,1,90
248,85,61568,1,0,0:0:0:0:
400,80,61765,1,0,0:0:0:0:
376,200,61962,5,0,0:0:0:0:
325,283,62160,2,0,P|274:309|245:298,1,90
166,230,62751,2,0,P|116:176|127:72,2,180
250,251,63935,1,0,0:0:0:0:
330,298,64132,1,0,0:0:0:0:
358,213,64329,2,0,L|402:108,1,90
426,48,64724,1,0,0:0:0:0:
273,51,64921,1,0,0:0:0:0:
146,121,65118,1,0,0:0:0:0:
96,237,65315,1,0,0:0:0:0:
171,293,65513,1,0,0:0:0:0:
211,304,65611,1,0,0:0:0:0:
252,304,65710,1,0,0:0:0:0:
293,295,65808,1,0,0:0:0:0:
330,275,65907,1,0,0:0:0:0:
451,52,66302,5,0,0:0:0:0:
444,168,66499,1,0,0:0:0:0:
325,121,66696,1,0,0:0:0:0:
226,104,66893,2,0,P|171:71|115:88,1,90
56,105,67288,1,0,0:0:0:0:
66,215,67485,1,0,0:0:0:0:
143,273,67682,2,0,P|228:257|243:235,1,90
298,200,68077,5,0,0:0:0:0:
330,169,68175,1,0,0:0:0:0:
363,138,68274,1,0,0:0:0:0:
300,70,68471,1,0,0:0:0:0:
256,79,68569,1,0,0:0:0:0:
225,110,68668,1,0,0:0:0:0:
51,53,69260,5,0,0:0:0:0:
71,162,69458,1,0,0:0:0:0:
174,97,69655,1,0,0:0:0:0:
276,94,69852,2,0,P|354:70|368:82,1,90
420,121,70246,2,0,P|412:182|383:210,1,90
318,248,70641,1,0,0:0:0:0:
198,248,70838,5,0,0:0:0:0:
121,69,71035,1,0,0:0:0:0:
61,243,71233,1,0,0:0:0:0:
210,128,71430,1,0,0:0:0:0:
44,129,71627,1,0,0:0:0:0:
140,229,71824,2,0,P|203:262|261:265,1,90
300,328,72219,1,0,0:0:0:0:
405,282,72416,5,0,0:0:0:0:
416,163,72613,1,0,0:0:0:0:
416,163,72811,1,0,0:0:0:0:
405,282,73008,1,0,0:0:0:0:
315,222,73205,1,0,0:0:0:0:
226,144,73402,1,0,0:0:0:0:
186,309,73797,6,0,P|125:277|104:249,1,90
82,168,74191,2,0,P|86:99|99:46,1,90
190,47,74586,1,0,0:0:0:0:
306,79,74783,1,0,0:0:0:0:
414,117,74980,1,0,0:0:0:0:
433,157,75078,1,0,0:0:0:0:
432,201,75177,1,0,0:0:0:0:
385,295,75375,6,0,P|322:326|266:336,1,90
199,329,75769,2,0,P|121:293|95:268,1,90
80,200,76164,1,0,0:0:0:0:
152,88,76361,1,0,0:0:0:0:
289,87,76558,1,0,0:0:0:0:
371,205,76755,1,0,0:0:0:0:
256,192,76953,12,0,78925,0:0:0:0:
148,66,85631,6,0,P|139:151|158:187,2,90
236,61,86223,1,0,0:0:0:0:
220,102,86321,1,0,0:0:0:0:
222,147,86420,1,0,0:0:0:0:
298,207,86617,1,0,0:0:0:0:
378,280,86815,1,0,0:0:0:0:
294,322,87012,1,0,0:0:0:0:
250,332,87110,1,0,0:0:0:0:
205,331,87209,1,0,0:0:0:0:
133,268,87406,5,0,0:0:0:0:
78,148,87603,1,0,0:0:0:0:
202,113,87801,1,0,0:0:0:0:
296,122,87998,1,0,0:0:0:0:
332,96,88096,1,0,0:0:0:0:
376,98,88195,1,0,0:0:0:0:
410,126,88293,1,0,0:0:0:0:
419,169,88392,1,0,0:0:0:0:
160,92,88787,5,0,0:0:0:0:
90,170,88984,1,0,0:0:0:0:
172,256,89181,1,0,0:0:0:0:
297,282,89576,2,0,P|378:255|383:235,1,90
401,148,89970,1,0,0:0:0:0:
279,55,90168,1,0,0:0:0:0:
134,86,90365,1,0,0:0:0:0:
94,234,90562,1,0,0:0:0:0:
177,294,90759,2,0,L|268:255,2,90
342,221,91351,1,0,0:0:0:0:
342,221,91450,1,0,0:0:0:0:
342,221,91548,1,0,0:0:0:0:
392,100,91943,5,0,0:0:0:0:
332,179,92140,1,0,0:0:0:0:
244,128,92337,1,0,0:0:0:0:
143,139,92732,6,0,P|116:208|124:226,1,90
177,290,93126,1,0,0:0:0:0:
285,319,93323,1,0,0:0:0:0:
389,284,93521,1,0,0:0:0:0:
92,133,93718,1,0,0:0:0:0:
158,53,93915,1,0,0:0:0:0:
263,66,94112,1,0,0:0:0:0:
348,135,94310,1,0,0:0:0:0:
360,177,94408,1,0,0:0:0:0:
355,222,94507,1,0,0:0:0:0:
333,261,94605,1,0,0:0:0:0:
298,288,94704,1,0,0:0:0:0:
201,302,94901,6,0,P|137:272|128:249,1,90
101,163,95296,1,0,0:0:0:0:
165,80,95493,1,0,0:0:0:0:
195,48,95591,1,0,0:0:0:0:
238,50,95690,1,0,0:0:0:0:
326,78,95887,6,0,P|356:121|340:156,1,90
241,310,96282,1,0,0:0:0:0:
108,288,96479,1,0,0:0:0:0:
98,156,96676,1,0,0:0:0:0:
273,50,96874,5,0,0:0:0:0:
412,78,97071,1,0,0:0:0:0:
413,200,97268,1,0,0:0:0:0:
368,296,97465,1,0,0:0:0:0:
327,316,97563,1,0,0:0:0:0:
283,323,97662,1,0,0:0:0:0:
239,317,97760,1,0,0:0:0:0:
198,298,97859,1,0,0:0:0:0:
254,192,98057,6,0,L|319:115,1,90
254,192,98452,2,0,L|181:119,1,90
256,44,98846,1,0,0:0:0:0:
352,88,99043,1,0,0:0:0:0:
357,187,99241,1,0,0:0:0:0:
306,272,99438,1,0,0:0:0:0:
217,287,99635,6,0,L|103:315,1,90
217,287,100030,2,0,L|160:207,1,90
111,139,100424,1,0,0:0:0:0:
155,43,100621,1,0,0:0:0:0:
205,137,100818,1,0,0:0:0:0:
355,126,101410,5,0,0:0:0:0:
447,67,101607,1,0,0:0:0:0:
449,188,101805,2,0,P|429:229|388:238,1,90
293,216,102396,1,0,0:0:0:0:
264,165,102494,1,0,0:0:0:0:
218,129,102593,1,0,0:0:0:0:
162,113,102691,1,0,0:0:0:0:
104,120,102790,1,0,0:0:0:0:
75,208,102988,1,0,0:0:0:0:
79,315,103185,1,0,0:0:0:0:
189,316,103383,1,0,0:0:0:0:
283,319,103580,6,0,L|402:318,1,90
452,309,103974,1,0,0:0:0:0:
476,272,104072,1,0,0:0:0:0:
465,230,104171,1,0,0:0:0:0:
116,80,104566,5,0,0:0:0:0:
70,175,104763,1,0,0:0:0:0:
123,252,104960,2,0,P|186:286|309:261,1,180
376,242,105552,1,0,0:0:0:0:
420,150,105749,1,0,0:0:0:0:
363,63,105947,1,0,0:0:0:0:
270,74,106144,2,0,P|194:74|158:39,1,90
121,256,106538,1,0,0:0:0:0:
228,262,106736,1,0,0:0:0:0:
310,335,106933,1,0,0:0:0:0:
393,273,107130,1,0,0:0:0:0:
378,102,107722,5,0,0:0:0:0:
250,60,107919,1,0,0:0:0:0:
158,130,108116,1,0,0:0:0:0:
183,332,108708,1,0,0:0:0:0:
289,332,108905,1,0,0:0:0:0:
372,248,109102,1,0,0:0:0:0:
376,143,109300,1,0,0:0:0:0:
299,62,109497,1,0,0:0:0:0:
213,88,109694,2,0,L|179:126,8,45
77,117,110878,6,0,P|111:78|146:99,1,90
81,205,111272,2,0,P|121:247|159:224,1,90
437,195,111667,2,0,P|404:229|354:224,1,90
419,113,112061,2,0,P|376:91|326:113,1,90
255,187,112456,2,0,L|256:84,1,90
255,187,112850,2,0,L|255:312,1,90
255,187,113244,2,0,L|255:66,1,90
256,192,113639,12,0,116795,0:0:0:0:
107,172,117189,6,0,P|144:113|175:129,1,90
107,172,117584,2,0,P|124:225|170:231,1,90
229,186,117978,1,0,0:0:0:0:
331,100,118175,1,0,0:0:0:0:
390,223,118373,1,0,0:0:0:0:
298,256,118570,2,0,L|207:293,1,90
298,256,118964,2,0,L|298:362,1,90
122,314,119359,1,0,0:0:0:0:
71,179,119556,1,0,0:0:0:0:
134,51,119753,1,0,0:0:0:0:
256,192,119951,12,0,122712,0:0:0:0:
205,91,123106,5,0,0:0:0:0:
325,99,123304,1,0,0:0:0:0:
352,191,123501,2,0,P|348:251|296:271,1,116.999994644165
192,268,123895,1,0,0:0:0:0:
210,116,124093,2,0,P|218:40|178:16,1,97.4999955368044
216,188,124487,2,0,P|272:248|304:244,1,116.999994644165
300,164,124882,2,0,L|340:112,2,58.4999973220826
352,232,125276,5,0,0:0:0:0:
336,264,125375,1,0,0:0:0:0:
304,292,125473,1,0,0:0:0:0:
181,76,126065,1,0,0:0:0:0:
282,150,126262,1,0,0:0:0:0:
232,264,126459,2,0,P|320:292|368:260,1,116.999994644165
376,200,126854,2,0,P|376:124|340:96,1,116.999994644165
256,100,127248,1,0,0:0:0:0:
208,132,127347,1,0,0:0:0:0:
180,168,127446,1,0,0:0:0:0:
411,193,127643,5,0,0:0:0:0:
319,247,127840,1,0,0:0:0:0:
227,310,128037,1,0,0:0:0:0:
184,228,128235,2,0,P|172:152|296:84,2,233.999989288331
202,177,129418,5,0,0:0:0:0:
272,268,129615,1,0,0:0:0:0:
389,273,129813,1,0,0:0:0:0:
376,88,130010,1,0,0:0:0:0:
368,136,130108,1,0,0:0:0:0:
360,172,130207,1,0,0:0:0:0:
376,88,130601,5,0,0:0:0:0:
268,161,130799,1,0,0:0:0:0:
198,80,130996,2,0,P|131:95|110:137,1,116.999994644165
150,240,131390,1,0,0:0:0:0:
236,296,131588,1,0,0:0:0:0:
276,312,131686,1,0,0:0:0:0:
320,316,131785,1,0,0:0:0:0:
415,309,132179,5,0,0:0:0:0:
451,191,132377,1,0,0:0:0:0:
393,84,132574,2,0,P|306:62|256:81,1,116.999994644165
137,99,132968,1,0,0:0:0:0:
100,219,133166,1,0,0:0:0:0:
188,309,133363,2,0,P|283:329|352:305,1,116.999994644165
400,285,133757,1,0,0:0:0:0:
454,172,133955,1,0,0:0:0:0:
404,67,134152,1,0,0:0:0:0:
313,205,134349,5,0,0:0:0:0:
182,64,134546,1,0,0:0:0:0:
312,68,134744,1,0,0:0:0:0:
196,203,134941,1,0,0:0:0:0:
81,145,135138,1,0,0:0:0:0:
86,297,135335,5,0,0:0:0:0:
248,196,135730,6,0,P|296:144|280:104,1,116.999994644165
168,108,136124,2,0,P|128:172|184:216,1,116.999994644165
188,296,136519,1,0,0:0:0:0:
301,349,136716,1,0,0:0:0:0:
429,302,136913,1,0,0:0:0:0:
347,251,137110,2,0,P|259:191|267:159,1,116.999994644165
292,110,137505,1,0,0:0:0:0:
201,103,137702,2,0,P|136:97|82:132,2,116.999994644165
443,65,138491,1,0,0:0:0:0:
379,152,138688,1,0,0:0:0:0:
136,82,138886,6,0,P|60:106|60:134,1,116.999994644165
136,82,139280,2,0,P|204:58|232:110,1,116.999994644165
320,246,139674,2,0,L|224:330,1,116.999994644165
320,246,140069,2,0,L|413:168,1,116.999994644165
126,95,140463,2,0,P|190:87|210:139,1,116.999994644165
328,268,140858,2,0,P|256:228|252:188,1,116.999994644165
180,204,141252,5,0,0:0:0:0:
248,100,141450,1,0,0:0:0:0:
316,208,141647,1,0,0:0:0:0:
172,316,142041,1,0,0:0:0:0:
252,64,142239,1,0,0:0:0:0:
324,312,142436,1,0,0:0:0:0:
252,184,142633,1,0,0:0:0:0:
100,116,142830,1,0,0:0:0:0:
101,223,143225,6,0,P|151:276|205:279,1,116.999994644165
280,288,143619,1,0,0:0:0:0:
278,128,143816,1,0,0:0:0:0:
374,227,144014,1,0,0:0:0:0:
367,54,144211,1,0,0:0:0:0:
458,148,144408,1,0,0:0:0:0:
260,128,144803,6,0,P|296:200|260:236,1,116.999994644165
192,224,145197,2,0,P|232:304|296:304,1,116.999994644165
296,236,145592,2,0,P|368:196|360:144,1,116.999994644165
288,140,145986,2,0,P|312:68|376:76,1,116.999994644165
388,132,146381,1,0,0:0:0:0:
209,95,146775,1,0,0:0:0:0:
250,96,146874,1,0,0:0:0:0:
295,114,146972,1,0,0:0:0:0:
326,153,147071,1,0,0:0:0:0:
342,200,147170,1,0,0:0:0:0:
256,192,147564,12,0,148353,0:0:0:0:
82,194,160976,6,0,L|156:123,1,90
82,194,161371,2,0,L|154:264,1,90
235,181,161765,2,0,L|303:120,1,90
235,181,162160,2,0,L|325:262,1,90
406,124,162554,1,0,0:0:0:0:
408,234,162751,1,0,0:0:0:0:
316,307,162949,1,0,0:0:0:0:
211,313,163146,6,0,P|132:263|111:183,1,180
104,93,163738,1,0,0:0:0:0:
144,77,163836,1,0,0:0:0:0:
182,98,163935,1,0,0:0:0:0:
256,192,164132,12,0,167288,0:0:0:0:
114,313,167682,6,0,P|71:255|81:223,1,90
70,137,168077,2,0,P|88:78|134:66,1,90
211,71,168471,2,0,P|255:94|271:166,1,90
292,232,168866,2,0,P|282:288|256:329,1,90
396,212,169260,2,0,P|399:268|441:301,1,90
389,122,169655,2,0,P|403:66|444:37,1,90
256,192,170049,1,0,0:0:0:0:
256,192,170148,1,0,0:0:0:0:
256,192,170246,1,0,0:0:0:0:
256,192,170444,12,0,174783,0:0:0:0:
59,179,175177,5,0,0:0:0:0:
150,93,175375,1,0,0:0:0:0:
213,198,175572,2,0,P|289:182|313:138,1,116.999994644165
368,45,175966,1,0,0:0:0:0:
473,107,176164,1,0,0:0:0:0:
414,234,176361,1,0,0:0:0:0:
312,156,176558,2,0,P|260:184|272:244,1,116.999994644165
352,232,176953,2,0,P|352:304|316:312,1,116.999994644165
212,284,177347,1,0,0:0:0:0:
192,248,177446,1,0,0:0:0:0:
188,208,177544,1,0,0:0:0:0:
211,53,178136,1,0,0:0:0:0:
312,144,178333,2,0,P|300:212|256:224,1,116.999994644165
224,152,178728,2,0,P|144:132|144:192,1,116.999994644165
83,283,179122,5,0,0:0:0:0:
194,321,179319,1,0,0:0:0:0:
304,284,179517,1,0,0:0:0:0:
365,176,179714,1,0,0:0:0:0:
325,61,179911,1,0,0:0:0:0:
212,76,180108,1,0,0:0:0:0:
180,96,180207,1,0,0:0:0:0:
152,124,180306,1,0,0:0:0:0:
100,196,180503,1,0,0:0:0:0:
112,240,180601,1,0,0:0:0:0:
136,272,180700,1,0,0:0:0:0:
236,252,181095,5,0,0:0:0:0:
96,96,181292,1,0,0:0:0:0:
85,244,181489,1,0,0:0:0:0:
174,165,181686,2,0,P|202:99|260:78,1,116.999994644165
304,176,182081,1,0,0:0:0:0:
224,240,182278,1,0,0:0:0:0:
180,170,182672,5,0,0:0:0:0:
322,101,182870,1,0,0:0:0:0:
220,245,183067,1,0,0:0:0:0:
364,187,183264,1,0,0:0:0:0:
262,311,183461,1,0,0:0:0:0:
397,262,183659,1,0,0:0:0:0:
275,156,183856,1,0,0:0:0:0:
118,219,184250,6,0,P|102:139|74:135,1,116.999994644165
123,48,184645,2,0,P|203:56|227:96,1,116.999994644165
244,207,185039,2,0,P|288:151|332:159,1,116.999994644165
432,196,185434,1,0,0:0:0:0:
336,264,185631,1,0,0:0:0:0:
228,236,185828,1,0,0:0:0:0:
162,158,186026,1,0,0:0:0:0:
256,192,186223,12,0,187406,0:0:0:0:
312,324,187801,5,0,0:0:0:0:
376,240,187998,5,0,0:0:0:0:
396,152,188195,1,0,0:0:0:0:
329,84,188392,2,0,P|249:68|246:91,1,116.999994644165
120,63,188787,1,0,0:0:0:0:
120,160,188984,1,0,0:0:0:0:
136,256,189181,1,0,0:0:0:0:
172,252,189280,1,0,0:0:0:0:
200,280,189379,1,0,0:0:0:0:
313,320,189576,1,0,0:0:0:0:
445,288,189773,1,0,0:0:0:0:
361,218,189970,2,0,P|393:142|425:154,1,116.999994644165
168,240,190759,5,0,0:0:0:0:
59,264,190957,1,0,0:0:0:0:
77,168,191154,1,0,0:0:0:0:
184,105,191351,2,0,P|266:74|315:85,1,116.999994644165
439,147,191745,1,0,0:0:0:0:
391,273,191943,1,0,0:0:0:0:
320,232,192140,5,0,0:0:0:0:
184,180,192337,1,0,0:0:0:0:
392,60,192534,1,0,0:0:0:0:
420,164,192732,1,0,0:0:0:0:
406,278,192929,2,0,P|307:313|173:288,1,233.999989288331
107,220,193521,1,0,0:0:0:0:
140,52,193718,1,0,0:0:0:0:
212,96,193915,6,0,P|268:128|320:104,1,116.999994644165
368,180,194310,2,0,P|308:244|284:244,1,116.999994644165
188,188,194704,1,0,0:0:0:0:
200,144,194803,1,0,0:0:0:0:
224,112,194901,1,0,0:0:0:0:
136,264,195296,1,0,0:0:0:0:
136,96,195493,1,0,0:0:0:0:
312,256,195690,1,0,0:0:0:0:
232,172,195887,6,0,P|292:108|320:124,1,116.999994644165
176,208,196282,2,0,P|112:184|60:208,1,116.999994644165
142,329,196874,6,0,P|238:277|361:258,1,233.999989288331
98,247,197465,1,0,0:0:0:0:
131,156,197663,1,0,0:0:0:0:
196,86,197860,2,0,P|270:87|288:154,1,116.999994644165
376,160,198254,1,0,0:0:0:0:
428,244,198452,2,0,P|374:305|307:334,1,116.999994644165
235,291,198846,1,0,0:0:0:0:
206,274,198945,1,0,0:0:0:0:
182,256,199043,1,0,0:0:0:0:
157,233,199142,1,0,0:0:0:0:
142,210,199241,1,0,0:0:0:0:
130,185,199339,1,0,0:0:0:0:
122,154,199438,1,0,0:0:0:0:
118,122,199536,1,0,0:0:0:0:
118,98,199635,1,0,0:0:0:0:
