osu file format v14

[General]
AudioFilename: Nc - I&U.mp3
AudioLeadIn: 0
PreviewTime: -1
Countdown: 1
SampleSet: Normal
StackLeniency: 0.7
Mode: 2
LetterboxInBreaks: 1
WidescreenStoryboard: 1

[Editor]
DistanceSpacing: 1.1
BeatDivisor: 4
GridSize: 4
TimelineZoom: 1

[Metadata]
Title:I&U
TitleUnicode:I&U
Artist:Rei Yasuda
ArtistUnicode:Rei Yasuda(安田レイ)
Creator:[Kamikazy]
Version:Fall In Love
Source:
Tags:
BeatmapID:1892531
BeatmapSetID:906112

[Difficulty]
HPDrainRate:5
CircleSize:3
OverallDifficulty:8
ApproachRate:9
SliderMultiplier:1.8
SliderTickRate:1

[Events]
//Background and Video events
0,0,"38215125_p0.jpg",0,0
//Break Periods
2,79125,84881
2,148553,160226
//Storyboard Layer 0 (Background)
//Storyboard Layer 1 (Fail)
//Storyboard Layer 2 (Pass)
//Storyboard Layer 3 (Foreground)
//Storyboard Sound Samples

[TimingPoints]
30,394.477317554241,4,1,0,100,1,0
2766,-100,4,1,0,100,0,0
17789,-100,4,1,0,45,0,0
53876,-76.9230769230769,4,1,0,45,0,1
53876,-76.9230769230769,4,1,0,45,0,0
53876,-76.9230769230769,4,1,0,45,0,1
78925,-76.9230769230769,4,1,0,45,0,0
123106,-76.9230769230769,4,1,0,45,0,1
148353,-76.9230769230769,4,1,0,45,0,0
175177,-76.9230769230769,4,1,0,45,0,1
200424,-76.9230769230769,4,1,0,45,0,0

[HitObjects]
248,68,16006,5,0,0:0:0:0:
360,112,16203,1,0,0:0:0:0:
360,112,16598,2,0,P|356:200|260:204,1,180
104,68,17189,1,0,0:0:0:0:
256,136,17387,1,0,0:0:0:0:
80,228,17584,1,0,0:0:0:0:
104,68,17781,1,0,0:0:0:0:
168,144,17978,1,0,0:0:0:0:
244,212,18175,2,0,B|328:256|328:256|416:200,1,180
484,156,18777,1,0,0:0:0:0:
108,84,19162,5,0,0:0:0:0:
81,179,19359,2,0,P|100:236|220:264,1,180
206,269,20148,1,0,0:0:0:0:
284,208,20345,2,0,P|332:128|276:40,1,180
232,124,20937,1,0,0:0:0:0:
400,216,21134,1,0,0:0:0:0:
324,280,21331,2,0,P|264:304|172:272,1,135
144,204,21726,2,0,P|108:240|136:368,1,180
440,340,22317,1,0,0:0:0:0:
388,256,22515,1,0,0:0:0:0:
312,192,22712,1,0,0:0:0:0:
268,104,22909,2,0,P|224:144|212:200,1,90
96,328,23501,5,0,0:0:0:0:
144,240,23698,1,0,0:0:0:0:
200,320,23895,1,0,0:0:0:0:
260,148,24093,1,0,0:0:0:0:
284,244,24290,1,0,0:0:0:0:
360,308,24487,2,0,B|404:332|404:332|448:292|528:328,2,180
68,288,25473,1,0,0:0:0:0:
112,200,25671,1,0,0:0:0:0:
16,172,25868,1,0,0:0:0:0:
164,304,26065,2,0,P|244:340|336:300,1,180
436,76,26657,1,0,0:0:0:0:
308,128,26854,1,0,0:0:0:0:
436,76,27051,2,0,L|416:184,1,90
308,128,27446,2,0,L|320:228,1,90
269,303,27840,1,0,0:0:0:0:
184,252,28037,1,0,0:0:0:0:
155,217,28135,1,0,0:0:0:0:
142,174,28234,1,0,0:0:0:0:
147,130,28332,1,0,0:0:0:0:
169,91,28431,1,4,0:0:0:0:
260,203,28826,6,0,P|298:161|285:105,2,90
210,131,29418,1,0,0:0:0:0:
141,68,29615,1,0,0:0:0:0:
93,132,29813,1,0,0:0:0:0:
104,223,30010,2,0,L|217:236,1,90
263,275,30404,2,0,P|279:195|255:183,1,90
272,129,30799,2,0,P|272:53|304:45,1,90
359,63,31193,2,0,P|369:121|357:165,1,75
372,242,31785,1,0,0:0:0:0:
272,242,31982,5,0,0:0:0:0:
269,149,32179,1,0,0:0:0:0:
364,133,32377,1,0,0:0:0:0:
424,283,32771,2,0,P|448:227|416:203,1,90
351,198,33166,2,0,P|311:246|351:290,1,90
244,326,33560,1,0,0:0:0:0:
176,271,33757,1,0,0:0:0:0:
180,235,33856,1,0,0:0:0:0:
208,215,33955,1,0,0:0:0:0:
269,172,34152,2,0,P|309:132|309:92,2,90
404,293,35138,5,0,0:0:0:0:
331,241,35335,1,0,0:0:0:0:
397,190,35532,1,0,0:0:0:0:
321,328,36124,1,0,0:0:0:0:
247,285,36321,6,0,L|191:201,1,90
321,283,36716,2,0,L|377:203,1,90
279,108,37110,2,0,L|278:224,1,90
230,237,37505,2,0,P|156:253|140:227,1,90
242,322,38294,1,0,0:0:0:0:
333,319,38491,2,0,P|321:263|349:223,1,90
217,212,39280,1,0,0:0:0:0:
272,272,39477,1,0,0:0:0:0:
332,213,39674,2,0,P|360:153|336:117,1,90
273,150,40069,5,0,0:0:0:0:
198,176,40266,1,0,0:0:0:0:
183,253,40463,1,0,0:0:0:0:
242,310,40661,1,0,0:0:0:0:
274,78,41450,6,0,P|318:110|318:142,1,90
171,134,41844,2,0,P|191:82|171:46,1,90
231,194,42239,2,0,P|219:258|183:274,1,90
298,176,42633,2,0,L|342:88,1,90
242,124,43028,2,0,P|266:76|294:29,1,90
231,194,43422,2,0,L|234:289,1,90
311,192,43816,2,0,L|374:280,1,90
256,192,44211,12,0,47367,0:0:0:0:
63,121,47761,5,0,0:0:0:0:
91,190,47958,1,0,0:0:0:0:
131,246,48156,1,0,0:0:0:0:
171,189,48353,1,0,0:0:0:0:
155,95,48550,2,0,P|221:72|214:47,1,90
300,80,48945,1,0,0:0:0:0:
297,149,49142,1,0,0:0:0:0:
278,213,49339,1,0,0:0:0:0:
328,304,49536,2,0,P|396:272|434:291,1,90
453,203,49931,1,0,0:0:0:0:
459,289,50128,2,0,P|412:337|371:353,1,90
322,278,50720,2,0,L|330:189,1,90
265,122,51114,5,0,0:0:0:0:
185,151,51312,1,0,0:0:0:0:
180,234,51509,1,0,0:0:0:0:
258,286,51706,1,0,0:0:0:0:
319,253,51903,1,0,0:0:0:0:
232,284,52101,1,0,0:0:0:0:
351,178,52298,1,0,0:0:0:0:
346,111,52495,1,0,0:0:0:0:
296,55,52692,1,0,0:0:0:0:
327,236,52889,1,0,0:0:0:0:
356,144,53087,1,0,0:0:0:0:
356,144,53185,1,0,0:0:0:0:
356,144,53284,1,0,0:0:0:0:
256,170,53678,1,0,0:0:0:0:
212,232,53876,5,0,0:0:0:0:
279,287,54073,1,0,0:0:0:0:
190,313,54270,1,0,0:0:0:0:
114,274,54467,1,0,0:0:0:0:
278,268,54665,1,0,0:0:0:0:
283,180,54862,1,0,0:0:0:0:
256,73,55059,2,0,P|184:93|148:65,1,116.999994644165
369,127,55454,2,0,P|361:55|325:47,1,116.999994644165
463,191,55848,1,0,0:0:0:0:
463,191,55947,1,0,0:0:0:0:
463,191,56045,1,0,0:0:0:0:
244,237,56637,6,0,P|276:181|332:205,1,116.999994644165
248,340,57031,2,0,P|308:300|328:244,1,116.999994644165
168,295,57426,2,0,P|120:243|72:263,1,116.999994644165
279,319,57820,1,0,0:0:0:0:
256,299,57919,1,0,0:0:0:0:
232,276,58018,1,0,0:0:0:0:
176,185,58215,1,0,0:0:0:0:
198,168,58314,1,0,0:0:0:0:
225,146,58412,1,0,0:0:0:0:
334,271,58609,2,0,L|442:223,1,116.999994644165
409,156,59004,6,0,L|275:216,1,116.999994644165
267,271,59596,1,0,0:0:0:0:
203,227,59793,1,0,0:0:0:0:
208,147,59990,1,0,0:0:0:0:
288,82,60187,1,0,0:0:0:0:
363,140,60385,1,0,0:0:0:0:
272,196,60582,5,0,0:0:0:0:
272,196,60680,1,0,0:0:0:0:
272,196,60779,1,0,0:0:0:0:
176,216,61173,2,0,P|189:138|219:111,1,116.999994644165
297,101,61568,1,0,0:0:0:0:
369,112,61765,1,0,0:0:0:0:
415,185,61962,5,0,0:0:0:0:
399,257,62160,2,0,P|322:218|304:178,1,116.999994644165
277,112,62751,2,0,B|394:69|412:77|376:65,1,116.999994644165
432,147,63146,2,0,L|298:194,1,116.999994644165
277,98,63540,1,0,0:0:0:0:
203,110,63738,1,0,0:0:0:0:
158,179,63935,1,0,0:0:0:0:
168,247,64132,1,0,0:0:0:0:
225,291,64329,1,0,0:0:0:0:
293,283,64527,1,0,0:0:0:0:
265,219,64724,1,0,0:0:0:0:
243,158,64921,1,0,0:0:0:0:
256,105,65118,1,0,0:0:0:0:
296,81,65315,1,0,0:0:0:0:
320,132,65513,5,0,0:0:0:0:
344,176,65611,1,0,0:0:0:0:
337,229,65710,1,0,0:0:0:0:
316,273,65809,1,0,0:0:0:0:
279,299,65907,1,0,0:0:0:0:
120,80,66302,5,0,0:0:0:0:
190,110,66499,1,0,0:0:0:0:
168,175,66696,1,0,0:0:0:0:
248,171,66893,2,0,P|317:129|341:168,1,116.999994644165
321,205,67288,1,0,0:0:0:0:
261,246,67485,2,0,P|205:186|229:146,1,116.999994644165
286,160,67880,1,0,0:0:0:0:
362,148,68077,6,0,L|386:92,2,58.4999973220826
390,227,68471,5,0,0:0:0:0:
414,256,68570,1,0,0:0:0:0:
428,300,68669,1,0,0:0:0:0:
229,149,69260,1,0,0:0:0:0:
181,213,69458,1,0,0:0:0:0:
272,219,69655,2,0,L|196:315,1,116.999994644165
319,157,70049,1,0,0:0:0:0:
356,238,70246,1,0,0:0:0:0:
285,290,70444,1,0,0:0:0:0:
252,218,70641,1,0,0:0:0:0:
168,175,70838,5,0,0:0:0:0:
240,134,71035,1,0,0:0:0:0:
322,161,71233,1,0,0:0:0:0:
426,171,71430,2,0,P|440:93|457:101,1,116.999994644165
366,314,71824,2,0,P|361:232|354:232,1,116.999994644165
332,160,72219,1,0,0:0:0:0:
280,224,72416,5,0,0:0:0:0:
241,145,72613,1,0,0:0:0:0:
332,160,72811,1,0,0:0:0:0:
290,78,73008,1,0,0:0:0:0:
364,94,73205,2,0,P|416:134|368:194,1,116.999994644165
169,241,73797,5,0,0:0:0:0:
133,178,73994,1,0,0:0:0:0:
220,200,74191,1,0,0:0:0:0:
195,143,74388,1,0,0:0:0:0:
130,110,74586,1,0,0:0:0:0:
82,174,74783,1,0,0:0:0:0:
94,207,74882,1,0,0:0:0:0:
108,246,74980,1,0,0:0:0:0:
214,263,75375,2,0,L|346:224,1,116.999994644165
205,262,75769,2,0,L|157:142,1,116.999994644165
205,262,76164,2,0,L|88:300,1,116.999994644165
205,262,76558,2,0,L|265:395,1,116.999994644165
256,192,77150,12,0,78925,0:0:0:0:
160,108,85631,5,0,0:0:0:0:
64,216,85828,1,0,0:0:0:0:
165,301,86026,1,0,0:0:0:0:
236,320,86617,1,0,0:0:0:0:
168,232,86815,5,0,0:0:0:0:
248,160,87012,1,0,0:0:0:0:
262,58,87209,2,0,P|340:65|323:212,1,233.999989288331
262,273,87801,1,0,0:0:0:0:
183,216,87998,1,0,0:0:0:0:
183,216,88097,1,0,0:0:0:0:
183,216,88195,1,0,0:0:0:0:
160,92,88787,5,0,0:0:0:0:
90,170,88984,1,0,0:0:0:0:
172,256,89181,1,0,0:0:0:0:
271,289,89576,2,0,P|346:269|386:234,1,116.999994644165
401,148,89970,1,0,0:0:0:0:
279,55,90168,1,0,0:0:0:0:
134,86,90365,1,0,0:0:0:0:
94,234,90562,1,0,0:0:0:0:
232,206,90759,2,0,P|291:160|336:180,2,116.999994644165
152,164,91351,1,0,0:0:0:0:
392,100,91943,5,0,0:0:0:0:
332,172,92140,1,0,0:0:0:0:
244,128,92337,1,0,0:0:0:0:
244,128,92929,1,0,0:0:0:0:
85,208,93126,5,0,0:0:0:0:
162,280,93323,2,0,P|197:216|166:163,1,116.999994644165
92,133,93718,1,0,0:0:0:0:
158,53,93915,1,0,0:0:0:0:
263,66,94112,1,0,0:0:0:0:
296,152,94310,2,0,P|380:140|408:108,1,116.999994644165
446,221,94901,1,0,0:0:0:0:
382,302,95099,2,0,P|304:292|284:243,2,116.999994644165
241,310,96282,1,0,0:0:0:0:
361,311,96479,1,0,0:0:0:0:
419,221,96676,1,0,0:0:0:0:
157,189,96874,5,0,0:0:0:0:
192,92,97071,1,0,0:0:0:0:
296,75,97268,1,0,0:0:0:0:
408,184,97465,1,0,0:0:0:0:
388,228,97564,1,0,0:0:0:0:
352,264,97663,1,0,0:0:0:0:
316,284,97761,1,0,0:0:0:0:
277,299,97860,1,0,0:0:0:0:
256,280,98254,5,0,0:0:0:0:
166,170,98452,1,0,0:0:0:0:
296,136,98649,1,0,0:0:0:0:
119,98,99438,2,0,P|116:183|166:204,1,116.999994644165
242,156,99832,1,0,0:0:0:0:
253,280,100030,1,0,0:0:0:0:
326,218,100227,6,0,P|362:184|342:127,2,116.999994644165
220,200,100818,1,0,0:0:0:0:
107,259,101410,5,0,0:0:0:0:
235,325,101607,1,0,0:0:0:0:
327,231,101805,1,0,0:0:0:0:
127,90,102199,1,0,0:0:0:0:
263,65,102396,1,0,0:0:0:0:
267,163,102594,2,0,P|332:217|384:215,1,116.999994644165
437,111,102988,1,0,0:0:0:0:
323,131,103185,5,0,0:0:0:0:
293,225,103383,1,0,0:0:0:0:
278,323,103580,2,0,P|211:328|171:273,1,116.999994644165
139,193,103974,1,0,0:0:0:0:
116,80,104566,5,0,0:0:0:0:
70,175,104763,1,0,0:0:0:0:
125,263,104960,1,0,0:0:0:0:
376,116,105552,1,0,0:0:0:0:
444,192,105749,2,0,P|424:268|380:280,1,116.999994644165
328,232,106144,6,0,P|320:172|280:136,1,116.999994644165
108,247,106538,1,0,0:0:0:0:
133,143,106736,1,0,0:0:0:0:
253,84,106933,1,0,0:0:0:0:
273,117,107031,1,0,0:0:0:0:
289,157,107130,1,0,0:0:0:0:
220,268,107722,5,0,0:0:0:0:
355,268,107919,1,0,0:0:0:0:
326,134,108116,1,0,0:0:0:0:
232,176,108905,2,0,P|280:120|264:68,1,116.999994644165
192,104,109300,1,0,0:0:0:0:
280,136,109497,1,0,0:0:0:0:
192,273,109694,1,0,0:0:0:0:
158,251,109793,1,0,0:0:0:0:
140,225,109891,1,0,0:0:0:0:
126,193,109990,1,0,0:0:0:0:
132,161,110089,1,0,0:0:0:0:
153,132,110187,1,0,0:0:0:0:
190,119,110286,1,0,0:0:0:0:
228,118,110385,1,0,0:0:0:0:
260,124,110483,1,0,0:0:0:0:
405,65,110878,6,0,P|457:121|441:165,1,116.999994644165
389,300,111272,2,0,P|389:224|317:188,1,116.999994644165
238,213,111667,2,0,P|254:293|202:321,1,116.999994644165
144,192,112061,2,0,P|96:244|120:284,1,116.999994644165
152,102,112456,2,0,P|212:116|251:64,1,116.999994644165
344,102,112850,2,0,P|356:159|332:226,1,116.999994644165
245,270,113244,2,0,P|156:265|99:221,1,116.999994644165
256,192,113639,12,0,116795,0:0:0:0:
227,121,117189,6,0,P|275:57|311:69,1,116.999994644165
175,180,117584,2,0,P|119:140|131:84,1,116.999994644165
228,244,117978,2,0,P|172:312|132:304,1,116.999994644165
281,175,118373,2,0,P|361:203|373:255,1,116.999994644165
418,97,118767,2,0,P|462:149|446:197,1,116.999994644165
330,66,119162,2,0,P|266:106|262:146,1,116.999994644165
246,232,119556,2,0,P|175:288|131:294,1,116.999994644165
256,192,119951,12,0,122909,0:0:0:0:
205,91,123106,5,0,0:0:0:0:
325,99,123304,1,0,0:0:0:0:
352,191,123501,2,0,P|348:251|296:271,1,116.999994644165
192,268,123895,1,0,0:0:0:0:
210,116,124093,2,0,P|218:40|178:16,1,97.4999955368044
216,188,124487,2,0,P|272:248|304:244,1,116.999994644165
300,164,124882,2,0,L|340:112,2,58.4999973220826
352,232,125276,5,0,0:0:0:0:
336,264,125375,1,0,0:0:0:0:
304,292,125473,1,0,0:0:0:0:
181,76,126065,1,0,0:0:0:0:
282,150,126262,1,0,0:0:0:0:
232,264,126459,2,0,P|320:292|368:260,1,116.999994644165
376,200,126854,2,0,P|376:124|340:96,1,116.999994644165
256,100,127248,1,0,0:0:0:0:
208,132,127347,1,0,0:0:0:0:
180,168,127446,1,0,0:0:0:0:
411,193,127643,5,0,0:0:0:0:
331,246,127840,2,0,L|231:301,1,97.4999955368044
184,228,128235,2,0,P|172:152|296:84,2,233.999989288331
202,177,129418,5,0,0:0:0:0:
272,268,129615,1,0,0:0:0:0:
389,273,129813,1,0,0:0:0:0:
376,88,130010,1,0,0:0:0:0:
368,136,130108,1,0,0:0:0:0:
360,172,130207,1,0,0:0:0:0:
376,88,130601,5,0,0:0:0:0:
268,161,130799,1,0,0:0:0:0:
198,80,130996,2,0,P|131:95|110:137,1,116.999994644165
150,240,131390,1,0,0:0:0:0:
236,296,131588,1,0,0:0:0:0:
276,312,131686,1,0,0:0:0:0:
320,316,131785,1,0,0:0:0:0:
415,309,132179,5,0,0:0:0:0:
451,191,132377,1,0,0:0:0:0:
393,84,132574,2,0,P|306:62|256:81,1,116.999994644165
137,99,132968,1,0,0:0:0:0:
100,219,133166,1,0,0:0:0:0:
188,309,133363,2,0,P|283:329|352:305,1,116.999994644165
387,213,133757,1,0,0:0:0:0:
257,199,133955,1,0,0:0:0:0:
189,81,134152,1,0,0:0:0:0:
122,235,134349,5,0,0:0:0:0:
384,106,134546,1,0,0:0:0:0:
238,69,134744,1,0,0:0:0:0:
346,286,134941,1,0,0:0:0:0:
196,285,135138,1,0,0:0:0:0:
255,193,135335,1,0,0:0:0:0:
248,196,135730,6,0,P|296:144|280:104,1,116.999994644165
168,108,136124,2,0,P|128:172|184:216,1,116.999994644165
220,248,136519,1,0,0:0:0:0:
324,184,136716,1,0,0:0:0:0:
412,276,136913,1,0,0:0:0:0:
320,276,137110,2,0,P|232:216|240:184,1,116.999994644165
248,148,137505,1,0,0:0:0:0:
189,71,137702,1,0,0:0:0:0:
171,111,137801,1,0,0:0:0:0:
160,152,137899,1,0,0:0:0:0:
196,228,138097,5,0,0:0:0:0:
232,248,138195,1,0,0:0:0:0:
280,252,138294,1,0,0:0:0:0:
237,104,138886,6,0,P|161:128|161:156,1,116.999994644165
280,108,139280,2,0,P|348:84|376:136,1,116.999994644165
240,172,139674,2,0,L|144:256,1,116.999994644165
292,112,140069,2,0,L|380:28,1,116.999994644165
332,176,140463,2,0,P|396:168|416:220,1,116.999994644165
328,268,140858,2,0,P|256:228|252:188,1,116.999994644165
180,204,141252,5,0,0:0:0:0:
248,100,141450,1,0,0:0:0:0:
316,208,141647,1,0,0:0:0:0:
172,316,142041,1,0,0:0:0:0:
252,64,142239,1,0,0:0:0:0:
324,312,142436,1,0,0:0:0:0:
252,184,142633,1,0,0:0:0:0:
100,116,142830,1,0,0:0:0:0:
101,223,143225,2,0,P|151:276|205:279,1,116.999994644165
280,288,143619,1,0,0:0:0:0:
204,138,143816,1,0,0:0:0:0:
372,257,144014,1,0,0:0:0:0:
304,114,144211,1,0,0:0:0:0:
400,156,144408,1,0,0:0:0:0:
260,128,144803,6,0,P|296:200|260:236,1,116.999994644165
192,224,145197,2,0,P|232:304|296:304,1,116.999994644165
296,236,145592,2,0,P|368:196|360:144,1,116.999994644165
288,140,145986,2,0,P|312:68|376:76,1,116.999994644165
388,132,146381,1,0,0:0:0:0:
209,95,146775,1,0,0:0:0:0:
250,96,146874,1,0,0:0:0:0:
295,114,146972,1,0,0:0:0:0:
326,153,147071,1,0,0:0:0:0:
342,200,147170,1,0,0:0:0:0:
256,192,147564,12,0,148353,0:0:0:0:
103,153,160976,6,0,P|115:85|171:85,1,116.999994644165
115,249,161371,2,0,P|179:213|191:161,1,116.999994644165
287,296,161765,2,0,P|283:212|311:196,1,116.999994644165
362,250,162160,2,0,P|422:302|410:346,1,116.999994644165
353,92,162554,2,0,L|465:176,1,116.999994644165
213,236,162949,2,0,L|317:124,1,116.999994644165
126,167,163343,2,0,P|186:111|178:79,1,116.999994644165
53,314,163738,2,0,P|69:238|29:234,1,116.999994644165
256,192,164132,12,0,167288,0:0:0:0:
88,158,167682,6,0,P|112:86|152:94,1,116.999994644165
162,174,168077,2,0,P|174:242|118:274,1,116.999994644165
297,87,168471,2,0,P|335:58|395:81,1,116.999994644165
443,205,168866,2,0,P|351:173|331:209,1,116.999994644165
94,255,169260,2,0,P|130:311|182:315,1,116.999994644165
82,172,169655,2,0,P|138:120|194:172,1,116.999994644165
343,260,170049,2,0,P|347:188|395:164,1,116.999994644165
256,192,170444,12,0,174783,0:0:0:0:
59,179,175177,5,0,0:0:0:0:
150,93,175375,1,0,0:0:0:0:
213,198,175572,2,0,P|289:182|313:138,1,116.999994644165
368,45,175966,1,0,0:0:0:0:
473,107,176164,1,0,0:0:0:0:
414,234,176361,1,0,0:0:0:0:
312,156,176558,2,0,P|260:184|272:244,1,116.999994644165
352,232,176953,2,0,P|352:304|316:312,1,116.999994644165
212,284,177347,1,0,0:0:0:0:
192,248,177446,1,0,0:0:0:0:
188,208,177544,1,0,0:0:0:0:
211,53,178136,1,0,0:0:0:0:
312,144,178333,2,0,P|300:212|256:224,1,116.999994644165
224,152,178728,2,0,P|144:132|144:192,1,116.999994644165
83,283,179122,5,0,0:0:0:0:
194,321,179319,1,0,0:0:0:0:
304,284,179517,1,0,0:0:0:0:
365,176,179714,1,0,0:0:0:0:
325,61,179911,1,0,0:0:0:0:
212,76,180108,1,0,0:0:0:0:
180,96,180207,1,0,0:0:0:0:
152,124,180306,1,0,0:0:0:0:
100,196,180503,1,0,0:0:0:0:
112,240,180601,1,0,0:0:0:0:
136,272,180700,1,0,0:0:0:0:
236,252,181095,5,0,0:0:0:0:
96,96,181292,1,0,0:0:0:0:
85,244,181489,1,0,0:0:0:0:
174,165,181686,2,0,P|202:99|260:78,1,116.999994644165
304,176,182081,1,0,0:0:0:0:
224,240,182278,1,0,0:0:0:0:
180,170,182672,5,0,0:0:0:0:
322,101,182870,1,0,0:0:0:0:
220,245,183067,1,0,0:0:0:0:
364,187,183264,1,0,0:0:0:0:
262,311,183461,1,0,0:0:0:0:
397,262,183659,1,0,0:0:0:0:
275,156,183856,1,0,0:0:0:0:
118,219,184250,6,0,P|102:139|74:135,1,116.999994644165
123,48,184645,2,0,P|203:56|227:96,1,116.999994644165
244,207,185039,2,0,P|288:151|332:159,1,116.999994644165
432,196,185434,1,0,0:0:0:0:
336,264,185631,1,0,0:0:0:0:
228,236,185828,1,0,0:0:0:0:
162,158,186026,1,0,0:0:0:0:
256,192,186223,12,0,187603,0:0:0:0:
312,324,187801,5,0,0:0:0:0:
376,240,187998,5,0,0:0:0:0:
396,152,188195,1,0,0:0:0:0:
329,84,188392,2,0,P|249:68|246:91,1,116.999994644165
120,160,188984,1,0,0:0:0:0:
136,256,189181,1,0,0:0:0:0:
172,252,189280,1,0,0:0:0:0:
200,280,189379,1,0,0:0:0:0:
313,320,189576,1,0,0:0:0:0:
445,288,189773,1,0,0:0:0:0:
361,218,189970,2,0,P|393:142|425:154,1,116.999994644165
168,240,190759,5,0,0:0:0:0:
59,264,190957,1,0,0:0:0:0:
77,168,191154,1,0,0:0:0:0:
184,105,191351,2,0,P|266:74|315:85,1,116.999994644165
439,147,191745,1,0,0:0:0:0:
391,273,191943,1,0,0:0:0:0:
320,232,192140,5,0,0:0:0:0:
184,180,192337,1,0,0:0:0:0:
392,60,192534,1,0,0:0:0:0:
420,164,192732,1,0,0:0:0:0:
406,278,192929,2,0,P|307:313|173:288,1,233.999989288331
107,220,193521,1,0,0:0:0:0:
140,52,193718,1,0,0:0:0:0:
212,96,193915,6,0,P|268:128|320:104,1,116.999994644165
368,180,194310,2,0,P|308:244|284:244,1,116.999994644165
188,188,194704,1,0,0:0:0:0:
200,144,194803,1,0,0:0:0:0:
224,112,194901,1,0,0:0:0:0:
136,264,195296,1,0,0:0:0:0:
136,96,195493,1,0,0:0:0:0:
312,256,195690,1,0,0:0:0:0:
232,172,195887,6,0,P|292:108|320:124,1,116.999994644165
176,208,196282,2,0,P|112:184|60:208,1,116.999994644165
142,329,196874,6,0,P|238:277|361:258,1,233.999989288331
98,247,197465,1,0,0:0:0:0:
131,156,197663,1,0,0:0:0:0:
196,86,197860,2,0,P|270:87|288:154,1,116.999994644165
376,160,198254,1,0,0:0:0:0:
428,244,198452,2,0,P|374:305|307:334,1,116.999994644165
235,291,198846,1,0,0:0:0:0:
206,274,198945,1,0,0:0:0:0:
182,256,199043,1,0,0:0:0:0:
157,233,199142,1,0,0:0:0:0:
142,210,199241,1,0,0:0:0:0:
130,185,199339,1,0,0:0:0:0:
122,154,199438,1,0,0:0:0:0:
118,122,199536,1,0,0:0:0:0:
118,98,199635,1,0,0:0:0:0:
