osu file format v14

[General]
AudioFilename: audio.mp3
AudioLeadIn: 0
PreviewTime: 1586
Countdown: 0
SampleSet: Normal
StackLeniency: 0.3
Mode: 0
LetterboxInBreaks: 0
WidescreenStoryboard: 0

[Editor]
Bookmarks: 31586
DistanceSpacing: 1
BeatDivisor: 4
GridSize: 4
TimelineZoom: 3.999998

[Metadata]
Title:Grow Good Weed
TitleUnicode:Grow Good Weed
Artist:Reefertilizer
ArtistUnicode:Reefertilizer
Creator:Deca
Version:Altimate
Source:
Tags:
BeatmapID:1834646
BeatmapSetID:877480

[Difficulty]
HPDrainRate:4
CircleSize:4
OverallDifficulty:9
ApproachRate:9.3
SliderMultiplier:2.4
SliderTickRate:1

[Events]
//Background and Video events
0,0,"e059014a-85f4-4899-c8c4-cac0e5a54a47.png",0,0
//Break Periods
//Storyboard Layer 0 (Background)
//Storyboard Layer 1 (Fail)
//Storyboard Layer 2 (Pass)
//Storyboard Layer 3 (Foreground)
//Storyboard Sound Samples

[TimingPoints]
140,357.355568790947,4,1,0,100,1,0
1568,-71.4285714285714,4,1,0,100,0,0

[Colours]
Combo1 : 17,254,176
Combo2 : 173,255,95
Combo3 : 255,88,100
Combo4 : 255,94,55

[HitObjects]
189,304,1569,6,0,P|134:305|88:274,1,83.9999974365235
37,174,1748,2,0,P|92:173|138:204,1,83.9999974365235
288,266,1926,2,0,L|296:163,1,83.9999974365235
208,132,2105,2,0,L|201:219,1,83.9999974365235
289,353,2284,6,0,P|338:337|368:303,1,83.9999974365235
449,142,2462,2,0,B|358:113|372:217|259:171,1,167.999994873047
265,71,2730,1,0,0:0:0:0:
208,132,2820,2,0,P|159:145|106:142,1,83.9999974365235
25,232,2998,6,0,L|18:144,1,83.9999974365235
120,61,3177,2,0,L|126:148,1,83.9999974365235
78,316,3356,2,0,P|18:341|-17:337,1,83.9999974365235
116,236,3534,2,0,P|159:238|197:260,1,83.9999974365235
402,363,3713,6,0,P|460:362|500:259,1,167.999994873047
332,178,3981,1,0,0:0:0:0:
289,250,4070,2,0,L|298:358,1,83.9999974365235
402,363,4249,2,0,L|394:275,1,83.9999974365235
368,97,4428,6,0,P|307:94|258:124,1,83.9999974365235
261,16,4606,2,0,P|212:52|194:107,1,83.9999974365235
112,231,4785,2,0,L|104:143,1,83.9999974365235
198,185,4964,2,0,L|205:272,1,83.9999974365235
394,275,5142,6,0,L|481:282,1,83.9999974365235
502,182,5321,2,0,L|415:189,1,83.9999974365235
286,101,5500,2,0,L|202:94,1,83.9999974365235
315,19,5679,2,0,P|362:56|373:108,1,83.9999974365235
269,285,5857,6,0,L|281:183,1,83.9999974365235
121,314,6036,2,0,L|109:212,1,83.9999974365235
292,298,6215,2,0,L|304:196,1,83.9999974365235
97,326,6393,2,0,L|85:224,1,83.9999974365235
286,101,6572,6,0,B|369:85|365:160|460:147,1,167.999994873047
498,7,6840,1,0,0:0:0:0:
498,7,6929,2,0,P|452:32|432:70,1,83.9999974365235
505,211,7108,2,0,P|524:167|514:115,1,83.9999974365235
402,181,7287,6,0,L|410:277,1,83.9999974365235
290,355,7465,2,0,L|303:187,1,167.999994873047
195,151,7733,1,0,0:0:0:0:
147,222,7823,2,0,P|100:243|56:241,1,83.9999974365235
86,41,8001,6,0,L|180:55,1,83.9999974365235
195,151,8180,2,0,L|111:138,1,83.9999974365235
249,0,8359,2,0,P|284:35|300:74,1,83.9999974365235
266,214,8537,2,0,P|284:176|315:148,1,83.9999974365235
508,228,8716,6,0,B|459:259|459:259|331:222,1,167.999994873047
415,15,8984,1,0,0:0:0:0:
457,85,9073,2,0,L|444:169,1,83.9999974365235
353,228,9252,2,0,L|362:311,1,83.9999974365235
145,207,9431,6,0,L|58:196,1,83.9999974365235
152,83,9609,2,0,L|162:-3,1,83.9999974365235
273,92,9788,2,0,L|359:102,1,83.9999974365235
266,214,9967,2,0,L|255:300,1,83.9999974365235
94,322,10145,6,0,P|123:299|182:290,1,83.9999974365235
249,384,10324,2,0,P|289:375|323:350,1,83.9999974365235
359,98,10503,2,0,L|369:184,1,83.9999974365235
454,187,10681,2,0,L|445:104,1,83.9999974365235
247,7,10860,6,0,P|199:43|187:96,1,83.9999974365235
282,175,11039,2,0,L|272:91,1,83.9999974365235
38,156,11218,2,0,L|28:239,1,83.9999974365235
163,254,11396,2,0,L|178:355,1,83.9999974365235
384,341,11575,5,0,0:0:0:0:
415,263,11664,1,0,0:0:0:0:
369,191,11754,2,0,P|378:136|408:102,1,83.9999974365235
247,7,11932,2,0,P|192:16|158:46,1,83.9999974365235
133,134,12111,2,0,P|188:125|222:95,1,83.9999974365235
25,72,12290,2,0,L|40:173,1,83.9999974365235
66,348,12468,6,0,B|144:309|152:391|258:342,1,167.999994873047
323,274,12736,1,0,0:0:0:0:
384,341,12826,2,0,B|423:356|423:356|475:348,1,83.9999974365235
393,113,13004,6,0,P|345:114|307:136,1,83.9999974365235
212,151,13183,2,0,P|164:150|126:128,1,83.9999974365235
25,72,13362,2,0,L|37:173,1,83.9999974365235
188,65,13540,2,0,L|197:-18,1,83.9999974365235
429,25,13719,6,0,B|425:91|425:91|438:132|438:132|433:223,1,167.999994873047
329,313,13987,1,0,0:0:0:0:
329,313,14076,2,0,P|307:264|311:225,1,83.9999974365235
495,256,14255,2,0,P|463:299|427:315,1,83.9999974365235
263,379,14434,6,0,L|180:370,1,83.9999974365235
140,232,14612,2,0,L|223:223,1,83.9999974365235
98,152,14791,2,0,P|58:198|53:244,1,83.9999974365235
223,222,14970,2,0,L|214:139,1,83.9999974365235
402,51,15148,6,0,L|395:140,1,83.9999974365235
309,203,15327,2,0,L|302:119,1,83.9999974365235
83,293,15506,2,0,B|178:266|152:358|274:329,1,167.999994873047
360,276,15774,1,0,0:0:0:0:
412,343,15863,6,0,P|442:363|499:370,1,83.9999974365235
505,192,16042,2,0,P|463:198|428:220,1,83.9999974365235
238,334,16221,2,0,L|231:250,1,83.9999974365235
302,119,16399,2,0,L|309:203,1,83.9999974365235
83,293,16578,6,0,P|52:269|35:219,1,83.9999974365235
127,131,16757,2,0,L|120:215,1,83.9999974365235
309,203,16935,2,0,L|302:119,1,83.9999974365235
212,96,17114,2,0,L|219:180,1,83.9999974365235
238,334,17293,6,0,B|280:321|280:321|338:334,1,83.9999974365235
484,370,17471,2,0,L|497:193,1,167.999994873047
378,63,17739,1,0,0:0:0:0:
315,119,17829,2,0,L|308:203,1,83.9999974365235
27,332,18007,6,0,L|20:248,1,83.9999974365235
11,117,18186,2,0,P|61:122|110:103,1,83.9999974365235
111,351,18365,2,0,L|104:267,1,83.9999974365235
95,136,18543,2,0,P|145:141|194:122,1,83.9999974365235
359,271,18722,6,0,B|262:248|284:340|167:296,1,167.999994873047
180,135,18990,1,0,0:0:0:0:
180,135,19079,2,0,P|208:165|224:203,1,83.9999974365235,0|0,3:0|3:0,3:0:0:0:
315,119,19258,2,0,P|330:80|359:50,1,83.9999974365235,0|0,3:0|3:0,3:0:0:0:
511,108,19437,6,0,L|421:103,1,83.9999974365235
498,191,19615,2,0,L|408:186,1,83.9999974365235
324,286,19794,2,0,L|314:106,1,167.999994873047
28,194,20151,6,0,L|118:189,1,83.9999974365235
41,277,20330,2,0,L|131:272,1,83.9999974365235
215,372,20509,2,0,L|225:192,1,167.999994873047
227,69,20777,5,0,0:0:0:0:
227,69,20866,2,0,P|273:88|333:86,1,83.9999974365235
437,0,21045,2,0,P|395:4|357:21,1,83.9999974365235
479,161,21223,2,0,L|483:77,1,83.9999974365235
396,104,21402,2,0,L|391:187,1,83.9999974365235
374,340,21581,6,0,B|274:317|295:399|184:364,1,167.999994873047
150,275,21849,1,0,0:0:0:0:
89,334,21938,2,0,L|6:339,1,83.9999974365235
0,229,22117,2,0,L|83:224,1,83.9999974365235
270,216,22296,6,0,P|309:197|334:154,1,83.9999974365235
194,96,22474,2,0,B|201:162|201:162|187:198|187:198|198:283,1,167.999994873047
290,363,22742,1,0,0:0:0:0:
290,363,22832,2,0,P|328:365|380:343,1,83.9999974365235
441,187,23010,6,0,L|446:104,1,83.9999974365235
336,80,23189,2,0,L|331:163,1,83.9999974365235
203,347,23368,2,0,P|163:361|122:360,1,83.9999974365235
195,260,23546,2,0,P|236:258|275:273,1,83.9999974365235
456,367,23725,6,0,P|510:339|500:223,1,167.999994873047
365,265,23993,1,0,0:0:0:0:
365,265,24082,2,0,L|370:348,1,83.9999974365235
195,260,24261,2,0,L|200:177,1,83.9999974365235
308,0,24440,5,0,0:0:0:0:
378,45,24529,1,0,0:0:0:0:
456,13,24618,2,0,P|491:22|525:59,1,83.9999974365235
443,186,24797,6,0,L|448:103,1,83.9999974365235
314,182,24976,2,0,L|309:99,1,83.9999974365235
196,270,25154,6,0,P|164:292|105:302,1,83.9999974365235
35,193,25333,2,0,P|82:198|129:238,1,83.9999974365235
276,340,25512,2,0,L|281:257,1,83.9999974365235
201,186,25690,2,0,L|196:269,1,83.9999974365235
363,332,25869,6,0,L|446:327,1,83.9999974365235
443,186,26048,2,0,L|438:103,1,83.9999974365235
236,105,26226,2,0,P|174:104|136:122,1,83.9999974365235
195,269,26405,2,0,P|257:270|295:252,1,83.9999974365235
463,17,26584,6,0,B|352:9|390:85|304:85,1,167.999994873047
188,20,26852,1,0,0:0:0:0:
154,111,26941,2,0,L|71:116,1,83.9999974365235
39,216,27120,2,0,L|122:221,1,83.9999974365235
358,292,27299,6,0,B|372:249|372:249|362:197,1,83.9999974365235
195,269,27477,2,0,B|221:322|221:322|339:379,1,167.999994873047
447,368,27745,1,0,0:0:0:0:
453,285,27835,2,0,L|458:202,1,83.9999974365235
402,26,28013,6,0,L|319:31,1,83.9999974365235
276,161,28192,2,0,L|359:166,1,83.9999974365235
386,50,28371,2,0,L|303:55,1,83.9999974365235
260,185,28549,2,0,L|343:190,1,83.9999974365235
175,68,28728,6,0,L|180:151,1,83.9999974365235
20,228,28907,2,0,B|67:228|98:203|98:203|116:248|176:263,1,167.999994873047
260,184,29175,1,0,0:0:0:0:
297,266,29264,2,0,P|323:292|373:309,1,83.9999974365235
435,131,29443,6,0,L|352:136,1,83.9999974365235
447,216,29621,2,0,P|495:192|519:149,1,83.9999974365235
337,53,29800,2,0,P|289:77|265:120,1,83.9999974365235
163,152,29979,2,0,P|115:128|91:85,1,83.9999974365235
20,228,30157,6,0,L|103:223,1,83.9999974365235
174,330,30336,2,0,L|257:335,1,83.9999974365235
382,364,30515,6,0,B|389:294|389:294|380:259|380:259|389:188,1,167.999994873047
193,248,30783,5,0,0:0:0:0:
193,248,30872,2,0,P|232:268|260:328,1,83.9999974365235
387,197,31051,2,0,P|344:208|304:261,1,83.9999974365235
152,168,31229,6,0,P|211:164|252:180,1,83.9999974365235
433,127,31408,2,0,P|376:110|332:117,1,83.9999974365235
73,128,31587,6,0,P|115:88|156:77,1,83.9999974365235
512,103,31765,2,0,P|478:55|440:36,1,83.9999974365235
