osu file format v14

[General]
AudioFilename: audio.mp3
AudioLeadIn: 0
PreviewTime: 94
Countdown: 0
SampleSet: Normal
StackLeniency: 0.7
Mode: 1
LetterboxInBreaks: 0
WidescreenStoryboard: 0

[Editor]
DistanceSpacing: 1.3
BeatDivisor: 16
GridSize: 32
TimelineZoom: 3.399999

[Metadata]
Title:reharmonized Sex - the sequel
TitleUnicode:reharmonized セックス - the sequel
Artist:ReeK
ArtistUnicode:ReeK
Creator:Hivie
Version:OOOOOOOOHHHHHHHHHHHH
Source:
Tags:takeshi loves electronic novelty japanese
BeatmapID:4261869
BeatmapSetID:2042417

[Difficulty]
HPDrainRate:9
CircleSize:2
OverallDifficulty:7
ApproachRate:10
SliderMultiplier:1.6
SliderTickRate:1

[Events]
//Background and Video events
0,0,"bg.png",0,0
//Break Periods
//Storyboard Layer 0 (Background)
//Storyboard Layer 1 (Fail)
//Storyboard Layer 2 (Pass)
//Storyboard Layer 3 (Foreground)
//Storyboard Layer 4 (Overlay)
//Storyboard Sound Samples

[TimingPoints]
94,400,4,1,0,60,1,8
94,-83.3333333333333,4,1,0,60,0,8
157,-84.8922902494331,4,1,0,60,0,8
224,-86.5356833285178,4,1,0,60,0,8
294,399.334442595674,4,1,0,60,1,8
294,-88.3910331958358,4,1,0,60,0,8
390,-91.0467880627213,4,1,0,60,0,8
490,-93.896452790819,4,1,0,60,0,8
590,-96.9302638664512,4,1,0,60,0,8
693,434.782608695652,4,1,0,70,1,1
693,-66.6666666666667,4,1,0,70,0,1
1538,400,4,1,0,70,1,8
1538,-111.111111111111,4,1,0,70,0,8
1635,-105.263157894737,4,1,0,70,0,8
1735,-100,4,1,0,70,0,8
1835,-95.2380952380952,4,1,0,70,0,8
1938,352.941176470588,4,1,0,70,1,8
1938,-103.030303030303,4,1,0,70,0,8
2242,375,4,1,0,70,1,1
2242,-66.6666666666667,4,1,0,70,0,1
2577,333.333333333333,4,1,0,70,1,9
2743,363.636363636364,4,1,0,70,1,9
2743,-83.3333333333333,4,1,0,70,0,1
2830,-86.9252873563218,4,1,0,70,0,1
2921,-90.8863294942414,4,1,0,70,0,1
3012,-95.2256033578174,4,1,0,70,0,1
3103,-100,4,1,0,70,0,1
3288,419.580419580419,4,1,0,70,1,8
3288,-90.9090909090909,4,1,0,70,0,8
3386,-93.7451737451737,4,1,0,70,0,8
3487,-96.7639088155587,4,1,0,70,0,8
3589,-100.016477179107,4,1,0,70,0,8
3690,-103.460030680075,4,1,0,70,0,8
3791,-107.149161518094,4,1,0,70,0,8
3917,500,4,1,0,70,1,0
3917,-50,4,1,0,70,0,1
4395,400,4,1,0,70,1,9
4395,-71.4285714285714,4,1,0,70,0,1
4810,437.956204379562,4,1,0,70,1,8
4810,-91.3333333333334,4,1,0,70,0,8
5901,-91.743119266055,4,1,0,70,0,8
5974,-89.9100899100899,4,1,0,70,0,8
6047,-88.1488736532811,4,1,0,70,0,8
6120,-86.4553314121037,4,1,0,70,0,8
6193,-84.8256361922714,4,1,0,70,0,8
6266,-83.2562442183164,4,1,0,70,0,8
6339,-81.7438692098093,4,1,0,70,0,8
6449,-79.5659598173737,4,1,0,70,0,8
6561,400,4,1,0,70,1,1
6561,-66.6666666666667,4,1,0,70,0,1
6946,405.405405405405,4,1,0,70,1,9
6946,-83.3333333333333,4,1,0,70,0,8
7044,-86.9440869440869,4,1,0,70,0,8
7145,-90.881913303438,4,1,0,70,0,8
7247,-95.2380952380952,4,1,0,70,0,8
7348,-99.9835553362934,4,1,0,70,0,8
7554,375,4,1,0,70,1,8
7554,-83.3333333333333,4,1,0,70,0,9
7761,413.793103448276,4,1,0,70,1,9
7761,-70.6253208418891,4,1,0,70,0,9
7938,-64.049406424581,4,1,0,70,0,9
8174,400,4,1,0,70,1,0
8174,-58.59375,4,1,0,70,0,0
8341,-100,4,1,0,70,0,0
9769,400,4,1,0,70,1,1
9769,-66.6666666666667,4,1,0,70,0,1
9869,-90.9090909090909,4,1,0,70,0,1
10569,-80,4,1,0,70,0,0
10699,-82.706002034588,4,1,0,70,0,0
10832,-85.6014740721242,4,1,0,70,0,0
10994,413.793103448276,4,1,0,70,1,8
10994,-85.7735334242837,4,1,0,70,0,0
11172,-90.881757733449,4,1,0,70,0,0
11382,405.405405405405,4,1,0,70,1,0
11382,-100,4,1,0,70,0,0
11479,-97.3154362416107,4,1,0,70,0,0
11579,-94.7712418300654,4,1,0,70,0,0
11679,-92.3566878980892,4,1,0,70,0,0
11779,-90.0621118012422,4,1,0,70,0,0
11879,-87.8787878787879,4,1,0,70,0,0
11979,-85.7988165680473,4,1,0,70,0,0
12079,-83.8150289017341,4,1,0,70,0,0
12179,-81.9209039548023,4,1,0,70,0,0
12279,-80.1104972375691,4,1,0,70,0,0
12379,-78.3783783783784,4,1,0,70,0,0
12479,-76.7195767195767,4,1,0,70,0,0
12579,-75.1295336787565,4,1,0,70,0,0
12779,-72.1393034825871,4,1,0,70,0,0
12829,-71.4285714285714,4,1,0,70,0,0
13003,405.405405405405,4,1,0,70,1,8
13013,333.333333333333,4,1,0,70,1,1
13013,-66.6666666666667,4,1,0,70,0,1
13148,-112.5,4,1,0,70,0,1
14071,428.571428571429,4,1,0,70,1,8
14071,-74.0740740740741,4,1,0,70,0,8
14149,-76.5080061416977,4,1,0,70,0,8
14202,-77.7738137709597,4,1,0,70,0,8
14256,-79.1073210559739,4,1,0,70,0,8
14363,-81.8894680001878,4,1,0,70,0,8
14500,444.444444444444,4,1,0,70,1,8
14500,-81.8432103228679,4,1,0,70,0,8
14525,-83.4059557463814,4,1,0,70,0,8
14581,-85.059647246689,4,1,0,70,0,8
14692,-88.5392379548431,4,1,0,70,0,8
14803,-92.3156549220118,4,1,0,70,0,8
14944,461.538461538462,4,1,0,70,1,0
14944,-55.5555555555556,4,1,0,70,0,0
15622,500,4,1,0,70,1,9
15622,-40,4,1,0,70,0,9
16136,461.538461538462,4,1,0,70,1,9
16136,-81.2499999999999,4,1,0,70,0,9
16801,545.454545454546,4,1,0,70,1,0
16801,-40,4,1,0,70,0,0
17989,550.458715596331,4,1,0,70,1,8
17989,-100,4,1,0,70,0,0
18037,-96.7423494570582,4,1,0,70,0,0
18102,-93.7350549976088,4,1,0,70,0,0
18232,-88.2485366951823,4,1,0,70,0,0
18401,454.545454545454,4,1,0,70,1,1
18401,-97.8260869565219,4,1,0,70,0,1
18588,-71.4285714285714,4,1,0,70,0,1
18855,-55.5555555555556,4,1,0,70,0,0
19284,413.793103448276,4,1,0,70,1,8
19284,-86.9565217391304,4,1,0,70,0,0
19354,-90.8990866072411,4,1,0,70,0,0
19457,-95.2161383285303,4,1,0,70,0,0
19561,-100.01210800339,4,1,0,70,0,0
19697,428.571428571429,4,1,0,70,1,0
19697,-55.5555555555556,4,1,0,70,0,1
19881,-58.8235294117647,4,1,0,70,0,1
20110,428.571428571429,4,1,0,70,1,8
20110,-78.740157480315,4,1,0,70,0,0
20199,-80.5112358369595,4,1,0,70,0,0
20306,-82.3638201329004,4,1,0,70,0,0
20432,413.793103448276,4,1,0,70,1,8
20432,-87.3337380129393,4,1,0,70,0,0
20620,-91.4828005416323,4,1,0,70,0,0
20672,-92.5932101091412,4,1,0,70,0,0
20827,-96.0690153855735,4,1,0,70,0,0
20931,-98.5512338646423,4,1,0,70,0,0
21138,-103.894233107716,4,1,0,70,0,0
21259,413.793103448276,4,1,0,70,1,0
21259,-66.6666666666667,4,1,0,70,0,0
21448,-83.3333333333333,4,1,0,70,0,0
21500,-84.7540983606557,4,1,0,70,0,0
21551,-86.1953984661554,4,1,0,70,0,0
21687,413.793103448276,4,1,0,70,1,8
21687,-89.2918825561313,4,1,0,70,0,0
21790,-94.3430656934306,4,1,0,70,0,0
21965,-76.9230769230769,4,1,0,70,0,0
22017,-78.021978021978,4,1,0,70,0,0
22100,352.941176470588,4,1,0,70,1,8
22100,-92.7997539691693,4,1,0,70,0,8
22158,-95.1330049261085,4,1,0,70,0,8
22245,-97.5866111492906,4,1,0,70,0,8
22336,400,4,1,0,70,1,8
22336,-88.3854101829952,4,1,0,70,0,8
22433,-91.1268931291179,4,1,0,70,0,8
22536,400,4,1,0,70,1,0
22536,-50,4,1,0,70,0,1
22569,-10,4,1,0,70,0,1
23736,-200,4,1,0,70,0,0
30136,-100,4,1,0,5,0,0
30536,461.538461538462,4,1,0,70,1,8
30563,461.538461538462,4,1,0,70,1,0

[HitObjects]
256,192,94,5,0,0:0:0:0:
256,192,160,1,0,0:0:0:0:
256,192,227,1,0,0:0:0:0:
256,192,294,1,8,0:0:0:0:
256,192,393,1,8,0:0:0:0:
256,192,493,1,0,0:0:0:0:
256,192,593,1,0,0:0:0:0:
256,96,693,1,12,0:0:0:0:
256,192,1538,1,8,0:0:0:0:
256,192,1638,1,0,0:0:0:0:
256,192,1738,1,0,0:0:0:0:
256,192,1838,1,8,0:0:0:0:
256,192,1938,1,0,0:0:0:0:
256,96,2242,1,12,0:0:0:0:
256,192,2743,1,8,0:0:0:0:
256,192,2833,1,8,0:0:0:0:
256,192,2924,1,0,0:0:0:0:
256,192,3015,1,0,0:0:0:0:
256,192,3106,1,8,0:0:0:0:
256,192,3288,1,8,0:0:0:0:
256,192,3392,1,8,0:0:0:0:
256,192,3497,1,0,0:0:0:0:
256,192,3602,1,8,0:0:0:0:
256,192,3707,1,8,0:0:0:0:
256,192,3812,1,8,0:0:0:0:
256,96,3917,1,4,0:0:0:0:
256,192,4395,1,8,0:0:0:0:
256,192,4810,1,0,0:0:0:0:
256,192,4919,1,8,0:0:0:0:
256,192,5028,1,0,0:0:0:0:
256,192,5247,1,8,0:0:0:0:
256,192,5466,1,0,0:0:0:0:
256,192,5576,1,8,0:0:0:0:
256,192,5685,1,0,0:0:0:0:
256,192,5795,1,0,0:0:0:0:
256,192,5904,1,8,0:0:0:0:
256,192,5977,1,8,0:0:0:0:
256,192,6050,1,8,0:0:0:0:
256,192,6123,1,0,0:0:0:0:
256,192,6196,1,0,0:0:0:0:
256,192,6269,1,0,0:0:0:0:
256,192,6342,1,8,0:0:0:0:
256,192,6452,1,0,0:0:0:0:
256,192,6561,1,12,0:0:0:0:
256,192,6946,1,8,0:0:0:0:
256,192,7047,1,8,0:0:0:0:
256,192,7148,1,0,0:0:0:0:
256,192,7250,1,0,0:0:0:0:
256,192,7351,1,0,0:0:0:0:
256,96,7554,1,12,0:0:0:0:
256,96,7761,1,12,0:0:0:0:
256,96,7967,1,12,0:0:0:0:
256,96,8174,1,4,0:0:0:0:
256,192,8374,1,8,0:0:0:0:
256,192,8474,1,0,0:0:0:0:
256,192,8574,1,8,0:0:0:0:
256,192,8674,1,8,0:0:0:0:
256,192,8774,1,0,0:0:0:0:
256,192,8974,1,8,0:0:0:0:
256,192,9174,1,0,0:0:0:0:
256,192,9274,1,8,0:0:0:0:
256,192,9374,1,8,0:0:0:0:
256,192,9474,1,0,0:0:0:0:
256,192,9574,1,8,0:0:0:0:
256,192,9674,1,8,0:0:0:0:
256,192,9769,1,4,0:0:0:0:
256,192,9969,1,0,0:0:0:0:
256,192,10169,1,8,0:0:0:0:
256,192,10269,1,0,0:0:0:0:
256,192,10369,1,0,0:0:0:0:
256,192,10569,1,8,0:0:0:0:
256,192,10702,1,0,0:0:0:0:
256,192,10835,1,0,0:0:0:0:
256,192,10994,1,8,0:0:0:0:
256,192,11200,1,0,0:0:0:0:
256,192,11382,1,0,0:0:0:0:
256,192,11483,1,8,0:0:0:0:
256,192,11584,1,8,0:0:0:0:
256,192,11686,1,0,0:0:0:0:
256,192,11787,1,8,0:0:0:0:
256,192,11888,1,8,0:0:0:0:
256,192,11990,1,0,0:0:0:0:
256,192,12091,1,8,0:0:0:0:
256,192,12192,1,8,0:0:0:0:
256,192,12294,1,0,0:0:0:0:
256,192,12395,1,8,0:0:0:0:
256,192,12496,1,8,0:0:0:0:
256,192,12598,1,8,0:0:0:0:
256,192,12800,1,0,0:0:0:0:
256,192,12851,1,0,0:0:0:0:
256,96,13013,1,12,0:0:0:0:
256,192,13179,1,0,0:0:0:0:
256,192,13346,1,8,0:0:0:0:
256,192,13513,1,0,0:0:0:0:
256,192,13596,1,8,0:0:0:0:
256,192,13679,1,0,0:0:0:0:
256,192,13763,1,8,0:0:0:0:
256,192,13846,1,0,0:0:0:0:
256,192,14071,1,8,0:0:0:0:
256,192,14178,1,0,0:0:0:0:
256,192,14231,1,0,0:0:0:0:
256,192,14285,1,0,0:0:0:0:
256,192,14392,1,8,0:0:0:0:
256,192,14500,1,0,0:0:0:0:
256,192,14555,1,0,0:0:0:0:
256,192,14611,1,0,0:0:0:0:
256,192,14722,1,0,0:0:0:0:
256,192,14833,1,0,0:0:0:0:
256,96,14944,1,12,0:0:0:0:
256,96,15622,1,4,0:0:0:0:
256,192,16136,1,8,0:0:0:0:
256,192,16193,1,8,0:0:0:0:
256,192,16482,1,0,0:0:0:0:
256,96,16801,1,12,0:0:0:0:
256,192,17989,1,0,0:0:0:0:
256,192,18057,1,0,0:0:0:0:
256,192,18126,1,8,0:0:0:0:
256,192,18264,1,0,0:0:0:0:
256,96,18401,1,12,0:0:0:0:
256,96,18628,1,4,0:0:0:0:
256,96,18855,1,12,0:0:0:0:
256,192,19284,1,8,0:0:0:0:
256,192,19387,1,8,0:0:0:0:
256,192,19490,1,0,0:0:0:0:
256,192,19594,1,0,0:0:0:0:
256,96,19697,1,12,0:0:0:0:
256,96,19911,1,4,0:0:0:0:
256,192,20110,1,8,0:0:0:0:
256,192,20217,1,8,0:0:0:0:
256,192,20324,1,8,0:0:0:0:
256,192,20432,1,0,0:0:0:0:
256,192,20638,1,8,0:0:0:0:
256,192,20690,1,8,0:0:0:0:
256,192,20845,1,0,0:0:0:0:
256,192,20949,1,8,0:0:0:0:
256,192,21156,1,8,0:0:0:0:
256,96,21259,1,4,0:0:0:0:
256,192,21465,1,8,0:0:0:0:
256,192,21517,1,8,0:0:0:0:
256,192,21568,1,8,0:0:0:0:
256,192,21687,1,0,0:0:0:0:
256,192,21790,1,8,0:0:0:0:
256,192,21997,1,8,0:0:0:0:
256,192,22049,1,8,0:0:0:0:
256,192,22100,1,8,0:0:0:0:
256,192,22158,1,0,0:0:0:0:
256,192,22247,1,8,0:0:0:0:
256,192,22336,1,0,0:0:0:0:
256,192,22436,1,0,0:0:0:0:
256,96,22536,1,12,0:0:0:0:
256,192,22569,12,12,30136,0:0:0:0:
256,192,30563,5,8,0:0:0:0:
256,192,30639,1,0,0:0:0:0:
256,192,30793,1,8,0:0:0:0:
