osu file format v14

[General]
AudioFilename: ReeK - The Everlasting Calamity That Shifts The Time - Space Continuum On A Nanosecondal.mp3
AudioLeadIn: 0
PreviewTime: 27623
Countdown: 0
SampleSet: Soft
StackLeniency: 0.7
Mode: 3
LetterboxInBreaks: 0
SpecialStyle: 0
WidescreenStoryboard: 1

[Editor]
DistanceSpacing: 1.5
BeatDivisor: 8
GridSize: 4
TimelineZoom: 2.5

[Metadata]
Title:The Everlasting Calamity That Shifts The Time - Space Continuum...
TitleUnicode:The Everlasting Calamity That Shifts The Time - Space Continuum...
Artist:ReeK
ArtistUnicode:ReeK
Creator:Eclipse-
Version:Light Insane
Source:
Tags:CRITICAL CЯiTiCAL MISS II 2 jumpstream handstream chordjack tech speedjack mixed rice On A Nanosecondal Basis [LVL3] [LEVEL3] electronic instrumental hardcore renaissance speedcore The Cynphetic Collective
BeatmapID:3655897
BeatmapSetID:1784978

[Difficulty]
HPDrainRate:7.4
CircleSize:4
OverallDifficulty:7.4
ApproachRate:5
SliderMultiplier:1.4
SliderTickRate:1

[Events]
//Background and Video events
0,0,"bg.jpg",0,0
//Break Periods
2,50546,55848
//Storyboard Layer 0 (Background)
//Storyboard Layer 1 (Fail)
//Storyboard Layer 2 (Pass)
//Storyboard Layer 3 (Foreground)
//Storyboard Layer 4 (Overlay)
//Storyboard Sound Samples

[TimingPoints]
1648,421.792618629174,4,2,1,80,1,0
1648,-50,4,2,1,80,0,0
3335,418.118466898955,4,2,1,80,1,0
3335,-50,4,2,1,80,0,0
6679,420.31523642732,4,2,1,80,1,0
6679,-50,4,2,1,80,0,0
8360,418.118466898955,4,2,1,80,1,0
8360,-50,4,2,1,80,0,0
13377,418.848167539267,4,2,1,80,1,0
13377,-50,4,2,1,80,0,0
15052,419.14076143905,4,2,1,80,1,0
15052,-50,4,2,1,80,0,0
21758,418.848175048828,4,2,1,80,1,0
21758,-50,4,2,1,80,0,0
24689,418.848167539267,4,2,1,80,1,0
24689,-50,4,2,1,80,0,0
27831,209.424083769634,4,2,1,80,1,1
27831,-100,4,2,1,80,0,1
33907,209.424087524414,4,2,1,80,1,1
33907,-100,4,2,1,80,0,1
39666,209.424087524414,4,2,1,80,1,1
39666,-100,4,2,1,80,0,1
44482,209.424083769634,3,2,1,80,1,1
44482,-100,3,2,1,80,0,1
48251,209.424083769634,5,2,1,80,1,0
48251,-100,5,2,1,80,0,0
50347,418.848175048828,4,2,1,80,1,0
50347,-50,4,2,1,80,0,0
74640,418.848167539267,3,2,1,80,1,0
74640,-50,3,2,1,80,0,0
75687,442.804412841797,3,2,1,80,1,0
75687,-47.1698113207547,3,2,1,80,0,0
76794,451.127807617188,4,2,1,80,1,0
76794,-46.2962962962963,4,2,1,80,0,0
77133,483.870971679688,4,2,1,80,1,0
77133,-43.859649122807,4,2,1,80,0,0
77496,512.820495605469,4,2,1,80,1,0
77496,-40.983606557377,4,2,1,80,0,0
78008,285.714294433594,4,2,1,80,1,0
78008,-73.5294117647059,4,2,1,80,0,0
80294,285.714294433594,4,2,1,80,1,0
80294,-73.5294117647059,4,2,1,80,0,0
87151,285.714285714286,4,2,1,80,1,0
87151,-73.5294117647059,4,2,1,80,0,0
94008,285.714294433594,4,2,1,80,1,0
94008,-73.5294117647059,4,2,1,80,0,0
102580,209.424087524414,4,2,1,80,1,0
102580,-100,4,2,1,80,0,0
105508,210.526315789474,4,2,1,80,1,0
105508,-100,4,2,1,80,0,0
107192,209.424087524414,4,2,1,80,1,0
107192,-100,4,2,1,80,0,0
110122,333.333343505859,4,2,1,80,1,0
110122,-62.5,4,2,1,80,0,0
113683,209.424087524414,4,2,1,80,1,0
113683,-100,4,2,1,80,0,0
116894,239.043823242188,4,2,1,80,1,0
116894,-87.719298245614,4,2,1,80,0,0
119404,267.857147216797,4,2,1,80,1,0
119404,-78.125,4,2,1,80,0,0
120474,209.424087524414,7,2,1,80,1,1
120474,-100,7,2,1,80,0,1
126337,-100,7,2,1,80,0,0
129689,209.424083769634,4,2,1,80,1,0
129689,-100,4,2,1,80,0,1
136390,-100,4,2,1,80,0,0

[HitObjects]
320,192,1648,5,0,0:0:0:0:
64,192,1648,1,0,0:0:0:0:
64,192,1964,1,0,0:0:0:0:
192,192,1964,1,0,0:0:0:0:
320,192,2069,1,0,0:0:0:0:
448,192,2280,1,0,0:0:0:0:
192,192,2280,1,0,0:0:0:0:
64,192,2491,1,0,0:0:0:0:
192,192,2597,1,0,0:0:0:0:
320,192,2597,1,0,0:0:0:0:
448,192,2913,1,0,0:0:0:0:
320,192,2913,1,0,0:0:0:0:
192,192,3124,1,0,0:0:0:0:
448,192,3124,1,0,0:0:0:0:
320,192,3335,1,0,0:0:0:0:
64,192,3335,1,0,0:0:0:0:
64,192,3648,1,0,0:0:0:0:
192,192,3648,1,0,0:0:0:0:
320,192,3753,1,0,0:0:0:0:
448,192,3962,1,0,0:0:0:0:
192,192,3962,1,0,0:0:0:0:
64,192,4171,1,0,0:0:0:0:
192,192,4275,1,0,0:0:0:0:
320,192,4275,1,0,0:0:0:0:
448,192,4589,1,0,0:0:0:0:
64,192,4589,1,0,0:0:0:0:
64,192,4798,1,0,0:0:0:0:
192,192,4798,1,0,0:0:0:0:
320,192,5007,1,0,0:0:0:0:
64,192,5007,1,0,0:0:0:0:
64,192,5321,1,0,0:0:0:0:
192,192,5321,1,0,0:0:0:0:
320,192,5425,1,0,0:0:0:0:
448,192,5634,1,0,0:0:0:0:
192,192,5634,1,0,0:0:0:0:
64,192,5843,1,0,0:0:0:0:
192,192,5948,1,0,0:0:0:0:
320,192,5948,1,0,0:0:0:0:
448,192,6261,1,0,0:0:0:0:
320,192,6261,1,0,0:0:0:0:
192,192,6470,1,0,0:0:0:0:
448,192,6470,1,0,0:0:0:0:
320,192,6679,1,0,0:0:0:0:
64,192,6679,1,0,0:0:0:0:
320,192,6889,1,0,0:0:0:0:
448,192,7099,1,0,0:0:0:0:
192,192,7099,1,0,0:0:0:0:
192,192,7309,1,0,0:0:0:0:
320,192,7519,1,0,0:0:0:0:
64,192,7519,1,0,0:0:0:0:
64,192,7729,1,0,0:0:0:0:
320,192,7939,1,0,0:0:0:0:
448,192,7939,1,0,0:0:0:0:
64,192,8045,1,0,0:0:0:0:
192,192,8150,1,0,0:0:0:0:
320,192,8255,1,0,0:0:0:0:
64,192,8360,1,0,0:0:0:0:
448,192,8360,1,0,0:0:0:0:
64,192,8673,1,0,0:0:0:0:
192,192,8673,1,0,0:0:0:0:
320,192,8778,1,0,0:0:0:0:
448,192,8987,1,0,0:0:0:0:
192,192,8987,1,0,0:0:0:0:
64,192,9196,1,0,0:0:0:0:
192,192,9300,1,0,0:0:0:0:
320,192,9300,1,0,0:0:0:0:
448,192,9614,1,0,0:0:0:0:
320,192,9614,1,0,0:0:0:0:
192,192,9823,1,0,0:0:0:0:
448,192,9823,1,0,0:0:0:0:
320,192,10032,1,0,0:0:0:0:
64,192,10032,1,0,0:0:0:0:
64,192,10346,1,0,0:0:0:0:
192,192,10346,1,0,0:0:0:0:
320,192,10450,1,0,0:0:0:0:
448,192,10659,1,0,0:0:0:0:
192,192,10659,1,0,0:0:0:0:
64,192,10868,1,0,0:0:0:0:
192,192,10973,1,0,0:0:0:0:
320,192,10973,1,0,0:0:0:0:
448,192,11286,1,0,0:0:0:0:
64,192,11286,1,0,0:0:0:0:
64,192,11495,1,0,0:0:0:0:
192,192,11495,1,0,0:0:0:0:
320,192,11704,1,0,0:0:0:0:
192,192,11704,1,0,0:0:0:0:
192,192,12018,1,0,0:0:0:0:
64,192,12018,1,0,0:0:0:0:
448,192,12123,1,0,0:0:0:0:
448,192,12332,1,0,0:0:0:0:
320,192,12332,1,0,0:0:0:0:
192,192,12436,1,0,0:0:0:0:
448,192,12541,1,0,0:0:0:0:
64,192,12541,1,0,0:0:0:0:
320,192,12645,1,0,0:0:0:0:
192,192,12750,1,0,0:0:0:0:
320,192,12854,1,0,0:0:0:0:
64,192,12959,1,0,0:0:0:0:
448,192,13063,1,0,0:0:0:0:
64,192,13168,1,0,0:0:0:0:
448,192,13272,1,0,0:0:0:0:
64,192,13377,1,0,0:0:0:0:
192,192,13377,1,0,0:0:0:0:
320,192,13795,1,0,0:0:0:0:
64,192,13795,1,0,0:0:0:0:
192,192,13795,1,0,0:0:0:0:
64,192,14005,1,0,0:0:0:0:
192,192,14214,1,0,0:0:0:0:
320,192,14214,1,0,0:0:0:0:
448,192,14214,1,0,0:0:0:0:
192,192,14424,1,0,0:0:0:0:
448,192,14633,1,0,0:0:0:0:
320,192,14633,1,0,0:0:0:0:
64,192,14633,1,0,0:0:0:0:
320,192,14842,1,0,0:0:0:0:
448,192,15052,1,0,0:0:0:0:
192,192,15052,1,0,0:0:0:0:
64,192,15261,1,0,0:0:0:0:
448,192,15366,1,0,0:0:0:0:
192,192,15366,1,0,0:0:0:0:
320,192,15575,1,0,0:0:0:0:
192,192,15680,1,0,0:0:0:0:
64,192,15680,1,0,0:0:0:0:
320,192,15890,1,0,0:0:0:0:
64,192,15995,1,0,0:0:0:0:
192,192,15995,1,0,0:0:0:0:
320,192,16204,1,0,0:0:0:0:
192,192,16309,1,0,0:0:0:0:
64,192,16309,1,0,0:0:0:0:
320,192,16518,1,0,0:0:0:0:
192,192,16518,1,0,0:0:0:0:
448,192,16728,1,0,0:0:0:0:
320,192,16728,1,0,0:0:0:0:
64,192,16938,1,0,0:0:0:0:
320,192,17042,1,0,0:0:0:0:
448,192,17042,1,0,0:0:0:0:
64,192,17252,1,0,0:0:0:0:
448,192,17357,1,0,0:0:0:0:
192,192,17357,1,0,0:0:0:0:
320,192,17566,1,0,0:0:0:0:
192,192,17671,1,0,0:0:0:0:
448,192,17671,1,0,0:0:0:0:
320,192,17881,1,0,0:0:0:0:
192,192,17985,1,0,0:0:0:0:
448,192,17985,1,0,0:0:0:0:
192,192,18195,1,0,0:0:0:0:
448,192,18195,1,0,0:0:0:0:
192,192,18405,1,0,0:0:0:0:
448,192,18405,1,0,0:0:0:0:
64,192,18614,1,0,0:0:0:0:
448,192,18719,1,0,0:0:0:0:
192,192,18719,1,0,0:0:0:0:
320,192,18929,1,0,0:0:0:0:
64,192,19033,1,0,0:0:0:0:
192,192,19033,1,0,0:0:0:0:
320,192,19243,1,0,0:0:0:0:
192,192,19348,1,0,0:0:0:0:
64,192,19348,1,0,0:0:0:0:
320,192,19557,1,0,0:0:0:0:
64,192,19662,1,0,0:0:0:0:
192,192,19662,1,0,0:0:0:0:
192,192,19872,1,0,0:0:0:0:
320,192,19872,1,0,0:0:0:0:
320,192,20081,1,0,0:0:0:0:
448,192,20081,1,0,0:0:0:0:
64,192,20291,1,0,0:0:0:0:
448,192,20396,1,0,0:0:0:0:
320,192,20396,1,0,0:0:0:0:
64,192,20605,1,0,0:0:0:0:
192,192,20710,1,0,0:0:0:0:
448,192,20710,1,0,0:0:0:0:
192,192,20919,1,0,0:0:0:0:
320,192,20919,1,0,0:0:0:0:
320,192,21339,1,0,0:0:0:0:
192,192,21548,1,0,0:0:0:0:
320,192,21653,1,0,0:0:0:0:
64,192,21758,1,0,0:0:0:0:
192,192,21758,1,0,0:0:0:0:
320,192,21967,1,0,0:0:0:0:
448,192,21967,1,0,0:0:0:0:
192,192,22176,1,0,0:0:0:0:
64,192,22176,1,0,0:0:0:0:
64,192,22490,1,0,0:0:0:0:
192,192,22490,1,0,0:0:0:0:
320,192,22700,1,0,0:0:0:0:
448,192,22700,1,0,0:0:0:0:
64,192,22909,1,0,0:0:0:0:
192,192,22909,1,0,0:0:0:0:
320,192,23223,1,0,0:0:0:0:
448,192,23223,1,0,0:0:0:0:
192,192,23433,1,0,0:0:0:0:
64,192,23433,1,0,0:0:0:0:
320,192,23642,1,0,0:0:0:0:
448,192,23642,1,0,0:0:0:0:
448,192,23956,1,0,0:0:0:0:
320,192,23956,1,0,0:0:0:0:
192,192,24166,1,0,0:0:0:0:
64,192,24166,1,0,0:0:0:0:
448,192,24375,1,0,0:0:0:0:
320,192,24375,1,0,0:0:0:0:
64,192,24689,1,0,0:0:0:0:
320,192,24689,1,0,0:0:0:0:
448,192,24689,1,0,0:0:0:0:
320,192,24898,1,0,0:0:0:0:
64,192,25003,1,0,0:0:0:0:
448,192,25003,1,0,0:0:0:0:
64,192,25212,1,0,0:0:0:0:
448,192,25317,1,0,0:0:0:0:
192,192,25317,1,0,0:0:0:0:
448,192,25526,1,0,0:0:0:0:
64,192,25631,1,0,0:0:0:0:
320,192,25631,1,0,0:0:0:0:
64,192,25840,1,0,0:0:0:0:
320,192,25945,1,0,0:0:0:0:
192,192,25945,1,0,0:0:0:0:
64,192,26154,1,0,0:0:0:0:
448,192,26154,1,0,0:0:0:0:
320,192,26154,1,0,0:0:0:0:
192,192,26992,1,0,0:0:0:0:
64,192,27097,1,0,0:0:0:0:
320,192,27202,1,0,0:0:0:0:
192,192,27306,1,0,0:0:0:0:
448,192,27411,1,0,0:0:0:0:
320,192,27516,1,0,0:0:0:0:
448,192,27620,1,0,0:0:0:0:
64,192,27620,1,0,0:0:0:0:
448,192,27831,1,0,0:0:0:0:
320,192,27831,1,0,0:0:0:0:
64,192,27831,1,0,0:0:0:0:
448,192,28040,1,0,0:0:0:0:
192,192,28040,1,0,0:0:0:0:
320,192,28145,1,0,0:0:0:0:
448,192,28249,1,0,0:0:0:0:
192,192,28249,1,0,0:0:0:0:
64,192,28249,1,0,0:0:0:0:
192,192,28459,1,0,0:0:0:0:
448,192,28459,1,0,0:0:0:0:
64,192,28459,1,0,0:0:0:0:
192,192,28668,1,0,0:0:0:0:
448,192,28668,1,0,0:0:0:0:
64,192,28668,1,0,0:0:0:0:
448,192,28878,1,0,0:0:0:0:
192,192,28878,1,0,0:0:0:0:
64,192,28878,1,0,0:0:0:0:
320,192,29087,1,0,0:0:0:0:
192,192,29192,1,0,0:0:0:0:
64,192,29296,1,0,0:0:0:0:
448,192,29296,1,0,0:0:0:0:
64,192,29506,1,0,0:0:0:0:
320,192,29506,1,0,0:0:0:0:
192,192,29611,1,0,0:0:0:0:
64,192,29715,1,0,0:0:0:0:
320,192,29715,1,0,0:0:0:0:
448,192,29715,1,0,0:0:0:0:
64,192,29925,1,0,0:0:0:0:
320,192,29925,1,0,0:0:0:0:
448,192,29925,1,0,0:0:0:0:
64,192,30134,1,0,0:0:0:0:
320,192,30134,1,0,0:0:0:0:
448,192,30134,1,0,0:0:0:0:
64,192,30344,1,0,0:0:0:0:
320,192,30344,1,0,0:0:0:0:
448,192,30344,1,0,0:0:0:0:
192,192,30553,1,0,0:0:0:0:
320,192,30658,1,0,0:0:0:0:
192,192,30762,1,0,0:0:0:0:
64,192,30762,1,0,0:0:0:0:
448,192,30762,1,0,0:0:0:0:
320,192,30972,1,0,0:0:0:0:
192,192,31077,1,0,0:0:0:0:
448,192,31181,1,0,0:0:0:0:
64,192,31181,1,0,0:0:0:0:
320,192,31286,1,0,0:0:0:0:
64,192,31495,1,0,0:0:0:0:
448,192,31495,1,0,0:0:0:0:
192,192,31600,1,0,0:0:0:0:
320,192,31705,1,0,0:0:0:0:
64,192,31810,1,0,0:0:0:0:
448,192,31914,1,0,0:0:0:0:
192,192,31914,1,0,0:0:0:0:
320,192,32019,1,0,0:0:0:0:
64,192,32124,1,0,0:0:0:0:
192,192,32124,1,0,0:0:0:0:
448,192,32228,1,0,0:0:0:0:
320,192,32438,1,0,0:0:0:0:
64,192,32438,1,0,0:0:0:0:
448,192,32543,1,0,0:0:0:0:
192,192,32647,1,0,0:0:0:0:
320,192,32752,1,0,0:0:0:0:
448,192,32752,1,0,0:0:0:0:
64,192,32857,1,0,0:0:0:0:
448,192,33066,1,0,0:0:0:0:
192,192,33066,1,0,0:0:0:0:
320,192,33171,1,0,0:0:0:0:
448,192,33276,1,0,0:0:0:0:
192,192,33380,1,0,0:0:0:0:
64,192,33485,1,0,0:0:0:0:
320,192,33485,1,0,0:0:0:0:
448,192,33590,1,0,0:0:0:0:
64,192,33694,1,0,0:0:0:0:
192,192,33799,1,0,0:0:0:0:
320,192,33907,1,0,0:0:0:0:
448,192,33907,1,0,0:0:0:0:
192,192,34116,1,0,0:0:0:0:
448,192,34116,1,0,0:0:0:0:
64,192,34221,1,0,0:0:0:0:
448,192,34325,1,0,0:0:0:0:
192,192,34325,1,0,0:0:0:0:
320,192,34325,1,0,0:0:0:0:
448,192,34535,1,0,0:0:0:0:
192,192,34535,1,0,0:0:0:0:
320,192,34535,1,0,0:0:0:0:
448,192,34744,1,0,0:0:0:0:
192,192,34744,1,0,0:0:0:0:
320,192,34744,1,0,0:0:0:0:
448,192,34954,1,0,0:0:0:0:
192,192,34954,1,0,0:0:0:0:
320,192,34954,1,0,0:0:0:0:
64,192,35163,1,0,0:0:0:0:
448,192,35268,1,0,0:0:0:0:
192,192,35372,1,0,0:0:0:0:
320,192,35372,1,0,0:0:0:0:
64,192,35582,1,0,0:0:0:0:
320,192,35582,1,0,0:0:0:0:
448,192,35687,1,0,0:0:0:0:
320,192,35791,1,0,0:0:0:0:
192,192,35791,1,0,0:0:0:0:
64,192,35791,1,0,0:0:0:0:
192,192,36001,1,0,0:0:0:0:
320,192,36001,1,0,0:0:0:0:
64,192,36001,1,0,0:0:0:0:
192,192,36210,1,0,0:0:0:0:
320,192,36210,1,0,0:0:0:0:
64,192,36210,1,0,0:0:0:0:
320,192,36420,1,0,0:0:0:0:
192,192,36420,1,0,0:0:0:0:
64,192,36420,1,0,0:0:0:0:
320,192,36629,1,0,0:0:0:0:
448,192,36629,1,0,0:0:0:0:
64,192,36838,1,0,0:0:0:0:
448,192,36838,1,0,0:0:0:0:
320,192,36908,1,0,0:0:0:0:
192,192,36978,1,0,0:0:0:0:
64,192,37048,1,0,0:0:0:0:
448,192,37118,1,0,0:0:0:0:
320,192,37187,1,0,0:0:0:0:
192,192,37257,1,0,0:0:0:0:
64,192,37257,1,0,0:0:0:0:
448,192,37571,1,0,0:0:0:0:
64,192,37571,1,0,0:0:0:0:
320,192,37676,1,0,0:0:0:0:
192,192,37781,1,0,0:0:0:0:
64,192,37886,1,0,0:0:0:0:
448,192,37886,1,0,0:0:0:0:
320,192,38095,1,0,0:0:0:0:
192,192,38165,1,0,0:0:0:0:
64,192,38235,1,0,0:0:0:0:
320,192,38304,1,0,0:0:0:0:
448,192,38304,1,0,0:0:0:0:
192,192,38409,1,0,0:0:0:0:
64,192,38514,1,0,0:0:0:0:
448,192,38619,1,0,0:0:0:0:
320,192,38619,1,0,0:0:0:0:
64,192,38933,1,0,0:0:0:0:
448,192,39142,1,0,0:0:0:0:
320,192,39352,1,0,0:0:0:0:
192,192,39561,1,0,0:0:0:0:
64,192,39666,1,0,0:0:0:0:
448,192,39666,1,0,0:0:0:0:
320,192,39770,1,0,0:0:0:0:
192,192,39875,1,0,0:0:0:0:
64,192,39875,1,0,0:0:0:0:
192,192,40084,1,0,0:0:0:0:
448,192,40084,1,0,0:0:0:0:
320,192,40189,1,0,0:0:0:0:
64,192,40294,1,0,0:0:0:0:
448,192,40294,1,0,0:0:0:0:
64,192,40503,1,0,0:0:0:0:
192,192,40503,1,0,0:0:0:0:
320,192,40608,1,0,0:0:0:0:
448,192,40713,1,0,0:0:0:0:
64,192,40713,1,0,0:0:0:0:
192,192,40817,1,0,0:0:0:0:
320,192,40817,1,0,0:0:0:0:
64,192,40922,1,0,0:0:0:0:
448,192,40922,1,0,0:0:0:0:
192,192,41027,1,0,0:0:0:0:
320,192,41131,1,0,0:0:0:0:
448,192,41131,1,0,0:0:0:0:
64,192,41236,1,0,0:0:0:0:
320,192,41341,1,0,0:0:0:0:
192,192,41341,1,0,0:0:0:0:
448,192,41550,1,0,0:0:0:0:
64,192,41550,1,0,0:0:0:0:
192,192,41655,1,0,0:0:0:0:
448,192,41760,1,0,0:0:0:0:
64,192,41760,1,0,0:0:0:0:
320,192,41864,1,0,0:0:0:0:
192,192,41969,1,0,0:0:0:0:
64,192,41969,1,0,0:0:0:0:
320,192,42074,1,0,0:0:0:0:
448,192,42179,1,0,0:0:0:0:
192,192,42179,1,0,0:0:0:0:
64,192,42283,1,0,0:0:0:0:
320,192,42388,1,0,0:0:0:0:
192,192,42493,1,0,0:0:0:0:
448,192,42597,1,0,0:0:0:0:
64,192,42702,1,0,0:0:0:0:
320,192,42807,1,0,0:0:0:0:
448,192,42807,1,0,0:0:0:0:
192,192,42912,1,0,0:0:0:0:
64,192,43016,1,0,0:0:0:0:
320,192,43121,1,0,0:0:0:0:
192,192,43226,1,0,0:0:0:0:
448,192,43330,1,0,0:0:0:0:
64,192,43330,1,0,0:0:0:0:
192,192,43435,1,0,0:0:0:0:
320,192,43540,1,0,0:0:0:0:
64,192,43645,1,0,0:0:0:0:
448,192,43749,1,0,0:0:0:0:
192,192,43854,1,0,0:0:0:0:
320,192,43959,1,0,0:0:0:0:
448,192,43959,1,0,0:0:0:0:
64,192,44063,1,0,0:0:0:0:
448,192,44168,1,0,0:0:0:0:
320,192,44168,1,0,0:0:0:0:
192,192,44273,1,0,0:0:0:0:
320,192,44378,1,0,0:0:0:0:
64,192,44482,1,0,0:0:0:0:
448,192,44482,1,0,0:0:0:0:
192,192,44482,1,0,0:0:0:0:
64,192,44691,1,0,0:0:0:0:
448,192,44691,1,0,0:0:0:0:
320,192,44796,1,0,0:0:0:0:
64,192,44900,1,0,0:0:0:0:
192,192,44900,1,0,0:0:0:0:
320,192,45005,1,0,0:0:0:0:
64,192,45110,1,0,0:0:0:0:
448,192,45110,1,0,0:0:0:0:
192,192,45110,1,0,0:0:0:0:
64,192,45319,1,0,0:0:0:0:
448,192,45319,1,0,0:0:0:0:
192,192,45424,1,0,0:0:0:0:
448,192,45529,1,0,0:0:0:0:
320,192,45529,1,0,0:0:0:0:
192,192,45633,1,0,0:0:0:0:
64,192,45738,1,0,0:0:0:0:
320,192,45738,1,0,0:0:0:0:
448,192,45738,1,0,0:0:0:0:
64,192,45947,1,0,0:0:0:0:
192,192,45947,1,0,0:0:0:0:
320,192,46052,1,0,0:0:0:0:
448,192,46157,1,0,0:0:0:0:
64,192,46157,1,0,0:0:0:0:
192,192,46262,1,0,0:0:0:0:
320,192,46366,1,0,0:0:0:0:
448,192,46366,1,0,0:0:0:0:
64,192,46366,1,0,0:0:0:0:
448,192,46576,1,0,0:0:0:0:
192,192,46576,1,0,0:0:0:0:
64,192,46576,1,0,0:0:0:0:
64,192,46785,1,0,0:0:0:0:
192,192,46785,1,0,0:0:0:0:
320,192,46785,1,0,0:0:0:0:
448,192,46995,1,0,0:0:0:0:
320,192,47099,1,0,0:0:0:0:
64,192,47204,1,0,0:0:0:0:
192,192,47309,1,0,0:0:0:0:
448,192,47413,1,0,0:0:0:0:
320,192,47518,1,0,0:0:0:0:
64,192,47623,1,0,0:0:0:0:
192,192,47728,1,0,0:0:0:0:
448,192,47832,1,0,0:0:0:0:
320,192,47937,1,0,0:0:0:0:
64,192,48042,1,0,0:0:0:0:
192,192,48146,1,0,0:0:0:0:
320,192,48251,1,0,0:0:0:0:
64,192,48251,1,0,0:0:0:0:
448,192,48355,1,0,0:0:0:0:
320,192,48460,1,0,0:0:0:0:
192,192,48565,1,0,0:0:0:0:
64,192,48669,1,0,0:0:0:0:
448,192,48774,1,0,0:0:0:0:
320,192,48879,1,0,0:0:0:0:
64,192,48983,1,0,0:0:0:0:
320,192,49088,1,0,0:0:0:0:
192,192,49193,1,0,0:0:0:0:
64,192,49298,1,0,0:0:0:0:
320,192,49298,1,0,0:0:0:0:
448,192,49402,1,0,0:0:0:0:
320,192,49507,1,0,0:0:0:0:
192,192,49612,1,0,0:0:0:0:
64,192,49716,1,0,0:0:0:0:
320,192,49821,1,0,0:0:0:0:
192,192,49926,1,0,0:0:0:0:
448,192,50031,1,0,0:0:0:0:
320,192,50135,1,0,0:0:0:0:
192,192,50240,1,0,0:0:0:0:
64,192,50345,1,0,0:0:0:0:
320,192,50345,1,0,0:0:0:0:
448,192,50345,1,0,0:0:0:0:
320,192,57048,5,0,0:0:0:0:
64,192,57362,1,0,0:0:0:0:
192,192,57467,1,0,0:0:0:0:
320,192,57572,1,0,0:0:0:0:
448,192,57676,1,0,0:0:0:0:
64,192,57781,1,0,0:0:0:0:
192,192,57990,1,0,0:0:0:0:
320,192,58200,1,0,0:0:0:0:
448,192,58409,1,0,0:0:0:0:
320,192,58619,1,0,0:0:0:0:
192,192,58828,1,0,0:0:0:0:
320,192,59352,1,0,0:0:0:0:
64,192,59456,1,0,0:0:0:0:
192,192,59561,1,0,0:0:0:0:
320,192,59666,1,0,0:0:0:0:
448,192,59771,1,0,0:0:0:0:
320,192,60189,1,0,0:0:0:0:
192,192,60399,1,0,0:0:0:0:
448,192,60818,1,0,0:0:0:0:
320,192,60922,1,0,0:0:0:0:
192,192,61027,1,0,0:0:0:0:
320,192,61132,1,0,0:0:0:0:
320,192,61446,1,0,0:0:0:0:
192,192,61551,1,0,0:0:0:0:
64,192,61655,1,0,0:0:0:0:
192,192,61760,1,0,0:0:0:0:
64,192,62179,1,0,0:0:0:0:
192,192,62284,1,0,0:0:0:0:
320,192,62388,1,0,0:0:0:0:
192,192,62493,1,0,0:0:0:0:
64,192,62807,1,0,0:0:0:0:
192,192,62912,1,0,0:0:0:0:
320,192,63017,1,0,0:0:0:0:
448,192,63121,1,0,0:0:0:0:
64,192,63226,1,0,0:0:0:0:
192,192,63436,1,0,0:0:0:0:
320,192,63645,1,0,0:0:0:0:
448,192,63854,1,0,0:0:0:0:
320,192,64064,1,0,0:0:0:0:
448,192,64273,1,0,0:0:0:0:
320,192,64483,1,0,0:0:0:0:
192,192,64692,1,0,0:0:0:0:
64,192,64901,1,0,0:0:0:0:
320,192,65216,1,0,0:0:0:0:
448,192,65320,1,0,0:0:0:0:
64,192,65425,1,0,0:0:0:0:
64,192,65634,1,0,0:0:0:0:
192,192,65844,1,0,0:0:0:0:
448,192,66053,1,0,0:0:0:0:
320,192,66263,1,0,0:0:0:0:
192,192,66472,1,0,0:0:0:0:
320,192,66891,1,0,0:0:0:0:
64,192,67100,1,0,0:0:0:0:
448,192,67519,1,0,0:0:0:0:
448,192,67938,1,0,0:0:0:0:
64,192,67938,1,0,0:0:0:0:
192,192,67938,1,0,0:0:0:0:
448,192,68252,1,0,0:0:0:0:
192,192,68252,1,0,0:0:0:0:
64,192,68566,1,0,0:0:0:0:
192,192,68566,1,0,0:0:0:0:
448,192,69614,1,0,0:0:0:0:
320,192,69614,1,0,0:0:0:0:
448,192,69928,1,0,0:0:0:0:
320,192,69928,1,0,0:0:0:0:
320,192,70242,1,0,0:0:0:0:
64,192,70242,1,0,0:0:0:0:
448,192,71289,1,0,0:0:0:0:
192,192,71289,1,0,0:0:0:0:
448,192,71603,1,0,0:0:0:0:
192,192,71603,1,0,0:0:0:0:
192,192,71917,1,0,0:0:0:0:
64,192,71917,1,0,0:0:0:0:
64,192,72755,1,0,0:0:0:0:
192,192,72860,1,0,0:0:0:0:
448,192,72964,1,0,0:0:0:0:
320,192,72964,1,0,0:0:0:0:
448,192,73278,1,0,0:0:0:0:
320,192,73278,1,0,0:0:0:0:
64,192,73593,1,0,0:0:0:0:
320,192,73593,1,0,0:0:0:0:
448,192,74221,1,0,0:0:0:0:
192,192,74326,1,0,0:0:0:0:
320,192,74430,1,0,0:0:0:0:
64,192,74535,1,0,0:0:0:0:
192,192,74640,1,0,0:0:0:0:
448,192,74640,1,0,0:0:0:0:
320,192,74744,1,0,0:0:0:0:
448,192,74954,1,0,0:0:0:0:
192,192,74954,1,0,0:0:0:0:
320,192,75058,1,0,0:0:0:0:
192,192,75268,1,0,0:0:0:0:
448,192,75268,1,0,0:0:0:0:
320,192,75372,1,0,0:0:0:0:
192,192,75477,1,0,0:0:0:0:
448,192,75477,1,0,0:0:0:0:
320,192,75582,1,0,0:0:0:0:
64,192,75687,1,0,0:0:0:0:
448,192,75687,1,0,0:0:0:0:
192,192,75797,1,0,0:0:0:0:
320,192,76019,1,0,0:0:0:0:
64,192,76019,1,0,0:0:0:0:
192,192,76129,1,0,0:0:0:0:
320,192,76351,1,0,0:0:0:0:
64,192,76351,1,0,0:0:0:0:
192,192,76461,1,0,0:0:0:0:
320,192,76572,1,0,0:0:0:0:
64,192,76572,1,0,0:0:0:0:
192,192,76683,1,0,0:0:0:0:
320,192,76794,1,0,0:0:0:0:
448,192,76794,1,0,0:0:0:0:
192,192,76906,1,0,0:0:0:0:
64,192,76906,1,0,0:0:0:0:
320,192,77133,1,0,0:0:0:0:
448,192,77133,1,0,0:0:0:0:
192,192,77253,1,0,0:0:0:0:
64,192,77253,1,0,0:0:0:0:
320,192,77496,1,0,0:0:0:0:
448,192,77496,1,0,0:0:0:0:
64,192,77624,1,0,0:0:0:0:
192,192,77624,1,0,0:0:0:0:
448,192,77752,1,0,0:0:0:0:
320,192,77752,1,0,0:0:0:0:
192,192,77880,1,0,0:0:0:0:
64,192,77880,1,0,0:0:0:0:
448,192,78008,1,0,0:0:0:0:
192,192,78293,1,0,0:0:0:0:
320,192,78436,1,0,0:0:0:0:
448,192,78579,1,0,0:0:0:0:
64,192,78722,1,0,0:0:0:0:
192,192,78865,1,0,0:0:0:0:
320,192,79008,1,0,0:0:0:0:
448,192,79150,1,0,0:0:0:0:
64,192,79293,1,0,0:0:0:0:
192,192,79436,1,0,0:0:0:0:
320,192,79579,1,0,0:0:0:0:
448,192,79722,1,0,0:0:0:0:
64,192,79722,1,0,0:0:0:0:
320,192,79936,1,0,0:0:0:0:
64,192,79936,1,0,0:0:0:0:
192,192,80150,1,0,0:0:0:0:
64,192,80150,1,0,0:0:0:0:
448,192,80294,1,0,0:0:0:0:
320,192,80294,1,0,0:0:0:0:
192,192,80294,1,0,0:0:0:0:
320,192,80436,1,0,0:0:0:0:
448,192,80579,1,0,0:0:0:0:
192,192,80579,1,0,0:0:0:0:
64,192,80579,1,0,0:0:0:0:
320,192,80722,1,0,0:0:0:0:
192,192,80865,1,0,0:0:0:0:
64,192,81008,1,0,0:0:0:0:
320,192,81008,1,0,0:0:0:0:
64,192,81151,1,0,0:0:0:0:
448,192,81151,1,0,0:0:0:0:
192,192,81151,1,0,0:0:0:0:
320,192,81294,1,0,0:0:0:0:
64,192,81436,1,0,0:0:0:0:
448,192,81436,1,0,0:0:0:0:
64,192,81579,1,0,0:0:0:0:
448,192,81722,1,0,0:0:0:0:
320,192,81722,1,0,0:0:0:0:
192,192,81722,1,0,0:0:0:0:
64,192,81865,1,0,0:0:0:0:
448,192,82008,1,0,0:0:0:0:
64,192,82151,1,0,0:0:0:0:
192,192,82151,1,0,0:0:0:0:
320,192,82294,1,0,0:0:0:0:
192,192,82294,1,0,0:0:0:0:
448,192,82294,1,0,0:0:0:0:
64,192,82436,1,0,0:0:0:0:
448,192,82579,1,0,0:0:0:0:
320,192,82579,1,0,0:0:0:0:
320,192,82722,1,0,0:0:0:0:
64,192,82865,1,0,0:0:0:0:
448,192,82865,1,0,0:0:0:0:
192,192,82865,1,0,0:0:0:0:
320,192,83008,1,0,0:0:0:0:
64,192,83151,1,0,0:0:0:0:
192,192,83294,1,0,0:0:0:0:
448,192,83294,1,0,0:0:0:0:
448,192,83436,1,0,0:0:0:0:
64,192,83436,1,0,0:0:0:0:
320,192,83436,1,0,0:0:0:0:
192,192,83579,1,0,0:0:0:0:
448,192,83722,1,0,0:0:0:0:
320,192,83722,1,0,0:0:0:0:
320,192,83865,1,0,0:0:0:0:
192,192,84008,1,0,0:0:0:0:
448,192,84008,1,0,0:0:0:0:
64,192,84008,1,0,0:0:0:0:
320,192,84151,1,0,0:0:0:0:
64,192,84294,1,0,0:0:0:0:
192,192,84436,1,0,0:0:0:0:
448,192,84436,1,0,0:0:0:0:
64,192,84579,1,0,0:0:0:0:
320,192,84579,1,0,0:0:0:0:
448,192,84579,1,0,0:0:0:0:
192,192,84722,1,0,0:0:0:0:
448,192,84865,1,0,0:0:0:0:
320,192,84865,1,0,0:0:0:0:
320,192,85008,1,0,0:0:0:0:
448,192,85151,1,0,0:0:0:0:
192,192,85151,1,0,0:0:0:0:
64,192,85151,1,0,0:0:0:0:
320,192,85294,1,0,0:0:0:0:
64,192,85365,1,0,0:0:0:0:
320,192,85436,1,0,0:0:0:0:
192,192,85579,1,0,0:0:0:0:
64,192,85579,1,0,0:0:0:0:
64,192,85722,1,0,0:0:0:0:
320,192,85722,1,0,0:0:0:0:
448,192,85722,1,0,0:0:0:0:
192,192,85865,1,0,0:0:0:0:
448,192,85936,1,0,0:0:0:0:
192,192,86008,1,0,0:0:0:0:
64,192,86008,1,0,0:0:0:0:
448,192,86151,1,0,0:0:0:0:
64,192,86151,1,0,0:0:0:0:
320,192,86151,1,0,0:0:0:0:
192,192,86294,1,0,0:0:0:0:
448,192,86436,1,0,0:0:0:0:
320,192,86436,1,0,0:0:0:0:
448,192,86579,1,0,0:0:0:0:
192,192,86579,1,0,0:0:0:0:
64,192,86579,1,0,0:0:0:0:
320,192,86722,1,0,0:0:0:0:
192,192,86794,1,0,0:0:0:0:
64,192,86865,1,0,0:0:0:0:
448,192,86865,1,0,0:0:0:0:
320,192,86865,1,0,0:0:0:0:
192,192,87008,1,0,0:0:0:0:
320,192,87079,1,0,0:0:0:0:
448,192,87151,1,0,0:0:0:0:
64,192,87151,1,0,0:0:0:0:
192,192,87294,1,0,0:0:0:0:
320,192,87436,1,0,0:0:0:0:
64,192,87436,1,0,0:0:0:0:
448,192,87436,1,0,0:0:0:0:
192,192,87579,1,0,0:0:0:0:
448,192,87722,1,0,0:0:0:0:
192,192,87865,1,0,0:0:0:0:
320,192,87865,1,0,0:0:0:0:
64,192,88008,1,0,0:0:0:0:
448,192,88008,1,0,0:0:0:0:
192,192,88008,1,0,0:0:0:0:
320,192,88151,1,0,0:0:0:0:
192,192,88294,1,0,0:0:0:0:
64,192,88294,1,0,0:0:0:0:
64,192,88436,1,0,0:0:0:0:
320,192,88579,1,0,0:0:0:0:
192,192,88579,1,0,0:0:0:0:
448,192,88579,1,0,0:0:0:0:
64,192,88722,1,0,0:0:0:0:
320,192,88865,1,0,0:0:0:0:
192,192,89008,1,0,0:0:0:0:
448,192,89008,1,0,0:0:0:0:
448,192,89151,1,0,0:0:0:0:
320,192,89151,1,0,0:0:0:0:
64,192,89151,1,0,0:0:0:0:
192,192,89294,1,0,0:0:0:0:
448,192,89436,1,0,0:0:0:0:
64,192,89436,1,0,0:0:0:0:
64,192,89579,1,0,0:0:0:0:
320,192,89722,1,0,0:0:0:0:
192,192,89722,1,0,0:0:0:0:
448,192,89722,1,0,0:0:0:0:
64,192,89865,1,0,0:0:0:0:
320,192,90008,1,0,0:0:0:0:
448,192,90151,1,0,0:0:0:0:
192,192,90151,1,0,0:0:0:0:
448,192,90294,1,0,0:0:0:0:
64,192,90294,1,0,0:0:0:0:
320,192,90294,1,0,0:0:0:0:
192,192,90436,1,0,0:0:0:0:
320,192,90579,1,0,0:0:0:0:
64,192,90579,1,0,0:0:0:0:
64,192,90722,1,0,0:0:0:0:
192,192,90865,1,0,0:0:0:0:
448,192,90865,1,0,0:0:0:0:
320,192,90865,1,0,0:0:0:0:
64,192,91008,1,0,0:0:0:0:
192,192,91079,1,0,0:0:0:0:
320,192,91151,1,0,0:0:0:0:
448,192,91222,1,0,0:0:0:0:
64,192,91294,1,0,0:0:0:0:
192,192,91294,1,0,0:0:0:0:
448,192,91436,1,0,0:0:0:0:
64,192,91436,1,0,0:0:0:0:
320,192,91508,1,0,0:0:0:0:
192,192,91579,1,0,0:0:0:0:
64,192,91651,1,0,0:0:0:0:
320,192,91722,1,0,0:0:0:0:
448,192,91722,1,0,0:0:0:0:
320,192,91865,1,0,0:0:0:0:
192,192,92008,1,0,0:0:0:0:
448,192,92008,1,0,0:0:0:0:
64,192,92008,1,0,0:0:0:0:
320,192,92151,1,0,0:0:0:0:
64,192,92222,1,0,0:0:0:0:
320,192,92294,1,0,0:0:0:0:
192,192,92436,1,0,0:0:0:0:
64,192,92436,1,0,0:0:0:0:
64,192,92579,1,0,0:0:0:0:
320,192,92579,1,0,0:0:0:0:
448,192,92579,1,0,0:0:0:0:
192,192,92722,1,0,0:0:0:0:
448,192,92794,1,0,0:0:0:0:
192,192,92865,1,0,0:0:0:0:
64,192,92865,1,0,0:0:0:0:
320,192,93008,1,0,0:0:0:0:
192,192,93079,1,0,0:0:0:0:
448,192,93151,1,0,0:0:0:0:
64,192,93151,1,0,0:0:0:0:
320,192,93151,1,0,0:0:0:0:
192,192,93294,1,0,0:0:0:0:
64,192,93436,1,0,0:0:0:0:
320,192,93436,1,0,0:0:0:0:
448,192,93436,1,0,0:0:0:0:
192,192,93579,1,0,0:0:0:0:
448,192,93722,1,0,0:0:0:0:
320,192,93722,1,0,0:0:0:0:
64,192,93722,1,0,0:0:0:0:
192,192,93865,1,0,0:0:0:0:
448,192,94008,1,0,0:0:0:0:
320,192,94008,1,0,0:0:0:0:
448,192,94150,1,0,0:0:0:0:
320,192,94150,1,0,0:0:0:0:
192,192,94293,1,0,0:0:0:0:
64,192,94293,1,0,0:0:0:0:
320,192,94436,1,0,0:0:0:0:
192,192,94722,1,0,0:0:0:0:
320,192,94793,1,0,0:0:0:0:
192,192,94865,1,0,0:0:0:0:
64,192,94865,1,0,0:0:0:0:
448,192,95008,1,0,0:0:0:0:
192,192,95150,1,0,0:0:0:0:
64,192,95186,1,0,0:0:0:0:
320,192,95293,1,0,0:0:0:0:
448,192,95293,1,0,0:0:0:0:
192,192,95508,1,0,0:0:0:0:
320,192,95579,1,0,0:0:0:0:
192,192,95722,1,0,0:0:0:0:
448,192,95722,1,0,0:0:0:0:
64,192,95865,1,0,0:0:0:0:
448,192,96008,1,0,0:0:0:0:
320,192,96008,1,0,0:0:0:0:
192,192,96079,1,0,0:0:0:0:
192,192,96222,1,0,0:0:0:0:
448,192,96293,1,0,0:0:0:0:
320,192,96293,1,0,0:0:0:0:
64,192,96436,1,0,0:0:0:0:
192,192,96436,1,0,0:0:0:0:
448,192,96579,1,0,0:0:0:0:
320,192,96579,1,0,0:0:0:0:
448,192,96722,1,0,0:0:0:0:
320,192,96722,1,0,0:0:0:0:
192,192,96865,1,0,0:0:0:0:
64,192,96936,1,0,0:0:0:0:
320,192,97008,1,0,0:0:0:0:
192,192,97079,1,0,0:0:0:0:
448,192,97150,1,0,0:0:0:0:
320,192,97293,1,0,0:0:0:0:
192,192,97341,1,0,0:0:0:0:
64,192,97388,1,0,0:0:0:0:
448,192,97436,1,0,0:0:0:0:
320,192,97579,1,0,0:0:0:0:
64,192,97722,1,0,0:0:0:0:
192,192,97793,1,0,0:0:0:0:
320,192,97865,1,0,0:0:0:0:
448,192,97936,1,0,0:0:0:0:
192,192,98008,1,0,0:0:0:0:
64,192,98008,1,0,0:0:0:0:
320,192,98079,1,0,0:0:0:0:
64,192,98150,1,0,0:0:0:0:
320,192,98222,1,0,0:0:0:0:
192,192,98293,1,0,0:0:0:0:
448,192,98365,1,0,0:0:0:0:
320,192,98436,1,0,0:0:0:0:
448,192,98508,1,0,0:0:0:0:
64,192,98579,1,0,0:0:0:0:
192,192,98650,1,0,0:0:0:0:
448,192,98722,1,0,0:0:0:0:
192,192,98793,1,0,0:0:0:0:
320,192,98865,1,0,0:0:0:0:
64,192,98936,1,0,0:0:0:0:
192,192,99008,1,0,0:0:0:0:
448,192,99150,1,0,0:0:0:0:
320,192,99150,1,0,0:0:0:0:
448,192,99365,1,0,0:0:0:0:
320,192,99365,1,0,0:0:0:0:
64,192,99468,1,0,0:0:0:0:
320,192,99531,1,0,0:0:0:0:
64,192,99595,1,0,0:0:0:0:
192,192,99686,1,0,0:0:0:0:
448,192,99793,1,0,0:0:0:0:
192,192,99912,1,0,0:0:0:0:
320,192,99960,1,0,0:0:0:0:
64,192,100008,1,0,0:0:0:0:
192,192,100115,1,0,0:0:0:0:
320,192,100222,1,0,0:0:0:0:
448,192,100222,1,0,0:0:0:0:
320,192,100436,1,0,0:0:0:0:
448,192,100436,1,0,0:0:0:0:
64,192,100543,1,0,0:0:0:0:
192,192,100597,1,0,0:0:0:0:
320,192,100650,1,0,0:0:0:0:
64,192,100758,1,0,0:0:0:0:
448,192,100865,1,0,0:0:0:0:
192,192,100865,1,0,0:0:0:0:
320,192,100972,1,0,0:0:0:0:
64,192,101079,1,0,0:0:0:0:
448,192,101079,1,0,0:0:0:0:
448,192,101293,1,0,0:0:0:0:
64,192,101347,1,0,0:0:0:0:
192,192,101400,1,0,0:0:0:0:
320,192,101454,1,0,0:0:0:0:
64,192,101508,1,0,0:0:0:0:
448,192,101508,1,0,0:0:0:0:
192,192,101722,1,0,0:0:0:0:
64,192,101722,1,0,0:0:0:0:
320,192,101936,1,0,0:0:0:0:
64,192,101936,1,0,0:0:0:0:
192,192,102150,1,0,0:0:0:0:
320,192,102150,1,0,0:0:0:0:
448,192,102365,1,0,0:0:0:0:
192,192,102365,1,0,0:0:0:0:
320,192,102579,1,0,0:0:0:0:
448,192,102597,1,0,0:0:0:0:
64,192,104255,1,0,0:0:0:0:
192,192,104360,1,0,0:0:0:0:
320,192,104464,1,0,0:0:0:0:
448,192,104569,1,0,0:0:0:0:
64,192,104674,1,0,0:0:0:0:
192,192,104778,1,0,0:0:0:0:
448,192,104883,1,0,0:0:0:0:
320,192,104988,1,0,0:0:0:0:
64,192,105093,1,0,0:0:0:0:
448,192,105197,1,0,0:0:0:0:
192,192,105302,1,0,0:0:0:0:
320,192,105407,1,0,0:0:0:0:
448,192,105508,1,0,0:0:0:0:
64,192,105508,1,0,0:0:0:0:
448,192,106771,1,0,0:0:0:0:
192,192,106876,1,0,0:0:0:0:
320,192,106981,1,0,0:0:0:0:
64,192,107086,1,0,0:0:0:0:
448,192,107192,1,0,0:0:0:0:
320,192,107192,1,0,0:0:0:0:
192,192,107192,1,0,0:0:0:0:
192,192,107401,1,0,0:0:0:0:
320,192,107506,1,0,0:0:0:0:
448,192,107610,1,0,0:0:0:0:
64,192,107610,1,0,0:0:0:0:
320,192,107680,1,0,0:0:0:0:
192,192,107750,1,0,0:0:0:0:
64,192,107820,1,0,0:0:0:0:
448,192,107924,1,0,0:0:0:0:
192,192,108029,1,0,0:0:0:0:
64,192,108099,1,0,0:0:0:0:
448,192,108134,1,0,0:0:0:0:
192,192,108169,1,0,0:0:0:0:
320,192,108239,1,0,0:0:0:0:
448,192,108343,1,0,0:0:0:0:
64,192,108343,1,0,0:0:0:0:
320,192,108448,1,0,0:0:0:0:
192,192,108518,1,0,0:0:0:0:
64,192,108588,1,0,0:0:0:0:
448,192,108657,1,0,0:0:0:0:
192,192,108867,1,0,0:0:0:0:
64,192,109076,1,0,0:0:0:0:
320,192,109076,1,0,0:0:0:0:
192,192,109286,1,0,0:0:0:0:
448,192,109390,1,0,0:0:0:0:
64,192,109600,1,0,0:0:0:0:
320,192,109705,1,0,0:0:0:0:
192,192,109809,1,0,0:0:0:0:
448,192,109809,1,0,0:0:0:0:
64,192,110122,1,0,0:0:0:0:
448,192,110122,1,0,0:0:0:0:
192,192,110205,1,0,0:0:0:0:
320,192,110288,1,0,0:0:0:0:
448,192,110372,1,0,0:0:0:0:
64,192,110455,1,0,0:0:0:0:
192,192,110455,1,0,0:0:0:0:
320,192,110538,1,0,0:0:0:0:
448,192,110622,1,0,0:0:0:0:
64,192,110705,1,0,0:0:0:0:
320,192,110788,1,0,0:0:0:0:
192,192,110788,1,0,0:0:0:0:
448,192,110872,1,0,0:0:0:0:
64,192,110955,1,0,0:0:0:0:
192,192,111038,1,0,0:0:0:0:
320,192,111122,1,0,0:0:0:0:
448,192,111122,1,0,0:0:0:0:
64,192,111205,1,0,0:0:0:0:
192,192,111288,1,0,0:0:0:0:
320,192,111372,1,0,0:0:0:0:
448,192,111455,1,0,0:0:0:0:
64,192,111455,1,0,0:0:0:0:
320,192,111538,1,0,0:0:0:0:
192,192,111622,1,0,0:0:0:0:
64,192,111705,1,0,0:0:0:0:
320,192,111788,1,0,0:0:0:0:
448,192,111788,1,0,0:0:0:0:
192,192,111872,1,0,0:0:0:0:
320,192,111955,1,0,0:0:0:0:
448,192,112038,1,0,0:0:0:0:
192,192,112122,1,0,0:0:0:0:
64,192,112122,1,0,0:0:0:0:
320,192,112205,1,0,0:0:0:0:
448,192,112288,1,0,0:0:0:0:
64,192,112372,1,0,0:0:0:0:
448,192,112455,1,0,0:0:0:0:
192,192,112455,1,0,0:0:0:0:
320,192,112538,1,0,0:0:0:0:
64,192,112622,1,0,0:0:0:0:
192,192,112705,1,0,0:0:0:0:
320,192,112788,1,0,0:0:0:0:
448,192,112788,1,0,0:0:0:0:
192,192,112872,1,0,0:0:0:0:
320,192,112955,1,0,0:0:0:0:
448,192,113038,1,0,0:0:0:0:
64,192,113038,1,0,0:0:0:0:
192,192,113184,1,0,0:0:0:0:
64,192,113184,1,0,0:0:0:0:
448,192,113336,1,0,0:0:0:0:
320,192,113336,1,0,0:0:0:0:
448,192,113683,1,0,0:0:0:0:
320,192,113683,1,0,0:0:0:0:
192,192,113752,1,0,0:0:0:0:
64,192,113822,1,0,0:0:0:0:
448,192,113892,1,0,0:0:0:0:
320,192,113962,1,0,0:0:0:0:
192,192,114032,1,0,0:0:0:0:
320,192,114101,1,0,0:0:0:0:
448,192,114171,1,0,0:0:0:0:
64,192,114241,1,0,0:0:0:0:
192,192,114311,1,0,0:0:0:0:
320,192,114381,1,0,0:0:0:0:
192,192,114450,1,0,0:0:0:0:
64,192,114520,1,0,0:0:0:0:
448,192,114599,1,0,0:0:0:0:
320,192,114677,1,0,0:0:0:0:
192,192,114756,1,0,0:0:0:0:
320,192,114834,1,0,0:0:0:0:
448,192,114834,1,0,0:0:0:0:
64,192,114939,1,0,0:0:0:0:
192,192,115009,1,0,0:0:0:0:
320,192,115079,1,0,0:0:0:0:
64,192,115148,1,0,0:0:0:0:
448,192,115148,1,0,0:0:0:0:
192,192,115253,1,0,0:0:0:0:
64,192,115358,1,0,0:0:0:0:
448,192,115358,1,0,0:0:0:0:
320,192,115463,1,0,0:0:0:0:
448,192,115567,1,0,0:0:0:0:
64,192,115567,1,0,0:0:0:0:
192,192,115637,1,0,0:0:0:0:
320,192,115707,1,0,0:0:0:0:
448,192,115777,1,0,0:0:0:0:
64,192,115777,1,0,0:0:0:0:
320,192,115916,1,0,0:0:0:0:
192,192,115916,1,0,0:0:0:0:
64,192,116056,1,0,0:0:0:0:
448,192,116056,1,0,0:0:0:0:
64,192,116196,1,0,0:0:0:0:
192,192,116196,1,0,0:0:0:0:
320,192,116335,1,0,0:0:0:0:
448,192,116335,1,0,0:0:0:0:
64,192,116475,1,0,0:0:0:0:
192,192,116475,1,0,0:0:0:0:
320,192,116614,1,0,0:0:0:0:
192,192,116614,1,0,0:0:0:0:
448,192,116894,1,0,0:0:0:0:
64,192,116894,1,0,0:0:0:0:
320,192,116894,1,0,0:0:0:0:
192,192,117013,1,0,0:0:0:0:
448,192,117133,1,0,0:0:0:0:
64,192,117133,1,0,0:0:0:0:
192,192,117252,1,0,0:0:0:0:
448,192,117372,1,0,0:0:0:0:
320,192,117372,1,0,0:0:0:0:
192,192,117491,1,0,0:0:0:0:
448,192,117611,1,0,0:0:0:0:
320,192,117611,1,0,0:0:0:0:
64,192,117730,1,0,0:0:0:0:
320,192,117850,1,0,0:0:0:0:
192,192,117850,1,0,0:0:0:0:
448,192,117969,1,0,0:0:0:0:
192,192,118089,1,0,0:0:0:0:
64,192,118089,1,0,0:0:0:0:
320,192,118208,1,0,0:0:0:0:
192,192,118268,1,0,0:0:0:0:
64,192,118328,1,0,0:0:0:0:
448,192,118328,1,0,0:0:0:0:
192,192,118447,1,0,0:0:0:0:
320,192,118507,1,0,0:0:0:0:
448,192,118567,1,0,0:0:0:0:
64,192,118686,1,0,0:0:0:0:
320,192,118806,1,0,0:0:0:0:
192,192,118806,1,0,0:0:0:0:
448,192,118925,1,0,0:0:0:0:
320,192,119045,1,0,0:0:0:0:
64,192,119045,1,0,0:0:0:0:
192,192,119164,1,0,0:0:0:0:
448,192,119284,1,0,0:0:0:0:
320,192,119284,1,0,0:0:0:0:
64,192,119404,1,0,0:0:0:0:
192,192,119404,1,0,0:0:0:0:
192,192,119537,1,0,0:0:0:0:
448,192,119671,1,0,0:0:0:0:
320,192,119671,1,0,0:0:0:0:
320,192,119805,1,0,0:0:0:0:
192,192,119939,1,0,0:0:0:0:
64,192,119939,1,0,0:0:0:0:
64,192,120073,1,0,0:0:0:0:
448,192,120207,1,0,0:0:0:0:
320,192,120207,1,0,0:0:0:0:
448,192,120341,1,0,0:0:0:0:
64,192,120474,1,0,0:0:0:0:
192,192,120474,1,0,0:0:0:0:
320,192,120474,1,0,0:0:0:0:
64,192,120683,1,0,0:0:0:0:
192,192,120683,1,0,0:0:0:0:
448,192,120683,1,0,0:0:0:0:
320,192,120892,1,0,0:0:0:0:
192,192,120892,1,0,0:0:0:0:
64,192,120892,1,0,0:0:0:0:
192,192,121102,1,0,0:0:0:0:
64,192,121206,1,0,0:0:0:0:
448,192,121206,1,0,0:0:0:0:
320,192,121206,1,0,0:0:0:0:
192,192,121416,1,0,0:0:0:0:
320,192,121416,1,0,0:0:0:0:
448,192,121416,1,0,0:0:0:0:
448,192,121625,1,0,0:0:0:0:
64,192,121625,1,0,0:0:0:0:
192,192,121730,1,0,0:0:0:0:
320,192,121835,1,0,0:0:0:0:
64,192,121939,1,0,0:0:0:0:
448,192,121939,1,0,0:0:0:0:
192,192,121939,1,0,0:0:0:0:
320,192,122149,1,0,0:0:0:0:
448,192,122149,1,0,0:0:0:0:
64,192,122149,1,0,0:0:0:0:
64,192,122358,1,0,0:0:0:0:
448,192,122358,1,0,0:0:0:0:
192,192,122358,1,0,0:0:0:0:
64,192,122568,1,0,0:0:0:0:
320,192,122672,1,0,0:0:0:0:
192,192,122672,1,0,0:0:0:0:
448,192,122672,1,0,0:0:0:0:
64,192,122882,1,0,0:0:0:0:
192,192,122882,1,0,0:0:0:0:
320,192,122882,1,0,0:0:0:0:
192,192,123091,1,0,0:0:0:0:
448,192,123091,1,0,0:0:0:0:
320,192,123196,1,0,0:0:0:0:
64,192,123301,1,0,0:0:0:0:
448,192,123405,1,0,0:0:0:0:
192,192,123405,1,0,0:0:0:0:
320,192,123405,1,0,0:0:0:0:
320,192,123615,1,0,0:0:0:0:
192,192,123615,1,0,0:0:0:0:
64,192,123615,1,0,0:0:0:0:
320,192,123824,1,0,0:0:0:0:
192,192,123824,1,0,0:0:0:0:
448,192,123824,1,0,0:0:0:0:
192,192,124034,1,0,0:0:0:0:
448,192,124138,1,0,0:0:0:0:
64,192,124138,1,0,0:0:0:0:
320,192,124138,1,0,0:0:0:0:
320,192,124348,1,0,0:0:0:0:
448,192,124348,1,0,0:0:0:0:
192,192,124348,1,0,0:0:0:0:
448,192,124557,1,0,0:0:0:0:
64,192,124557,1,0,0:0:0:0:
192,192,124662,1,0,0:0:0:0:
320,192,124767,1,0,0:0:0:0:
192,192,124871,1,0,0:0:0:0:
64,192,124871,1,0,0:0:0:0:
448,192,124871,1,0,0:0:0:0:
64,192,125028,1,0,0:0:0:0:
192,192,125028,1,0,0:0:0:0:
448,192,125186,1,0,0:0:0:0:
320,192,125186,1,0,0:0:0:0:
64,192,125343,1,0,0:0:0:0:
192,192,125343,1,0,0:0:0:0:
448,192,125500,1,0,0:0:0:0:
320,192,125500,1,0,0:0:0:0:
64,192,125604,1,0,0:0:0:0:
192,192,125604,1,0,0:0:0:0:
320,192,125709,1,0,0:0:0:0:
64,192,125814,1,0,0:0:0:0:
192,192,125814,1,0,0:0:0:0:
320,192,125919,1,0,0:0:0:0:
64,192,126023,1,0,0:0:0:0:
192,192,126023,1,0,0:0:0:0:
320,192,126128,1,0,0:0:0:0:
192,192,126233,1,0,0:0:0:0:
64,192,126233,1,0,0:0:0:0:
448,192,126337,1,0,0:0:0:0:
320,192,126337,1,0,0:0:0:0:
192,192,129269,1,0,0:0:0:0:
320,192,129374,1,0,0:0:0:0:
64,192,129479,1,0,0:0:0:0:
448,192,129479,1,0,0:0:0:0:
64,192,129689,1,0,0:0:0:0:
320,192,129689,1,0,0:0:0:0:
192,192,129793,1,0,0:0:0:0:
448,192,129898,1,0,0:0:0:0:
64,192,130003,1,0,0:0:0:0:
320,192,130003,1,0,0:0:0:0:
448,192,130107,1,0,0:0:0:0:
192,192,130212,1,0,0:0:0:0:
320,192,130317,1,0,0:0:0:0:
64,192,130317,1,0,0:0:0:0:
192,192,130421,1,0,0:0:0:0:
448,192,130526,1,0,0:0:0:0:
64,192,130631,1,0,0:0:0:0:
320,192,130631,1,0,0:0:0:0:
448,192,130736,1,0,0:0:0:0:
64,192,130840,1,0,0:0:0:0:
320,192,130945,1,0,0:0:0:0:
448,192,130945,1,0,0:0:0:0:
192,192,131050,1,0,0:0:0:0:
320,192,131154,1,0,0:0:0:0:
448,192,131154,1,0,0:0:0:0:
64,192,131259,1,0,0:0:0:0:
448,192,131364,1,0,0:0:0:0:
192,192,131364,1,0,0:0:0:0:
320,192,131469,1,0,0:0:0:0:
64,192,131573,1,0,0:0:0:0:
192,192,131678,1,0,0:0:0:0:
448,192,131678,1,0,0:0:0:0:
64,192,131783,1,0,0:0:0:0:
320,192,131887,1,0,0:0:0:0:
448,192,131992,1,0,0:0:0:0:
192,192,131992,1,0,0:0:0:0:
320,192,132097,1,0,0:0:0:0:
64,192,132202,1,0,0:0:0:0:
192,192,132306,1,0,0:0:0:0:
448,192,132306,1,0,0:0:0:0:
320,192,132411,1,0,0:0:0:0:
192,192,132516,1,0,0:0:0:0:
448,192,132620,1,0,0:0:0:0:
320,192,132620,1,0,0:0:0:0:
64,192,132725,1,0,0:0:0:0:
320,192,132830,1,0,0:0:0:0:
448,192,132830,1,0,0:0:0:0:
64,192,132935,1,0,0:0:0:0:
448,192,133039,1,0,0:0:0:0:
320,192,133039,1,0,0:0:0:0:
192,192,133144,1,0,0:0:0:0:
320,192,133249,1,0,0:0:0:0:
192,192,133353,1,0,0:0:0:0:
64,192,133353,1,0,0:0:0:0:
320,192,133458,1,0,0:0:0:0:
192,192,133563,1,0,0:0:0:0:
448,192,133668,1,0,0:0:0:0:
320,192,133668,1,0,0:0:0:0:
192,192,133772,1,0,0:0:0:0:
320,192,133877,1,0,0:0:0:0:
64,192,133982,1,0,0:0:0:0:
192,192,133982,1,0,0:0:0:0:
320,192,134086,1,0,0:0:0:0:
192,192,134191,1,0,0:0:0:0:
320,192,134296,1,0,0:0:0:0:
448,192,134296,1,0,0:0:0:0:
192,192,134401,1,0,0:0:0:0:
64,192,134401,1,0,0:0:0:0:
320,192,134505,1,0,0:0:0:0:
448,192,134505,1,0,0:0:0:0:
192,192,134610,1,0,0:0:0:0:
64,192,134610,1,0,0:0:0:0:
448,192,134715,1,0,0:0:0:0:
320,192,134767,1,0,0:0:0:0:
192,192,134819,1,0,0:0:0:0:
448,192,134924,1,0,0:0:0:0:
64,192,135029,1,0,0:0:0:0:
192,192,135081,1,0,0:0:0:0:
320,192,135134,1,0,0:0:0:0:
64,192,135238,1,0,0:0:0:0:
448,192,135343,1,0,0:0:0:0:
320,192,135395,1,0,0:0:0:0:
192,192,135448,1,0,0:0:0:0:
448,192,135552,1,0,0:0:0:0:
64,192,135657,1,0,0:0:0:0:
192,192,135709,1,0,0:0:0:0:
320,192,135762,1,0,0:0:0:0:
64,192,135867,1,0,0:0:0:0:
448,192,135971,1,0,0:0:0:0:
320,192,136024,1,0,0:0:0:0:
192,192,136076,1,0,0:0:0:0:
448,192,136181,1,0,0:0:0:0:
64,192,136233,1,0,0:0:0:0:
192,192,136285,1,0,0:0:0:0:
320,192,136338,1,0,0:0:0:0:
448,192,136390,1,0,0:0:0:0:
192,192,139741,1,0,0:0:0:0:
64,192,139741,1,0,0:0:0:0:
320,192,139846,1,0,0:0:0:0:
192,192,139950,1,0,0:0:0:0:
64,192,139950,1,0,0:0:0:0:
320,192,140055,1,0,0:0:0:0:
192,192,140160,1,0,0:0:0:0:
64,192,140160,1,0,0:0:0:0:
320,192,140264,1,0,0:0:0:0:
64,192,140369,1,0,0:0:0:0:
192,192,140369,1,0,0:0:0:0:
320,192,140474,1,0,0:0:0:0:
448,192,140579,1,0,0:0:0:0:
64,192,140579,1,0,0:0:0:0:
192,192,140683,1,0,0:0:0:0:
320,192,140788,1,0,0:0:0:0:
448,192,140788,1,0,0:0:0:0:
64,192,140893,1,0,0:0:0:0:
320,192,140997,1,0,0:0:0:0:
448,192,140997,1,0,0:0:0:0:
64,192,141102,1,0,0:0:0:0:
448,192,141207,1,0,0:0:0:0:
320,192,141207,1,0,0:0:0:0:
64,192,141312,1,0,0:0:0:0:
448,192,141416,1,0,0:0:0:0:
192,192,141416,1,0,0:0:0:0:
320,192,141416,1,0,0:0:0:0:
