osu file format v14

[General]
AudioFilename: audio.mp3
AudioLeadIn: 0
PreviewTime: 286922
Countdown: 0
SampleSet: Normal
StackLeniency: 0.7
Mode: 1
LetterboxInBreaks: 0
WidescreenStoryboard: 0

[Editor]
DistanceSpacing: 1.1
BeatDivisor: 4
GridSize: 4
TimelineZoom: 2.4

[Metadata]
Title:Multigenre Smackdown
TitleUnicode:Multigenre Smackdown
Artist:ReeK
ArtistUnicode:ReeK
Creator:Nifty
Version:Genre Transmogrification Synthesizer
Source:Expert Global Taiko Showdown 2021
Tags:electronic english instrumental egts finals tb tiebreaker trap metal riddim brostep hitech speedcore electroswing hardcore schranz hardbass rawstyle sv joogs
BeatmapID:3323216
BeatmapSetID:1627827

[Difficulty]
HPDrainRate:5
CircleSize:2
OverallDifficulty:7.5
ApproachRate:10
SliderMultiplier:1.4
SliderTickRate:1

[Events]
//Background and Video events
0,0,"background.png",0,0
//Break Periods
2,48384,52234
2,90384,95734
2,138384,143359
2,258561,261700
2,323550,331747
2,353275,356587
//Storyboard Layer 0 (Background)
//Storyboard Layer 1 (Fail)
//Storyboard Layer 2 (Pass)
//Storyboard Layer 3 (Foreground)
//Storyboard Layer 4 (Overlay)
//Storyboard Sound Samples

[TimingPoints]
184,375,100,1,0,60,1,8
184,-166.666666666667,4,1,0,60,0,0
6090,-25,4,1,0,60,0,0
7588,-100,4,1,0,60,0,0
8956,-20.8333333333333,4,1,0,60,0,0
9533,-55.5555555555556,4,1,0,60,0,0
10684,375,4,1,0,100,1,0
10684,-83.3333333333333,4,1,0,100,0,0
11049,-76.6957628659756,4,1,0,100,0,0
11424,-71.4285714285714,4,1,0,100,0,0
11799,-66.6666666666667,4,1,0,100,0,0
12174,-62.5,4,1,0,100,0,0
12404,-100,4,1,0,100,0,0
18044,-83.3333333333333,4,1,0,100,0,0
18332,-100,4,1,0,100,0,0
22249,-83.3333333333333,4,1,0,100,0,0
22674,-93.5340193518661,4,1,0,100,0,0
22767,-96.2845849802372,4,1,0,100,0,0
22861,-99.2341534951931,4,1,0,100,0,0
22955,-102.370146243066,4,1,0,100,0,0
23049,-105.710814094775,4,1,0,100,0,0
23142,-109.237668161435,4,1,0,100,0,0
23236,-84.5091564094866,4,1,0,100,0,0
23330,-86.9632375656472,4,1,0,100,0,0
23424,-89.5641107222399,4,1,0,100,0,0
23517,-92.2950819672131,4,1,0,100,0,0
23611,-95.2300405953992,4,1,0,100,0,0
23705,-98.3577917540182,4,1,0,100,0,0
23799,-77.6719138359569,4,1,0,100,0,0
23892,-79.1974656810982,4,1,0,100,0,0
23986,-80.8015513897867,4,1,0,100,0,0
24080,-82.4719595337585,4,1,0,100,0,0
24184,-71.4285714285714,4,1,0,100,0,0
24277,-90.9090909090909,4,1,0,100,0,0
35621,-90.9090909090909,4,1,0,100,0,0
35715,-88.2708361101867,4,1,0,100,0,0
35809,-85.7814648557627,4,1,0,100,0,0
35902,-83.4285809632664,4,1,0,100,0,0
35996,-81.2013248808168,4,1,0,100,0,0
36090,-79.0898967402308,4,1,0,100,0,0
36184,-76.9230769230769,4,1,0,100,0,0
36371,-83.1918378824017,4,1,0,100,0,0
36465,-86.7256806014599,4,1,0,100,0,0
36559,-90.5729828038135,4,1,0,100,0,0
36699,-76.9230769230769,4,1,0,100,0,0
36886,-83.1918378824017,4,1,0,100,0,0
36980,-86.7256806014599,4,1,0,100,0,0
37074,-90.5729828038135,4,1,0,100,0,0
37262,-76.9230769230769,4,1,0,100,0,0
37449,-83.1918378824017,4,1,0,100,0,0
37637,-75.7575757575758,4,1,0,100,0,0
37824,-83.1918378824017,4,1,0,100,0,0
37918,-86.7256806014599,4,1,0,100,0,0
38012,-90.5729828038135,4,1,0,100,0,0
38199,-75.7575757575758,4,1,0,100,0,0
38386,-83.1918378824017,4,1,0,100,0,0
38480,-86.7256806014599,4,1,0,100,0,0
38574,-90.5729828038135,4,1,0,100,0,0
38762,-75.7575757575758,4,1,0,100,0,0
38949,-83.1918378824017,4,1,0,100,0,0
39043,-86.7256806014599,4,1,0,100,0,0
39137,-74.0740740740741,4,1,0,100,0,0
39324,-83.1918378824017,4,1,0,100,0,0
39418,-86.7256806014599,4,1,0,100,0,0
39512,-90.5729828038135,4,1,0,100,0,0
39699,-74.0740740740741,4,1,0,100,0,0
39886,-83.1918378824017,4,1,0,100,0,0
39980,-86.7256806014599,4,1,0,100,0,0
40074,-90.5729828038135,4,1,0,100,0,0
40262,-74.0740740740741,4,1,0,100,0,0
40449,-83.1918378824017,4,1,0,100,0,0
40637,-71.4285714285714,4,1,0,100,0,0
40824,-83.1918378824017,4,1,0,100,0,0
40918,-86.7256806014599,4,1,0,100,0,0
41012,-90.5729828038135,4,1,0,100,0,0
41199,-71.4285714285714,4,1,0,100,0,0
41386,-83.1918378824017,4,1,0,100,0,0
41480,-86.7256806014599,4,1,0,100,0,0
41574,-90.5729828038135,4,1,0,100,0,0
41762,-71.4285714285714,4,1,0,100,0,0
41949,-83.1918378824017,4,1,0,100,0,0
42043,-86.7256806014599,4,1,0,100,0,0
42137,-71.4285714285714,4,1,0,100,0,0
42371,-83.3333333333333,4,1,0,100,0,0
42465,-80.0653333119826,4,1,0,100,0,0
42559,-77.0440360596906,4,1,0,100,0,0
42652,-74.2424118686889,4,1,0,100,0,0
42746,-71.6374457525442,4,1,0,100,0,0
42887,-83.3333333333333,4,1,0,100,0,0
42981,-80.0653333119826,4,1,0,100,0,0
43075,-77.0440360596906,4,1,0,100,0,0
43168,-74.2424118686889,4,1,0,100,0,0
43262,-71.6374457525442,4,1,0,100,0,0
43450,-74.0740740740741,4,1,0,100,0,0
43543,-71.4285714285714,4,1,0,100,0,0
43621,-68.9655172413793,4,1,0,100,0,0
43868,-80,4,1,0,100,0,0
43962,-76.9151881858271,4,1,0,100,0,0
44056,-74.0594450478918,4,1,0,100,0,0
44149,-71.4353747975998,4,1,0,100,0,0
44246,-68.9655172413793,4,1,0,100,0,0
44431,-80,4,1,0,100,0,0
44524,-76.9467528470299,4,1,0,100,0,0
44618,-74.0887088807666,4,1,0,100,0,0
44715,-71.4285714285714,4,1,0,100,0,0
44806,-68.9655172413793,4,1,0,100,0,0
44902,-71.4285714285714,4,1,0,100,0,0
45090,-68.9655172413793,4,1,0,100,0,0
45184,-66.6666666666667,4,1,0,100,0,0
45368,-76.9230769230769,4,1,0,100,0,0
45462,-74.0667588386332,4,1,0,100,0,0
45556,-71.4149685774138,4,1,0,100,0,0
45649,-68.9718594813316,4,1,0,100,0,0
45746,-66.6666666666667,4,1,0,100,0,0
45931,-76.9230769230769,4,1,0,100,0,0
46024,-74.0960284528749,4,1,0,100,0,0
46118,-71.4421794627548,4,1,0,100,0,0
46215,-68.9655172413793,4,1,0,100,0,0
46306,-66.6666666666667,4,1,0,100,0,0
46496,-68.9655172413793,4,1,0,100,0,0
46590,-66.6666666666667,4,1,0,100,0,0
46684,-64.5161290322581,4,1,0,100,0,0
46868,-74.0740740740741,4,1,0,100,0,0
46962,-71.4217693552995,4,1,0,100,0,0
47056,-68.9528362599982,4,1,0,100,0,0
47149,-66.6725931193884,4,1,0,100,0,0
47243,-64.5161290322581,4,1,0,100,0,0
47431,-74.0740740740741,4,1,0,100,0,0
47524,-71.448985424407,4,1,0,100,0,0
47618,-68.9782028878874,4,1,0,100,0,0
47712,-66.6725931193884,4,1,0,100,0,0
47809,-64.5161290322581,4,1,0,100,0,0
47996,-66.6666666666667,4,1,0,100,0,0
48090,-64.5161290322581,4,1,0,100,0,0
48184,-62.5,4,1,0,100,0,0
48363,-100,4,1,0,100,0,0
52684,-62.5,4,1,0,100,0,0
52871,-65.5570480710166,4,1,0,100,0,0
53059,-68.9285810293381,4,1,0,100,0,0
53246,-72.6656522541612,4,1,0,100,0,0
53434,-76.831234047915,4,1,0,100,0,0
53621,-81.5033787225649,4,1,0,100,0,0
53809,-86.7805458843458,4,1,0,100,0,0
53996,-92.7884793823999,4,1,0,100,0,0
54184,-66.5287746929863,4,1,0,100,0,0
54337,-100,4,1,0,100,0,0
54559,-100,4,1,0,100,0,0
55121,-103.448240190262,4,1,0,100,0,0
55684,-107.142895408177,4,1,0,100,0,0
56246,-111.111111111111,4,1,0,100,0,0
56434,-100,4,1,0,100,0,0
56527,-94.1747280233855,4,1,0,100,0,0
56621,-88.9908526302581,4,1,0,100,0,0
56715,-84.3478268204159,4,1,0,100,0,0
56809,-80.165268717989,4,1,0,100,0,0
56871,-77.599987584002,4,1,0,100,0,0
56934,-75.1937932035338,4,1,0,100,0,0
56996,-72.9323319237945,4,1,0,100,0,0
57059,-70.8029264265551,4,1,0,100,0,0
57121,-68.7943379508093,4,1,0,100,0,0
57184,-66.8965678715853,4,1,0,100,0,0
57559,-100,4,1,0,100,0,0
58121,-111.025991184536,4,1,0,100,0,0
58684,-125,4,1,0,100,0,0
58871,-114.336545046884,4,1,0,100,0,0
59059,-105.349322551181,4,1,0,100,0,0
59246,-97.6720835604209,4,1,0,100,0,0
59434,-91.0377023540529,4,1,0,100,0,0
59527,-88.0474681510296,4,1,0,100,0,0
59621,-85.2473494467873,4,1,0,100,0,0
59715,-82.6198421465296,4,1,0,100,0,0
59809,-80.1495269574919,4,1,0,100,0,0
59902,-77.8225862935748,4,1,0,100,0,0
59996,-75.6269473938954,4,1,0,100,0,0
60090,-73.5518558972039,4,1,0,100,0,0
60184,-71.5875469166886,4,1,0,100,0,0
60371,-83.3333333333333,4,1,0,100,0,0
60465,-82.5421666658412,4,1,0,100,0,0
60559,-81.7659482437901,4,1,0,100,0,0
60652,-81.0041271602788,4,1,0,100,0,0
60746,-80.2564353622695,4,1,0,100,0,0
60840,-79.5223569154232,4,1,0,100,0,0
60934,-78.8015854879,4,1,0,100,0,0
61027,-78.093823481407,4,1,0,100,0,0
61121,-77.3986020264502,4,1,0,100,0,0
61215,-76.7157084618961,4,1,0,100,0,0
61309,-76.0447021176929,4,1,0,100,0,0
61402,-75.3853321251577,4,1,0,100,0,0
61496,-74.737354252817,4,1,0,100,0,0
61590,-74.1003659817076,4,1,0,100,0,0
61684,-73.4741980658652,4,1,0,100,0,0
61777,-72.858470962985,4,1,0,100,0,0
61871,-72.2529779064844,4,1,0,100,0,0
61965,-71.6575171960127,4,1,0,100,0,0
62059,-71.0717405256039,4,1,0,100,0,0
62152,-70.4955129606001,4,1,0,100,0,0
62246,-69.9285050963895,4,1,0,100,0,0
62340,-69.3705455438443,4,1,0,100,0,0
62434,-68.8214667919217,4,1,0,100,0,0
62527,-68.2809652470371,4,1,0,100,0,0
62621,-67.7489332930453,4,1,0,100,0,0
62715,-67.2250830229775,4,1,0,100,0,0
62809,-66.7092716548302,4,1,0,100,0,0
62996,-71.4285714285714,4,1,0,100,0,0
63090,-70.5437014703424,4,1,0,100,0,0
63184,-69.680487094477,4,1,0,100,0,0
63277,-68.8381429396503,4,1,0,100,0,0
63371,-68.0159211668267,4,1,0,100,0,0
63465,-67.2131092448271,4,1,0,100,0,0
63559,-66.4290278908916,4,1,0,100,0,0
63652,-65.6630291537283,4,1,0,100,0,0
63746,-64.9144946276764,4,1,0,100,0,0
63840,-64.1828337876408,4,1,0,100,0,0
63934,-63.4674824353742,4,1,0,100,0,0
64027,-62.7679012485163,4,1,0,100,0,0
64121,-62.0835744245473,4,1,0,100,0,0
64215,-61.4140084124909,4,1,0,100,0,0
64309,-60.7587307258116,4,1,0,100,0,0
64402,-60.1172888305083,4,1,0,100,0,0
64496,-59.4892491029021,4,1,0,100,0,0
64590,-58.8741958520774,4,1,0,100,0,0
64684,-25,4,1,0,100,0,0
65059,-76.9230769230769,4,1,0,100,0,0
65434,-90.7389965355851,4,1,0,100,0,0
65559,-96.5174571124679,4,1,0,100,0,0
65621,-99.6916537150593,4,1,0,100,0,0
65684,-103.08183770177,4,1,0,100,0,0
65746,-106.710716850583,4,1,0,100,0,0
65809,-110.604297640589,4,1,0,100,0,0
66184,-124.358929717307,4,1,0,100,0,1
66392,-165.528931146585,4,1,0,100,0,1
67449,-142.020439581664,4,1,0,100,0,1
67543,-165.528931146585,4,1,0,100,0,1
68434,-166.666666666667,4,1,0,100,0,1
68621,-153.968143991008,4,1,0,100,0,1
68809,-143.067861378688,4,1,0,100,0,1
68996,-133.608745494045,4,1,0,100,0,1
69090,-124.358929717307,4,1,0,100,0,1
69277,-165.528931146585,4,1,0,100,0,1
70402,-142.020439581664,4,1,0,100,0,1
70543,-165.528931146585,4,1,0,100,0,1
71434,-166.666666666667,4,1,0,100,0,1
71621,-153.968143991008,4,1,0,100,0,1
71809,-143.067861378688,4,1,0,100,0,1
71902,-138.176703131499,4,1,0,100,0,1
71996,-133.608745494045,4,1,0,100,0,1
72090,-129.333312640003,4,1,0,100,0,1
72184,-125.323020084267,4,1,0,100,0,1
72327,-167.241419678963,4,1,0,100,0,1
74059,-166.666666666667,4,1,0,100,0,1
74246,-154.087953403803,4,1,0,100,0,1
74340,-148.484933976174,4,1,0,100,0,1
74434,-143.274891505088,4,1,0,100,0,1
74621,-166.666666666667,4,1,0,100,0,1
74809,-150.205857127193,4,1,0,100,0,1
74902,-143.137282968095,4,1,0,100,0,1
74996,-136.704091690168,4,1,0,100,0,1
75090,-130.82429773517,4,1,0,100,0,1
75184,-125.429596367559,4,1,0,100,0,1
75344,-167.431269463885,4,1,0,100,0,1
76684,-125,4,1,0,100,0,0
76730,-122.151876313896,4,1,0,100,0,0
76871,-114.336545046884,4,1,0,100,0,0
76918,-111.948987085565,4,1,0,100,0,0
76965,-109.65910274729,4,1,0,100,0,0
77059,-105.349322551181,4,1,0,100,0,0
77246,-97.6720835604209,4,1,0,100,0,0
77340,-94.2382720470438,4,1,0,100,0,0
77434,-91.0377023540529,4,1,0,100,0,0
77527,-88.0474681510296,4,1,0,100,0,0
77621,-85.2473494467873,4,1,0,100,0,0
77715,-82.6198421465296,4,1,0,100,0,0
77809,-80.1495269574919,4,1,0,100,0,0
77902,-77.8225862935748,4,1,0,100,0,0
77996,-75.6269473938954,4,1,0,100,0,0
78059,-74.2307835059199,4,1,0,100,0,0
78121,-72.8851817865762,4,1,0,100,0,0
78184,-71.5875469166886,4,1,0,100,0,1
78277,-83.5497969322186,4,1,0,100,0,1
81137,-71.5875469166886,4,1,0,100,0,1
81230,-83.5497969322186,4,1,0,100,0,1
83809,-83.5497969322186,4,1,0,100,0,0
84184,-71.5875469166886,4,1,0,100,0,1
84230,-83.5497969322186,4,1,0,100,0,1
87137,-71.5875469166886,4,1,0,100,0,1
87230,-83.5497969322186,4,1,0,100,0,1
88674,-83.3333333333333,4,1,0,100,0,1
88781,-85.3630776234919,4,1,0,100,0,1
88888,-87.4941670555296,4,1,0,100,0,1
88995,-89.7343862167983,4,1,0,100,0,1
89102,-92.0923379174853,4,1,0,100,0,1
89156,-93.3300149328024,4,1,0,100,0,1
89209,-94.577553593947,4,1,0,100,0,1
89316,-97.2006220839813,4,1,0,100,0,1
89424,-100,4,1,0,100,0,1
90184,-125,4,1,0,100,0,0
90508,-166.666666666667,4,1,0,100,0,0
96066,-125,4,1,0,100,0,0
96549,-166.666666666667,4,1,0,100,0,0
96924,-153.061224489796,4,1,0,100,0,0
97299,-141.509433962264,4,1,0,100,0,0
97674,-131.578947368421,4,1,0,100,0,0
98049,-122.950819672131,4,1,0,100,0,0
98424,-115.384615384615,4,1,0,100,0,0
98799,-108.695652173913,4,1,0,100,0,0
99174,-102.739726027397,4,1,0,100,0,0
99549,-97.4025974025974,4,1,0,100,0,0
99924,-92.5925925925926,4,1,0,100,0,0
100299,-88.2352941176471,4,1,0,100,0,0
100674,-84.2696629213483,4,1,0,100,0,0
100861,-82.4224130351962,4,1,0,100,0,0
101049,-80.6451612903226,4,1,0,100,0,0
101236,-78.9518008028521,4,1,0,100,0,0
101424,-77.319587628866,4,1,0,100,0,0
101517,-76.5368601518491,4,1,0,100,0,0
101611,-75.7616571936535,4,1,0,100,0,0
101705,-75.0020000533348,4,1,0,100,0,0
101799,-74.2574257425743,4,1,0,100,0,0
101892,-73.5351792297435,4,1,0,100,0,0
101986,-72.8193045594594,4,1,0,100,0,0
102080,-72.117233775225,4,1,0,100,0,0
102174,-71.4285714285714,4,1,0,100,0,0
102230,-25,4,1,0,100,0,0
103465,-166.666666666667,4,1,0,100,0,0
105095,-181.818181818182,4,1,0,100,0,0
106582,-200,4,1,0,100,0,0
108174,-222.222222222222,4,1,0,100,0,0
108361,-201.083711157802,4,1,0,100,0,0
108549,-183.532166575829,4,1,0,100,0,0
108736,-168.87072808321,4,1,0,100,0,0
108924,-156.316621965477,4,1,0,100,0,0
109111,-145.553509965581,4,1,0,100,0,0
109299,-136.130201081016,4,1,0,100,0,0
109486,-127.894218596146,4,1,0,100,0,0
109674,-120.561169013711,4,1,0,100,0,0
109861,-114.056325660164,4,1,0,100,0,0
110049,-108.187865157843,4,1,0,100,0,0
110236,-102.920534299298,4,1,0,100,0,0
110424,-98.1179314512648,4,1,0,100,0,0
110611,-93.7657917805394,4,1,0,100,0,0
110799,-89.7629555035591,4,1,0,100,0,0
110986,-86.1066388862582,4,1,0,100,0,0
111174,-82.7192168422585,4,1,0,100,0,0
111267,-81.1401747387397,4,1,0,100,0,0
111361,-79.6042551328634,4,1,0,100,0,0
111455,-78.1254027857738,4,1,0,100,0,0
111549,-76.700495195674,4,1,0,100,0,0
111642,-75.3409900727556,4,1,0,100,0,0
111736,-74.0149788342559,4,1,0,100,0,0
111830,-72.7348362426201,4,1,0,100,0,0
111924,-71.4982227674499,4,1,0,100,0,0
112017,-70.3154605848279,4,1,0,100,0,0
112111,-69.1590917734758,4,1,0,100,0,0
112205,-68.0401415881521,4,1,0,100,0,0
112299,-66.9568227175986,4,1,0,100,0,0
112392,-65.9184502059045,4,1,0,100,0,0
112486,-64.9011349846527,4,1,0,100,0,0
112580,-63.9147428507156,4,1,0,100,0,0
112674,-62.9578849696013,4,1,0,100,0,0
114090,-83.3333333333333,4,1,0,100,0,0
114174,-100,4,1,0,100,0,0
114361,-90.9311348205626,4,1,0,100,0,0
114549,-83.3333333333333,4,1,0,100,0,0
114736,-93.955886565454,4,1,0,100,0,0
114830,-91.4923291492329,4,1,0,100,0,0
114877,-90.3083700440529,4,1,0,100,0,0
114924,-89.1546615928241,4,1,0,100,0,0
115111,-84.8422141748577,4,1,0,100,0,0
115299,-80.9077454366058,4,1,0,100,0,0
115486,-90.9090909090909,4,1,0,100,0,0
115580,-88.2306848456355,4,1,0,100,0,0
115674,-85.7055868473131,4,1,0,100,0,0
115861,-81.0888664842287,4,1,0,100,0,0
116049,-76.9230769230769,4,1,0,100,0,0
116246,-86.9565217391304,4,1,0,100,0,0
116340,-83.4042269262206,4,1,0,100,0,0
116387,-81.7348048867605,4,1,0,100,0,0
116434,-80.130837631685,4,1,0,100,0,0
116621,-74.2987314234597,4,1,0,100,0,0
117184,-55.5555555555556,4,1,0,100,0,1
117559,-83.3333333333333,4,1,0,100,0,1
117652,-86.8794634324339,4,1,0,100,0,1
117746,-90.7407256172865,4,1,0,100,0,1
117840,-94.9612605537571,4,1,0,100,0,1
117934,-99.5934594983278,4,1,0,100,0,1
118074,-90.5729828038135,4,1,0,100,0,1
118168,-92.5925925925926,4,1,0,100,0,1
118309,-83.3333333333333,4,1,0,100,0,1
118371,-84.4827921224865,4,1,0,100,0,1
118434,-85.6643311714512,4,1,0,100,0,1
118496,-86.8794634324339,4,1,0,100,0,1
118590,-88.7680853877967,4,1,0,100,0,1
118684,-90.9090909090909,4,1,0,100,0,1
118777,-87.0337168619123,4,1,0,100,0,1
118871,-83.4753109246644,4,1,0,100,0,1
118965,-80.1963849073612,4,1,0,100,0,1
119059,-77.1653762043586,4,1,0,100,0,1
119105,-78.125,4,1,0,100,0,1
119246,-83.6177731249132,4,1,0,100,0,1
119293,-84.7457627118644,4,1,0,100,0,1
119434,-76.9230769230769,4,1,0,100,0,1
119496,-78.9473476454348,4,1,0,100,0,1
119559,-81.0811029948927,4,1,0,100,0,1
119621,-83.3333333333333,4,1,0,100,0,1
119762,-71.4285714285714,4,1,0,100,0,1
119855,-72.463768115942,4,1,0,100,0,1
119996,-74.0740740740741,4,1,0,100,0,1
120090,-76.6961742414365,4,1,0,100,0,1
120184,-71.4285714285714,4,1,0,100,0,1
120277,-73.1707138608015,4,1,0,100,0,1
120371,-75.0000187500047,4,1,0,100,0,1
120465,-76.9230769230769,4,1,0,100,0,1
120559,-71.4285714285714,4,1,0,100,0,1
120621,-72.2714109475288,4,1,0,100,0,1
120684,-73.1343250835377,4,1,0,100,0,1
120746,-74.0181492501961,4,1,0,100,0,1
120840,-75.3845933491189,4,1,0,100,0,1
120934,-71.3245903650464,4,1,0,100,0,1
121121,-68.9655172413793,4,1,0,100,0,1
121168,-70.080866311637,4,1,0,100,0,1
121215,-71.2328845186723,4,1,0,100,0,1
121309,-66.6666666666667,4,1,0,100,0,1
121355,-67.5675675675676,4,1,0,100,0,1
121496,-71.4285714285714,4,1,0,100,0,1
121543,-70.2702664718775,4,1,0,100,0,1
121590,-69.1489288139437,4,1,0,100,0,1
121684,-66.6666666666667,4,1,0,100,0,1
121777,-68.1818026859539,4,1,0,100,0,1
121871,-69.7674580854554,4,1,0,100,0,1
121965,-71.4285714285714,4,1,0,100,0,1
122059,-66.6666666666667,4,1,0,100,0,1
122121,-67.4002964265037,4,1,0,100,0,1
122184,-68.1502057795464,4,1,0,100,0,1
122246,-68.9170376700528,4,1,0,100,0,1
122340,-70.1001240071194,4,1,0,100,0,1
122434,-71.3245903650464,4,1,0,100,0,1
122480,-66.5760788154251,4,1,0,100,0,1
122598,-64.5161290322581,4,1,0,100,0,1
122645,-65.4911871783973,4,1,0,100,0,1
122692,-66.4961704855417,4,1,0,100,0,1
122786,-62.5,4,1,0,100,0,1
122832,-63.2911392405063,4,1,0,100,0,1
122949,-66.6666666666667,4,1,0,100,0,1
123043,-67.5675675675676,4,1,0,100,0,1
123184,-62.5,4,1,0,100,0,1
123230,-63.3484334882625,4,1,0,100,0,1
123277,-64.2201775944791,4,1,0,100,0,1
123371,-66.0377233891088,4,1,0,100,0,1
123465,-67.9611452540354,4,1,0,100,0,1
123559,-70.0000210000063,4,1,0,100,0,1
123652,-72.1649633329821,4,1,0,100,0,1
123746,-74.4680930285205,4,1,0,100,0,1
123840,-76.9230769230769,4,1,0,100,0,1
123934,-66.6666666666667,4,1,0,100,0,1
124027,-67.9611452540354,4,1,0,100,0,1
124121,-69.3069375551423,4,1,0,100,0,1
124215,-70.7070564228169,4,1,0,100,0,1
124309,-72.1649633329821,4,1,0,100,0,1
124402,-73.6842027700839,4,1,0,100,0,1
124496,-75.2688414845725,4,1,0,100,0,1
124590,-76.9230769230769,4,1,0,100,0,1
124684,-62.5,4,1,0,100,0,1
124730,-63.237227502882,4,1,0,100,0,1
124777,-63.9920547464827,4,1,0,100,0,1
124871,-65.5570480710166,4,1,0,100,0,1
124965,-67.2005526573451,4,1,0,100,0,1
125059,-68.9285810293381,4,1,0,100,0,1
125152,-70.7477756899323,4,1,0,100,0,1
125246,-72.6656522541612,4,1,0,100,0,1
125340,-74.6904082577715,4,1,0,100,0,1
125434,-68.9655172413793,4,1,0,100,0,1
125559,-74.0740740740741,4,1,0,100,0,1
125684,-80,4,1,0,100,0,1
125809,-86.7805458843458,4,1,0,100,0,1
125996,-92.7884793823999,4,1,0,100,0,1
126184,-100,4,1,0,100,0,0
126347,-90.9311348205626,4,1,0,100,0,0
126535,-83.3333333333333,4,1,0,100,0,0
126722,-93.955886565454,4,1,0,100,0,0
126816,-91.4923291492329,4,1,0,100,0,0
126863,-90.3083700440529,4,1,0,100,0,0
126910,-89.1546615928241,4,1,0,100,0,0
127097,-84.8422141748577,4,1,0,100,0,0
127285,-80.9077454366058,4,1,0,100,0,0
127472,-90.9090909090909,4,1,0,100,0,0
127566,-88.2306848456355,4,1,0,100,0,0
127660,-85.7055868473131,4,1,0,100,0,0
127847,-81.0888664842287,4,1,0,100,0,0
128035,-76.9230769230769,4,1,0,100,0,0
128232,-86.9565217391304,4,1,0,100,0,0
128326,-83.4042269262206,4,1,0,100,0,0
128373,-81.7348048867605,4,1,0,100,0,0
128420,-80.130837631685,4,1,0,100,0,0
128607,-74.2987314234597,4,1,0,100,0,0
129184,-62.5,4,1,0,100,0,1
129246,-64.2856959183726,4,1,0,100,0,1
129309,-66.1764754541526,4,1,0,100,0,1
129371,-68.1818026859539,4,1,0,100,0,1
129465,-71.4285714285714,4,1,0,100,0,1
129559,-66.6666666666667,4,1,0,100,0,1
129621,-67.6691627565169,4,1,0,100,0,1
129684,-68.7022690985438,4,1,0,100,0,1
129746,-69.7674580854554,4,1,0,100,0,1
129840,-71.4285714285714,4,1,0,100,0,1
129910,-62.5,4,1,0,100,0,1
129972,-64.2856959183726,4,1,0,100,0,1
130035,-66.1764754541526,4,1,0,100,0,1
130097,-68.1818026859539,4,1,0,100,0,1
130191,-71.4285714285714,4,1,0,100,0,1
130285,-66.6666666666667,4,1,0,100,0,1
130347,-67.6691627565169,4,1,0,100,0,1
130410,-68.7022690985438,4,1,0,100,0,1
130472,-69.7674580854554,4,1,0,100,0,1
130566,-71.4285714285714,4,1,0,100,0,1
130660,-62.5,4,1,0,100,0,1
130722,-64.2856959183726,4,1,0,100,0,1
130785,-66.1764754541526,4,1,0,100,0,1
130847,-68.1818026859539,4,1,0,100,0,1
130941,-71.4285714285714,4,1,0,100,0,1
131035,-66.6666666666667,4,1,0,100,0,1
131097,-67.6691627565169,4,1,0,100,0,1
131160,-68.7022690985438,4,1,0,100,0,1
131222,-69.7674580854554,4,1,0,100,0,1
131316,-71.4285714285714,4,1,0,100,0,1
131410,-62.5,4,1,0,100,0,1
131472,-64.2856959183726,4,1,0,100,0,1
131535,-66.1764754541526,4,1,0,100,0,1
131597,-68.1818026859539,4,1,0,100,0,1
131691,-71.4285714285714,4,1,0,100,0,1
131809,-55.5555555555556,4,1,0,100,0,1
131973,-71.4285714285714,4,1,0,100,0,1
132019,-72.463768115942,4,1,0,100,0,1
132160,-62.5,4,1,0,100,0,1
132222,-64.2856959183726,4,1,0,100,0,1
132285,-66.1764754541526,4,1,0,100,0,1
132347,-68.1818026859539,4,1,0,100,0,1
132441,-71.4285714285714,4,1,0,100,0,1
132535,-66.6666666666667,4,1,0,100,0,1
132597,-67.6691627565169,4,1,0,100,0,1
132660,-68.7022690985438,4,1,0,100,0,1
132722,-69.7674580854554,4,1,0,100,0,1
132816,-71.4285714285714,4,1,0,100,0,1
132910,-62.5,4,1,0,100,0,1
132972,-64.2856959183726,4,1,0,100,0,1
133035,-66.1764754541526,4,1,0,100,0,1
133097,-68.1818026859539,4,1,0,100,0,1
133191,-71.4285714285714,4,1,0,100,0,1
133285,-66.6666666666667,4,1,0,100,0,1
133347,-67.6691627565169,4,1,0,100,0,1
133410,-68.7022690985438,4,1,0,100,0,1
133472,-69.7674580854554,4,1,0,100,0,1
133566,-71.4285714285714,4,1,0,100,0,1
133660,-62.5,4,1,0,100,0,1
133722,-64.2856959183726,4,1,0,100,0,1
133785,-66.1764754541526,4,1,0,100,0,1
133847,-68.1818026859539,4,1,0,100,0,1
133941,-71.4285714285714,4,1,0,100,0,1
134035,-66.6666666666667,4,1,0,100,0,1
134097,-67.6691627565169,4,1,0,100,0,1
134160,-68.7022690985438,4,1,0,100,0,1
134222,-69.7674580854554,4,1,0,100,0,1
134316,-71.4285714285714,4,1,0,100,0,1
134410,-62.5,4,1,0,100,0,1
134621,-71.4285714285714,4,1,0,100,0,1
134668,-72.463768115942,4,1,0,100,0,1
134809,-66.7575013735356,4,1,0,100,0,1
134855,-67.5675675675676,4,1,0,100,0,1
134996,-62.6598609703005,4,1,0,100,0,1
135184,-66.6666666666667,4,1,0,100,0,1
135277,-68.0628165346362,4,1,0,100,0,1
135371,-69.5186942720767,4,1,0,100,0,1
135418,-68.4931506849315,4,1,0,100,0,1
135559,-72.6257023813242,4,1,0,100,0,1
135605,-71.4285714285714,4,1,0,100,0,1
135746,-76.0233695838101,4,1,0,100,0,1
135793,-74.6268656716418,4,1,0,100,0,1
135934,-62.5,4,1,0,100,0,1
136027,-64.3564420154893,4,1,0,100,0,1
136121,-66.3265441482743,4,1,0,100,0,1
136168,-65.359477124183,4,1,0,100,0,1
136309,-70.6521547140884,4,1,0,100,0,1
136355,-69.4444444444444,4,1,0,100,0,1
136496,-75.5813909545703,4,1,0,100,0,1
136543,-74.6268656716418,4,1,0,100,0,1
136684,-66.6666666666667,4,1,0,100,0,1
136777,-68.0628165346362,4,1,0,100,0,1
136871,-69.5186942720767,4,1,0,100,0,1
136918,-68.4931506849315,4,1,0,100,0,1
137059,-72.6257023813242,4,1,0,100,0,1
137105,-71.4285714285714,4,1,0,100,0,1
137246,-76.0233695838101,4,1,0,100,0,1
137293,-74.6268656716418,4,1,0,100,0,1
137434,-62.5,4,1,0,100,0,1
137496,-63.8297736532396,4,1,0,100,0,1
137559,-65.2174054820447,4,1,0,100,0,1
137621,-66.6666666666667,4,1,0,100,0,1
137809,-58.8235294117647,4,1,0,100,0,1
137871,-59.9999880000024,4,1,0,100,0,1
137934,-61.2245022907148,4,1,0,100,0,1
137996,-62.5,4,1,0,100,0,1
138184,-55.5555555555556,4,1,0,100,0,0
138277,-100,4,1,0,100,0,0
143809,-100,4,1,0,100,0,0
143996,-91.0780821506086,4,1,0,100,0,0
144090,-87.1885950342608,4,1,0,100,0,0
144184,-83.6177731249132,4,1,0,100,0,0
144230,-20,4,1,0,100,0,0
145448,-66.6666666666667,4,1,0,100,0,0
147012,-40,4,1,0,100,0,0
148559,-20,4,1,0,100,0,0
149246,-55.5555555555556,4,1,0,100,0,0
149340,-57.4548864231805,4,1,0,100,0,0
149434,-59.4886828729702,4,1,0,100,0,0
149496,-60.9264970554224,4,1,0,100,0,0
149559,-62.4354963278563,4,1,0,100,0,0
149621,-64.0211833291399,4,1,0,100,0,0
149684,-65.6894701093204,4,1,0,100,0,0
149746,-67.4470287897642,4,1,0,100,0,0
149809,-69.3012699457718,4,1,0,100,0,0
149902,-72.2819632648606,4,1,0,100,0,0
149996,-75.5305834662042,4,1,0,100,0,0
150090,-79.0849554316734,4,1,0,100,0,0
150184,-82.990375606141,4,1,0,100,0,0
156090,-83.3333333333333,4,1,0,100,0,0
156184,-82.609740844982,4,1,0,100,0,0
156277,-81.8986062495188,4,1,0,100,0,0
156371,-81.1996105666677,4,1,0,100,0,0
156559,-79.8368135530975,4,1,0,100,0,0
156652,-79.1724264606917,4,1,0,100,0,0
156746,-78.5190059179775,4,1,0,100,0,0
156934,-77.2439960172996,4,1,0,100,0,0
157027,-76.6219526491657,4,1,0,100,0,0
157121,-76.0097900609598,4,1,0,100,0,0
157309,-74.8143481949542,4,1,0,100,0,0
157402,-74.2306182000114,4,1,0,100,0,0
157496,-73.655926650482,4,1,0,100,0,0
157684,-72.5328319863986,4,1,0,100,0,0
157777,-71.9840310625491,4,1,0,100,0,0
157871,-71.443472495692,4,1,0,100,0,0
158059,-70.3863506788764,4,1,0,100,0,0
158152,-69.8694349868401,4,1,0,100,0,0
158246,-69.3600563758538,4,1,0,100,0,0
158434,-68.3632604900005,4,1,0,100,0,0
158527,-67.8755298533549,4,1,0,100,0,0
158621,-67.3947092457454,4,1,0,100,0,0
158809,-66.4532189274716,4,1,0,100,0,0
158902,-65.9923132153567,4,1,0,100,0,0
158996,-65.5377140052129,4,1,0,100,0,0
159184,-64.6470497349148,4,1,0,100,0,0
159277,-64.2107344937497,4,1,0,100,0,0
159371,-63.7802693185652,4,1,0,100,0,0
159465,-63.3555373373188,4,1,0,100,0,0
159559,-62.9364247705181,4,1,0,100,0,0
159652,-62.5228208296028,4,1,0,100,0,0
159746,-62.1146176193082,4,1,0,100,0,0
159840,-61.7117100438277,4,1,0,100,0,0
159934,-61.3139957166043,4,1,0,100,0,0
160027,-60.9213748735882,4,1,0,100,0,0
160121,-60.5337502898053,4,1,0,100,0,0
160215,-60.1510271990915,4,1,0,100,0,0
160309,-59.7731132168515,4,1,0,100,0,0
160402,-59.3999182657125,4,1,0,100,0,0
160496,-59.0313545039448,4,1,0,100,0,0
160590,-58.6673362565311,4,1,0,100,0,0
160684,-58.3078139467626,4,1,0,100,0,0
160746,-58.0705254917993,4,1,0,100,0,0
160809,-57.8351939879159,4,1,0,100,0,0
160871,-57.6017621531078,4,1,0,100,0,0
160965,-57.2551098754186,4,1,0,100,0,0
161059,-56.9126050037562,4,1,0,100,0,0
161121,-56.6865145049453,4,1,0,100,0,0
161184,-56.4622451082522,4,1,0,100,0,0
161246,-56.2397432768199,4,1,0,100,0,0
161340,-55.9092436429792,4,1,0,100,0,0
161434,-55.582605757024,4,1,0,100,0,0
161527,-20,4,1,0,100,0,0
162034,-111.111111111111,4,1,0,100,0,0
164527,-76.9230769230769,4,1,0,100,0,0
164668,-58.8235294117647,4,1,0,100,0,0
165184,-62.5,4,1,0,100,0,0
165277,-65.2174054820447,4,1,0,100,0,0
165371,-68.1818026859539,4,1,0,100,0,0
165465,-71.4285714285714,4,1,0,100,0,0
165559,-66.6666666666667,4,1,0,100,0,0
165652,-69.7674580854554,4,1,0,100,0,0
165746,-73.1707138608015,4,1,0,100,0,0
165840,-76.9230769230769,4,1,0,100,0,0
165934,-71.4285714285714,4,1,0,100,0,0
166027,-75.0000187500047,4,1,0,100,0,0
166121,-78.9473476454348,4,1,0,100,0,0
166215,-83.3333333333333,4,1,0,100,0,0
166309,-76.9230769230769,4,1,0,100,0,0
166402,-79.9347732250484,4,1,0,100,0,0
166496,-83.1918378824017,4,1,0,100,0,0
166590,-86.7256806014599,4,1,0,100,0,0
166684,-90.5729828038135,4,1,0,100,0,0
166934,-100,4,1,0,100,0,0
166996,-101.246137459856,4,1,0,100,0,0
167059,-102.523618878699,4,1,0,100,0,0
167152,-104.501616117493,4,1,0,100,0,0
167246,-106.557324643939,4,1,0,100,0,0
167340,-108.695652173913,4,1,0,100,0,0
167434,-110.921558492265,4,1,0,100,0,0
168184,-55.508126944866,4,1,0,100,0,1
172684,-55.508126944866,4,1,0,100,0,0
172871,-58.8235294117647,4,1,0,100,0,0
172934,-59.5495079721904,4,1,0,100,0,0
172996,-60.2936663312329,4,1,0,100,0,0
173059,-61.056621468485,4,1,0,100,0,0
173152,-62.2379781121479,4,1,0,100,0,0
173246,-63.4659517861857,4,1,0,100,0,0
173340,-64.7433573315378,4,1,0,100,0,0
173434,-66.0732408660352,4,1,0,100,0,0
173527,-67.4589495427295,4,1,0,100,0,0
173621,-68.9039788602593,4,1,0,100,0,0
173715,-70.4122708872721,4,1,0,100,0,0
173809,-71.9880730160627,4,1,0,100,0,0
173996,-75.3611873305786,4,1,0,100,0,0
174090,-77.1691277187648,4,1,0,100,0,0
174184,-79.0659465340256,4,1,0,100,0,0
174371,-83.1537904408066,4,1,0,100,0,0
174559,-62.3989526959779,4,1,0,100,0,1
174699,-71.2966217521715,4,1,0,100,0,1
174793,-62.3989526959779,4,1,0,100,0,1
175168,-71.2966217521715,4,1,0,100,0,1
175262,-62.3989526959779,4,1,0,100,0,1
175449,-71.2966217521715,4,1,0,100,0,1
175637,-62.3989526959779,4,1,0,100,0,1
175918,-71.2966217521715,4,1,0,100,0,1
176012,-62.3989526959779,4,1,0,100,0,1
176246,-71.4285714285714,4,1,0,100,0,1
176340,-69.4604106916242,4,1,0,100,0,1
176387,-68.5164274986571,4,1,0,100,0,1
176434,-67.5977581879475,4,1,0,100,0,1
176527,-65.8324380121764,4,1,0,100,0,1
176621,-64.1569329906498,4,1,0,100,0,1
176715,-62.5646370906943,4,1,0,100,0,1
176809,-61.0494274479447,4,1,0,100,0,1
176902,-59.6059095682982,4,1,0,100,0,1
176996,-58.2290790197717,4,1,0,100,0,1
177090,-56.9143865340561,4,1,0,100,0,1
177184,-55.6577803454567,4,1,0,100,0,1
177465,-62.5,4,1,0,100,0,1
177746,-71.4285714285714,4,1,0,100,0,1
177934,-62.5,4,1,0,100,0,1
178215,-71.4285714285714,4,1,0,100,0,1
178496,-83.3333333333333,4,1,0,100,0,1
178684,-90.9090909090909,4,1,0,100,0,0
178871,-93.7499707031342,4,1,0,100,0,0
179059,-96.774224765879,4,1,0,100,0,0
179246,-100,4,1,0,100,0,0
179434,-76.9230769230769,4,1,0,100,0,0
179496,-78.9473476454348,4,1,0,100,0,0
179559,-81.0811029948927,4,1,0,100,0,0
179621,-83.3333333333333,4,1,0,100,0,0
179809,-76.9230769230769,4,1,0,100,0,0
179902,-74.130083470474,4,1,0,100,0,0
179996,-71.5328561138059,4,1,0,100,0,0
180090,-69.1114138191036,4,1,0,100,0,0
180184,-66.8485839464463,4,1,0,100,0,1
182762,-58.965115058629,4,1,0,100,0,1
183137,-66.8485839464463,4,1,0,100,0,1
185387,-66.8485839464463,4,1,0,100,0,0
185621,-55.6818295712833,4,1,0,100,0,0
186184,-55.6818295712833,4,1,0,100,0,1
186277,-66.8485839464463,4,1,0,100,0,1
188996,-66.6666666666667,4,1,0,100,0,1
189043,-65.9440082614654,4,1,0,100,0,1
189090,-65.2368063451927,4,1,0,100,0,1
189137,-64.5446536049803,4,1,0,100,0,1
189184,-63.8670339446899,4,1,0,100,0,1
189371,-61.2930254053461,4,1,0,100,0,1
189559,-58.9184921579487,4,1,0,100,0,1
189746,-62.5,4,1,0,100,0,1
189793,-62.1150034442769,4,1,0,100,0,1
189840,-61.7346828535005,4,1,0,100,0,1
189887,-61.3590288583785,4,1,0,100,0,1
189934,-60.9879189031445,4,1,0,100,0,1
190121,-59.547238526587,4,1,0,100,0,1
190215,-58.8521246205509,4,1,0,100,0,1
190309,-58.1730858727824,4,1,0,100,0,1
190496,-56.8608921019084,4,1,0,100,0,1
190684,-55.6066209691456,4,1,0,100,0,0
190777,-25,4,1,0,100,0,0
192184,372.670807453416,4,1,0,100,1,0
192184,-125.78125,4,1,0,100,0,8
192370,-123.214235422761,4,1,0,100,0,8
192556,-120.750048300019,4,1,0,100,0,8
192743,-118.382352941176,4,1,0,100,0,8
192929,-116.105724574721,4,1,0,100,0,8
193115,-113.915137326467,4,1,0,100,0,8
193302,-111.805555555556,4,1,0,100,0,8
193488,-109.772687355386,4,1,0,100,0,8
193581,-108.783783783784,4,1,0,100,0,8
193674,370.37037037037,4,1,0,100,1,0
193674,-108.482181600779,4,1,0,100,0,8
193859,-106.578947368421,4,1,0,100,0,8
194044,-104.74134319264,4,1,0,100,0,8
194229,-102.96613659869,4,1,0,100,0,8
194414,-101.25,4,1,0,100,0,8
194599,-99.5901312819242,4,1,0,100,0,8
194692,-98.7804878048781,4,1,0,100,0,8
194785,-97.9839025754524,4,1,0,100,0,8
194970,-96.4285714285714,4,1,0,100,0,8
195155,365.853658536585,4,1,0,100,1,0
195155,-96.0937199707125,4,1,0,100,0,8
195337,-94.6154137278196,4,1,0,100,0,8
195520,-93.1818181818182,4,1,0,100,0,8
195703,-91.7910173758157,4,1,0,100,0,8
195886,-90.4412030709421,4,1,0,100,0,8
196069,-89.1304347826087,4,1,0,100,0,8
196252,-87.8571177551092,4,1,0,100,0,8
196435,-86.6197427097867,4,1,0,100,0,8
196526,-86.0139619541365,4,1,0,100,0,8
196618,361.44578313253,4,1,0,100,1,0
196618,-86.4583333333333,4,1,0,100,0,8
196798,-85.2739492400139,4,1,0,100,0,8
196979,-84.1216443572012,4,1,0,100,0,8
197160,-83,4,1,0,100,0,8
197340,-81.9078731821386,4,1,0,100,0,8
197521,-80.8441768426433,4,1,0,100,0,8
197611,-80.3225599167587,4,1,0,100,0,8
197702,-79.8076923076923,4,1,0,100,0,8
197883,-78.7974484057093,4,1,0,100,0,8
198063,359.281437125748,4,1,0,100,1,0
198063,-78.2812695703174,4,1,0,100,0,8
198152,-77.7950117279474,4,1,0,100,0,8
198242,-77.3148148148148,4,1,0,100,0,8
198332,-76.8405096541128,4,1,0,100,0,8
198422,-76.3719325922116,4,1,0,100,0,8
198512,-75.9090909090909,4,1,0,100,0,8
198601,-75.4518254100784,4,1,0,100,0,8
198691,-74.9999820359324,4,1,0,100,0,8
198781,-74.5535714285714,4,1,0,100,0,8
198871,-74.1124435769097,4,1,0,100,0,8
198961,-73.6764532525992,4,1,0,100,0,8
199051,-73.2456140350877,4,1,0,100,0,8
199140,-72.819784376694,4,1,0,100,0,8
199230,-72.3988271910226,4,1,0,100,0,8
199320,-71.9827586206897,4,1,0,100,0,8
199410,-71.571444930616,4,1,0,100,0,8
199500,352.941176470588,4,1,0,100,1,0
199500,-72.4431653538261,4,1,0,100,0,8
199588,-72.0338983050847,4,1,0,100,0,8
199676,-71.6292295796022,4,1,0,100,0,8
199764,-71.229034362227,4,1,0,100,0,8
199852,-70.8333333333333,4,1,0,100,0,8
199941,-70.4420045175701,4,1,0,100,0,8
200029,-70.0549296582572,4,1,0,100,0,8
200117,-69.672131147541,4,1,0,100,0,8
200205,-69.2934933246725,4,1,0,100,0,8
200294,-68.9189040175343,4,1,0,100,0,8
200382,-68.5483870967742,4,1,0,100,0,8
200470,-68.1818327661674,4,1,0,100,0,8
200558,-67.8191345065671,4,1,0,100,0,8
200617,-67.5795148522282,4,1,0,100,0,8
200676,-67.3415398110507,4,1,0,100,0,8
200735,-67.1052772853215,4,1,0,100,0,8
200794,-66.8706246943619,4,1,0,100,0,8
200852,-66.6376492369754,4,1,0,100,0,8
200911,-66.40625,4,1,0,100,0,8
202146,-76.9230769230769,4,1,0,100,0,8
202205,-75.0000187500047,4,1,0,100,0,8
202263,-73.1707138608015,4,1,0,100,0,8
202322,-71.4285714285714,4,1,0,100,0,8
202911,-76.9230769230769,4,1,0,100,0,8
202969,-78.0141954630065,4,1,0,100,0,8
203028,-79.136713420637,4,1,0,100,0,8
203146,-81.4814633744896,4,1,0,100,0,8
203322,-85.271337660001,4,1,0,100,0,8
203499,-89.4308797673366,4,1,0,100,0,8
203558,-90.9090909090909,4,1,0,100,0,8
203647,-71.4285714285714,4,1,0,100,0,8
203735,-71.4285714285714,4,1,0,100,0,9
203823,-83.3333333333333,4,1,0,100,0,9
213617,-83.3333333333333,4,1,0,100,0,8
213793,-83.3333333333333,4,1,0,100,0,8
213881,-84.4988541955371,4,1,0,100,0,8
214058,-86.9304426063485,4,1,0,100,0,8
214146,-88.1995214293967,4,1,0,100,0,8
214322,-90.8521018633766,4,1,0,100,0,8
214411,-92.2391798830038,4,1,0,100,0,8
214499,-93.6692687989539,4,1,0,100,0,8
214587,-95.1444006568769,4,1,0,100,0,8
214675,-96.6666441111164,4,1,0,100,0,8
214852,-99.8622899022248,4,1,0,100,0,8
215029,-71.3582835193049,4,1,0,100,0,9
215073,-76.8415657544804,4,1,0,100,0,9
220058,-83.2376793667943,4,1,0,100,0,9
220852,-83.3333333333333,4,1,0,100,0,9
220940,-82.4388715767259,4,1,0,100,0,9
221028,-81.5634073929073,4,1,0,100,0,9
221116,-80.7063419043468,4,1,0,100,0,9
221205,-79.8671011436969,4,1,0,100,0,9
221381,-78.2399760898633,4,1,0,100,0,9
221469,-77.4509948193029,4,1,0,100,0,9
221646,-75.9198256273445,4,1,0,100,0,9
221734,-75.1767216784857,4,1,0,100,0,9
221822,-74.4480237399858,4,1,0,100,0,9
221911,-73.7333169153814,4,1,0,100,0,9
221999,-73.032202088867,4,1,0,100,0,9
222087,-72.3443475190953,4,1,0,100,0,9
222175,-71.6692778173552,4,1,0,100,0,9
222263,-71.0066902503554,4,1,0,100,0,9
222440,-69.7176018818175,4,1,0,100,0,9
222528,-69.0904518377369,4,1,0,100,0,9
222616,-68.4744843528956,4,1,0,100,0,9
222705,-67.8694029800098,4,1,0,100,0,9
222881,-66.6907642628203,4,1,0,100,0,9
222969,-66.116707890434,4,1,0,100,0,9
223058,-65.5524068549463,4,1,0,100,0,9
223146,-64.9976568344711,4,1,0,100,0,9
223234,-64.4522173818607,4,1,0,100,0,9
223411,-63.3883480806325,4,1,0,100,0,9
223499,-62.8694760520735,4,1,0,100,0,9
223587,-62.3590296186683,4,1,0,100,0,9
223631,-62.106902126354,4,1,0,100,0,9
223675,-61.8568052073533,4,1,0,100,0,9
223763,-61.3626434044976,4,1,0,100,0,9
223852,-60.8762774886831,4,1,0,100,0,9
223896,-60.6359743534083,4,1,0,100,0,9
223940,-60.3975609049004,4,1,0,100,0,9
224028,-59.9263146035635,4,1,0,100,0,9
224116,-59.4623650798936,4,1,0,100,0,9
224161,-59.2330738529811,4,1,0,100,0,9
224205,-59.0055441609294,4,1,0,100,0,9
224293,-58.5556888022785,4,1,0,100,0,9
224381,-58.1126408940979,4,1,0,100,0,9
224469,-57.6762470758143,4,1,0,100,0,9
224513,-57.4605317972218,4,1,0,100,0,9
224558,-57.2463913306065,4,1,0,100,0,9
224646,-56.8228632472562,4,1,0,100,0,9
224734,-56.4055559472608,4,1,0,100,0,9
224822,-55.9943333734626,4,1,0,100,0,9
224911,-55.5890634076652,4,1,0,100,0,8
224955,-20,4,1,0,100,0,8
226147,-100,4,1,0,75,0,8
226322,-125,4,1,0,75,0,8
226675,352.505728218084,4,1,0,75,1,8
226851,-123.623538796834,4,1,0,75,0,8
227027,352.071353127567,4,1,0,75,1,8
227379,351.658656663932,4,1,0,75,1,8
227379,-122.426645387647,4,1,0,75,0,8
227730,351.226365392495,4,1,0,75,1,0
227730,-121.602302862526,4,1,0,75,0,0
228081,350.795135640786,4,1,0,75,1,8
228256,-120.317574516332,4,1,0,75,0,8
228435,350.36496350365,4,1,0,75,1,8
228435,-119.984314964693,4,1,0,75,0,8
228610,-119.517778411913,4,1,0,75,0,8
228782,349.935845095066,4,1,0,75,1,8
228782,-119.208765459318,4,1,0,75,0,8
228956,-118.751409217349,4,1,0,75,0,8
229132,349.507776548028,4,1,0,75,1,0
229132,-118.294950581654,4,1,0,75,0,8
229482,349.080754014429,4,1,0,75,1,8
229832,348.675034867503,4,1,0,75,1,8
230006,-116.483990101989,4,1,0,75,0,8
230181,348.250043531255,4,1,0,75,1,8
230181,-116.279069767442,4,1,0,75,0,8
230355,-115.755531626219,4,1,0,75,0,8
230530,347.826086956522,4,1,0,75,1,0
230530,-115.464418826203,4,1,0,75,0,0
230878,347.403161368768,4,1,0,75,1,8
230878,-114.75398858071,4,1,0,75,0,8
231226,346.981263011797,4,1,0,75,1,8
231226,-113.91782225507,4,1,0,75,0,8
231573,346.580406654344,4,1,0,75,1,8
231573,-113.359865895646,4,1,0,75,0,8
231920,346.160503086598,4,1,0,75,1,0
231920,-112.682261023071,4,1,0,75,0,0
232267,345.741615765818,4,1,0,75,1,8
232439,-111.619803350091,4,1,0,75,0,8
232613,345.323741007194,4,1,0,75,1,8
232959,344.906875143711,4,1,0,75,1,8
232959,-110.711097797936,4,1,0,75,0,8
233304,344.491014526038,4,1,0,75,1,0
233304,-110.075310269243,4,1,0,75,0,0
233649,344.076155522422,4,1,0,75,1,8
233821,-109.073418424342,4,1,0,75,0,8
233994,343.681979608203,4,1,0,75,1,8
233994,-108.70110740881,4,1,0,75,0,8
234165,-108.455576863042,4,1,0,75,0,8
234338,343.269065736026,4,1,0,75,1,8
234338,-108.087884944715,4,1,0,75,0,8
234509,-107.852255941305,4,1,0,75,0,8
234683,342.857142857143,4,1,0,75,1,0
234683,-107.489072005301,4,1,0,75,0,8
235026,342.446207408253,4,1,0,75,1,8
235197,-106.669749897103,4,1,0,75,0,8
235369,342.036255843119,4,1,0,75,1,8
235708,341.646737273659,4,1,0,75,1,8
235708,-105.870784597217,4,1,0,75,0,8
236050,341.238696468179,4,1,0,75,1,0
236050,-105.182416237308,4,1,0,75,0,8
236220,-104.965946263206,4,1,0,75,0,0
236396,340.831629175187,4,1,0,75,1,8
236566,-104.404759401369,4,1,0,75,0,8
236737,340.425531914894,4,1,0,75,1,8
236737,-104.070712378855,4,1,0,75,0,8
236907,-103.860598744816,4,1,0,75,0,8
237078,340.020401224073,4,1,0,75,1,8
237078,-103.530411890478,4,1,0,75,0,8
237248,-103.323356158425,4,1,0,75,0,8
237409,339.616233655969,4,1,0,75,1,0
237409,-103.136781095657,4,1,0,75,0,0
237741,339.21302578019,4,1,0,75,1,8
237910,-102.306767666556,4,1,0,75,0,8
238081,338.829907386492,4,1,0,75,1,8
238420,338.428563370749,4,1,0,75,1,8
238420,-101.471386275356,4,1,0,75,0,8
238759,338.028169014084,4,1,0,75,1,0
238759,-100.967303177375,4,1,0,75,0,8
239012,-100.623504428061,4,1,0,75,0,0
239098,337.628720949862,4,1,0,75,1,8
239436,337.230215827338,4,1,0,75,1,8
239436,-100.095644337808,4,1,0,75,0,8
239774,336.851560745565,4,1,0,75,1,8
239774,-99.4951025481969,4,1,0,75,0,8
240103,336.454887007234,4,1,0,75,1,0
240103,-99.1419152915355,4,1,0,75,0,0
240440,336.059146409768,4,1,0,75,1,8
240608,-98.3793390840378,4,1,0,75,0,8
240767,335.664335664336,4,1,0,75,1,8
240934,-97.9349800469514,4,1,0,75,0,8
241103,335.270451497541,4,1,0,75,1,8
241103,-97.6488329482148,4,1,0,75,0,8
241270,-97.4787392043523,4,1,0,75,0,8
241439,334.877490651337,4,1,0,75,1,0
241439,-97.1955798272832,4,1,0,75,0,8
241690,-96.8874708852896,4,1,0,75,0,0
241774,334.48544988293,4,1,0,75,1,8
241857,-96.7229500322625,4,1,0,75,0,8
241941,-96.5836793300396,4,1,0,75,0,8
242109,334.112930170398,4,1,0,75,1,8
242109,-96.307983810911,4,1,0,75,0,8
242276,-96.13929223816,4,1,0,75,0,8
242444,333.722676455865,4,1,0,75,1,8
242444,-95.9769022291506,4,1,0,75,0,8
242610,-95.7068960303588,4,1,0,75,0,8
242694,-95.5708444384568,4,1,0,75,0,8
242773,333.333333333333,4,1,0,75,1,0
242773,-95.5547241515178,4,1,0,75,0,0
243107,332.944897619444,4,1,0,75,1,8
243273,-94.8645728624225,4,1,0,75,0,8
243444,332.55736614566,4,1,0,75,1,8
243777,332.189126342598,4,1,0,75,1,8
243777,-94.2840311555734,4,1,0,75,0,8
244110,331.803351213847,4,1,0,75,1,0
244110,-93.8741537150339,4,1,0,75,0,0
244275,-93.6188576894923,4,1,0,75,0,0
244358,-93.4909602683632,4,1,0,75,0,0
244442,331.41847105612,4,1,0,75,1,8
244607,-93.2174851592013,4,1,0,75,0,8
244690,-93.0908282029389,4,1,0,75,0,8
244774,331.034482758621,4,1,0,75,1,8
244774,-93.0708289953148,4,1,0,75,0,8
244939,-92.8204577575212,4,1,0,75,0,8
245106,330.651383224953,4,1,0,75,1,8
245106,-92.6756713243105,4,1,0,75,0,8
245271,-92.4277053058917,4,1,0,75,0,8
245353,-92.3049666379083,4,1,0,75,0,8
245437,330.269169373039,4,1,0,75,1,0
245437,-92.2862494478387,4,1,0,75,0,0
245602,-92.0406436634311,4,1,0,75,0,0
245684,-91.919070665175,4,1,0,75,0,0
245768,329.887838135034,4,1,0,75,1,8
245850,-91.7799097833414,4,1,0,75,0,8
245932,-91.6591635359929,4,1,0,75,0,8
246098,329.525483304042,4,1,0,75,1,8
246098,-91.4171588211134,4,1,0,75,0,8
246180,-91.3962969345838,4,1,0,75,0,8
246262,-91.2766886385996,4,1,0,75,0,8
246345,-91.1559400904737,4,1,0,75,0,8
246433,329.145866476494,4,1,0,75,1,8
246515,-91.0144679982357,4,1,0,75,0,8
246597,-90.8959928122246,4,1,0,75,0,8
246679,-90.7778256678329,4,1,0,75,0,8
246763,328.767123287671,4,1,0,75,1,0
246763,-90.9090909090909,4,1,0,75,0,0
246845,-90.6438498445893,4,1,0,75,0,0
246927,-90.5264719971191,4,1,0,75,0,0
247009,-90.4093977497527,4,1,0,75,0,0
247096,328.389250725193,4,1,0,75,1,8
247178,-90.2728193928522,4,1,0,75,0,8
247260,-90.1565335177375,4,1,0,75,0,8
247342,-90.0405468469288,4,1,0,75,0,8
247417,328.01224579051,4,1,0,75,1,8
247417,-90.0380900643016,4,1,0,75,0,8
247499,-89.922540391367,4,1,0,75,0,8
247581,-89.8072869178305,4,1,0,75,0,8
247663,-89.6923285062362,4,1,0,75,0,8
247749,327.653997378768,4,1,0,80,1,8
247749,-89.6700139296924,4,1,0,80,0,8
247830,-89.5569258386352,4,1,0,80,0,8
247912,-89.442731775853,4,1,0,80,0,8
247994,-89.3288285599788,4,1,0,80,0,8
248082,327.278677794142,4,1,0,90,1,0
248082,-89.3092147516794,4,1,0,90,0,0
248163,-89.1971626490526,4,1,0,90,0,0
248245,-89.0840132252461,4,1,0,90,0,0
248327,-88.9711505049974,4,1,0,90,0,0
248410,326.9042170644,4,1,0,90,1,8
248491,-88.847937506478,4,1,0,90,0,8
248573,-88.7358000852887,4,1,0,90,0,8
248655,-88.6239453707234,4,1,0,90,0,8
248737,326.530612244898,4,1,0,90,1,8
248818,-88.5035822869148,4,1,0,90,0,8
248900,-88.3924388837672,4,1,0,90,0,8
249063,326.157860404436,4,1,0,90,1,8
249063,-88.2731027607779,4,1,0,90,0,8
249144,-88.1640083360906,4,1,0,90,0,8
249226,-88.0538413914847,4,1,0,90,0,8
249307,-87.9452879192881,4,1,0,90,0,8
249389,325.785958625183,4,1,0,90,1,0
249389,-87.8277957549417,4,1,0,90,0,0
249470,-87.8277957549417,4,1,0,90,0,0
249551,-87.7199215599059,4,1,0,90,0,0
249714,325.414904002603,4,1,0,90,1,8
249714,-87.6034186883313,4,1,0,90,0,8
249795,-87.4962167206049,4,1,0,90,0,8
249876,-87.3892768023726,4,1,0,90,0,8
249958,-87.2812825789401,4,1,0,90,0,8
250039,325.062303608192,4,1,0,90,1,8
250039,-87.2694270942933,4,1,0,90,0,8
250120,-87.1631556295781,4,1,0,90,0,8
250201,-87.0571426720772,4,1,0,90,0,8
250282,-86.9513872797013,4,1,0,90,0,8
250364,324.692894637156,4,1,0,90,1,8
250364,-86.9433923168331,4,1,0,90,0,8
250445,-86.8380326642562,4,1,0,90,0,8
250526,-86.7329280562638,4,1,0,90,0,8
250607,-86.6280775678942,4,1,0,90,0,8
250688,324.324324324324,4,1,0,90,1,0
250688,-86.621807736083,4,1,0,90,0,0
250769,-86.5173441496283,4,1,0,90,0,0
250850,-86.4131322202719,4,1,0,90,0,0
250931,-86.3091710397294,4,1,0,90,0,0
251008,323.956589816965,4,1,0,90,1,8
251088,-86.2061213324274,4,1,0,90,0,8
251169,-86.1027745266839,4,1,0,90,0,8
251250,-85.9996752155083,4,1,0,90,0,8
251333,323.589688275267,4,1,0,90,1,8
251413,-85.8902264787859,4,1,0,90,0,8
251494,-85.7877512979346,4,1,0,90,0,8
251657,323.241030061416,4,1,0,90,1,8
251657,-85.5835327655685,4,1,0,90,0,8
251737,-85.5739910907538,4,1,0,90,0,8
251818,-85.4723781441975,4,1,0,90,0,8
251899,-85.3710062275359,4,1,0,90,0,8
251981,322.875746650164,4,1,0,90,1,0
251981,-85.3650955578031,4,1,0,90,0,0
252061,-85.2653374448385,4,1,0,90,0,0
252142,-85.1645696203546,4,1,0,90,0,0
252298,322.511287895076,4,1,0,90,1,8
252298,-85.0671907628757,4,1,0,90,0,8
252378,-84.9682389890487,4,1,0,90,0,8
252539,-84.7697947418438,4,1,0,90,0,8
252621,322.147651006711,4,1,0,90,1,8
252621,-84.7646531820072,4,1,0,90,0,8
252782,-84.5673798054031,4,1,0,90,0,8
252944,321.784833208195,4,1,0,90,1,8
252944,-84.4649341387533,4,1,0,90,0,8
253104,-84.2704843570409,4,1,0,90,0,8
253185,-84.1723851082026,4,1,0,90,0,8
253266,321.422831735148,4,1,0,100,1,0
253266,-84.169202650532,4,1,0,100,0,0
253346,-84.072654346117,4,1,0,100,0,0
253426,-83.9763272840213,4,1,0,100,0,0
253507,-83.87902076443,4,1,0,100,0,0
253588,321.061643835616,4,1,0,100,1,8
253668,-83.7804224556699,4,1,0,100,0,8
253748,-83.6848708747022,4,1,0,100,0,8
253828,-83.5895369986191,4,1,0,100,0,8
253915,320.71840923669,4,1,0,100,1,8
253995,-83.4804715910278,4,1,0,100,0,8
254075,-83.3857038915654,4,1,0,100,0,8
254235,320.358801858081,4,1,0,100,1,8
254235,-83.2902021395169,4,1,0,100,0,8
254315,-83.1959713500975,4,1,0,100,0,8
254395,-83.1019535366824,4,1,0,100,0,8
254475,-83.0081479780492,4,1,0,100,0,8
254554,320,4,1,0,100,1,0
254554,-83.0086923142398,4,1,0,100,0,0
254634,-82.9152017742129,4,1,0,100,0,0
254714,-82.8219215892158,4,1,0,100,0,0
254874,319.642000958926,4,1,0,100,1,8
254874,-82.7285417590604,4,1,0,100,0,8
254953,-82.6369428055642,4,1,0,100,0,8
255033,-82.544390848752,4,1,0,100,0,8
255113,-82.4520459732168,4,1,0,100,0,8
255193,319.284802043423,4,1,0,100,1,8
255193,-82.4520473844263,4,1,0,100,0,8
255272,-82.3611609197225,4,1,0,100,0,8
255352,-82.2693279536245,4,1,0,100,0,8
255432,-82.1776995475616,4,1,0,100,0,8
255512,318.945354029343,4,1,0,100,1,8
255512,-82.1736380190339,4,1,0,100,0,8
255591,-82.0834598301288,4,1,0,100,0,8
255671,-81.9923416201168,4,1,0,100,0,8
255751,-81.9014254805843,4,1,0,100,0,8
255836,318.589709552381,4,1,0,100,1,0
255836,-81.8963674303029,4,1,0,100,0,0
255915,-81.8068962104399,4,1,0,100,0,0
255995,-81.7164914442812,4,1,0,100,0,0
256074,-81.6274126056141,4,1,0,100,0,0
256160,318.234857324706,4,1,0,100,1,8
256239,-81.532799880359,4,1,0,100,0,8
256319,-81.4430994858026,4,1,0,100,0,8
256398,-81.3547138230336,4,1,0,100,0,8
256478,317.880794701987,4,1,0,100,1,8
256478,-81.3559198333533,4,1,0,100,0,8
256557,-81.2678212091101,4,1,0,100,0,8
256636,-81.1799131787923,4,1,0,100,0,8
256716,-81.0910859844032,4,1,0,100,0,8
256792,317.527519051651,4,1,0,100,1,8
256871,-81.009564982119,4,1,0,100,0,8
256950,-80.9223114513939,4,1,0,100,0,8
257030,-80.8341447783035,4,1,0,100,0,8
257106,317.175027752815,4,1,0,100,1,0
257106,-80.8403060473195,4,1,0,100,0,0
257185,-80.7535129034965,4,1,0,100,0,0
257264,-80.6669059284572,4,1,0,100,0,0
257343,-80.5804845238534,4,1,0,100,0,0
257419,316.823318196219,4,1,0,100,1,8
257498,-80.5007262589993,4,1,0,100,0,8
257577,-80.4147557013532,4,1,0,100,0,8
257739,316.489081126701,4,1,0,100,1,8
257739,-80.243364284269,4,1,0,100,0,8
257897,-80.1529491997444,4,1,0,100,0,8
257976,-80.0678092784456,4,1,0,100,0,8
258048,316.138890352495,4,1,0,100,1,8
258048,-80.0789770689007,4,1,0,100,0,8
258127,-79.9940880736136,4,1,0,100,0,8
258206,-79.9093788636057,4,1,0,100,0,8
258285,-79.8248488683339,4,1,0,100,0,8
258361,315.789473684211,4,1,0,100,1,0
258361,-79.8319327731091,4,1,0,100,0,0
259557,-125,4,1,0,100,0,0
260729,-111.111111111111,4,1,0,100,0,0
262150,-100,4,1,0,100,0,0
262466,-90.9090909090909,4,1,0,100,0,0
262782,-83.3333333333333,4,1,0,100,0,0
263097,-76.9230769230769,4,1,0,100,0,0
263413,-71.4285714285714,4,1,0,100,0,0
263650,-83.3333333333333,4,1,0,100,0,0
263729,-82.8810789127329,4,1,0,100,0,0
263887,-81.9910711723493,4,1,0,100,0,0
264045,-81.1199748203598,4,1,0,100,0,0
264124,-80.6912984924445,4,1,0,100,0,0
264282,-79.847523169755,4,1,0,100,0,0
264361,-79.4321554074234,4,1,0,100,0,0
264518,-78.614312678995,4,1,0,100,0,0
264676,-77.8131395267405,4,1,0,100,0,0
264913,-76.6415665536204,4,1,0,100,0,0
264992,-76.2588622330273,4,1,0,100,0,0
265150,-75.5047492487277,4,1,0,100,0,0
265308,-74.765404850929,4,1,0,100,0,0
265387,-74.4011636341992,4,1,0,100,0,0
265545,-73.6831712057956,4,1,0,100,0,0
265624,-73.329319775231,4,1,0,100,0,0
265782,-72.6317685545116,4,1,0,100,0,0
265939,-71.9473633090031,4,1,0,100,0,0
266176,-70.944627718066,4,1,0,100,0,0
266255,-70.6165816207635,4,1,0,100,0,0
266413,-69.9694583314383,4,1,0,100,0,0
266571,-69.3340876882074,4,1,0,100,0,0
266650,-69.0207338284421,4,1,0,100,0,0
266808,-68.402400377034,4,1,0,100,0,0
266887,-68.0973465187955,4,1,0,100,0,0
267045,-67.4953748794364,4,1,0,100,0,0
267203,-66.9039974469435,4,1,0,100,0,0
267439,-66.0360226503558,4,1,0,100,0,0
267518,-65.7517097088317,4,1,0,100,0,0
267676,-65.1903231484318,4,1,0,100,0,0
267834,-64.6384416447381,4,1,0,100,0,0
267913,-64.3660108842924,4,1,0,100,0,0
268071,-63.8279402978978,4,1,0,100,0,0
268150,-63.562244281146,4,1,0,100,0,0
268308,-63.0375129936074,4,1,0,100,0,0
268466,-62.5213354057072,4,1,0,100,0,0
268854,-58.8424282151797,4,1,0,100,0,0
269374,-55.5724125206868,4,1,0,100,0,0
269584,-71.456439439953,4,1,0,100,0,0
270953,-62.5213354057072,4,1,0,100,0,0
271341,-58.8424282151797,4,1,0,100,0,0
271861,-55.5724125206868,4,1,0,100,0,0
272190,-71.456439439953,4,1,0,100,0,0
273045,-66.6666666666667,4,1,0,100,0,0
273203,-65.2174054820447,4,1,0,100,0,0
273282,-64.5161290322581,4,1,0,100,0,0
273361,-63.8297736532396,4,1,0,100,0,0
273439,-63.1579080332438,4,1,0,100,0,0
273518,-62.5,4,1,0,100,0,0
273676,-61.2245022907148,4,1,0,100,0,0
273834,-59.9999880000024,4,1,0,100,0,0
273992,-58.8235294117647,4,1,0,100,0,0
274150,-57.6923187869844,4,1,0,100,0,0
274308,-56.6037629049504,4,1,0,100,0,0
274466,-55.5555555555556,4,1,0,100,0,0
274703,-71.4285714285714,4,1,0,100,0,0
276045,-62.5,4,1,0,100,0,0
276203,-61.2245022907148,4,1,0,100,0,0
276361,-59.9999880000024,4,1,0,100,0,0
276518,-58.8235294117647,4,1,0,100,0,0
276676,-57.6923187869844,4,1,0,100,0,0
276834,-56.6037629049504,4,1,0,100,0,0
276992,-55.5555555555556,4,1,0,100,0,0
277308,-62.5,4,1,0,100,0,0
277466,-64.5161290322581,4,1,0,100,0,0
277545,-65.5737704918033,4,1,0,100,0,0
277624,-66.6666666666667,4,1,0,100,0,0
277782,-68.9655172413793,4,1,0,100,0,0
277861,-70.1754385964912,4,1,0,100,0,0
277939,-71.4285714285714,4,1,0,100,0,0
278018,-72.7272727272727,4,1,0,100,0,0
278097,-74.0740740740741,4,1,0,100,0,0
278176,-75.4716981132076,4,1,0,100,0,0
278255,-76.9230769230769,4,1,0,100,0,0
278334,-78.4313725490196,4,1,0,100,0,0
278413,-80,4,1,0,100,0,0
278492,-81.6326530612245,4,1,0,100,0,0
278568,-83.3333333333333,4,1,0,100,0,0
278726,-82.8067509198528,4,1,0,100,0,0
278887,314.201927105153,4,1,0,100,1,8
278887,-82.7025464463959,4,1,0,100,0,8
278962,-82.4469680540496,4,1,0,100,0,8
279041,-82.189718143853,4,1,0,100,0,8
279201,312.613973844631,4,1,0,100,1,8
279201,-82.0981284759238,4,1,0,100,0,8
279354,-81.5984675816414,4,1,0,100,0,8
279513,311.058116024677,4,1,0,100,1,8
279513,-81.5105240707634,4,1,0,100,0,8
279587,-81.2678675715,4,1,0,100,0,8
279665,-81.0235283019252,4,1,0,100,0,8
279824,309.501702259362,4,1,0,100,1,0
279824,-80.9442446877378,4,1,0,100,0,0
279975,-80.4694260505568,4,1,0,100,0,0
280133,307.976593778873,4,1,0,100,1,8
280133,-80.3932640029338,4,1,0,100,0,8
280206,-80.1625628979563,4,1,0,100,0,8
280283,-79.9301726512359,4,1,0,100,0,8
280440,306.450789110782,4,1,0,100,1,8
280440,-79.8650856506793,4,1,0,100,0,8
280590,-79.4102934032268,4,1,0,100,0,8
280666,-79.1863035613828,4,1,0,100,0,8
280746,304.955527318933,4,1,0,100,1,8
280746,-79.3478123253065,4,1,0,100,0,8
280819,-79.1252624586525,4,1,0,100,0,8
280895,-78.9039574887611,4,1,0,100,0,8
281050,303.474786303171,4,1,0,100,1,0
281050,-78.8478942553091,4,1,0,100,0,0
281122,-78.632069727238,4,1,0,100,0,0
281198,-78.4145694615781,4,1,0,100,0,0
281274,-78.1982691102759,4,1,0,100,0,0
281353,301.993154821824,4,1,0,100,1,8
281353,-78.3657578505407,4,1,0,100,0,8
281425,-78.1535991731848,4,1,0,100,0,8
281500,-77.9425861435215,4,1,0,100,0,8
281576,-77.7299187870589,4,1,0,100,0,8
281654,300.540973752755,4,1,0,100,1,8
281654,-77.8957582290433,4,1,0,100,0,8
281726,-77.6871386794369,4,1,0,100,0,8
281801,-77.4796335901902,4,1,0,100,0,8
281876,-77.2732340548039,4,1,0,100,0,8
281954,299.087782264094,4,1,0,100,1,8
281954,-77.4423847443188,4,1,0,100,0,8
282025,-77.2399066864776,4,1,0,100,0,8
282100,-77.0357699255541,4,1,0,100,0,8
282253,297.663342759339,4,1,0,100,1,0
282253,-76.9974254287571,4,1,0,100,0,0
282324,-76.798215251786,4,1,0,100,0,0
282398,-76.6000332205183,4,1,0,100,0,0
282473,-76.4002139971334,4,1,0,100,0,0
282550,296.237780191567,4,1,0,100,1,8
282550,-76.5707892454468,4,1,0,100,0,8
282621,-76.3747188484032,4,1,0,100,0,8
282695,-76.1796500189833,4,1,0,100,0,8
282769,-75.9855751024203,4,1,0,100,0,8
282846,294.840294840295,4,1,0,100,1,8
282846,-76.1517280891526,4,1,0,100,0,8
282916,-75.9613096418515,4,1,0,100,0,8
282990,-75.769252210066,4,1,0,100,0,8
283064,-75.5781635091068,4,1,0,100,0,8
283140,293.455932700773,4,1,0,100,1,8
283140,-75.7462501230128,4,1,0,100,0,8
283210,-75.5587339720708,4,1,0,100,0,8
283283,-75.3721439521133,4,1,0,100,0,8
283433,292.070291583508,4,1,0,100,1,0
283433,-75.3550018424951,4,1,0,100,0,0
283503,-75.1702896053472,4,1,0,100,0,0
283576,-74.9864806972883,4,1,0,100,0,0
283649,-74.8035685079307,4,1,0,100,0,0
283725,290.711759290663,4,1,0,100,1,8
283725,-74.9702622807019,4,1,0,100,0,8
283794,-74.7907644460315,4,1,0,100,0,8
283867,-74.6096489773116,4,1,0,100,0,8
283940,-74.4294085783658,4,1,0,100,0,8
284015,289.351851851852,4,1,0,100,1,8
284015,-74.6014630501643,4,1,0,100,0,8
284084,-74.4245542385046,4,1,0,100,0,8
284156,-74.2484824797751,4,1,0,100,0,8
284229,-74.070813773543,4,1,0,100,0,8
284304,288.018433179724,4,1,0,100,1,8
284304,-74.2385228252619,4,1,0,100,0,8
284373,-74.0641345950763,4,1,0,100,0,8
284445,-73.8905637298989,4,1,0,100,0,8
284517,-73.7178044966288,4,1,0,100,0,8
284592,286.683549142338,4,1,0,100,1,0
284592,-73.8883026158069,4,1,0,100,0,0
284660,-73.7187354335158,4,1,0,100,0,0
284732,-73.54757293912,4,1,0,100,0,0
284804,-73.377203424558,4,1,0,100,0,0
284878,285.374554102259,4,1,0,100,1,8
284878,-73.5457808405714,4,1,0,100,0,8
284946,-73.3785456868537,4,1,0,100,0,8
285017,-73.2120693569682,4,1,0,100,0,8
285089,-73.0440179336985,4,1,0,100,0,8
285163,284.077458453672,4,1,0,100,1,8
285163,-73.2118195880949,4,1,0,100,0,8
285231,-73.0468496052089,4,1,0,100,0,8
285302,-72.8826214126196,4,1,0,100,0,8
285373,-72.7191300183415,4,1,0,100,0,8
285447,282.778772740126,4,1,0,100,1,8
285447,-72.8895918157415,4,1,0,100,0,8
285514,-72.7291026540939,4,1,0,100,0,8
285585,-72.5670411316873,4,1,0,100,0,8
285656,-72.4057002435947,4,1,0,100,0,8
285729,281.505114009571,4,1,0,100,1,0
285729,-72.5742127628785,4,1,0,100,0,0
285796,-72.4158229489045,4,1,0,100,0,0
285866,-72.2581229860367,4,1,0,100,0,0
285937,-72.0988702549484,4,1,0,100,0,0
286010,280.22978842651,4,1,0,100,1,8
286010,-72.2699567177197,4,1,0,100,0,8
286077,-72.1136007612913,4,1,0,100,0,8
286147,-71.9579198961166,4,1,0,100,0,8
286217,-71.8029097593962,4,1,0,100,0,8
286290,278.97893709025,4,1,0,100,1,8
286290,-71.9698150258188,4,1,0,100,0,8
286356,-71.8176449811788,4,1,0,100,0,8
286426,-71.6639257068184,4,1,0,100,0,8
286496,-71.5108630718188,4,1,0,100,0,8
286568,277.726346972783,4,1,0,100,1,8
286568,-71.6824733941544,4,1,0,100,0,8
286634,-71.5321911061076,4,1,0,100,0,8
286703,-71.3825376333105,4,1,0,100,0,8
286773,-71.2313537770177,4,1,0,100,0,8
286853,276.497695852535,4,1,0,100,1,0
286853,-71.3815789473684,4,1,0,100,0,0
287405,-100,4,1,0,100,0,0
287475,-97.5855386038632,4,1,0,100,0,0
287544,-95.2848301786114,4,1,0,100,0,0
287613,-93.090194158218,4,1,0,100,0,0
287682,-90.9943774574169,4,1,0,100,0,0
287751,-88.9908526302581,4,1,0,100,0,0
287820,-87.0735789156553,4,1,0,100,0,0
287889,-85.2372493598683,4,1,0,100,0,0
287958,-83.4767742570985,4,1,0,100,0,1
303857,-86.9565217391304,4,1,0,100,0,1
303903,-84.5070660583285,4,1,0,100,0,1
303949,-82.1917583036279,4,1,0,100,0,1
303995,-80,4,1,0,100,0,1
304410,-83.3333333333333,4,1,0,100,0,1
304456,-81.0811029948927,4,1,0,100,0,1
304502,-78.9473476454348,4,1,0,100,0,1
304548,-76.9230769230769,4,1,0,100,0,1
304583,-20,4,1,0,100,0,1
305378,-100,4,1,0,100,0,1
305447,-95.2380952380952,4,1,0,100,0,1
305516,-90.9090909090909,4,1,0,100,0,1
305585,-86.9565217391304,4,1,0,100,0,1
305654,-83.3333333333333,4,1,0,100,0,1
318916,-83.2283639596918,4,1,0,100,0,1
319054,-82.8050129008478,4,1,0,100,0,1
319124,-82.5919117647059,4,1,0,100,0,1
319193,-82.3829256665078,4,1,0,100,0,1
319331,-81.9681103367753,4,1,0,100,0,1
319400,-81.7622652496724,4,1,0,100,0,1
319469,-81.5574514430931,4,1,0,100,0,1
319607,-81.1508868258498,4,1,0,100,0,1
319677,-80.9462040139805,4,1,0,100,0,1
319746,-80.7454532384444,4,1,0,100,0,1
319884,-80.3469241773963,4,1,0,100,0,1
320022,-79.9523097729376,4,1,0,100,0,1
320160,-79.561552627851,4,1,0,100,0,1
320230,-79.3647989825479,4,1,0,100,0,1
320299,-79.1718061674009,4,1,0,100,0,1
320437,-78.78862273349,4,1,0,100,0,1
320506,-78.5984185851235,4,1,0,100,0,1
320575,-78.4091305713588,4,1,0,100,0,1
320713,-78.0332765987009,4,1,0,100,0,1
320783,-77.8440001386049,4,1,0,100,0,1
320852,-77.6583241150443,4,1,0,100,0,1
320990,-77.2896167343288,4,1,0,100,0,1
321128,-76.9243939186413,4,1,0,100,0,1
321197,-76.7430738222936,4,1,0,100,0,1
321266,-76.5626065026242,4,1,0,100,0,1
321336,-76.3803889568884,4,1,0,100,0,1
321405,-76.2016213832638,4,1,0,100,0,1
321474,-76.0236886632826,4,1,0,100,0,1
321543,-75.8465849623552,4,1,0,100,0,1
321612,-75.6703045001347,4,1,0,100,0,1
321681,-75.4948415498874,4,1,0,100,0,1
321750,-75.320190437873,4,1,0,100,0,1
321819,-75.1463455427329,4,1,0,100,0,1
321889,-74.9707992658101,4,1,0,100,0,1
321958,-74.7985616301525,4,1,0,100,0,1
322027,-74.6271135767199,4,1,0,100,0,1
322096,-74.4564496884529,4,1,0,100,0,1
322165,-74.2865645977316,4,1,0,100,0,1
322234,-74.1174529858133,4,1,0,100,0,1
322280,-74.0051390169983,4,1,0,100,0,1
322326,-73.8931649233603,4,1,0,100,0,1
322372,-73.7815291644771,4,1,0,100,0,1
322442,-73.6122943836424,4,1,0,100,0,1
322511,-73.4462353287344,4,1,0,100,0,1
322580,-73.2809237995825,4,1,0,100,0,1
322649,-73.1163547599675,4,1,0,100,0,1
322718,-72.9525232188089,4,1,0,100,0,1
322843,-72.6575891846438,4,1,0,100,0,1
322953,-72.4000128911663,4,1,0,100,0,1
323064,-72.1419396274888,4,1,0,100,0,1
323174,-71.888,4,1,0,100,0,1
323230,-71.7594071424008,4,1,0,100,0,1
323285,-71.6335576033928,4,1,0,100,0,1
323350,552.99539170507,4,1,0,100,1,0
323350,-35.7142857142857,4,1,0,100,0,0
325455,-42.5531914893617,4,1,0,100,0,0
327605,-52.6315789473684,4,1,0,100,0,0
329827,-68.9655172413793,4,1,0,100,0,0
332197,-100,4,1,0,100,0,0
332471,543.035568829758,4,1,0,100,1,8
332742,533.40445392719,4,1,0,100,1,8
333008,524.13190652981,4,1,0,100,1,8
333270,515.154116939984,4,1,0,100,1,8
333527,506.50008441668,4,1,0,100,1,8
333780,498.111327881782,4,1,0,100,1,8
334029,490.01592551758,4,1,0,100,1,8
334274,482.160077145612,4,1,0,100,1,0
334515,474.57090880329,4,1,0,100,1,8
334752,467.216944401184,4,1,0,100,1,8
334985,460.06977724955,4,1,0,100,1,8
335215,453.15509233035,4,1,0,100,1,8
335441,446.428571428572,4,1,0,100,1,8
335664,439.914949776376,4,1,0,100,1,8
335883,433.573002854356,4,1,0,100,1,8
336099,427.426536064114,4,1,0,100,1,0
336312,421.451901801706,4,1,0,100,1,8
336522,415.627597672486,4,1,0,100,1,8
336729,409.97608472839,4,1,0,100,1,8
336933,404.462570359634,4,1,0,100,1,8
337135,399.108657331958,4,1,0,100,1,8
337334,393.88170419484,4,1,0,100,1,8
337530,388.802488335926,4,1,0,100,1,8
337724,383.85260060137,4,1,0,100,1,0
337915,379.015192192288,4,1,0,100,1,8
338104,374.309866184222,4,1,0,100,1,8
338291,369.708546429232,4,1,0,100,1,8
338475,365.230094959824,4,1,0,100,1,8
338657,360.84799278304,4,1,0,100,1,8
338837,356.580394021336,4,1,0,100,1,8
339015,352.402208387172,4,1,0,100,1,8
339191,348.33091436865,4,1,0,100,1,0
339365,344.35261707989,4,1,0,100,1,8
339537,340.454506766534,4,1,0,100,1,8
339707,336.653107027634,4,1,0,100,1,8
339875,332.92642326046,4,1,0,100,1,8
340041,329.290379232754,4,1,0,100,1,8
340205,325.724057436008,4,1,0,100,1,8
340367,322.242809957302,4,1,0,100,1,8
340528,318.826717678942,4,1,0,100,1,0
340687,315.490587864128,4,1,0,100,1,8
340844,312.223552063278,4,1,0,100,1,8
341000,309.015528030284,4,1,0,100,1,8
341154,305.880553643802,4,1,0,100,1,8
341306,302.800908402726,4,1,0,100,1,8
341457,299.790146897172,4,1,0,100,1,8
341606,296.831325599228,4,1,0,100,1,8
341754,293.937538273116,4,1,0,100,1,0
341900,291.099628847974,4,1,0,100,1,8
342045,288.309067320168,4,1,0,100,1,8
342189,285.5782960495,4,1,0,100,1,8
342331,282.8921002381,4,1,0,100,1,8
342472,280.262512553426,4,1,0,100,1,8
342612,277.674935209182,4,1,0,100,1,8
342750,275.141009767506,4,1,0,100,1,8
342887,272.652912841952,4,1,0,100,1,0
343023,270.203328004324,4,1,0,100,1,8
343158,267.8033430784,4,1,0,100,1,8
343291,265.439745177844,4,1,0,100,1,8
343423,263.12327325352,4,1,0,100,1,8
343554,260.84121291164,4,1,0,100,1,8
343684,258.603969570932,4,1,0,100,1,8
343813,256.399299175248,4,1,0,100,1,8
343941,254.237288135594,4,1,0,100,1,0
344068,252.111433253498,4,1,0,100,1,8
344194,250.015625976624,4,1,0,100,1,8
344319,247.959499948342,4,1,0,100,1,8
344442,245.931876870106,4,1,0,100,1,8
344564,243.94210440722,4,1,0,100,1,8
344685,241.97939142183,4,1,0,100,1,8
344805,240.052811618556,4,1,0,100,1,8
344925,238.151940938318,4,1,0,100,1,0
345044,236.285590517072,4,1,0,100,1,8
345162,234.448265082838,4,1,0,100,1,8
345279,232.634782777272,4,1,0,100,1,8
345395,230.853581116178,4,1,0,100,1,8
345510,229.0950744559,4,1,0,100,1,8
345624,227.367463715942,4,1,0,100,1,8
345737,225.661470184478,4,1,0,100,1,8
345849,223.985067662156,4,1,0,100,1,0
345960,222.33338891668,4,1,0,100,1,8
346071,220.701831825204,4,1,0,100,1,8
346181,219.098046375754,4,1,0,100,1,8
346290,217.513458645254,4,1,0,100,1,8
346398,215.955513164288,4,1,0,100,1,8
346505,214.415895365044,4,1,0,100,1,8
346612,212.901852246114,4,1,0,100,1,8
346718,211.409041259998,4,1,0,100,1,0
346823,209.933346162594,4,1,0,100,1,8
346927,208.481731788252,4,1,0,100,1,8
347031,207.046481935194,4,1,0,100,1,8
347134,205.634382068682,4,1,0,100,1,8
347236,204.237937196834,4,1,0,100,1,8
347338,202.863760079794,4,1,0,100,1,8
347439,201.504567436862,4,1,0,100,1,8
347539,200.166805671392,4,1,0,100,1,0
347639,198.846689202625,4,1,0,100,1,8
347738,197.540619289841,4,1,0,100,1,8
347836,196.25480415406,4,1,0,100,1,8
347934,194.982451579358,4,1,0,100,1,8
348031,193.72961802977,4,1,0,100,1,8
348127,192.489693780979,4,1,0,100,1,8
348223,191.268588915985,4,1,0,100,1,8
348318,190.05986885869,4,1,0,100,1,0
348413,188.86930244271,4,1,0,100,1,8
348507,187.693558982701,4,1,0,100,1,8
348600,186.529463883233,4,1,0,100,1,8
348693,185.382583306298,4,1,0,100,1,8
348785,184.246890833717,4,1,0,100,1,8
348877,183.127823220608,4,1,0,100,1,8
348968,182.019506423772,4,1,0,100,1,8
349059,180.927252167358,4,1,0,100,1,0
349149,179.848028415988,4,1,0,100,1,8
349238,178.778939840887,4,1,0,100,1,8
349327,177.725118483412,4,1,0,100,1,8
349415,176.681046540732,4,1,0,100,1,8
349503,175.651741147884,4,1,0,100,1,8
349590,174.631817917225,4,1,0,100,1,8
349677,173.626182828371,4,1,0,100,1,8
349763,172.632063528599,4,1,0,100,1,0
349849,171.646808084565,4,1,0,100,1,8
349934,170.675162496978,4,1,0,100,1,8
350019,169.712055212989,4,1,0,100,1,8
350103,168.762129778078,4,1,0,100,1,8
350187,167.820432137613,4,1,0,100,1,8
350270,166.891506613076,4,1,0,100,1,8
350353,165.970512572266,4,1,0,100,1,8
350435,165.061898211829,4,1,0,100,1,0
353158,-200,4,1,0,100,0,0
354157,-217.391304347826,4,1,0,100,0,0
354994,-238.095238095238,4,1,0,100,0,0
355651,-263.157894736842,4,1,0,100,0,0
356258,-294.117647058824,4,1,0,100,0,0
356913,-100,4,1,0,100,0,0
357590,-166.666666666667,4,1,0,100,0,0
358255,-156.25,4,1,0,100,0,0
359018,-146.54033,4,1,0,100,0,0
359100,-142.42268,4,1,0,100,0,0
359183,-138.48396,4,1,0,100,0,0
359265,-134.80095,4,1,0,100,0,0
359348,-131.26727,4,1,0,100,0,0
359430,-127.953514,4,1,0,100,0,0
359513,-124.76547,4,1,0,100,0,0
359595,-121.768105,4,1,0,100,0,0
359678,-118.87737,4,1,0,100,0,0
359760,-116.153145,4,1,0,100,0,0
359843,-113.519966,4,1,0,100,0,0
359926,-111.00354,4,1,0,100,0,0
360008,-108.62463,4,1,0,100,0,0
360091,-106.318344,4,1,0,100,0,0
360173,-104.13404,4,1,0,100,0,0
360256,-102.01264,4,1,0,100,0,0
360338,-100,4,1,0,100,0,0
361659,-100,4,1,0,100,0,1
366652,-100,4,1,0,100,0,0
367106,-100,4,1,0,100,0,1
371150,-100,4,1,0,100,0,0
371397,-100,4,1,0,100,0,1
371727,-100,4,1,0,100,0,0
372223,-100,4,1,0,100,0,1
376844,-100,4,1,0,100,0,0
377505,-100,4,1,0,100,0,1
377742,-111.111111111111,4,1,0,100,0,1
377990,-121.951219512195,4,1,0,100,0,1
378155,-113.636363636364,4,1,0,100,0,1
378402,-125,4,1,0,100,0,1
378650,-138.888888888889,4,1,0,100,0,1
378815,-128.205128205128,4,1,0,100,0,1
379063,-142.857142857143,4,1,0,100,0,1
379310,-161.290322580645,4,1,0,100,0,1
379485,-138.888888888889,4,1,0,100,0,0
379558,-135.135135135135,4,1,0,100,0,0
379640,-131.578947368421,4,1,0,100,0,0
379723,-128.205128205128,4,1,0,100,0,0
379806,-125,4,1,0,100,0,0
379888,-121.951219512195,4,1,0,100,0,0
379971,-119.047619047619,4,1,0,100,0,0
380053,-116.279069767442,4,1,0,100,0,0
380146,-113.636363636364,4,1,0,100,0,1
380383,-125,4,1,0,100,0,1
380631,-138.888888888889,4,1,0,100,0,1
380796,-128.205128205128,4,1,0,100,0,1
381043,-142.857142857143,4,1,0,100,0,1
381291,-161.290322580645,4,1,0,100,0,1
381456,-147.058823529412,4,1,0,100,0,1
381704,-166.666666666667,4,1,0,100,0,1
381951,-192.307692307692,4,1,0,100,0,1
382126,-166.666666666667,4,1,0,100,0,0
382281,-147.058823529412,4,1,0,100,0,0
382447,-131.578947368421,4,1,0,100,0,0
382612,-119.047619047619,4,1,0,100,0,0
382694,-113.636363636364,4,1,0,100,0,0
382787,-10,4,1,0,100,0,1
384767,-333.333333333333,4,1,0,100,0,0
385428,-96.1538461538461,4,1,0,100,0,1
386748,165.061898211829,727,1,0,100,1,0
386748,-96.1538461538461,4,1,0,100,0,0
387367,-125,4,1,0,100,0,0
388063,-50,4,1,0,100,0,0
388074,-10,4,1,0,100,0,0

[HitObjects]
256,192,6137,12,0,7684,0:0:0:0:
252,204,9121,6,4,L|393:147,6,111.999996582031
17,75,9559,2,0,B|92:158|92:158|183:49|183:49|473:309,1,629.999980773926
375,106,10684,1,8,0:0:0:0:
375,106,11059,1,8,0:0:0:0:
375,106,11434,1,8,0:0:0:0:
375,106,11809,1,8,0:0:0:0:
375,106,12184,1,12,0:0:0:0:
375,106,12559,1,0,0:0:0:0:
375,106,13309,1,0,0:0:0:0:
375,106,14059,1,0,0:0:0:0:
375,106,14809,1,0,0:0:0:0:
380,92,15559,1,0,0:0:0:0:
380,92,16309,1,0,0:0:0:0:
380,98,17059,1,0,0:0:0:0:
380,98,17809,1,0,0:0:0:0:
380,98,18184,1,12,0:0:0:0:
380,98,18559,1,0,0:0:0:0:
380,98,19309,1,0,0:0:0:0:
380,98,20059,1,0,0:0:0:0:
380,98,20809,1,0,0:0:0:0:
380,98,21559,1,0,0:0:0:0:
385,91,22309,1,4,0:0:0:0:
385,91,22684,1,8,0:0:0:0:
385,91,22777,1,8,0:0:0:0:
385,91,22871,1,0,0:0:0:0:
385,91,22965,1,0,0:0:0:0:
385,91,23059,1,0,0:0:0:0:
385,91,23152,1,0,0:0:0:0:
385,91,23246,1,8,0:0:0:0:
385,91,23340,1,8,0:0:0:0:
385,91,23434,1,0,0:0:0:0:
385,91,23527,1,0,0:0:0:0:
385,91,23621,1,0,0:0:0:0:
385,91,23715,1,0,0:0:0:0:
385,91,23809,1,8,0:0:0:0:
385,91,23902,1,8,0:0:0:0:
385,91,23996,1,0,0:0:0:0:
385,91,24090,1,0,0:0:0:0:
385,91,24184,1,12,0:0:0:0:
385,91,24371,1,0,0:0:0:0:
385,91,24559,1,8,0:0:0:0:
385,91,24746,1,0,0:0:0:0:
385,91,24934,1,0,0:0:0:0:
385,91,25121,1,0,0:0:0:0:
385,91,25309,1,8,0:0:0:0:
385,91,25496,1,0,0:0:0:0:
385,91,25871,1,0,0:0:0:0:
385,91,26059,1,8,0:0:0:0:
385,91,26246,1,0,0:0:0:0:
391,95,26621,1,0,0:0:0:0:
385,91,26809,1,8,0:0:0:0:
390,83,26996,1,8,0:0:0:0:
393,92,27184,1,0,0:0:0:0:
391,83,27371,1,0,0:0:0:0:
386,81,27559,1,8,0:0:0:0:
388,83,27746,1,0,0:0:0:0:
390,83,27934,1,0,0:0:0:0:
389,82,28121,1,0,0:0:0:0:
391,83,28309,1,8,0:0:0:0:
393,77,28496,1,0,0:0:0:0:
396,80,28871,1,0,0:0:0:0:
396,80,29059,1,8,0:0:0:0:
400,80,29246,1,0,0:0:0:0:
396,80,29621,1,0,0:0:0:0:
396,80,29809,1,8,0:0:0:0:
396,80,29996,1,0,0:0:0:0:
400,80,30184,1,12,0:0:0:0:
396,72,30371,1,0,0:0:0:0:
404,66,30559,1,8,0:0:0:0:
403,68,30746,1,0,0:0:0:0:
402,68,30934,1,0,0:0:0:0:
402,68,31121,1,0,0:0:0:0:
396,72,31309,1,8,0:0:0:0:
396,70,31496,1,0,0:0:0:0:
402,68,31871,1,0,0:0:0:0:
402,68,32059,1,8,0:0:0:0:
396,72,32246,1,0,0:0:0:0:
402,68,32621,1,0,0:0:0:0:
402,68,32809,1,8,0:0:0:0:
392,78,32996,1,8,0:0:0:0:
392,78,33184,1,0,0:0:0:0:
392,78,33371,1,0,0:0:0:0:
394,69,33559,1,8,0:0:0:0:
394,69,33746,1,0,0:0:0:0:
394,69,33934,1,0,0:0:0:0:
394,69,34121,1,0,0:0:0:0:
391,70,34309,1,8,0:0:0:0:
394,69,34496,1,0,0:0:0:0:
394,69,34871,1,0,0:0:0:0:
394,69,35059,1,8,0:0:0:0:
391,70,35246,1,0,0:0:0:0:
394,69,35621,1,0,0:0:0:0:
394,69,35715,1,0,0:0:0:0:
394,69,35809,1,8,0:0:0:0:
394,69,35902,1,8,0:0:0:0:
394,69,35996,1,8,0:0:0:0:
391,70,36090,1,8,0:0:0:0:
391,70,36184,1,4,0:0:0:0:
383,67,36371,1,8,0:0:0:0:
383,67,36465,1,8,0:0:0:0:
382,67,36559,1,8,0:0:0:0:
387,74,36746,1,4,0:0:0:0:
394,69,36934,1,8,0:0:0:0:
394,69,37027,1,8,0:0:0:0:
397,63,37121,1,8,0:0:0:0:
394,64,37309,1,4,0:0:0:0:
395,63,37496,1,8,0:0:0:0:
394,63,37684,1,4,0:0:0:0:
395,61,37871,1,8,0:0:0:0:
394,61,37965,1,8,0:0:0:0:
392,62,38059,1,0,0:0:0:0:
405,70,38246,1,12,0:0:0:0:
400,69,38434,1,0,0:0:0:0:
396,65,38527,1,0,0:0:0:0:
389,67,38621,1,8,0:0:0:0:
407,68,38809,1,4,0:0:0:0:
405,62,38996,1,8,0:0:0:0:
405,62,39090,1,8,0:0:0:0:
397,63,39184,1,4,0:0:0:0:
400,69,39371,1,8,0:0:0:0:
419,68,39465,1,0,0:0:0:0:
404,64,39559,1,0,0:0:0:0:
400,67,39746,1,12,0:0:0:0:
398,66,39934,1,0,0:0:0:0:
398,67,40027,1,0,0:0:0:0:
395,68,40121,1,8,0:0:0:0:
400,67,40309,1,4,0:0:0:0:
392,69,40496,1,8,0:0:0:0:
400,67,40684,1,4,0:0:0:0:
398,66,40871,1,8,0:0:0:0:
398,66,40965,1,8,0:0:0:0:
402,56,41059,1,0,0:0:0:0:
400,67,41246,1,12,0:0:0:0:
411,69,41434,1,0,0:0:0:0:
410,69,41527,1,8,0:0:0:0:
413,67,41621,1,8,0:0:0:0:
400,67,41809,1,4,0:0:0:0:
428,74,41996,1,8,0:0:0:0:
428,74,42090,1,8,0:0:0:0:
423,75,42184,1,4,0:0:0:0:
403,75,42371,1,8,0:0:0:0:
411,69,42465,1,8,0:0:0:0:
410,69,42559,1,8,0:0:0:0:
408,73,42652,1,8,0:0:0:0:
408,73,42746,1,4,0:0:0:0:
415,65,42934,1,8,0:1:0:0:
416,66,43027,1,8,0:1:0:0:
416,66,43121,1,8,0:1:0:0:
416,66,43215,1,8,0:1:0:0:
426,66,43309,1,4,0:0:0:0:
411,69,43496,1,8,0:1:0:0:
419,65,43590,1,8,0:1:0:0:
430,67,43684,1,4,0:0:0:0:
415,65,43871,1,8,0:1:0:0:
415,65,43965,1,8,0:1:0:0:
416,66,44059,1,0,0:1:0:0:
416,66,44152,1,0,0:1:0:0:
426,66,44246,1,12,0:0:0:0:
430,63,44434,1,0,0:1:0:0:
431,61,44527,1,0,0:1:0:0:
436,62,44621,1,8,0:1:0:0:
437,62,44715,1,8,0:1:0:0:
426,66,44809,1,4,0:0:0:0:
429,68,44996,1,8,0:1:0:0:
430,68,45090,1,8,0:1:0:0:
426,66,45184,1,4,0:0:0:0:
430,63,45371,1,8,0:1:0:0:
430,63,45465,1,0,0:1:0:0:
431,61,45559,1,0,0:1:0:0:
436,62,45652,1,0,0:1:0:0:
426,66,45746,1,12,0:0:0:0:
441,64,45934,1,0,0:1:0:0:
440,64,46027,1,8,0:1:0:0:
430,68,46121,1,8,0:1:0:0:
433,64,46215,1,8,0:1:0:0:
426,66,46309,1,4,0:0:0:0:
439,60,46496,1,8,0:1:0:0:
439,60,46590,1,8,0:1:0:0:
426,66,46684,1,4,0:0:0:0:
447,59,46871,1,8,0:1:0:0:
452,48,46965,1,0,0:1:0:0:
448,49,47059,1,8,0:1:0:0:
447,50,47152,1,0,0:1:0:0:
426,66,47246,1,12,0:0:0:0:
452,51,47434,1,0,0:1:0:0:
462,56,47527,1,8,0:1:0:0:
457,56,47621,1,0,0:1:0:0:
462,56,47715,1,8,0:1:0:0:
426,66,47809,1,4,0:0:0:0:
458,50,47996,1,8,0:1:0:0:
460,52,48090,1,8,0:1:0:0:
439,64,48184,1,4,0:0:0:0:
385,71,52684,5,8,0:0:0:0:
385,71,52871,1,0,0:0:0:0:
385,71,53059,1,8,0:0:0:0:
395,72,53246,1,0,0:0:0:0:
396,72,53434,1,8,0:0:0:0:
398,64,53621,1,0,0:0:0:0:
398,64,53809,1,0,0:0:0:0:
394,66,53996,1,0,0:0:0:0:
395,72,54184,1,12,0:0:0:0:
384,83,54559,1,0,0:0:0:0:
386,82,55121,1,0,0:0:0:0:
386,82,55684,1,0,0:0:0:0:
392,80,56246,1,0,0:0:0:0:
392,80,56434,1,8,0:0:0:0:
413,79,56527,1,8,0:0:0:0:
413,79,56621,1,8,0:0:0:0:
413,79,56715,1,8,0:0:0:0:
413,79,56809,1,0,0:0:0:0:
411,77,56871,1,0,0:0:0:0:
411,78,56934,1,8,0:0:0:0:
420,53,56996,1,8,0:0:0:0:
421,67,57059,1,0,0:0:0:0:
421,67,57121,1,0,0:0:0:0:
421,67,57184,1,12,0:0:0:0:
390,78,57559,1,0,0:0:0:0:
398,80,58121,1,0,0:0:0:0:
390,78,58684,1,8,0:0:0:0:
408,72,58871,1,0,0:0:0:0:
395,71,59059,1,8,0:0:0:0:
403,78,59246,1,0,0:0:0:0:
404,76,59434,1,8,0:0:0:0:
403,78,59527,1,0,0:0:0:0:
403,78,59621,1,0,0:0:0:0:
400,76,59715,1,0,0:0:0:0:
399,78,59809,1,8,0:0:0:0:
400,76,59902,1,0,0:0:0:0:
395,71,59996,1,0,0:0:0:0:
395,71,60090,1,0,0:0:0:0:
403,78,60184,1,12,0:0:0:0:
414,73,60371,1,0,0:0:0:0:
416,73,60465,1,0,0:0:0:0:
409,69,60559,1,8,0:0:0:0:
408,71,60652,1,8,0:0:0:0:
408,69,60746,1,0,0:0:0:0:
408,69,60840,1,0,0:0:0:0:
408,70,60934,1,8,0:0:0:0:
409,70,61027,1,0,0:0:0:0:
409,70,61121,1,8,0:0:0:0:
405,71,61215,1,0,0:0:0:0:
414,73,61309,1,8,0:0:0:0:
414,73,61402,1,8,0:0:0:0:
416,73,61496,1,0,0:0:0:0:
420,74,61590,1,0,0:0:0:0:
428,76,61684,1,8,0:0:0:0:
427,74,61777,1,0,0:0:0:0:
417,73,61871,1,0,0:0:0:0:
427,74,61965,1,0,0:0:0:0:
420,66,62059,1,8,0:0:0:0:
422,79,62152,1,8,0:0:0:0:
417,72,62246,1,0,0:0:0:0:
414,73,62340,1,0,0:0:0:0:
423,71,62434,1,8,0:0:0:0:
416,73,62527,1,0,0:0:0:0:
415,62,62621,1,8,0:0:0:0:
431,68,62715,1,0,0:0:0:0:
427,74,62809,1,8,0:0:0:0:
440,63,62996,1,0,0:0:0:0:
440,63,63090,1,0,0:0:0:0:
437,64,63184,1,8,0:0:0:0:
436,64,63277,1,8,0:0:0:0:
436,64,63371,1,0,0:0:0:0:
436,64,63465,1,0,0:0:0:0:
441,62,63559,1,8,0:0:0:0:
441,62,63652,1,8,0:0:0:0:
447,61,63746,1,0,0:0:0:0:
447,61,63840,1,0,0:0:0:0:
449,60,63934,1,8,0:0:0:0:
450,60,64027,1,8,0:0:0:0:
453,60,64121,1,0,0:0:0:0:
453,60,64215,1,0,0:0:0:0:
454,60,64309,1,8,0:0:0:0:
454,60,64402,1,8,0:0:0:0:
458,58,64496,1,8,0:0:0:0:
458,58,64590,1,8,0:0:0:0:
457,59,65059,1,8,0:0:0:0:
458,58,65434,1,0,0:0:0:0:
437,59,65559,1,8,0:0:0:0:
437,59,65621,1,8,0:0:0:0:
441,66,65684,1,0,0:0:0:0:
441,67,65746,1,0,0:0:0:0:
412,81,65809,1,8,0:0:0:0:
426,77,66184,1,4,0:0:0:0:
423,94,66559,1,8,0:0:0:0:
423,69,66746,1,0,0:0:0:0:
423,69,66934,1,8,0:0:0:0:
423,69,67121,1,0,0:0:0:0:
426,76,67215,1,0,0:0:0:0:
441,85,67309,1,0,0:0:0:0:
436,74,67496,1,12,0:0:0:0:
443,74,67871,1,0,0:0:0:0:
446,74,67965,1,0,0:0:0:0:
435,79,68059,1,0,0:0:0:0:
437,85,68246,1,0,0:0:0:0:
437,85,68434,1,8,0:0:0:0:
447,81,68621,1,0,0:0:0:0:
425,92,68809,1,8,0:0:0:0:
426,92,68996,1,8,0:0:0:0:
435,92,69184,1,4,0:0:0:0:
447,96,69559,1,0,0:0:0:0:
447,96,69652,1,0,0:0:0:0:
447,92,69746,1,0,0:0:0:0:
454,92,69934,1,8,0:0:0:0:
453,92,70121,1,0,0:0:0:0:
445,92,70215,1,0,0:0:0:0:
447,96,70309,1,0,0:0:0:0:
442,103,70496,1,12,0:0:0:0:
442,98,70871,1,0,0:0:0:0:
443,98,70965,1,0,0:0:0:0:
443,98,71059,1,0,0:0:0:0:
443,102,71246,1,0,0:0:0:0:
442,103,71434,1,8,0:0:0:0:
434,101,71621,1,0,0:0:0:0:
442,98,71809,1,8,0:0:0:0:
442,98,71902,1,8,0:0:0:0:
443,98,71996,1,0,0:0:0:0:
443,98,72090,1,0,0:0:0:0:
443,102,72184,1,12,0:0:0:0:
442,98,72746,1,0,0:0:0:0:
442,98,72934,1,8,0:0:0:0:
451,102,73309,1,0,0:0:0:0:
443,98,74059,1,0,0:0:0:0:
452,91,74246,1,8,0:0:0:0:
451,102,74340,1,0,0:0:0:0:
454,101,74434,1,8,0:0:0:0:
464,91,74621,1,0,0:0:0:0:
443,98,74809,1,8,0:0:0:0:
459,102,74902,1,0,0:0:0:0:
458,105,74996,1,8,0:0:0:0:
443,98,75090,1,0,0:0:0:0:
458,118,75184,1,12,0:0:0:0:
458,107,75746,1,0,0:0:0:0:
459,102,75934,1,8,0:0:0:0:
458,107,76309,1,0,0:0:0:0:
458,107,76684,1,8,0:0:0:0:
459,96,76730,1,8,0:0:0:0:
457,109,76871,1,8,0:0:0:0:
459,102,76918,1,8,0:0:0:0:
459,102,76965,1,0,0:0:0:0:
458,107,77059,1,8,0:0:0:0:
448,101,77246,1,0,0:0:0:0:
446,102,77340,1,0,0:0:0:0:
439,103,77434,1,8,0:0:0:0:
458,118,77527,1,8,0:0:0:0:
458,107,77621,1,0,0:0:0:0:
454,108,77715,1,0,0:0:0:0:
458,118,77809,1,8,0:0:0:0:
455,118,77902,1,8,0:0:0:0:
455,118,77996,1,0,0:0:0:0:
445,111,78059,1,0,0:0:0:0:
448,111,78121,1,0,0:0:0:0:
447,113,78184,1,12,0:0:0:0:
460,117,78371,1,0,0:0:0:0:
458,118,78559,1,8,0:0:0:0:
453,124,78652,1,0,0:0:0:0:
445,111,78746,1,8,0:0:0:0:
455,95,78840,1,0,0:0:0:0:
456,96,78887,1,0,0:0:0:0:
456,96,78934,1,8,0:0:0:0:
476,102,79121,1,0,0:0:0:0:
471,94,79215,1,8,0:0:0:0:
463,109,79402,1,8,0:0:0:0:
464,108,79449,1,8,0:0:0:0:
460,109,79496,1,0,0:0:0:0:
469,91,79777,1,0,0:0:0:0:
445,128,79824,1,0,0:0:0:0:
438,126,79871,1,8,0:0:0:0:
442,104,79965,1,8,0:0:0:0:
463,99,80152,1,0,0:0:0:0:
458,99,80246,1,0,0:0:0:0:
469,111,80340,1,0,0:0:0:0:
470,110,80434,1,8,0:0:0:0:
478,103,80621,1,0,0:0:0:0:
472,111,80715,1,8,0:0:0:0:
472,116,80902,1,0,0:0:0:0:
472,116,80996,1,8,0:0:0:0:
471,112,81043,1,8,0:0:0:0:
464,118,81090,1,8,0:0:0:0:
462,117,81184,1,4,0:0:0:0:
472,120,81371,1,8,0:0:0:0:
475,120,81559,1,0,0:0:0:0:
468,113,81652,1,8,0:0:0:0:
464,111,81840,1,0,0:0:0:0:
458,106,81887,1,0,0:0:0:0:
457,110,81934,1,8,0:0:0:0:
475,116,82121,1,8,0:0:0:0:
472,120,82215,1,0,0:0:0:0:
464,108,82402,1,0,0:0:0:0:
483,126,82449,1,0,0:0:0:0:
465,123,82496,1,0,0:0:0:0:
462,112,82590,1,8,0:0:0:0:
464,111,82777,1,0,0:0:0:0:
464,111,82871,1,8,0:0:0:0:
463,111,82918,1,8,0:0:0:0:
463,116,82965,1,0,0:0:0:0:
475,116,83059,1,8,0:0:0:0:
470,104,83246,1,8,0:0:0:0:
463,106,83434,1,0,0:0:0:0:
462,105,83527,1,8,0:0:0:0:
462,112,83621,1,0,0:0:0:0:
454,100,84184,1,12,0:0:0:0:
453,111,84371,1,0,0:0:0:0:
462,112,84559,1,8,0:0:0:0:
458,104,84652,1,0,0:0:0:0:
464,111,84746,1,8,0:0:0:0:
454,100,84840,1,0,0:0:0:0:
454,100,84887,1,0,0:0:0:0:
454,100,84934,1,8,0:0:0:0:
454,100,85121,1,0,0:0:0:0:
453,98,85215,1,8,0:0:0:0:
446,100,85402,1,8,0:0:0:0:
452,97,85449,1,8,0:0:0:0:
446,99,85496,1,0,0:0:0:0:
447,92,85777,1,0,0:0:0:0:
446,84,85824,1,0,0:0:0:0:
445,90,85871,1,8,0:0:0:0:
447,91,85965,1,8,0:0:0:0:
467,94,86152,1,0,0:0:0:0:
468,95,86246,1,0,0:0:0:0:
440,96,86340,1,0,0:0:0:0:
440,96,86434,1,8,0:0:0:0:
450,98,86621,1,0,0:0:0:0:
450,98,86715,1,8,0:0:0:0:
463,89,86902,1,0,0:0:0:0:
463,89,86996,1,8,0:0:0:0:
446,87,87043,1,8,0:0:0:0:
462,89,87090,1,8,0:0:0:0:
448,88,87184,1,4,0:0:0:0:
461,96,87371,1,8,0:0:0:0:
462,83,87559,1,0,0:0:0:0:
456,84,87652,1,8,0:0:0:0:
463,89,87840,1,0,0:0:0:0:
450,92,87887,1,0,0:0:0:0:
452,95,87934,1,8,0:0:0:0:
462,89,88121,1,0,0:0:0:0:
459,90,88215,1,0,0:0:0:0:
458,88,88402,1,8,0:0:0:0:
458,89,88449,1,8,0:0:0:0:
457,90,88496,1,0,0:0:0:0:
458,89,88590,1,0,0:0:0:0:
456,84,88684,1,8,0:0:0:0:
463,89,88791,1,0,0:0:0:0:
463,89,88898,1,8,0:0:0:0:
464,87,89005,1,0,0:0:0:0:
462,89,89112,1,8,0:0:0:0:
414,99,89166,1,8,0:0:0:0:
439,84,89219,1,0,0:0:0:0:
408,75,89326,1,0,0:0:0:0:
413,74,89434,1,8,0:0:0:0:
444,96,90184,1,4,0:0:0:0:
377,98,96184,5,12,0:0:0:0:
394,88,96559,1,0,0:0:0:0:
387,88,96934,1,0,0:0:0:0:
394,88,97309,1,0,0:0:0:0:
387,88,97684,1,0,0:0:0:0:
370,85,98059,1,0,0:0:0:0:
370,85,98434,1,0,0:0:0:0:
370,85,98809,1,0,0:0:0:0:
370,85,99184,1,0,0:0:0:0:
370,85,99559,1,0,0:0:0:0:
370,85,99934,1,0,0:0:0:0:
370,85,100309,1,0,0:0:0:0:
370,85,100684,1,0,0:0:0:0:
370,85,100871,1,0,0:0:0:0:
370,85,101059,1,0,0:0:0:0:
370,85,101246,1,0,0:0:0:0:
370,85,101434,1,8,0:0:0:0:
370,85,101527,1,8,0:0:0:0:
370,85,101621,1,8,0:0:0:0:
370,85,101715,1,8,0:0:0:0:
370,85,101809,1,8,0:0:0:0:
370,85,101902,1,8,0:0:0:0:
370,85,101996,1,8,0:0:0:0:
370,85,102090,1,8,0:0:0:0:
370,85,102184,1,4,0:0:0:0:
256,192,102277,12,0,107996,0:0:0:0:
397,78,108184,5,8,0:0:0:0:
390,83,108371,1,0,0:0:0:0:
399,66,108559,1,8,0:0:0:0:
405,64,108746,1,0,0:0:0:0:
400,66,108934,1,8,0:0:0:0:
405,64,109121,1,0,0:0:0:0:
400,66,109309,1,8,0:0:0:0:
399,66,109496,1,0,0:0:0:0:
400,66,109684,1,8,0:0:0:0:
400,66,109871,1,0,0:0:0:0:
400,66,110059,1,8,0:0:0:0:
400,66,110246,1,0,0:0:0:0:
400,66,110434,1,8,0:0:0:0:
400,66,110621,1,0,0:0:0:0:
400,66,110809,1,8,0:0:0:0:
400,66,110996,1,0,0:0:0:0:
400,66,111184,1,8,0:0:0:0:
435,53,111277,1,0,0:0:0:0:
422,74,111371,1,8,0:0:0:0:
400,66,111465,1,0,0:0:0:0:
422,74,111559,1,8,0:0:0:0:
400,66,111652,1,0,0:0:0:0:
422,74,111746,1,8,0:0:0:0:
400,66,111840,1,0,0:0:0:0:
422,74,111934,1,8,0:0:0:0:
400,66,112027,1,0,0:0:0:0:
422,74,112121,1,8,0:0:0:0:
402,68,112215,1,0,0:0:0:0:
422,74,112309,1,8,0:0:0:0:
400,66,112402,1,0,0:0:0:0:
422,74,112496,1,8,0:0:0:0:
400,66,112590,1,0,0:0:0:0:
422,74,112684,1,8,0:0:0:0:
397,70,114184,5,0,0:0:0:0:
397,70,114371,1,0,0:0:0:0:
397,70,114559,1,8,0:0:0:0:
397,70,114746,1,0,0:0:0:0:
412,70,114840,1,8,0:0:0:0:
408,62,114887,1,8,0:0:0:0:
397,62,114934,1,0,0:0:0:0:
397,70,115121,1,8,0:0:0:0:
397,70,115309,1,0,0:0:0:0:
397,70,115496,1,8,0:0:0:0:
407,70,115590,1,8,0:0:0:0:
407,70,115684,1,8,0:0:0:0:
408,70,115871,1,0,0:0:0:0:
397,70,116059,1,0,0:0:0:0:
414,67,116246,1,8,0:0:0:0:
417,74,116340,1,0,0:0:0:0:
411,74,116387,1,0,0:0:0:0:
408,75,116434,1,8,0:0:0:0:
413,78,116621,1,8,0:0:0:0:
419,75,117184,1,4,0:0:0:0:
416,68,117559,1,8,0:0:0:0:
419,83,117652,1,8,0:0:0:0:
417,85,117746,1,0,0:0:0:0:
417,85,117840,1,0,0:0:0:0:
429,79,117934,1,8,0:0:0:0:
428,68,118121,1,0,0:0:0:0:
425,63,118168,1,0,0:0:0:0:
423,60,118309,1,8,0:0:0:0:
416,68,118371,1,8,0:0:0:0:
426,75,118434,1,0,0:0:0:0:
421,75,118496,1,0,0:0:0:0:
416,56,118590,1,8,0:0:0:0:
416,62,118684,1,0,0:0:0:0:
412,56,118777,1,8,0:0:0:0:
413,56,118871,1,0,0:0:0:0:
416,53,118965,1,0,0:0:0:0:
408,43,119059,1,8,0:0:0:0:
418,46,119105,1,8,0:0:0:0:
419,51,119246,1,0,0:0:0:0:
419,51,119293,1,0,0:0:0:0:
440,49,119434,1,8,0:0:0:0:
444,39,119496,1,8,0:0:0:0:
443,42,119559,1,8,0:0:0:0:
443,45,119621,1,0,0:0:0:0:
427,47,119809,1,8,0:0:0:0:
413,56,119855,1,8,0:0:0:0:
434,52,119996,1,0,0:0:0:0:
434,52,120090,1,0,0:0:0:0:
436,56,120184,1,8,0:0:0:0:
436,56,120277,1,0,0:0:0:0:
434,56,120371,1,0,0:0:0:0:
435,56,120465,1,0,0:0:0:0:
434,56,120559,1,8,0:0:0:0:
434,44,120621,1,8,0:0:0:0:
434,44,120684,1,8,0:0:0:0:
434,44,120746,1,0,0:0:0:0:
430,54,120840,1,0,0:0:0:0:
434,52,120934,1,8,0:0:0:0:
434,52,121121,1,8,0:0:0:0:
426,55,121168,1,8,0:0:0:0:
409,80,121215,1,0,0:0:0:0:
430,49,121309,1,8,0:0:0:0:
428,76,121355,1,8,0:0:0:0:
403,86,121496,1,0,0:0:0:0:
420,70,121543,1,0,0:0:0:0:
418,109,121590,1,8,0:0:0:0:
431,57,121684,1,0,0:0:0:0:
415,62,121777,1,0,0:0:0:0:
414,63,121871,1,8,0:0:0:0:
422,67,121965,1,0,0:0:0:0:
416,45,122059,1,8,0:0:0:0:
423,63,122121,1,8,0:0:0:0:
423,63,122184,1,8,0:0:0:0:
425,62,122246,1,0,0:0:0:0:
426,63,122340,1,0,0:0:0:0:
422,67,122434,1,8,0:0:0:0:
425,67,122621,1,0,0:0:0:0:
432,69,122668,1,0,0:0:0:0:
433,71,122715,1,8,0:0:0:0:
430,70,122809,1,0,0:0:0:0:
429,70,122855,1,0,0:0:0:0:
429,71,122996,1,8,0:0:0:0:
429,71,123043,1,8,0:0:0:0:
435,61,123184,1,0,0:0:0:0:
434,62,123230,1,0,0:0:0:0:
439,57,123277,1,0,0:0:0:0:
439,57,123371,1,8,0:0:0:0:
438,67,123465,1,0,0:0:0:0:
432,72,123559,1,8,0:0:0:0:
431,70,123652,1,8,0:0:0:0:
433,71,123746,1,0,0:0:0:0:
429,70,123840,1,8,0:0:0:0:
445,64,123934,1,0,0:0:0:0:
445,64,124027,1,8,0:0:0:0:
441,66,124121,1,0,0:0:0:0:
441,65,124215,1,0,0:0:0:0:
425,50,124309,1,8,0:0:0:0:
447,49,124402,1,8,0:0:0:0:
438,67,124496,1,0,0:0:0:0:
435,63,124590,1,8,0:0:0:0:
433,71,124684,1,0,0:0:0:0:
442,56,124730,1,0,0:0:0:0:
440,57,124777,1,0,0:0:0:0:
440,57,124871,1,8,0:0:0:0:
445,64,124965,1,0,0:0:0:0:
445,64,125059,1,8,0:0:0:0:
441,66,125152,1,8,0:0:0:0:
440,67,125246,1,0,0:0:0:0:
440,67,125340,1,8,0:0:0:0:
438,67,125434,1,0,0:0:0:0:
443,54,125559,1,0,0:0:0:0:
443,54,125684,1,0,0:0:0:0:
440,57,125809,1,8,0:0:0:0:
445,64,125996,1,8,0:0:0:0:
441,66,126184,1,0,0:0:0:0:
440,67,126371,1,0,0:0:0:0:
443,64,126559,1,8,0:0:0:0:
440,57,126746,1,0,0:0:0:0:
440,57,126840,1,8,0:0:0:0:
435,63,126887,1,8,0:0:0:0:
437,63,126934,1,0,0:0:0:0:
441,66,127121,1,8,0:0:0:0:
440,67,127309,1,8,0:0:0:0:
443,64,127496,1,0,0:0:0:0:
443,64,127590,1,0,0:0:0:0:
446,66,127684,1,8,0:0:0:0:
447,68,127871,1,0,0:0:0:0:
447,68,128059,1,8,0:0:0:0:
453,67,128246,1,0,0:0:0:0:
440,67,128340,1,8,0:0:0:0:
443,64,128387,1,8,0:0:0:0:
443,64,128434,1,0,0:0:0:0:
449,70,128621,1,8,0:0:0:0:
439,66,129184,1,0,0:0:0:0:
434,60,129246,1,0,0:0:0:0:
435,61,129309,1,0,0:0:0:0:
440,67,129371,1,8,0:0:0:0:
431,73,129465,1,0,0:0:0:0:
447,61,129559,1,8,0:0:0:0:
440,60,129621,1,8,0:0:0:0:
439,66,129684,1,0,0:0:0:0:
439,66,129746,1,0,0:0:0:0:
437,58,129840,1,0,0:0:0:0:
439,66,129934,1,8,0:0:0:0:
431,61,129996,1,8,0:0:0:0:
439,66,130059,1,8,0:0:0:0:
432,62,130121,1,0,0:0:0:0:
424,68,130215,1,0,0:0:0:0:
435,72,130309,1,8,0:0:0:0:
441,57,130371,1,0,0:0:0:0:
442,58,130434,1,0,0:0:0:0:
440,57,130496,1,8,0:0:0:0:
447,61,130590,1,8,0:0:0:0:
442,58,130684,1,0,0:0:0:0:
447,59,130746,1,8,0:0:0:0:
443,54,130809,1,8,0:0:0:0:
445,60,130871,1,0,0:0:0:0:
437,55,130965,1,0,0:0:0:0:
445,56,131059,1,8,0:0:0:0:
433,68,131121,1,8,0:0:0:0:
433,68,131184,1,0,0:0:0:0:
433,68,131246,1,0,0:0:0:0:
458,61,131340,1,0,0:0:0:0:
448,65,131434,1,8,0:0:0:0:
455,58,131496,1,8,0:0:0:0:
425,71,131559,1,8,0:0:0:0:
429,67,131621,1,0,0:0:0:0:
397,122,131715,1,0,0:0:0:0:
461,56,131809,1,8,0:0:0:0:
438,66,131996,1,8,0:0:0:0:
448,61,132043,1,8,0:0:0:0:
465,63,132184,1,0,0:0:0:0:
452,56,132246,1,0,0:0:0:0:
451,56,132309,1,0,0:0:0:0:
439,56,132371,1,8,0:0:0:0:
440,56,132465,1,0,0:0:0:0:
440,56,132559,1,8,0:0:0:0:
458,40,132621,1,8,0:0:0:0:
457,39,132684,1,0,0:0:0:0:
456,39,132746,1,0,0:0:0:0:
447,58,132840,1,0,0:0:0:0:
465,63,132934,1,8,0:0:0:0:
451,52,132996,1,8,0:0:0:0:
454,55,133059,1,8,0:0:0:0:
454,53,133121,1,0,0:0:0:0:
459,57,133215,1,0,0:0:0:0:
451,56,133309,1,8,0:0:0:0:
454,58,133371,1,0,0:0:0:0:
454,58,133434,1,0,0:0:0:0:
455,58,133496,1,8,0:0:0:0:
453,50,133590,1,8,0:0:0:0:
465,63,133684,1,0,0:0:0:0:
453,58,133746,1,8,0:0:0:0:
454,56,133809,1,8,0:0:0:0:
453,56,133871,1,0,0:0:0:0:
461,52,133965,1,0,0:0:0:0:
468,48,134059,1,8,0:0:0:0:
466,58,134121,1,8,0:0:0:0:
459,57,134184,1,0,0:0:0:0:
459,57,134246,1,0,0:0:0:0:
469,49,134340,1,0,0:0:0:0:
471,60,134434,1,8,0:0:0:0:
453,50,134621,1,8,0:0:0:0:
465,63,134668,1,8,0:0:0:0:
468,58,134809,1,0,0:0:0:0:
466,58,134855,1,0,0:0:0:0:
467,57,134996,1,8,0:0:0:0:
461,69,135184,1,0,0:0:0:0:
476,57,135277,1,0,0:0:0:0:
477,55,135371,1,8,0:0:0:0:
471,60,135418,1,8,0:0:0:0:
468,57,135559,1,0,0:0:0:0:
467,57,135605,1,0,0:0:0:0:
468,58,135746,1,0,0:0:0:0:
468,58,135793,1,0,0:0:0:0:
461,69,135934,1,8,0:0:0:0:
477,64,136027,1,8,0:0:0:0:
471,75,136121,1,0,0:0:0:0:
470,75,136168,1,0,0:0:0:0:
468,77,136309,1,8,0:0:0:0:
468,77,136355,1,8,0:0:0:0:
468,75,136496,1,8,0:0:0:0:
468,75,136543,1,8,0:0:0:0:
461,69,136684,1,0,0:0:0:0:
464,68,136777,1,0,0:0:0:0:
468,58,136871,1,8,0:0:0:0:
449,68,136918,1,8,0:0:0:0:
449,77,137059,1,0,0:0:0:0:
460,62,137105,1,0,0:0:0:0:
446,70,137246,1,0,0:0:0:0:
456,66,137293,1,0,0:0:0:0:
461,69,137434,1,8,0:0:0:0:
453,64,137496,1,8,0:0:0:0:
454,61,137559,1,8,0:0:0:0:
453,64,137621,1,0,0:0:0:0:
449,77,137809,1,8,0:0:0:0:
459,60,137871,1,8,0:0:0:0:
457,58,137934,1,8,0:0:0:0:
457,58,137996,1,0,0:0:0:0:
456,79,138184,1,12,0:0:0:0:
438,66,143809,5,0,0:0:0:0:
438,66,143996,1,0,0:0:0:0:
438,66,144090,1,0,0:0:0:0:
438,66,144184,1,12,0:0:0:0:
256,192,144277,12,0,148684,0:0:0:0:
320,105,149246,5,0,0:0:0:0:
320,105,149340,1,0,0:0:0:0:
340,64,149434,1,8,0:0:0:0:
340,64,149496,1,8,0:0:0:0:
340,64,149559,1,0,0:0:0:0:
347,66,149621,1,0,0:0:0:0:
378,62,149684,1,8,0:0:0:0:
356,61,149746,1,8,0:0:0:0:
390,49,149809,1,0,0:0:0:0:
401,61,149902,1,0,0:0:0:0:
390,49,149996,1,8,0:0:0:0:
401,62,150090,1,8,0:0:0:0:
385,63,150184,1,4,0:0:0:0:
394,71,150559,1,0,0:0:0:0:
395,71,150746,1,0,0:0:0:0:
395,71,150934,1,0,0:0:0:0:
401,62,151121,1,8,0:0:0:0:
397,57,151309,1,0,0:0:0:0:
400,52,151402,1,8,0:0:0:0:
403,63,151684,1,8,0:0:0:0:
403,63,151871,1,8,0:0:0:0:
401,62,152059,1,0,0:0:0:0:
410,72,152246,1,8,0:0:0:0:
415,69,152434,1,0,0:0:0:0:
416,66,152621,1,8,0:0:0:0:
416,65,152809,1,0,0:0:0:0:
408,72,152902,1,8,0:0:0:0:
409,71,153090,1,8,0:0:0:0:
410,72,153184,1,0,0:0:0:0:
408,71,153371,1,0,0:0:0:0:
416,66,153559,1,8,0:0:0:0:
416,65,153746,1,8,0:0:0:0:
409,71,153934,1,0,0:0:0:0:
419,73,154121,1,8,0:0:0:0:
418,71,154309,1,0,0:0:0:0:
416,66,154402,1,8,0:0:0:0:
423,75,154684,1,8,0:0:0:0:
428,79,154871,1,8,0:0:0:0:
405,62,155059,1,0,0:0:0:0:
407,60,155246,1,8,0:0:0:0:
423,67,155434,1,0,0:0:0:0:
423,66,155621,1,8,0:0:0:0:
420,61,155809,1,0,0:0:0:0:
422,63,155902,1,8,0:0:0:0:
422,64,156090,1,8,0:0:0:0:
429,78,156184,1,0,0:0:0:0:
431,78,156277,1,0,0:0:0:0:
423,67,156371,1,8,0:0:0:0:
423,66,156559,1,0,0:0:0:0:
423,66,156652,1,0,0:0:0:0:
426,71,156746,1,0,0:0:0:0:
429,70,156934,1,8,0:0:0:0:
429,70,157027,1,0,0:0:0:0:
431,69,157121,1,8,0:0:0:0:
431,78,157309,1,0,0:0:0:0:
431,76,157402,1,0,0:0:0:0:
432,72,157496,1,0,0:0:0:0:
423,66,157684,1,8,0:0:0:0:
442,70,157777,1,8,0:0:0:0:
437,78,157871,1,0,0:0:0:0:
437,78,158059,1,8,0:0:0:0:
437,71,158152,1,8,0:0:0:0:
437,71,158246,1,8,0:0:0:0:
431,76,158434,1,0,0:0:0:0:
432,72,158527,1,0,0:0:0:0:
435,71,158621,1,8,0:0:0:0:
439,80,158809,1,0,0:0:0:0:
437,78,158902,1,0,0:0:0:0:
445,76,158996,1,0,0:0:0:0:
442,76,159184,1,8,0:0:0:0:
442,75,159277,1,8,0:0:0:0:
445,79,159371,1,0,0:0:0:0:
445,79,159465,1,0,0:0:0:0:
457,79,159559,1,8,0:0:0:0:
453,77,159652,1,0,0:0:0:0:
443,73,159746,1,0,0:0:0:0:
443,73,159840,1,0,0:0:0:0:
446,73,159934,1,8,0:0:0:0:
447,71,160027,1,0,0:0:0:0:
442,76,160121,1,8,0:0:0:0:
449,73,160215,1,0,0:0:0:0:
442,75,160309,1,8,0:0:0:0:
449,73,160402,1,0,0:0:0:0:
445,79,160496,1,8,0:0:0:0:
457,79,160590,1,8,0:0:0:0:
453,77,160684,1,0,0:0:0:0:
449,69,160746,1,0,0:0:0:0:
458,88,160809,1,0,0:0:0:0:
446,73,160871,1,8,0:0:0:0:
446,73,160965,1,0,0:0:0:0:
447,71,161059,1,8,0:0:0:0:
460,52,161121,1,8,0:0:0:0:
449,62,161184,1,8,0:0:0:0:
448,66,161246,1,0,0:0:0:0:
455,73,161340,1,0,0:0:0:0:
451,80,161434,1,8,0:0:0:0:
256,192,161527,12,0,161996,0:0:0:0:
475,71,162184,5,0,0:0:0:0:
478,71,162371,1,0,0:0:0:0:
475,71,162559,1,0,0:0:0:0:
449,62,162746,1,0,0:0:0:0:
466,66,162840,1,8,0:0:0:0:
465,73,163027,1,0,0:0:0:0:
465,59,163121,1,0,0:0:0:0:
465,59,163309,1,0,0:0:0:0:
466,58,163684,1,0,0:0:0:0:
474,55,163871,1,0,0:0:0:0:
470,64,164059,1,8,0:0:0:0:
470,64,164246,1,8,0:0:0:0:
479,64,164340,1,8,0:0:0:0:
472,62,164434,1,0,0:0:0:0:
466,58,164621,1,4,0:0:0:0:
469,62,164809,1,12,0:0:0:0:
474,56,165184,1,8,0:0:0:0:
476,55,165277,1,0,0:0:0:0:
476,55,165371,1,0,0:0:0:0:
476,55,165465,1,0,0:0:0:0:
474,57,165559,1,8,0:0:0:0:
476,55,165652,1,0,0:0:0:0:
476,55,165746,1,0,0:0:0:0:
474,56,165840,1,0,0:0:0:0:
474,56,165934,1,8,0:0:0:0:
474,56,166027,1,0,0:0:0:0:
474,56,166121,1,0,0:0:0:0:
476,55,166215,1,0,0:0:0:0:
474,57,166309,1,8,0:0:0:0:
476,55,166402,1,0,0:0:0:0:
484,52,166496,1,0,0:0:0:0:
476,55,166590,1,0,0:0:0:0:
492,61,166684,1,8,0:0:0:0:
492,61,166934,1,8,0:0:0:0:
462,62,166996,1,8,0:0:0:0:
463,62,167059,1,0,0:0:0:0:
456,61,167152,1,0,0:0:0:0:
456,61,167246,1,8,0:0:0:0:
474,57,167340,1,8,0:0:0:0:
468,58,167434,1,0,0:0:0:0:
454,79,168184,1,4,0:0:0:0:
454,79,168559,1,4,0:0:0:0:
454,79,168934,1,4,0:0:0:0:
454,79,169309,1,4,0:0:0:0:
454,79,169590,1,12,0:0:0:0:
454,79,169684,1,4,0:0:0:0:
454,79,170059,1,4,0:0:0:0:
454,79,170340,1,0,0:0:0:0:
442,89,170387,1,0,0:0:0:0:
440,86,170434,1,8,0:0:0:0:
469,85,170621,1,0,0:0:0:0:
470,85,170715,1,0,0:0:0:0:
420,77,170809,1,8,0:0:0:0:
424,79,170855,1,8,0:0:0:0:
426,77,170902,1,0,0:0:0:0:
447,74,170996,1,8,0:0:0:0:
411,79,171059,1,8,0:0:0:0:
416,78,171121,1,8,0:0:0:0:
432,75,171184,1,4,0:0:0:0:
437,75,171559,1,4,0:0:0:0:
443,84,171840,1,0,0:0:0:0:
425,68,171887,1,0,0:0:0:0:
428,68,171934,1,8,0:0:0:0:
436,70,172121,1,8,0:0:0:0:
437,75,172309,1,0,0:0:0:0:
439,62,172355,1,0,0:0:0:0:
437,60,172496,1,8,0:0:0:0:
439,54,172559,1,0,0:0:0:0:
380,64,172621,1,0,0:0:0:0:
390,63,172684,1,8,0:0:0:0:
426,64,172871,1,0,0:0:0:0:
423,49,172934,1,0,0:0:0:0:
396,78,172996,1,0,0:0:0:0:
460,58,173059,1,8,0:0:0:0:
423,49,173152,1,8,0:0:0:0:
460,60,173246,1,0,0:0:0:0:
423,49,173340,1,0,0:0:0:0:
437,73,173434,1,8,0:0:0:0:
449,63,173527,1,8,0:0:0:0:
439,72,173621,1,8,0:0:0:0:
449,63,173715,1,0,0:0:0:0:
443,55,173809,1,8,0:0:0:0:
443,52,173996,1,0,0:0:0:0:
444,52,174090,1,0,0:0:0:0:
446,52,174184,1,0,0:0:0:0:
409,50,174371,1,0,0:0:0:0:
465,56,174559,1,12,0:0:0:0:
440,59,174746,1,0,0:0:0:0:
440,59,174934,1,12,0:0:0:0:
449,59,175215,1,0,0:0:0:0:
465,56,175309,1,12,0:0:0:0:
471,61,175496,1,0,0:0:0:0:
471,61,175590,1,0,0:0:0:0:
477,61,175684,1,12,0:0:0:0:
488,63,175965,1,0,0:0:0:0:
442,66,176059,1,12,0:0:0:0:
436,60,176246,1,0,0:0:0:0:
392,102,176340,1,0,0:0:0:0:
392,102,176387,1,0,0:0:0:0:
392,102,176434,1,8,0:0:0:0:
397,70,176527,1,8,0:0:0:0:
404,75,176621,1,0,0:0:0:0:
405,77,176715,1,0,0:0:0:0:
409,74,176809,1,8,0:0:0:0:
406,73,176902,1,8,0:0:0:0:
404,72,176996,1,8,0:0:0:0:
404,72,177090,1,8,0:0:0:0:
409,73,177184,1,4,0:0:0:0:
419,64,177465,1,4,0:0:0:0:
423,64,177746,1,4,0:0:0:0:
423,64,177934,1,4,0:0:0:0:
426,64,178215,1,4,0:0:0:0:
435,69,178496,1,4,0:0:0:0:
432,64,178684,1,8,0:0:0:0:
445,60,178871,1,8,0:0:0:0:
440,61,179059,1,0,0:0:0:0:
434,57,179246,1,0,0:0:0:0:
434,57,179434,1,8,0:0:0:0:
425,57,179496,1,8,0:0:0:0:
435,54,179559,1,0,0:0:0:0:
438,53,179621,1,0,0:0:0:0:
439,52,179809,1,0,0:0:0:0:
447,53,179902,1,0,0:0:0:0:
440,61,179996,1,8,0:0:0:0:
447,58,180090,1,8,0:0:0:0:
447,58,180184,1,8,0:0:0:0:
454,52,180371,1,0,0:0:0:0:
434,57,180465,1,0,0:0:0:0:
443,62,180559,1,8,0:0:0:0:
439,52,180746,1,0,0:0:0:0:
444,38,180840,1,0,0:0:0:0:
447,53,180934,1,8,0:0:0:0:
447,45,181027,1,8,0:0:0:0:
457,51,181121,1,0,0:0:0:0:
461,60,181215,1,8,0:0:0:0:
454,52,181402,1,0,0:0:0:0:
448,56,181496,1,8,0:0:0:0:
421,51,181590,1,8,0:0:0:0:
442,57,181684,1,0,0:0:0:0:
444,38,181871,1,8,0:0:0:0:
466,46,181965,1,8,0:0:0:0:
466,46,182059,1,0,0:0:0:0:
451,46,182246,1,8,0:0:0:0:
454,52,182340,1,8,0:0:0:0:
454,52,182434,1,0,0:0:0:0:
452,45,182527,1,8,0:0:0:0:
455,45,182621,1,8,0:0:0:0:
440,46,182809,1,4,0:0:0:0:
441,46,182996,1,4,0:0:0:0:
438,50,183184,1,8,0:0:0:0:
438,51,183371,1,8,0:0:0:0:
441,49,183465,1,0,0:0:0:0:
437,52,183559,1,0,0:0:0:0:
433,54,183746,1,8,0:0:0:0:
441,46,183840,1,8,0:0:0:0:
431,49,183934,1,0,0:0:0:0:
438,50,184027,1,8,0:0:0:0:
438,50,184121,1,0,0:0:0:0:
438,50,184215,1,0,0:0:0:0:
438,51,184309,1,8,0:0:0:0:
441,49,184496,1,0,0:0:0:0:
437,52,184590,1,0,0:0:0:0:
433,54,184684,1,8,0:0:0:0:
445,55,184871,1,8,0:0:0:0:
426,42,185059,1,0,0:0:0:0:
429,44,185152,1,0,0:0:0:0:
429,44,185246,1,8,0:0:0:0:
432,66,185293,1,8,0:0:0:0:
432,66,185340,1,8,0:0:0:0:
449,80,185387,1,8,0:0:0:0:
440,56,185621,1,12,0:0:0:0:
445,55,185809,1,12,0:0:0:0:
443,56,185996,1,4,0:0:0:0:
439,58,186184,1,12,0:0:0:0:
437,61,186371,1,0,0:0:0:0:
440,56,186465,1,0,0:0:0:0:
435,62,186559,1,8,0:0:0:0:
435,62,186746,1,0,0:0:0:0:
434,62,186840,1,0,0:0:0:0:
435,62,186934,1,8,0:0:0:0:
431,59,187027,1,0,0:0:0:0:
453,57,187121,1,8,0:0:0:0:
453,57,187215,1,8,0:0:0:0:
449,57,187309,1,0,0:0:0:0:
437,61,187402,1,8,0:0:0:0:
440,56,187496,1,8,0:0:0:0:
443,55,187590,1,0,0:0:0:0:
443,55,187684,1,8,0:0:0:0:
442,55,187871,1,0,0:0:0:0:
442,55,187965,1,0,0:0:0:0:
447,59,188059,1,8,0:0:0:0:
453,57,188246,1,0,0:0:0:0:
449,57,188340,1,0,0:0:0:0:
449,58,188434,1,8,0:0:0:0:
454,56,188527,1,8,0:0:0:0:
454,56,188621,1,0,0:0:0:0:
454,55,188715,1,0,0:0:0:0:
454,55,188809,1,8,0:0:0:0:
448,63,188996,1,0,0:0:0:0:
487,106,189043,1,0,0:0:0:0:
453,99,189090,1,0,0:0:0:0:
452,98,189137,1,0,0:0:0:0:
452,97,189184,1,8,0:0:0:0:
451,83,189371,1,8,0:0:0:0:
451,83,189559,1,8,0:0:0:0:
451,74,189746,1,0,0:0:0:0:
453,75,189793,1,0,0:0:0:0:
450,77,189840,1,0,0:0:0:0:
450,77,189887,1,0,0:0:0:0:
450,77,189934,1,8,0:0:0:0:
441,77,190121,1,8,0:0:0:0:
442,77,190215,1,8,0:0:0:0:
442,77,190309,1,8,0:0:0:0:
451,94,190496,1,8,0:0:0:0:
365,96,190684,5,0,0:0:0:0:
256,192,190777,12,0,191996,0:0:0:0:
359,126,192184,5,8,0:0:0:0:
376,104,192370,1,0,0:0:0:0:
376,108,192556,1,0,0:0:0:0:
377,99,192743,1,0,0:0:0:0:
377,99,192929,1,8,0:0:0:0:
374,92,193115,1,0,0:0:0:0:
375,92,193302,1,0,0:0:0:0:
375,92,193488,1,0,0:0:0:0:
376,92,193581,1,0,0:0:0:0:
377,99,193674,1,8,0:0:0:0:
377,99,193859,1,0,0:0:0:0:
377,69,194044,1,0,0:0:0:0:
388,90,194229,1,0,0:0:0:0:
388,90,194414,1,8,0:0:0:0:
388,90,194599,1,0,0:0:0:0:
391,82,194692,1,0,0:0:0:0:
398,84,194785,1,8,0:0:0:0:
388,90,194970,1,0,0:0:0:0:
391,82,195155,1,8,0:0:0:0:
398,90,195337,1,0,0:0:0:0:
406,72,195520,1,8,0:0:0:0:
406,72,195703,1,0,0:0:0:0:
411,77,195886,1,8,0:0:0:0:
411,79,196069,1,0,0:0:0:0:
411,79,196252,1,8,0:0:0:0:
407,91,196435,1,0,0:0:0:0:
407,91,196526,1,0,0:0:0:0:
402,78,196618,1,8,0:0:0:0:
403,79,196798,1,0,0:0:0:0:
411,79,196979,1,8,0:0:0:0:
411,79,197160,1,0,0:0:0:0:
404,77,197340,1,8,0:0:0:0:
405,74,197521,1,0,0:0:0:0:
402,78,197611,1,0,0:0:0:0:
409,74,197702,1,8,0:0:0:0:
411,79,197883,1,0,0:0:0:0:
411,79,198063,1,8,0:0:0:0:
406,71,198152,1,0,0:0:0:0:
418,68,198242,1,0,0:0:0:0:
418,68,198332,1,0,0:0:0:0:
416,68,198422,1,8,0:0:0:0:
412,73,198512,1,0,0:0:0:0:
413,68,198601,1,0,0:0:0:0:
416,66,198691,1,0,0:0:0:0:
411,65,198781,1,8,0:0:0:0:
411,79,198871,1,0,0:0:0:0:
422,69,198961,1,0,0:0:0:0:
420,70,199051,1,0,0:0:0:0:
424,63,199140,1,8,0:0:0:0:
411,72,199230,1,0,0:0:0:0:
418,68,199320,1,0,0:0:0:0:
424,57,199410,1,0,0:0:0:0:
424,57,199500,1,8,0:0:0:0:
418,62,199588,1,8,0:0:0:0:
425,64,199676,1,0,0:0:0:0:
425,62,199764,1,0,0:0:0:0:
420,72,199852,1,8,0:0:0:0:
425,62,199941,1,8,0:0:0:0:
420,70,200029,1,0,0:0:0:0:
433,63,200117,1,0,0:0:0:0:
420,72,200205,1,8,0:0:0:0:
429,58,200294,1,0,0:0:0:0:
433,63,200382,1,8,0:0:0:0:
424,57,200470,1,0,0:0:0:0:
420,72,200558,1,8,0:0:0:0:
425,64,200617,1,0,0:0:0:0:
421,51,200676,1,0,0:0:0:0:
433,63,200735,1,8,0:0:0:0:
425,62,200794,1,0,0:0:0:0:
410,74,200852,1,0,0:0:0:0:
390,115,200911,5,8,0:0:0:0:
421,72,202146,1,0,0:0:0:0:
421,72,202205,1,0,0:0:0:0:
438,75,202263,1,0,0:0:0:0:
421,72,202322,1,8,0:0:0:0:
436,58,202911,1,0,0:0:0:0:
438,62,202969,1,0,0:0:0:0:
425,60,203028,1,8,0:0:0:0:
438,61,203146,1,8,0:0:0:0:
445,81,203322,1,8,0:0:0:0:
425,61,203499,1,0,0:0:0:0:
453,83,203558,1,0,0:0:0:0:
429,61,203734,1,12,0:0:0:0:
436,58,203911,1,0,0:0:0:0:
432,56,203999,1,0,0:0:0:0:
455,59,204087,1,8,0:0:0:0:
452,64,204263,1,0,0:0:0:0:
462,52,204440,1,8,0:0:0:0:
447,55,204528,1,0,0:0:0:0:
447,55,204616,1,0,0:0:0:0:
447,55,204705,1,8,0:0:0:0:
452,56,204793,1,0,0:0:0:0:
446,58,204969,1,8,0:0:0:0:
436,66,205058,1,8,0:0:0:0:
436,66,205146,1,0,0:0:0:0:
455,42,205205,1,0,0:0:0:0:
409,80,205263,1,8,0:0:0:0:
447,39,205322,1,0,0:0:0:0:
462,77,205411,1,0,0:0:0:0:
463,77,205499,1,8,0:0:0:0:
427,84,205675,1,0,0:0:0:0:
440,81,205852,1,8,0:0:0:0:
444,68,205940,1,8,0:0:0:0:
445,69,206028,1,0,0:0:0:0:
436,66,206116,1,0,0:0:0:0:
432,62,206205,1,8,0:0:0:0:
447,64,206381,1,0,0:0:0:0:
451,66,206469,1,8,0:0:0:0:
451,71,206558,1,0,0:0:0:0:
440,81,206734,1,8,0:0:0:0:
444,68,206911,1,0,0:0:0:0:
458,73,206999,1,0,0:0:0:0:
459,62,207087,1,8,0:0:0:0:
459,63,207263,1,0,0:0:0:0:
447,64,207352,1,8,0:0:0:0:
451,66,207440,1,0,0:0:0:0:
451,66,207499,1,0,0:0:0:0:
422,90,207558,1,0,0:0:0:0:
452,67,207616,1,8,0:0:0:0:
449,73,207705,1,8,0:0:0:0:
444,72,207793,1,0,0:0:0:0:
444,68,207881,1,8,0:0:0:0:
441,73,207969,1,0,0:0:0:0:
443,74,208146,1,8,0:0:0:0:
442,73,208234,1,8,0:0:0:0:
437,68,208322,1,0,0:0:0:0:
448,77,208411,1,8,0:0:0:0:
445,71,208499,1,0,0:0:0:0:
445,71,208587,1,0,0:0:0:0:
443,67,208675,1,8,0:0:0:0:
443,65,208763,1,0,0:0:0:0:
444,68,208852,1,0,0:0:0:0:
441,73,208940,1,0,0:0:0:0:
439,64,209028,1,8,0:0:0:0:
443,74,209205,1,8,0:0:0:0:
442,72,209293,1,8,0:0:0:0:
446,70,209381,1,4,0:0:0:0:
445,71,209558,1,8,0:0:0:0:
443,65,209734,1,0,0:0:0:0:
450,74,209822,1,0,0:0:0:0:
444,68,209911,1,8,0:0:0:0:
443,74,210087,1,0,0:0:0:0:
443,74,210263,1,8,0:0:0:0:
439,70,210352,1,8,0:0:0:0:
446,70,210440,1,0,0:0:0:0:
445,71,210616,1,0,0:0:0:0:
437,72,210705,1,8,0:0:0:0:
442,63,210793,1,0,0:0:0:0:
446,66,210852,1,8,0:0:0:0:
444,68,210911,1,8,0:0:0:0:
434,71,210969,1,0,0:0:0:0:
442,64,211058,1,0,0:0:0:0:
443,74,211146,1,8,0:0:0:0:
443,74,211234,1,0,0:0:0:0:
439,70,211322,1,8,0:0:0:0:
439,70,211411,1,0,0:0:0:0:
440,64,211499,1,8,0:0:0:0:
444,63,211675,1,0,0:0:0:0:
444,63,211763,1,8,0:0:0:0:
443,61,211852,1,0,0:0:0:0:
443,61,211940,1,0,0:0:0:0:
441,61,212028,1,8,0:0:0:0:
441,63,212116,1,8,0:0:0:0:
441,61,212205,1,0,0:0:0:0:
447,72,212381,1,0,0:0:0:0:
448,70,212469,1,0,0:0:0:0:
449,72,212558,1,8,0:0:0:0:
448,70,212734,1,0,0:0:0:0:
452,69,212911,1,8,0:0:0:0:
452,69,212999,1,8,0:0:0:0:
457,67,213087,1,0,0:0:0:0:
441,61,213146,1,0,0:0:0:0:
453,74,213205,1,0,0:0:0:0:
457,67,213263,1,8,0:0:0:0:
448,70,213440,1,0,0:0:0:0:
460,65,213528,1,8,0:0:0:0:
460,65,213616,1,0,0:0:0:0:
430,70,213793,1,0,0:0:0:0:
452,69,213881,1,8,0:0:0:0:
447,73,214058,1,0,0:0:0:0:
451,72,214146,1,0,0:0:0:0:
448,70,214322,1,8,0:0:0:0:
448,70,214411,1,8,0:0:0:0:
453,72,214499,1,0,0:0:0:0:
453,72,214587,1,0,0:0:0:0:
456,72,214675,1,8,0:0:0:0:
432,68,214852,1,8,0:0:0:0:
460,72,215029,1,4,0:0:0:0:
440,65,215205,1,8,0:0:0:0:
440,66,215293,1,0,0:0:0:0:
439,68,215469,1,0,0:0:0:0:
440,68,215558,1,8,0:0:0:0:
408,79,215646,1,8,0:0:0:0:
432,68,215734,1,0,0:0:0:0:
432,68,215911,1,8,0:0:0:0:
437,66,215999,1,0,0:0:0:0:
440,65,216175,1,8,0:0:0:0:
440,66,216263,1,8,0:0:0:0:
444,74,216352,1,0,0:0:0:0:
439,68,216440,1,8,0:0:0:0:
436,75,216528,1,0,0:0:0:0:
436,66,216616,1,8,0:0:0:0:
437,74,216705,1,8,0:0:0:0:
432,68,216793,1,0,0:0:0:0:
430,74,216881,1,8,0:0:0:0:
429,74,216969,1,0,0:0:0:0:
437,66,217058,1,0,0:0:0:0:
430,72,217146,1,8,0:0:0:0:
442,77,217234,1,8,0:0:0:0:
436,83,217322,1,8,0:0:0:0:
430,74,217411,1,0,0:0:0:0:
436,75,217499,1,8,0:0:0:0:
431,78,217587,1,0,0:0:0:0:
431,78,217675,1,8,0:0:0:0:
431,79,217763,1,8,0:0:0:0:
429,85,217852,1,0,0:0:0:0:
445,78,218028,1,8,0:0:0:0:
445,78,218116,1,0,0:0:0:0:
442,77,218205,1,8,0:0:0:0:
443,77,218381,1,0,0:0:0:0:
437,80,218469,1,0,0:0:0:0:
443,77,218558,1,8,0:0:0:0:
435,89,218646,1,8,0:0:0:0:
431,79,218734,1,0,0:0:0:0:
435,81,218822,1,8,0:0:0:0:
435,77,218999,1,0,0:0:0:0:
445,78,219087,1,0,0:0:0:0:
443,77,219263,1,8,0:0:0:0:
430,61,219352,1,8,0:0:0:0:
443,77,219440,1,0,0:0:0:0:
443,77,219528,1,8,0:0:0:0:
437,79,219616,1,0,0:0:0:0:
442,78,219705,1,8,0:0:0:0:
440,77,219793,1,8,0:0:0:0:
445,79,219881,1,0,0:0:0:0:
435,67,219969,1,8,0:0:0:0:
443,77,220146,1,0,0:0:0:0:
443,77,220234,1,0,0:0:0:0:
448,74,220322,1,8,0:0:0:0:
446,62,220411,1,8,0:0:0:0:
446,62,220499,1,0,0:0:0:0:
437,64,220587,1,0,0:0:0:0:
442,78,220675,1,8,0:0:0:0:
362,83,220852,1,0,0:0:0:0:
445,79,220940,1,8,0:0:0:0:
435,67,221028,1,0,0:0:0:0:
437,70,221116,1,0,0:0:0:0:
443,77,221205,1,8,0:0:0:0:
442,69,221381,1,0,0:0:0:0:
443,74,221469,1,8,0:0:0:0:
442,69,221646,1,0,0:0:0:0:
445,79,221734,1,8,0:0:0:0:
442,64,221822,1,8,0:0:0:0:
444,64,221911,1,0,0:0:0:0:
445,63,221999,1,8,0:0:0:0:
446,63,222087,1,0,0:0:0:0:
446,62,222175,1,0,0:0:0:0:
443,74,222263,1,8,0:0:0:0:
443,74,222440,1,8,0:0:0:0:
453,72,222528,1,0,0:0:0:0:
458,69,222616,1,0,0:0:0:0:
449,73,222705,1,8,0:0:0:0:
456,69,222881,1,0,0:0:0:0:
452,73,222969,1,8,0:0:0:0:
459,78,223058,1,8,0:0:0:0:
464,80,223146,1,0,0:0:0:0:
452,72,223234,1,8,0:0:0:0:
463,79,223411,1,0,0:0:0:0:
449,73,223499,1,8,0:0:0:0:
467,83,223587,1,0,0:0:0:0:
482,85,223631,1,0,0:0:0:0:
465,76,223675,1,0,0:0:0:0:
468,74,223763,1,8,0:0:0:0:
465,77,223852,1,0,0:0:0:0:
456,83,223896,1,0,0:0:0:0:
466,78,223940,1,0,0:0:0:0:
471,76,224028,1,8,0:0:0:0:
453,72,224116,1,0,0:0:0:0:
453,72,224161,1,0,0:0:0:0:
452,72,224205,1,8,0:0:0:0:
463,87,224293,1,8,0:0:0:0:
463,79,224381,1,0,0:0:0:0:
449,73,224469,1,8,0:0:0:0:
449,73,224513,1,8,0:0:0:0:
454,75,224558,1,8,0:0:0:0:
452,74,224646,1,0,0:0:0:0:
461,78,224734,1,8,0:0:0:0:
465,77,224822,1,8,0:0:0:0:
456,83,224911,1,0,0:0:0:0:
256,192,224999,12,0,226146,0:0:0:0:
357,91,226322,5,12,0:0:0:0:
366,87,226851,1,0,0:0:0:0:
366,87,227379,1,0,0:0:0:0:
366,87,228256,1,8,0:0:0:0:
382,81,228435,1,8,0:0:0:0:
379,81,228610,1,0,0:0:0:0:
379,82,228782,1,8,0:0:0:0:
379,82,228956,1,0,0:0:0:0:
379,82,229132,1,0,0:0:0:0:
379,82,230006,1,0,0:0:0:0:
369,113,230181,1,0,0:0:0:0:
386,86,230355,1,0,0:0:0:0:
386,86,230530,1,8,0:0:0:0:
385,92,230878,1,8,0:0:0:0:
385,92,231226,1,0,0:0:0:0:
385,92,231573,1,0,0:0:0:0:
385,92,231920,1,8,0:0:0:0:
379,76,232439,1,0,0:0:0:0:
379,76,232959,1,0,0:0:0:0:
379,76,233821,1,8,0:0:0:0:
385,79,233994,1,8,0:0:0:0:
385,79,234165,1,0,0:0:0:0:
380,94,234338,1,0,0:0:0:0:
379,76,234509,1,8,0:0:0:0:
407,90,234683,1,8,0:0:0:0:
385,79,235197,1,8,0:0:0:0:
389,77,235708,1,0,0:0:0:0:
398,86,236220,1,8,0:0:0:0:
405,81,236566,1,0,0:0:0:0:
405,81,236737,1,0,0:0:0:0:
398,86,236907,1,8,0:0:0:0:
398,86,237078,1,0,0:0:0:0:
398,86,237248,1,0,0:0:0:0:
405,81,237409,1,8,0:0:0:0:
400,92,237910,1,0,0:0:0:0:
402,94,238420,1,0,0:0:0:0:
400,92,238759,1,8,0:0:0:0:
424,86,239012,1,8,0:0:0:0:
423,84,239436,1,8,0:0:0:0:
426,86,239774,1,8,0:0:0:0:
423,84,240103,1,0,0:0:0:0:
426,86,240608,1,0,0:0:0:0:
423,84,240934,1,0,0:0:0:0:
423,84,241103,1,0,0:0:0:0:
426,86,241270,1,0,0:0:0:0:
412,89,241439,1,8,0:0:0:0:
423,93,241690,1,8,0:0:0:0:
423,84,241857,1,0,0:0:0:0:
423,84,241941,1,8,0:0:0:0:
415,86,242109,1,0,0:0:0:0:
415,85,242276,1,0,0:0:0:0:
412,89,242444,1,8,0:0:0:0:
409,85,242610,1,0,0:0:0:0:
409,86,242694,1,0,0:0:0:0:
407,84,242773,1,8,0:0:0:0:
408,95,243273,1,8,0:0:0:0:
407,84,243777,1,0,0:0:0:0:
418,97,244110,1,8,0:0:0:0:
419,96,244275,1,0,0:0:0:0:
407,84,244358,1,8,0:0:0:0:
413,90,244607,1,0,0:0:0:0:
407,84,244690,1,0,0:0:0:0:
422,84,244774,1,8,0:0:0:0:
425,89,244939,1,0,0:0:0:0:
422,84,245106,1,8,0:0:0:0:
420,86,245271,1,8,0:0:0:0:
419,86,245353,1,8,0:0:0:0:
423,91,245437,1,0,0:0:0:0:
418,78,245602,1,0,0:0:0:0:
419,79,245684,1,8,0:0:0:0:
414,79,245850,1,0,0:0:0:0:
380,88,245932,1,0,0:0:0:0:
422,84,246098,1,8,0:0:0:0:
420,86,246180,1,8,0:0:0:0:
420,86,246262,1,0,0:0:0:0:
431,81,246345,1,8,0:0:0:0:
433,86,246515,1,0,0:0:0:0:
435,85,246597,1,0,0:0:0:0:
432,86,246679,1,0,0:0:0:0:
414,79,246845,1,8,0:0:0:0:
422,84,246927,1,0,0:0:0:0:
431,91,247009,1,8,0:0:0:0:
429,77,247178,1,0,0:0:0:0:
435,77,247260,1,8,0:0:0:0:
431,81,247342,1,8,0:0:0:0:
441,74,247417,1,0,0:0:0:0:
433,86,247499,1,0,0:0:0:0:
435,85,247581,1,8,0:0:0:0:
439,79,247663,1,0,0:0:0:0:
439,79,247749,1,8,0:0:0:0:
443,70,247830,1,0,0:0:0:0:
446,70,247912,1,8,0:0:0:0:
451,73,247994,1,8,0:0:0:0:
451,76,248082,1,0,0:0:0:0:
432,85,248163,1,0,0:0:0:0:
435,77,248245,1,8,0:0:0:0:
431,81,248327,1,0,0:0:0:0:
433,75,248491,1,0,0:0:0:0:
433,75,248573,1,0,0:0:0:0:
434,72,248655,1,8,0:0:0:0:
431,75,248818,1,0,0:0:0:0:
435,74,248900,1,0,0:0:0:0:
432,75,249063,1,8,0:0:0:0:
434,75,249144,1,0,0:0:0:0:
435,77,249226,1,0,0:0:0:0:
435,74,249307,1,8,0:0:0:0:
443,78,249470,1,0,0:0:0:0:
443,78,249551,1,0,0:0:0:0:
442,76,249714,1,0,0:0:0:0:
442,77,249795,1,0,0:0:0:0:
442,77,249876,1,8,0:0:0:0:
443,76,249958,1,0,0:0:0:0:
444,75,250039,1,8,0:0:0:0:
434,75,250120,1,8,0:0:0:0:
441,79,250201,1,0,0:0:0:0:
442,78,250282,1,0,0:0:0:0:
454,83,250364,1,8,0:0:0:0:
448,83,250445,1,0,0:0:0:0:
449,84,250526,1,8,0:0:0:0:
456,85,250607,1,0,0:0:0:0:
454,83,250688,1,8,0:0:0:0:
454,83,250769,1,0,0:0:0:0:
463,82,250850,1,0,0:0:0:0:
456,85,250931,1,8,0:0:0:0:
459,83,251088,1,0,0:0:0:0:
460,82,251169,1,0,0:0:0:0:
462,80,251250,1,8,0:0:0:0:
462,80,251413,1,0,0:0:0:0:
463,80,251494,1,0,0:0:0:0:
463,80,251657,1,8,0:0:0:0:
464,80,251737,1,0,0:0:0:0:
463,82,251818,1,0,0:0:0:0:
456,85,251899,1,0,0:0:0:0:
459,83,251981,1,8,0:0:0:0:
459,83,252061,1,0,0:0:0:0:
460,82,252142,1,8,0:0:0:0:
462,80,252298,1,0,0:0:0:0:
462,80,252378,1,8,0:0:0:0:
463,80,252539,1,0,0:0:0:0:
463,80,252621,1,8,0:0:0:0:
464,80,252782,1,8,0:0:0:0:
466,79,252944,1,0,0:0:0:0:
466,79,253104,1,0,0:0:0:0:
462,80,253185,1,0,0:0:0:0:
462,80,253266,1,8,0:0:0:0:
462,80,253346,1,0,0:0:0:0:
463,80,253426,1,0,0:0:0:0:
463,80,253507,1,8,0:0:0:0:
474,84,253668,1,0,0:0:0:0:
474,80,253748,1,0,0:0:0:0:
481,91,253828,1,8,0:0:0:0:
466,79,253995,1,8,0:0:0:0:
461,89,254075,1,0,0:0:0:0:
479,79,254235,1,8,0:0:0:0:
477,79,254315,1,0,0:0:0:0:
477,80,254395,1,0,0:0:0:0:
480,78,254475,1,0,0:0:0:0:
474,84,254554,1,8,0:0:0:0:
474,84,254634,1,0,0:0:0:0:
474,80,254714,1,8,0:0:0:0:
480,86,254874,1,8,0:0:0:0:
468,85,254953,1,0,0:0:0:0:
480,88,255033,1,0,0:0:0:0:
475,88,255113,1,0,0:0:0:0:
481,86,255193,1,8,0:0:0:0:
488,86,255272,1,0,0:0:0:0:
488,85,255352,1,8,0:0:0:0:
488,85,255432,1,0,0:0:0:0:
488,85,255512,1,8,0:0:0:0:
464,85,255591,1,8,0:0:0:0:
464,85,255671,1,0,0:0:0:0:
488,98,255751,1,0,0:0:0:0:
459,84,255836,1,8,0:0:0:0:
459,84,255915,1,0,0:0:0:0:
459,84,255995,1,0,0:0:0:0:
459,84,256074,1,8,0:0:0:0:
481,86,256239,1,0,0:0:0:0:
477,78,256319,1,0,0:0:0:0:
478,76,256398,1,0,0:0:0:0:
479,75,256478,1,8,0:0:0:0:
465,77,256557,1,0,0:0:0:0:
478,84,256636,1,0,0:0:0:0:
476,78,256716,1,8,0:0:0:0:
476,80,256871,1,0,0:0:0:0:
476,80,256950,1,0,0:0:0:0:
467,81,257030,1,0,0:0:0:0:
475,81,257106,1,8,0:0:0:0:
466,72,257185,1,8,0:0:0:0:
467,73,257264,1,0,0:0:0:0:
470,71,257343,1,8,0:0:0:0:
468,77,257498,1,0,0:0:0:0:
470,68,257577,1,8,0:0:0:0:
467,73,257739,1,0,0:0:0:0:
466,74,257897,1,8,0:0:0:0:
465,68,257976,1,8,0:0:0:0:
464,73,258048,1,8,0:0:0:0:
464,73,258127,1,8,0:0:0:0:
466,72,258206,1,8,0:0:0:0:
467,73,258285,1,8,0:0:0:0:
470,71,258361,1,4,0:0:0:0:
348,120,262150,5,8,0:0:0:0:
348,120,262466,1,8,0:0:0:0:
348,120,262782,1,8,0:0:0:0:
348,120,263097,1,8,0:0:0:0:
348,120,263413,1,4,0:0:0:0:
368,113,263650,1,8,0:0:0:0:
369,113,263729,1,0,0:0:0:0:
368,109,263887,1,0,0:0:0:0:
369,109,264045,1,8,0:0:0:0:
378,108,264124,1,8,0:0:0:0:
379,92,264282,1,0,0:0:0:0:
381,110,264361,1,0,0:0:0:0:
378,107,264518,1,0,0:0:0:0:
378,109,264676,1,8,0:0:0:0:
374,104,264913,1,0,0:0:0:0:
385,111,264992,1,8,0:0:0:0:
391,119,265150,1,0,0:0:0:0:
391,106,265308,1,8,0:0:0:0:
390,107,265387,1,0,0:0:0:0:
375,95,265545,1,0,0:0:0:0:
385,105,265624,1,8,0:0:0:0:
393,106,265782,1,8,0:0:0:0:
393,106,265939,1,0,0:0:0:0:
389,105,266176,1,0,0:0:0:0:
391,106,266255,1,8,0:0:0:0:
390,105,266413,1,0,0:0:0:0:
383,107,266571,1,8,0:0:0:0:
385,105,266650,1,8,0:0:0:0:
379,109,266808,1,0,0:0:0:0:
379,109,266887,1,0,0:0:0:0:
383,99,267045,1,0,0:0:0:0:
389,105,267203,1,8,0:0:0:0:
388,89,267439,1,0,0:0:0:0:
384,89,267518,1,8,0:0:0:0:
385,89,267676,1,0,0:0:0:0:
388,88,267834,1,8,0:0:0:0:
391,84,267913,1,0,0:0:0:0:
392,86,268071,1,8,0:0:0:0:
389,94,268150,1,8,0:0:0:0:
388,89,268308,1,8,0:0:0:0:
388,89,268466,1,4,0:0:0:0:
403,92,268939,1,4,0:0:0:0:
406,91,269413,1,12,0:0:0:0:
409,92,270992,1,4,0:0:0:0:
412,80,271466,1,4,0:0:0:0:
416,81,271939,1,12,0:0:0:0:
424,86,273045,1,0,0:0:0:0:
424,86,273203,1,8,0:0:0:0:
418,80,273282,1,8,0:0:0:0:
424,86,273361,1,8,0:0:0:0:
433,96,273439,1,8,0:0:0:0:
420,78,273518,1,4,0:0:0:0:
435,69,273676,1,8,0:0:0:0:
436,72,273834,1,8,0:0:0:0:
420,78,273992,1,4,0:0:0:0:
435,79,274150,1,8,0:0:0:0:
435,72,274308,1,0,0:0:0:0:
420,78,274466,1,12,0:0:0:0:
431,77,276045,1,4,0:0:0:0:
465,72,276203,1,8,0:0:0:0:
465,72,276361,1,8,0:0:0:0:
419,71,276518,1,4,0:0:0:0:
465,72,276676,1,8,0:0:0:0:
492,72,276834,1,0,0:0:0:0:
419,71,276992,1,12,0:0:0:0:
465,72,277308,1,0,0:0:0:0:
474,72,277466,1,0,0:0:0:0:
477,61,277545,1,0,0:0:0:0:
477,61,277624,1,8,0:0:0:0:
469,66,277782,1,0,0:0:0:0:
469,64,277861,1,8,0:0:0:0:
465,72,277939,1,0,0:0:0:0:
470,65,278018,1,0,0:0:0:0:
470,65,278097,1,0,0:0:0:0:
470,65,278176,1,0,0:0:0:0:
470,64,278255,1,8,0:0:0:0:
469,62,278334,1,8,0:0:0:0:
466,61,278413,1,8,0:0:0:0:
469,62,278492,1,8,0:0:0:0:
462,60,278571,1,4,0:0:0:0:
469,66,278729,1,0,0:0:0:0:
469,64,278887,1,8,0:0:0:0:
476,78,278965,1,8,0:0:0:0:
477,74,279044,1,0,0:0:0:0:
477,74,279201,1,8,0:0:0:0:
477,71,279357,1,0,0:0:0:0:
477,72,279513,1,8,0:0:0:0:
481,66,279590,1,8,0:0:0:0:
481,66,279668,1,8,0:0:0:0:
469,64,279824,1,0,0:0:0:0:
474,69,279978,1,0,0:0:0:0:
481,59,280133,1,8,0:0:0:0:
483,64,280209,1,0,0:0:0:0:
482,56,280286,1,8,0:0:0:0:
486,63,280440,1,0,0:0:0:0:
488,62,280593,1,0,0:0:0:0:
481,66,280669,1,0,0:0:0:0:
488,62,280746,1,8,0:0:0:0:
483,69,280822,1,8,0:0:0:0:
484,69,280898,1,0,0:0:0:0:
486,73,281050,1,8,0:0:0:0:
487,73,281125,1,8,0:0:0:0:
483,71,281201,1,0,0:0:0:0:
485,70,281277,1,0,0:0:0:0:
482,69,281353,1,8,0:0:0:0:
483,69,281428,1,0,0:0:0:0:
486,63,281503,1,0,0:0:0:0:
484,68,281579,1,0,0:0:0:0:
481,66,281654,1,8,0:0:0:0:
498,88,281729,1,0,0:0:0:0:
496,85,281804,1,8,0:0:0:0:
483,69,281879,1,8,0:0:0:0:
486,73,281954,1,0,0:0:0:0:
486,73,282028,1,0,0:0:0:0:
487,73,282103,1,8,0:0:0:0:
483,71,282253,1,0,0:0:0:0:
487,84,282327,1,0,0:0:0:0:
483,69,282401,1,8,0:0:0:0:
483,69,282476,1,8,0:0:0:0:
484,68,282550,1,0,0:0:0:0:
493,79,282624,1,0,0:0:0:0:
490,77,282698,1,8,0:0:0:0:
479,86,282772,1,0,0:0:0:0:
479,86,282846,1,8,0:0:0:0:
479,83,282919,1,8,0:0:0:0:
479,83,282993,1,8,0:0:0:0:
479,81,283067,1,8,0:0:0:0:
485,81,283140,1,0,0:0:0:0:
485,79,283213,1,0,0:0:0:0:
487,84,283286,1,0,0:0:0:0:
490,78,283433,1,8,0:0:0:0:
492,79,283506,1,0,0:0:0:0:
484,68,283579,1,0,0:0:0:0:
482,66,283652,1,0,0:0:0:0:
481,64,283725,1,8,0:0:0:0:
482,66,283797,1,0,0:0:0:0:
473,81,283870,1,0,0:0:0:0:
479,83,283943,1,0,0:0:0:0:
476,75,284015,1,8,0:0:0:0:
493,72,284087,1,0,0:0:0:0:
476,74,284159,1,0,0:0:0:0:
477,72,284232,1,0,0:0:0:0:
482,64,284304,1,8,0:0:0:0:
471,62,284376,1,0,0:0:0:0:
490,78,284448,1,0,0:0:0:0:
467,72,284520,1,0,0:0:0:0:
482,66,284592,1,8,0:0:0:0:
470,64,284663,1,8,0:0:0:0:
485,77,284735,1,0,0:0:0:0:
471,68,284807,1,0,0:0:0:0:
482,64,284878,1,8,0:0:0:0:
470,63,284949,1,8,0:0:0:0:
476,75,285020,1,0,0:0:0:0:
472,69,285092,1,0,0:0:0:0:
482,64,285163,1,8,0:0:0:0:
471,63,285234,1,8,0:0:0:0:
485,77,285305,1,0,0:0:0:0:
472,69,285376,1,0,0:0:0:0:
469,60,285447,1,8,0:0:0:0:
482,66,285517,1,8,0:0:0:0:
482,75,285588,1,0,0:0:0:0:
482,75,285659,1,0,0:0:0:0:
474,80,285729,1,8,0:0:0:0:
482,75,285799,1,0,0:0:0:0:
482,75,285869,1,0,0:0:0:0:
482,75,285940,1,0,0:0:0:0:
480,81,286010,1,8,0:0:0:0:
481,81,286080,1,8,0:0:0:0:
478,82,286150,1,0,0:0:0:0:
482,75,286220,1,0,0:0:0:0:
478,82,286290,1,8,0:0:0:0:
482,75,286359,1,0,0:0:0:0:
482,75,286429,1,8,0:0:0:0:
482,75,286499,1,0,0:0:0:0:
482,75,286568,1,8,0:0:0:0:
482,75,286637,1,0,0:0:0:0:
482,75,286706,1,8,0:0:0:0:
482,75,286776,1,8,0:0:0:0:
482,75,286853,1,0,0:0:0:0:
396,109,287405,1,8,0:0:0:0:
417,94,287475,1,8,0:0:0:0:
431,90,287544,1,0,0:0:0:0:
431,90,287613,1,0,0:0:0:0:
422,88,287682,1,8,0:0:0:0:
422,88,287751,1,0,0:0:0:0:
422,88,287820,1,0,0:0:0:0:
422,88,287889,1,0,0:0:0:0:
428,82,287958,1,8,0:0:0:0:
418,84,288028,1,8,0:0:0:0:
429,82,288097,1,0,0:0:0:0:
437,82,288166,1,8,0:0:0:0:
438,82,288304,1,0,0:0:0:0:
436,86,288373,1,0,0:0:0:0:
432,81,288442,1,8,0:0:0:0:
431,90,288581,1,0,0:0:0:0:
431,90,288650,1,0,0:0:0:0:
430,83,288788,1,8,0:0:0:0:
428,84,288857,1,8,0:0:0:0:
432,84,288926,1,0,0:0:0:0:
428,82,288995,1,0,0:0:0:0:
431,87,289064,1,8,0:0:0:0:
429,82,289134,1,0,0:0:0:0:
437,82,289203,1,0,0:0:0:0:
442,84,289341,1,8,0:0:0:0:
442,82,289410,1,8,0:0:0:0:
443,83,289479,1,0,0:0:0:0:
443,81,289548,1,8,0:0:0:0:
443,81,289617,1,8,0:0:0:0:
443,80,289687,1,0,0:0:0:0:
443,79,289756,1,8,0:0:0:0:
439,80,289825,1,0,0:0:0:0:
431,90,289894,1,8,0:0:0:0:
440,81,289963,1,0,0:0:0:0:
443,92,290032,1,0,0:0:0:0:
444,81,290101,1,0,0:0:0:0:
440,81,290170,1,8,0:0:0:0:
446,74,290240,1,8,0:0:0:0:
442,75,290309,1,0,0:0:0:0:
453,73,290378,1,8,0:0:0:0:
441,74,290516,1,0,0:0:0:0:
443,81,290585,1,0,0:0:0:0:
449,73,290654,1,8,0:0:0:0:
452,74,290793,1,0,0:0:0:0:
448,74,290862,1,0,0:0:0:0:
451,74,291000,1,8,0:0:0:0:
435,76,291069,1,0,0:0:0:0:
438,73,291138,1,0,0:0:0:0:
438,73,291207,1,0,0:0:0:0:
442,75,291276,1,8,0:0:0:0:
440,77,291346,1,0,0:0:0:0:
440,74,291415,1,8,0:0:0:0:
441,74,291553,1,0,0:0:0:0:
437,68,291622,1,8,0:0:0:0:
440,77,291760,1,0,0:0:0:0:
437,68,291829,1,8,0:0:0:0:
436,68,291899,1,8,0:0:0:0:
436,68,291968,1,0,0:0:0:0:
435,69,292037,1,0,0:0:0:0:
434,68,292106,1,8,0:0:0:0:
438,73,292244,1,0,0:0:0:0:
435,68,292313,1,0,0:0:0:0:
452,74,292382,1,8,0:0:0:0:
441,74,292452,1,8,0:0:0:0:
448,84,292521,1,0,0:0:0:0:
441,74,292590,1,8,0:0:0:0:
447,75,292728,1,0,0:0:0:0:
450,74,292797,1,0,0:0:0:0:
455,72,292866,1,8,0:0:0:0:
445,73,293005,1,0,0:0:0:0:
445,73,293074,1,0,0:0:0:0:
438,73,293212,1,8,0:0:0:0:
438,73,293281,1,0,0:0:0:0:
435,68,293350,1,0,0:0:0:0:
441,74,293419,1,8,0:0:0:0:
431,72,293558,1,0,0:0:0:0:
433,71,293627,1,0,0:0:0:0:
432,70,293765,1,8,0:0:0:0:
440,68,293834,1,0,0:0:0:0:
435,68,293903,1,0,0:0:0:0:
435,66,293972,1,0,0:0:0:0:
435,66,294041,1,8,0:0:0:0:
437,65,294111,1,0,0:0:0:0:
435,65,294180,1,0,0:0:0:0:
434,66,294249,1,8,0:0:0:0:
435,61,294318,1,8,0:0:0:0:
435,68,294387,1,0,0:0:0:0:
441,74,294456,1,8,0:0:0:0:
439,68,294525,1,8,0:0:0:0:
433,71,294594,1,0,0:0:0:0:
433,71,294664,1,0,0:0:0:0:
435,75,294733,1,0,0:0:0:0:
432,70,294802,1,8,0:0:0:0:
446,73,294940,1,0,0:0:0:0:
447,76,295009,1,8,0:0:0:0:
445,74,295078,1,0,0:0:0:0:
446,74,295217,1,8,0:0:0:0:
446,74,295286,1,0,0:0:0:0:
443,74,295355,1,8,0:0:0:0:
441,74,295493,1,0,0:0:0:0:
443,77,295562,1,0,0:0:0:0:
449,73,295631,1,0,0:0:0:0:
448,74,295700,1,8,0:0:0:0:
456,68,295770,1,8,0:0:0:0:
453,74,295839,1,0,0:0:0:0:
446,73,295908,1,8,0:0:0:0:
457,73,296046,1,0,0:0:0:0:
460,74,296115,1,8,0:0:0:0:
455,75,296184,1,8,0:0:0:0:
456,78,296253,1,0,0:0:0:0:
457,78,296323,1,8,0:0:0:0:
456,78,296392,1,0,0:0:0:0:
456,78,296461,1,0,0:0:0:0:
457,78,296530,1,8,0:0:0:0:
470,79,296599,1,8,0:0:0:0:
468,83,296668,1,0,0:0:0:0:
468,84,296737,1,0,0:0:0:0:
468,84,296806,1,8,0:0:0:0:
462,90,296876,1,8,0:0:0:0:
457,91,296945,1,0,0:0:0:0:
463,90,297014,1,8,0:0:0:0:
444,90,297152,1,0,0:0:0:0:
444,90,297221,1,0,0:0:0:0:
444,90,297290,1,8,0:0:0:0:
432,84,297429,1,0,0:0:0:0:
437,82,297498,1,0,0:0:0:0:
439,82,297636,1,8,0:0:0:0:
424,83,297705,1,0,0:0:0:0:
419,90,297774,1,0,0:0:0:0:
445,88,297843,1,8,0:0:0:0:
446,88,297982,1,0,0:0:0:0:
446,88,298051,1,0,0:0:0:0:
456,91,298189,1,8,0:0:0:0:
470,93,298258,1,0,0:0:0:0:
470,94,298327,1,0,0:0:0:0:
471,93,298396,1,0,0:0:0:0:
471,93,298465,1,8,0:0:0:0:
470,93,298535,1,8,0:0:0:0:
471,93,298604,1,0,0:0:0:0:
473,92,298673,1,0,0:0:0:0:
479,92,298742,1,8,0:0:0:0:
481,91,298811,1,0,0:0:0:0:
485,91,298880,1,8,0:0:0:0:
489,90,298949,1,0,0:0:0:0:
486,91,299018,1,8,0:0:0:0:
483,98,299157,1,0,0:0:0:0:
482,85,299226,1,8,0:0:0:0:
470,94,299364,1,8,0:0:0:0:
419,77,299433,1,0,0:0:0:0:
500,100,299571,1,8,0:0:0:0:
500,100,299641,1,0,0:0:0:0:
457,91,299779,1,0,0:0:0:0:
485,91,299848,1,8,0:0:0:0:
475,79,299986,1,0,0:0:0:0:
500,81,300055,1,8,0:0:0:0:
499,82,300124,1,0,0:0:0:0:
498,82,300263,1,8,0:0:0:0:
498,82,300332,1,0,0:0:0:0:
491,83,300470,1,0,0:0:0:0:
504,81,300539,1,8,0:0:0:0:
493,84,300677,1,0,0:0:0:0:
504,84,300747,1,8,0:0:0:0:
492,83,300885,1,0,0:0:0:0:
486,83,300954,1,8,0:0:0:0:
498,81,301023,1,8,0:0:0:0:
500,81,301092,1,0,0:0:0:0:
499,82,301161,1,0,0:0:0:0:
498,82,301230,1,8,0:0:0:0:
498,82,301369,1,0,0:0:0:0:
504,75,301438,1,0,0:0:0:0:
504,74,301507,1,8,0:0:0:0:
505,75,301645,1,0,0:0:0:0:
487,78,301714,1,8,0:0:0:0:
485,79,301783,1,0,0:0:0:0:
492,83,301922,1,8,0:0:0:0:
498,81,301991,1,8,0:0:0:0:
488,78,302060,1,0,0:0:0:0:
486,82,302198,1,8,0:0:0:0:
487,78,302267,1,0,0:0:0:0:
486,80,302336,1,8,0:0:0:0:
489,84,302475,1,0,0:0:0:0:
489,84,302544,1,0,0:0:0:0:
488,84,302613,1,8,0:0:0:0:
487,78,302751,1,0,0:0:0:0:
492,83,302820,1,8,0:0:0:0:
492,83,302889,1,0,0:0:0:0:
488,78,303028,1,8,0:0:0:0:
488,78,303097,1,8,0:0:0:0:
497,75,303166,1,0,0:0:0:0:
497,75,303304,1,0,0:0:0:0:
494,78,303373,1,0,0:0:0:0:
489,84,303442,1,12,0:0:0:0:
500,90,303857,1,0,0:0:0:0:
478,104,303903,1,0,0:0:0:0:
492,83,303949,1,0,0:0:0:0:
479,107,303995,1,8,0:0:0:0:
480,74,304410,1,0,0:0:0:0:
489,84,304456,1,0,0:0:0:0:
479,81,304502,1,8,0:0:0:0:
481,81,304548,1,8,0:0:0:0:
256,192,304617,12,0,305240,0:0:0:0:
456,90,305378,5,0,0:0:0:0:
457,89,305447,1,0,0:0:0:0:
457,89,305516,1,0,0:0:0:0:
457,89,305585,1,0,0:0:0:0:
456,90,305654,1,8,0:0:0:0:
456,90,305793,1,0,0:0:0:0:
464,91,305931,1,8,0:0:0:0:
464,91,306069,1,0,0:0:0:0:
456,90,306346,1,0,0:0:0:0:
447,85,306484,1,8,0:0:0:0:
434,86,306760,1,0,0:0:0:0:
464,91,306899,1,0,0:0:0:0:
464,91,306968,1,0,0:0:0:0:
453,86,307037,1,8,0:0:0:0:
456,90,307175,1,0,0:0:0:0:
456,90,307313,1,8,0:0:0:0:
456,90,307382,1,8,0:0:0:0:
464,89,307452,1,0,0:0:0:0:
464,89,307521,1,0,0:0:0:0:
460,89,307590,1,8,0:0:0:0:
459,86,307659,1,0,0:0:0:0:
463,86,307728,1,8,0:0:0:0:
464,91,307797,1,8,0:0:0:0:
464,91,307866,1,0,0:0:0:0:
438,72,308074,1,8,0:0:0:0:
456,90,308143,1,0,0:0:0:0:
456,90,308281,1,8,0:0:0:0:
458,80,308488,1,8,0:0:0:0:
464,89,308558,1,0,0:0:0:0:
459,86,308627,1,0,0:0:0:0:
461,75,308696,1,8,0:0:0:0:
463,86,308765,1,0,0:0:0:0:
464,91,308834,1,0,0:0:0:0:
464,91,308903,1,0,0:0:0:0:
461,86,308972,1,8,0:0:0:0:
456,84,309111,1,0,0:0:0:0:
460,84,309249,1,8,0:0:0:0:
458,80,309387,1,0,0:0:0:0:
464,89,309525,1,0,0:0:0:0:
464,89,309594,1,8,0:0:0:0:
474,88,309733,1,0,0:0:0:0:
471,88,309802,1,8,0:0:0:0:
468,89,309940,1,0,0:0:0:0:
466,97,310078,1,8,0:0:0:0:
475,86,310217,1,8,0:0:0:0:
476,87,310355,1,0,0:0:0:0:
474,92,310493,1,8,0:0:0:0:
475,93,310770,1,8,0:0:0:0:
475,94,310839,1,0,0:0:0:0:
472,94,310908,1,8,0:0:0:0:
474,96,310977,1,0,0:0:0:0:
476,93,311046,1,0,0:0:0:0:
474,96,311115,1,0,0:0:0:0:
475,95,311184,1,8,0:0:0:0:
474,98,311253,1,8,0:0:0:0:
462,95,311323,1,0,0:0:0:0:
462,95,311392,1,0,0:0:0:0:
463,89,311461,1,8,0:0:0:0:
487,90,311530,1,0,0:0:0:0:
487,92,311599,1,8,0:0:0:0:
482,97,311668,1,0,0:0:0:0:
475,93,311737,1,8,0:0:0:0:
475,93,311806,1,8,0:0:0:0:
475,94,311876,1,8,0:0:0:0:
474,96,311945,1,0,0:0:0:0:
472,88,312014,1,8,0:0:0:0:
474,96,312083,1,0,0:0:0:0:
472,88,312152,1,0,0:0:0:0:
475,95,312221,1,0,0:0:0:0:
474,98,312290,1,8,0:0:0:0:
468,89,312359,1,8,0:0:0:0:
471,88,312498,1,0,0:0:0:0:
477,86,312567,1,8,0:0:0:0:
487,92,312636,1,0,0:0:0:0:
475,93,312705,1,0,0:0:0:0:
448,89,312843,1,8,0:0:0:0:
475,94,312912,1,0,0:0:0:0:
474,96,312982,1,0,0:0:0:0:
472,88,313051,1,0,0:0:0:0:
474,96,313120,1,8,0:0:0:0:
472,88,313189,1,8,0:0:0:0:
472,80,313258,1,0,0:0:0:0:
473,79,313327,1,0,0:0:0:0:
475,81,313396,1,8,0:0:0:0:
477,86,313604,1,0,0:0:0:0:
474,85,313673,1,8,0:0:0:0:
474,85,313811,1,0,0:0:0:0:
487,88,313949,1,8,0:0:0:0:
491,81,314018,1,0,0:0:0:0:
486,84,314088,1,0,0:0:0:0:
466,74,314157,1,8,0:0:0:0:
466,75,314226,1,0,0:0:0:0:
464,76,314364,1,0,0:0:0:0:
462,77,314502,1,8,0:0:0:0:
472,47,314571,1,0,0:0:0:0:
477,66,314641,1,0,0:0:0:0:
480,64,314710,1,8,0:0:0:0:
480,64,314848,1,0,0:0:0:0:
487,67,314917,1,0,0:0:0:0:
491,66,314986,1,8,0:0:0:0:
488,64,315055,1,0,0:0:0:0:
489,66,315194,1,0,0:0:0:0:
489,66,315263,1,8,0:0:0:0:
475,77,315401,1,0,0:0:0:0:
485,73,315470,1,8,0:0:0:0:
462,77,315539,1,8,0:0:0:0:
466,77,315608,1,0,0:0:0:0:
468,75,315747,1,0,0:0:0:0:
475,74,315816,1,8,0:0:0:0:
476,73,315954,1,0,0:0:0:0:
471,74,316023,1,8,0:0:0:0:
470,74,316092,1,0,0:0:0:0:
473,71,316161,1,0,0:0:0:0:
475,66,316300,1,0,0:0:0:0:
473,67,316369,1,8,0:0:0:0:
491,78,316507,1,0,0:0:0:0:
486,79,316576,1,8,0:0:0:0:
479,80,316645,1,8,0:0:0:0:
476,80,316714,1,0,0:0:0:0:
475,74,316783,1,8,0:0:0:0:
475,74,316853,1,0,0:0:0:0:
476,73,316922,1,8,0:0:0:0:
473,71,317060,1,0,0:0:0:0:
470,74,317129,1,0,0:0:0:0:
482,69,317198,1,8,0:0:0:0:
493,88,317267,1,0,0:0:0:0:
482,78,317336,1,8,0:0:0:0:
473,67,317405,1,0,0:0:0:0:
472,77,317475,1,8,0:0:0:0:
461,74,317613,1,0,0:0:0:0:
488,79,317682,1,8,0:0:0:0:
489,77,317751,1,0,0:0:0:0:
486,72,317820,1,8,0:0:0:0:
486,72,317889,1,8,0:0:0:0:
483,71,317958,1,0,0:0:0:0:
484,78,318028,1,0,0:0:0:0:
484,71,318097,1,8,0:0:0:0:
480,72,318166,1,0,0:0:0:0:
485,72,318235,1,8,0:0:0:0:
480,71,318304,1,0,0:0:0:0:
484,71,318373,1,8,0:0:0:0:
479,71,318511,1,0,0:0:0:0:
480,72,318581,1,0,0:0:0:0:
480,71,318650,1,8,0:0:0:0:
480,72,318719,1,0,0:0:0:0:
481,76,318788,1,8,0:0:0:0:
486,72,318857,1,8,0:0:0:0:
479,75,318926,1,0,0:0:0:0:
484,78,319064,1,0,0:0:0:0:
480,72,319134,1,0,0:0:0:0:
480,72,319203,1,8,0:0:0:0:
480,71,319341,1,8,0:0:0:0:
487,75,319410,1,8,0:0:0:0:
479,71,319479,1,0,0:0:0:0:
480,71,319617,1,0,0:0:0:0:
480,71,319687,1,8,0:0:0:0:
480,72,319756,1,8,0:0:0:0:
486,72,319894,1,0,0:0:0:0:
484,78,320032,1,8,0:0:0:0:
486,68,320170,1,0,0:0:0:0:
493,64,320240,1,0,0:0:0:0:
500,71,320309,1,8,0:0:0:0:
500,71,320447,1,0,0:0:0:0:
499,69,320516,1,8,0:0:0:0:
492,73,320585,1,0,0:0:0:0:
492,73,320723,1,8,0:0:0:0:
493,74,320793,1,8,0:0:0:0:
496,79,320862,1,8,0:0:0:0:
496,79,321000,1,0,0:0:0:0:
502,65,321138,1,8,0:0:0:0:
488,74,321207,1,0,0:0:0:0:
487,58,321276,1,8,0:0:0:0:
485,58,321346,1,8,0:0:0:0:
479,60,321415,1,0,0:0:0:0:
480,62,321484,1,8,0:0:0:0:
496,64,321553,1,0,0:0:0:0:
473,61,321622,1,0,0:0:0:0:
458,88,321691,1,0,0:0:0:0:
460,88,321760,1,8,0:0:0:0:
469,81,321829,1,0,0:0:0:0:
487,68,321899,1,8,0:0:0:0:
470,81,321968,1,0,0:0:0:0:
486,68,322037,1,8,0:0:0:0:
470,81,322106,1,0,0:0:0:0:
460,61,322175,1,0,0:0:0:0:
459,54,322244,1,8,0:0:0:0:
445,56,322290,1,8,0:0:0:0:
448,57,322336,1,8,0:0:0:0:
449,57,322382,1,0,0:0:0:0:
467,49,322452,1,0,0:0:0:0:
472,50,322521,1,8,0:0:0:0:
472,52,322590,1,8,0:0:0:0:
460,43,322659,1,0,0:0:0:0:
468,49,322728,1,0,0:0:0:0:
470,50,322853,1,8,0:0:0:0:
451,60,322963,1,8,0:0:0:0:
458,59,323074,1,0,0:0:0:0:
440,62,323184,1,8,0:0:0:0:
444,66,323240,1,8,0:0:0:0:
444,66,323295,1,8,0:0:0:0:
444,66,323350,1,4,0:0:0:0:
360,110,332197,5,0,0:0:0:0:
360,110,332742,1,0,0:0:0:0:
360,110,333008,1,0,0:0:0:0:
360,110,333270,1,0,0:0:0:0:
360,110,333527,1,8,0:0:0:0:
360,110,333780,1,0,0:0:0:0:
360,110,334029,1,8,0:0:0:0:
360,110,334515,1,0,0:0:0:0:
382,122,334752,1,0,0:0:0:0:
380,120,334985,1,8,0:0:0:0:
369,98,335441,1,8,0:0:0:0:
369,98,335664,1,8,0:0:0:0:
374,97,335883,1,8,0:0:0:0:
369,98,336099,1,0,0:0:0:0:
369,98,336522,1,0,0:0:0:0:
369,98,336729,1,0,0:0:0:0:
374,97,336933,1,0,0:0:0:0:
369,98,337135,1,8,0:0:0:0:
379,96,337334,1,0,0:0:0:0:
377,91,337432,1,0,0:0:0:0:
378,96,337530,1,8,0:0:0:0:
379,94,337627,1,8,0:0:0:0:
380,95,337724,1,0,0:0:0:0:
378,85,338104,1,8,0:0:0:0:
379,96,338291,1,0,0:0:0:0:
379,94,338657,1,8,0:0:0:0:
375,95,338837,1,8,0:0:0:0:
375,95,339015,1,8,0:0:0:0:
394,90,339103,1,8,0:0:0:0:
368,100,339191,1,4,0:0:0:0:
391,94,339537,1,8,0:0:0:0:
391,84,339707,1,0,0:0:0:0:
392,85,339875,1,0,0:0:0:0:
395,96,340041,1,0,0:0:0:0:
395,96,340205,1,8,0:0:0:0:
391,94,340367,1,8,0:0:0:0:
396,76,340447,1,8,0:0:0:0:
391,94,340528,1,4,0:0:0:0:
392,85,340844,1,8,0:0:0:0:
386,92,341000,1,0,0:0:0:0:
406,85,341306,1,0,0:0:0:0:
405,85,341381,1,0,0:0:0:0:
404,85,341457,1,8,0:0:0:0:
403,85,341606,1,8,0:0:0:0:
409,76,341754,1,4,0:0:0:0:
407,80,342045,1,8,0:0:0:0:
406,85,342189,1,0,0:0:0:0:
410,79,342260,1,0,0:0:0:0:
410,79,342331,1,0,0:0:0:0:
410,79,342472,1,8,0:0:0:0:
409,80,342612,1,0,0:0:0:0:
409,76,342750,1,8,0:0:0:0:
407,80,342887,1,4,0:0:0:0:
418,74,343158,1,8,0:0:0:0:
391,78,343291,1,0,0:0:0:0:
392,79,343357,1,0,0:0:0:0:
410,79,343423,1,0,0:0:0:0:
400,74,343554,1,0,0:0:0:0:
400,74,343684,1,8,0:0:0:0:
400,74,343813,1,8,0:0:0:0:
395,71,343941,1,4,0:0:0:0:
405,71,344194,1,8,0:0:0:0:
404,71,344319,1,0,0:0:0:0:
403,71,344380,1,0,0:0:0:0:
403,71,344442,1,0,0:0:0:0:
410,68,344564,1,8,0:0:0:0:
379,77,344685,1,0,0:0:0:0:
410,68,344805,1,8,0:0:0:0:
397,83,344925,1,4,0:0:0:0:
411,57,345162,1,8,0:0:0:0:
413,58,345279,1,0,0:0:0:0:
414,58,345337,1,0,0:0:0:0:
397,64,345395,1,8,0:0:0:0:
407,59,345510,1,0,0:0:0:0:
390,69,345624,1,8,0:0:0:0:
392,67,345737,1,8,0:0:0:0:
388,94,345849,1,4,0:0:0:0:
411,57,346071,1,8,0:0:0:0:
401,66,346181,1,0,0:0:0:0:
412,64,346235,1,0,0:0:0:0:
406,59,346290,1,0,0:0:0:0:
418,66,346398,1,8,0:0:0:0:
407,59,346505,1,0,0:0:0:0:
420,65,346612,1,8,0:0:0:0:
380,86,346718,1,4,0:0:0:0:
397,72,346927,1,8,0:0:0:0:
400,71,347031,1,0,0:0:0:0:
401,71,347082,1,0,0:0:0:0:
401,66,347134,1,0,0:0:0:0:
402,70,347236,1,0,0:0:0:0:
402,70,347338,1,8,0:0:0:0:
392,56,347439,1,8,0:0:0:0:
367,90,347539,1,4,0:0:0:0:
389,69,347738,1,8,0:0:0:0:
390,68,347836,1,8,0:0:0:0:
380,84,347934,1,4,0:0:0:0:
397,73,348127,1,8,0:0:0:0:
403,74,348223,1,8,0:0:0:0:
388,84,348318,1,4,0:0:0:0:
396,60,348507,1,8,0:0:0:0:
400,61,348600,1,8,0:0:0:0:
388,84,348693,1,4,0:0:0:0:
396,59,348877,1,8,0:0:0:0:
401,61,348968,1,8,0:0:0:0:
375,78,349059,1,4,0:0:0:0:
392,58,349238,1,8,0:0:0:0:
377,77,349415,1,4,0:0:0:0:
400,61,349590,1,8,0:0:0:0:
378,77,349763,1,4,0:0:0:0:
401,61,349934,1,8,0:0:0:0:
375,78,350103,1,4,0:0:0:0:
392,58,350270,1,8,0:0:0:0:
371,67,350435,1,0,0:0:0:0:
390,56,350517,1,0,0:0:0:0:
400,61,350600,1,8,0:0:0:0:
399,63,350682,1,0,0:0:0:0:
394,60,350765,1,8,0:0:0:0:
401,61,350847,1,8,0:0:0:0:
391,60,350930,1,0,0:0:0:0:
391,60,351012,1,0,0:0:0:0:
383,62,351095,1,8,0:0:0:0:
383,62,351177,1,0,0:0:0:0:
392,58,351260,1,8,0:0:0:0:
384,61,351342,1,8,0:0:0:0:
396,52,351425,1,0,0:0:0:0:
396,52,351507,1,0,0:0:0:0:
389,56,351590,1,8,0:0:0:0:
400,61,351672,1,0,0:0:0:0:
394,60,351755,1,8,0:0:0:0:
402,57,351810,1,8,0:0:0:0:
391,60,351865,1,8,0:0:0:0:
398,60,351920,1,0,0:0:0:0:
400,54,352003,1,0,0:0:0:0:
392,58,352085,1,8,0:0:0:0:
392,58,352140,1,0,0:0:0:0:
396,57,352195,1,0,0:0:0:0:
392,58,352250,1,8,0:0:0:0:
412,61,352333,1,8,0:0:0:0:
412,61,352415,1,0,0:0:0:0:
413,60,352470,1,0,0:0:0:0:
412,60,352525,1,0,0:0:0:0:
412,60,352580,1,8,0:0:0:0:
412,60,352663,1,0,0:0:0:0:
412,60,352745,1,8,0:0:0:0:
410,56,352800,1,0,0:0:0:0:
411,57,352855,1,0,0:0:0:0:
412,56,352910,1,8,0:0:0:0:
413,56,352993,1,8,0:0:0:0:
408,57,353075,1,4,0:0:0:0:
384,109,357037,5,4,0:0:0:0:
391,99,359018,1,0,0:0:0:0:
391,99,359100,1,0,0:0:0:0:
391,99,359183,1,0,0:0:0:0:
408,98,359265,1,0,0:0:0:0:
412,100,359348,1,0,0:0:0:0:
391,99,359430,1,0,0:0:0:0:
409,100,359513,1,0,0:0:0:0:
407,98,359595,1,0,0:0:0:0:
391,99,359678,1,0,0:0:0:0:
405,97,359760,1,0,0:0:0:0:
405,96,359843,1,0,0:0:0:0:
391,99,359926,1,0,0:0:0:0:
405,96,360008,1,0,0:0:0:0:
405,96,360091,1,0,0:0:0:0:
406,96,360173,1,0,0:0:0:0:
396,94,360256,1,0,0:0:0:0:
256,192,360338,12,0,361329,0:0:0:0:
379,100,361659,5,8,0:0:0:0:
397,94,361700,1,8,0:0:0:0:
402,90,361741,1,0,0:0:0:0:
404,90,361783,1,0,0:0:0:0:
407,89,361824,1,8,0:0:0:0:
409,89,361906,1,0,0:0:0:0:
399,90,361989,1,8,0:0:0:0:
375,87,362071,1,8,0:0:0:0:
391,86,362154,1,0,0:0:0:0:
391,86,362236,1,0,0:0:0:0:
400,86,362319,1,8,0:0:0:0:
409,81,362401,1,0,0:0:0:0:
389,92,362484,1,0,0:0:0:0:
392,86,362567,1,8,0:0:0:0:
389,82,362649,1,8,0:0:0:0:
387,85,362732,1,0,0:0:0:0:
390,81,362814,1,8,0:0:0:0:
400,74,362855,1,8,0:0:0:0:
394,77,362897,1,8,0:0:0:0:
391,73,362979,1,0,0:0:0:0:
392,71,363062,1,0,0:0:0:0:
394,70,363144,1,8,0:0:0:0:
402,73,363227,1,0,0:0:0:0:
403,71,363309,1,8,0:0:0:0:
397,70,363392,1,8,0:0:0:0:
397,70,363474,1,0,0:0:0:0:
389,74,363557,1,0,0:0:0:0:
394,69,363639,1,8,0:0:0:0:
396,65,363722,1,0,0:0:0:0:
396,64,363805,1,0,0:0:0:0:
397,62,363887,1,8,0:0:0:0:
397,62,363970,1,8,0:0:0:0:
399,62,364052,1,0,0:0:0:0:
400,62,364135,1,8,0:0:0:0:
401,61,364217,1,8,0:0:0:0:
407,65,364300,1,0,0:0:0:0:
411,62,364382,1,8,0:0:0:0:
412,63,364547,1,0,0:0:0:0:
413,61,364589,1,0,0:0:0:0:
409,63,364630,1,0,0:0:0:0:
410,71,364712,1,8,0:0:0:0:
407,64,364795,1,0,0:0:0:0:
406,64,364877,1,0,0:0:0:0:
406,61,364960,1,8,0:0:0:0:
413,61,365042,1,0,0:0:0:0:
413,60,365125,1,0,0:0:0:0:
407,65,365208,1,8,0:0:0:0:
407,65,365290,1,8,0:0:0:0:
411,62,365373,1,0,0:0:0:0:
412,63,365455,1,8,0:0:0:0:
406,57,365496,1,8,0:0:0:0:
404,60,365538,1,8,0:0:0:0:
401,61,365620,1,0,0:0:0:0:
397,64,365703,1,8,0:0:0:0:
394,66,365785,1,8,0:0:0:0:
399,64,365868,1,0,0:0:0:0:
397,64,365950,1,8,0:0:0:0:
401,67,366033,1,0,0:0:0:0:
397,64,366115,1,8,0:0:0:0:
407,65,366198,1,8,0:0:0:0:
411,62,366280,1,4,0:0:0:0:
412,63,366404,1,4,0:0:0:0:
414,64,366528,1,4,0:0:0:0:
414,64,366652,1,4,0:0:0:0:
419,68,367106,1,8,0:0:0:0:
411,62,367188,1,0,0:0:0:0:
412,63,367271,1,8,0:0:0:0:
412,63,367312,1,8,0:0:0:0:
412,63,367353,1,8,0:0:0:0:
420,62,367436,1,0,0:0:0:0:
414,52,367518,1,0,0:0:0:0:
412,54,367601,1,8,0:0:0:0:
402,60,367683,1,8,0:0:0:0:
416,56,367766,1,0,0:0:0:0:
418,55,367849,1,8,0:0:0:0:
418,55,367931,1,0,0:0:0:0:
418,55,368014,1,0,0:0:0:0:
418,55,368096,1,8,0:0:0:0:
418,55,368137,1,8,0:0:0:0:
417,55,368179,1,8,0:0:0:0:
420,56,368261,1,0,0:0:0:0:
419,57,368344,1,0,0:0:0:0:
414,52,368426,1,8,0:0:0:0:
418,55,368509,1,0,0:0:0:0:
439,64,368591,1,8,0:0:0:0:
415,57,368674,1,8,0:0:0:0:
428,64,368756,1,0,0:0:0:0:
417,65,368839,1,0,0:0:0:0:
418,70,368921,1,8,0:0:0:0:
423,48,369004,1,0,0:0:0:0:
424,48,369086,1,8,0:0:0:0:
424,48,369169,1,8,0:0:0:0:
419,57,369252,1,0,0:0:0:0:
424,56,369334,1,8,0:0:0:0:
422,52,369417,1,8,0:0:0:0:
418,55,369499,1,8,0:0:0:0:
420,53,369582,1,0,0:0:0:0:
430,50,369623,1,0,0:0:0:0:
435,55,369664,1,0,0:0:0:0:
426,47,369747,1,8,0:0:0:0:
426,49,369829,1,0,0:0:0:0:
423,48,369912,1,8,0:0:0:0:
424,48,369967,1,8,0:0:0:0:
424,48,370022,1,8,0:0:0:0:
432,49,370077,1,0,0:0:0:0:
432,49,370159,1,0,0:0:0:0:
424,67,370242,1,8,0:0:0:0:
435,42,370324,1,0,0:0:0:0:
431,50,370407,1,0,0:0:0:0:
431,49,370490,1,8,0:0:0:0:
430,50,370572,1,0,0:0:0:0:
422,34,370627,1,0,0:0:0:0:
424,34,370682,1,0,0:0:0:0:
447,78,370737,1,8,0:0:0:0:
416,52,370820,1,8,0:0:0:0:
415,52,370902,1,0,0:0:0:0:
434,56,370985,1,0,0:0:0:0:
435,55,371067,1,8,0:0:0:0:
434,58,371150,1,0,0:0:0:0:
442,67,371397,1,8,0:0:0:0:
423,71,371439,1,8,0:0:0:0:
420,80,371480,1,8,0:0:0:0:
432,65,371562,1,0,0:0:0:0:
442,58,371645,1,0,0:0:0:0:
436,57,371727,1,8,0:0:0:0:
435,62,371810,1,8,0:0:0:0:
437,68,371975,1,0,0:0:0:0:
434,63,372058,1,0,0:0:0:0:
436,60,372223,1,8,0:0:0:0:
435,67,372305,1,0,0:0:0:0:
437,61,372388,1,8,0:0:0:0:
432,65,372470,1,0,0:0:0:0:
442,58,372553,1,8,0:0:0:0:
436,57,372635,1,8,0:0:0:0:
436,66,372718,1,0,0:0:0:0:
436,49,372800,1,8,0:0:0:0:
442,48,372883,1,8,0:0:0:0:
445,60,372965,1,0,0:0:0:0:
436,60,373048,1,8,0:0:0:0:
442,54,373131,1,0,0:0:0:0:
430,49,373213,1,8,0:0:0:0:
449,56,373296,1,0,0:0:0:0:
447,54,373378,1,8,0:0:0:0:
448,53,373461,1,8,0:0:0:0:
448,53,373543,1,8,0:0:0:0:
452,55,373626,1,0,0:0:0:0:
449,52,373708,1,8,0:0:0:0:
449,51,373791,1,8,0:0:0:0:
453,56,373873,1,0,0:0:0:0:
448,57,373956,1,8,0:0:0:0:
452,49,374038,1,8,0:0:0:0:
452,49,374121,1,8,0:0:0:0:
441,54,374203,1,0,0:0:0:0:
449,56,374258,1,0,0:0:0:0:
447,54,374313,1,0,0:0:0:0:
459,58,374368,1,8,0:0:0:0:
448,53,374451,1,8,0:0:0:0:
448,53,374534,1,0,0:0:0:0:
438,63,374616,1,0,0:0:0:0:
441,62,374699,1,0,0:0:0:0:
441,62,374781,1,0,0:0:0:0:
447,61,374864,1,8,0:0:0:0:
443,51,374946,1,0,0:0:0:0:
447,61,375029,1,8,0:0:0:0:
443,50,375111,1,0,0:0:0:0:
435,56,375194,1,8,0:0:0:0:
431,52,375276,1,8,0:0:0:0:
454,47,375359,1,0,0:0:0:0:
448,53,375441,1,8,0:0:0:0:
430,52,375524,1,8,0:0:0:0:
439,75,375606,1,0,0:0:0:0:
440,75,375689,1,8,0:0:0:0:
429,60,375772,1,0,0:0:0:0:
432,54,375854,1,8,0:0:0:0:
455,51,375937,1,0,0:0:0:0:
439,60,376019,1,8,0:0:0:0:
440,60,376102,1,8,0:0:0:0:
447,35,376184,1,8,0:0:0:0:
425,48,376267,1,0,0:0:0:0:
430,60,376349,1,8,0:0:0:0:
430,60,376432,1,8,0:0:0:0:
447,35,376514,1,0,0:0:0:0:
438,49,376569,1,0,0:0:0:0:
446,24,376624,1,0,0:0:0:0:
446,24,376679,1,8,0:0:0:0:
444,32,376762,1,8,0:0:0:0:
442,46,376844,1,0,0:0:0:0:
427,54,376927,1,0,0:0:0:0:
429,51,377009,1,8,0:0:0:0:
430,49,377051,1,8,0:0:0:0:
430,49,377092,1,8,0:0:0:0:
429,45,377175,1,0,0:0:0:0:
439,43,377257,1,0,0:0:0:0:
436,43,377340,1,8,0:0:0:0:
436,43,377422,1,8,0:0:0:0:
428,51,377505,1,4,0:0:0:0:
429,51,377752,1,4,0:0:0:0:
429,51,378000,1,4,0:0:0:0:
429,45,378165,1,4,0:0:0:0:
431,62,378412,1,4,0:0:0:0:
431,62,378660,1,4,0:0:0:0:
432,62,378825,1,4,0:0:0:0:
418,63,379073,1,4,0:0:0:0:
418,62,379320,1,4,0:0:0:0:
422,68,379485,1,8,0:0:0:0:
422,65,379568,1,8,0:0:0:0:
431,62,379650,1,8,0:0:0:0:
432,62,379733,1,8,0:0:0:0:
428,60,379816,1,8,0:0:0:0:
427,61,379898,1,8,0:0:0:0:
418,63,379981,1,8,0:0:0:0:
428,60,380063,1,8,0:0:0:0:
428,54,380146,1,4,0:0:0:0:
428,53,380393,1,4,0:0:0:0:
429,52,380641,1,4,0:0:0:0:
430,52,380806,1,4,0:0:0:0:
428,54,381053,1,4,0:0:0:0:
428,53,381301,1,4,0:0:0:0:
429,52,381466,1,4,0:0:0:0:
438,52,381714,1,4,0:0:0:0:
438,52,381961,1,4,0:0:0:0:
438,56,382126,1,8,0:0:0:0:
438,56,382291,1,0,0:0:0:0:
438,56,382457,1,8,0:0:0:0:
424,58,382622,1,0,0:0:0:0:
424,58,382704,1,0,0:0:0:0:
57,201,382787,2,4,L|856:274,24,700
380,104,385428,1,8,0:0:0:0:
393,95,385510,1,0,0:0:0:0:
399,97,385593,1,8,0:0:0:0:
397,80,385675,1,0,0:0:0:0:
407,91,385758,1,8,0:0:0:0:
397,76,385840,1,0,0:0:0:0:
407,91,385923,1,8,0:0:0:0:
396,84,386005,1,0,0:0:0:0:
397,84,386088,1,8,0:0:0:0:
396,80,386170,1,0,0:0:0:0:
396,84,386253,1,8,0:0:0:0:
396,80,386335,1,0,0:0:0:0:
395,83,386418,1,8,0:0:0:0:
396,80,386501,1,0,0:0:0:0:
397,80,386583,1,8,0:0:0:0:
391,74,386666,1,0,0:0:0:0:
397,76,386748,1,8,0:0:0:0:
256,192,388068,12,0,389058,0:0:0:0:
29,236,389142,6,0,L|680:-23,1,700
512,343,389389,2,0,L|-141:-67,1,700
512,341,389719,2,0,L|-125:-54,4,700
