osu file format v14

[General]
AudioFilename: audio.mp3
AudioLeadIn: 0
PreviewTime: 286853
Countdown: 0
SampleSet: Normal
StackLeniency: 0.7
Mode: 3
LetterboxInBreaks: 0
SpecialStyle: 0
WidescreenStoryboard: 1

[Editor]
Bookmarks: 54184,66184,78184,90184,102184,114184,126184,138184,150184,162184,168184,180184,192184,203735,226323,258361,278571,287958,305654,314502,323350,332197,361659
DistanceSpacing: 1.1
BeatDivisor: 8
GridSize: 4
TimelineZoom: 2.2

[Metadata]
Title:Multigenre Smackdown
TitleUnicode:Multigenre Smackdown
Artist:ReeK
ArtistUnicode:ReeK
Creator:-mint-
Version:Vine Boom Sound Effect (bass boosted)
Source:Expert Global Taiko Showdown 2021
Tags:egts finals tb tiebreaker 727 WYSI GTS Sound Team BespokE osu!mania 4k world cup 2022 mwc22 mwc 4k 2022 semifinals sf Metal Trap Brostep Briddim Hardbass Rawstyle Schranz Electro Swing J-Rock Hardcore Hitech Speedcore qqqant electronic instrumental
BeatmapID:3771148
BeatmapSetID:1836713

[Difficulty]
HPDrainRate:8
CircleSize:4
OverallDifficulty:8
ApproachRate:5
SliderMultiplier:1.4
SliderTickRate:1

[Events]
//Background and Video events
0,0,"background.png",0,0
//Break Periods
2,102384,106234
//Storyboard Layer 0 (Background)
//Storyboard Layer 1 (Fail)
//Storyboard Layer 2 (Pass)
//Storyboard Layer 3 (Foreground)
//Storyboard Layer 4 (Overlay)
//Storyboard Sound Samples

[TimingPoints]
184,375,4,1,1,50,1,8
10684,375,4,1,1,50,1,0
95434,-100,4,1,1,35,0,0
100684,-100,4,1,1,50,0,0
138559,-100,4,1,1,35,0,0
148871,-100,4,1,1,50,0,0
192184,372.670807453416,4,1,1,50,1,0
192184,-100.625,5,1,1,50,0,0
193674,370.37037037037,4,1,1,50,1,0
193674,-101.25,4,1,1,50,0,0
195155,365.853658536585,4,1,1,50,1,0
195155,-102.5,4,1,1,50,0,0
196618,361.44578313253,4,1,1,50,1,0
196618,-103.75,4,1,1,50,0,0
198063,359.281437125748,4,1,1,50,1,0
198063,-104.375,4,1,1,50,0,0
199500,352.941176470588,4,1,1,50,1,0
199500,-106.25,4,1,1,50,0,0
226675,352.505728218084,4,1,1,35,1,8
226675,-106.38125,4,1,1,35,0,0
227027,352.071353127567,4,1,1,35,1,8
227027,-106.5125,4,1,1,35,0,0
227379,351.658656663932,4,1,1,35,1,8
227379,-106.6375,4,1,1,35,0,0
227730,351.226365392495,4,1,1,35,1,0
227730,-106.76875,4,1,1,35,0,0
228081,350.795135640786,4,1,1,35,1,8
228081,-106.9,4,1,1,35,0,0
228435,350.36496350365,4,1,1,35,1,8
228435,-107.03125,4,1,1,35,0,0
228782,349.935845095066,4,1,1,35,1,8
228782,-107.1625,4,1,1,35,0,0
229132,349.507776548028,4,1,1,35,1,0
229132,-107.29375,4,1,1,35,0,0
229482,349.080754014429,4,1,1,35,1,8
229482,-107.425,4,1,1,35,0,0
229832,348.675034867503,4,1,1,35,1,8
229832,-107.55,4,1,1,35,0,0
230181,348.250043531255,4,1,1,35,1,8
230181,-107.68125,4,1,1,35,0,0
230530,347.826086956522,4,1,1,35,1,0
230530,-107.8125,4,1,1,35,0,0
230878,347.403161368768,4,1,1,35,1,8
230878,-107.94375,4,1,1,35,0,0
231226,346.981263011797,4,1,1,35,1,8
231226,-108.075,4,1,1,35,0,0
231573,346.580406654344,4,1,1,35,1,8
231573,-108.2,4,1,1,35,0,0
231920,346.160503086598,4,1,1,35,1,0
231920,-108.33125,4,1,1,35,0,0
232267,345.741615765818,4,1,1,35,1,8
232267,-108.4625,4,1,1,35,0,0
232613,345.323741007194,4,1,1,35,1,8
232613,-108.59375,4,1,1,35,0,0
232959,344.906875143711,4,1,1,35,1,8
232959,-108.725,4,1,1,35,0,0
233304,344.491014526038,4,1,1,35,1,0
233304,-108.85625,4,1,1,35,0,0
233649,344.076155522422,4,1,1,35,1,8
233649,-108.9875,4,1,1,35,0,0
233994,343.681979608203,4,1,1,35,1,8
233994,-109.1125,4,1,1,35,0,0
234338,343.269065736026,4,1,1,35,1,8
234338,-109.24375,4,1,1,35,0,0
234683,342.857142857143,4,1,1,35,1,0
234683,-109.375,4,1,1,35,0,0
235026,342.446207408253,4,1,1,35,1,8
235026,-109.50625,4,1,1,35,0,0
235369,342.036255843119,4,1,1,35,1,8
235369,-109.6375,4,1,1,35,0,0
235708,341.646737273659,4,1,1,35,1,8
235708,-109.7625,4,1,1,35,0,0
236050,341.238696468179,4,1,1,35,1,0
236050,-109.89375,4,1,1,35,0,0
236396,340.831629175187,4,1,1,35,1,8
236396,-110.025,4,1,1,35,0,0
236737,340.425531914894,4,1,1,35,1,8
236737,-110.15625,4,1,1,35,0,0
237078,340.020401224073,4,1,1,35,1,8
237078,-110.2875,4,1,1,35,0,0
237409,339.616233655969,4,1,1,35,1,0
237409,-110.41875,4,1,1,35,0,0
237741,339.21302578019,4,1,1,35,1,8
237741,-110.55,4,1,1,35,0,0
238081,338.829907386492,4,1,1,35,1,8
238081,-110.675,4,1,1,35,0,0
238420,338.428563370749,4,1,1,35,1,8
238420,-110.80625,4,1,1,35,0,0
238759,338.028169014084,4,1,1,35,1,0
238759,-110.9375,4,1,1,35,0,0
239098,337.628720949862,4,1,1,35,1,8
239098,-111.06875,4,1,1,35,0,0
239436,337.230215827338,4,1,1,35,1,8
239436,-111.2,4,1,1,35,0,0
239774,336.851560745565,4,1,1,35,1,8
239774,-111.325,4,1,1,35,0,0
240103,336.454887007234,4,1,1,35,1,0
240103,-111.45625,4,1,1,35,0,0
240440,336.059146409768,4,1,1,35,1,8
240440,-111.5875,4,1,1,35,0,0
240767,335.664335664336,4,1,1,35,1,8
240767,-111.71875,4,1,1,35,0,0
241103,335.270451497541,4,1,1,35,1,8
241103,-111.85,4,1,1,35,0,0
241439,334.877490651337,4,1,1,35,1,0
241439,-111.98125,4,1,1,35,0,0
241774,334.48544988293,4,1,1,35,1,8
241774,-112.1125,4,1,1,35,0,0
242109,334.112930170398,4,1,1,35,1,8
242109,-112.2375,4,1,1,35,0,0
242444,333.722676455865,4,1,1,35,1,8
242444,-112.36875,4,1,1,35,0,0
242773,333.333333333333,4,1,1,35,1,0
242773,-112.5,4,1,1,35,0,0
243107,332.944897619444,4,1,1,35,1,8
243107,-112.63125,4,1,1,35,0,0
243444,332.55736614566,4,1,1,35,1,8
243444,-112.7625,4,1,1,35,0,0
243777,332.189126342598,4,1,1,35,1,8
243777,-112.8875,4,1,1,35,0,0
244110,331.803351213847,4,1,1,35,1,0
244110,-113.01875,4,1,1,35,0,0
244442,331.41847105612,4,1,1,35,1,8
244442,-113.15,4,1,1,35,0,0
244774,331.034482758621,4,1,1,35,1,8
244774,-113.28125,4,1,1,35,0,0
245106,330.651383224953,4,1,1,35,1,8
245106,-113.4125,4,1,1,35,0,0
245437,330.269169373039,4,1,1,35,1,0
245437,-113.54375,4,1,1,35,0,0
245768,329.887838135034,4,1,1,35,1,8
245768,-113.675,4,1,1,35,0,0
246098,329.525483304042,4,1,1,35,1,8
246098,-113.8,4,1,1,35,0,0
246433,329.145866476494,4,1,1,35,1,8
246433,-113.93125,4,1,1,35,0,0
246763,328.767123287671,4,1,1,35,1,0
246763,-114.0625,4,1,1,35,0,0
247096,328.389250725193,4,1,1,35,1,8
247096,-114.19375,4,1,1,35,0,0
247417,328.01224579051,4,1,1,35,1,8
247417,-114.325,4,1,1,35,0,0
247749,327.653997378768,4,1,1,35,1,8
247749,-114.45,4,1,1,35,0,0
248082,327.278677794142,4,1,1,40,1,0
248082,-114.58125,4,1,1,40,0,0
248410,326.9042170644,4,1,1,40,1,8
248410,-114.7125,4,1,1,40,0,0
248737,326.530612244898,4,1,1,40,1,8
248737,-114.84375,4,1,1,40,0,0
249063,326.157860404436,4,1,1,40,1,8
249063,-114.975,4,1,1,40,0,0
249389,325.785958625183,4,1,1,40,1,0
249389,-115.10625,4,1,1,40,0,0
249714,325.414904002603,4,1,1,40,1,8
249714,-115.2375,4,1,1,40,0,0
250039,325.062303608192,4,1,1,40,1,8
250039,-115.3625,4,1,1,40,0,0
250364,324.692894637156,4,1,1,40,1,8
250364,-115.49375,4,1,1,40,0,0
250688,324.324324324324,4,1,1,40,1,0
250688,-115.625,4,1,1,40,0,0
251008,323.956589816965,4,1,1,40,1,8
251008,-115.75625,4,1,1,40,0,0
251333,323.589688275267,4,1,1,40,1,8
251333,-115.8875,4,1,1,40,0,0
251657,323.241030061416,4,1,1,40,1,8
251657,-116.0125,4,1,1,40,0,0
251981,322.875746650164,4,1,1,40,1,0
251981,-116.14375,4,1,1,40,0,0
252298,322.511287895076,4,1,1,40,1,8
252298,-116.275,4,1,1,40,0,0
252621,322.147651006711,4,1,1,40,1,8
252621,-116.40625,4,1,1,40,0,0
252944,321.784833208195,4,1,1,40,1,8
252944,-116.5375,4,1,1,40,0,0
253266,321.422831735148,4,1,1,45,1,0
253266,-116.66875,4,1,1,45,0,0
253588,321.061643835616,4,1,1,45,1,8
253588,-116.8,4,1,1,45,0,0
253915,320.71840923669,4,1,1,45,1,8
253915,-116.925,4,1,1,45,0,0
254235,320.358801858081,4,1,1,45,1,8
254235,-117.05625,4,1,1,45,0,0
254554,320,4,1,1,45,1,0
254554,-117.1875,4,1,1,45,0,0
254874,319.642000958926,4,1,1,45,1,8
254874,-117.31875,4,1,1,45,0,0
255193,319.284802043423,4,1,1,45,1,8
255193,-117.45,4,1,1,45,0,0
255512,318.945354029343,4,1,1,45,1,8
255512,-117.575,4,1,1,45,0,0
255836,318.589709552381,4,1,1,45,1,0
255836,-117.70625,4,1,1,45,0,0
256160,318.234857324706,4,1,1,45,1,8
256160,-117.8375,4,1,1,45,0,0
256478,317.880794701987,4,1,1,45,1,8
256478,-117.96875,4,1,1,45,0,0
256792,317.527519051651,4,1,1,45,1,8
256792,-118.1,4,1,1,45,0,0
257106,317.175027752815,4,1,1,45,1,0
257106,-118.23125,4,1,1,45,0,0
257419,316.823318196219,4,1,1,45,1,8
257419,-118.3625,4,1,1,45,0,0
257739,316.489081126701,4,1,1,50,1,8
257739,-118.4875,4,1,1,50,0,0
258048,316.138890352495,4,1,1,50,1,8
258048,-118.61875,4,1,1,50,0,0
258361,315.789473684211,4,1,1,50,1,0
258361,-118.75,4,1,1,50,0,0
278887,314.201927105153,4,1,1,50,1,8
278887,-119.35,4,1,1,50,0,0
279201,312.613973844631,4,1,1,50,1,8
279201,-119.95625,4,1,1,50,0,0
279513,311.058116024677,4,1,1,50,1,8
279513,-120.55625,4,1,1,50,0,0
279824,309.501702259362,4,1,1,50,1,0
279824,-121.1625,4,1,1,50,0,0
280133,307.976593778873,4,1,1,50,1,8
280133,-121.7625,4,1,1,50,0,0
280440,306.450789110782,4,1,1,50,1,8
280440,-122.36875,4,1,1,50,0,0
280746,304.955527318933,4,1,1,50,1,8
280746,-122.96875,4,1,1,50,0,0
281050,303.474786303171,4,1,1,50,1,0
281050,-123.56875,4,1,1,50,0,0
281353,301.993154821824,4,1,1,50,1,8
281353,-124.175,4,1,1,50,0,0
281654,300.540973752755,4,1,1,50,1,8
281654,-124.775,4,1,1,50,0,0
281954,299.087782264094,4,1,1,50,1,8
281954,-125.38125,4,1,1,50,0,0
282253,297.663342759339,4,1,1,50,1,0
282253,-125.98125,4,1,1,50,0,0
282550,296.237780191567,4,1,1,50,1,8
282550,-126.5875,4,1,1,50,0,0
282846,294.840294840295,4,1,1,50,1,8
282846,-127.1875,4,1,1,50,0,0
283140,293.455932700773,4,1,1,50,1,8
283140,-127.7875,4,1,1,50,0,0
283433,292.070291583508,4,1,1,50,1,0
283433,-128.39375,4,1,1,50,0,0
283725,290.711759290663,4,1,1,50,1,8
283725,-128.99375,4,1,1,50,0,0
284015,289.351851851852,4,1,1,50,1,8
284015,-129.6,4,1,1,50,0,0
284304,288.018433179724,4,1,1,50,1,8
284304,-130.2,4,1,1,50,0,0
284592,286.683549142338,4,1,1,50,1,0
284592,-130.80625,4,1,1,50,0,0
284878,285.374554102259,4,1,1,50,1,8
284878,-131.40625,4,1,1,50,0,0
285163,284.077458453672,4,1,1,50,1,8
285163,-132.00625,4,1,1,50,0,0
285447,282.778772740126,4,1,1,50,1,8
285447,-132.6125,4,1,1,50,0,0
285729,281.505114009571,4,1,1,50,1,0
285729,-133.2125,4,1,1,50,0,0
286010,280.22978842651,4,1,1,50,1,8
286010,-133.81875,4,1,1,50,0,0
286290,278.97893709025,4,1,1,50,1,8
286290,-134.41875,4,1,1,50,0,0
286568,277.726346972783,4,1,1,50,1,8
286568,-135.025,4,1,1,50,0,0
286853,276.497695852535,4,1,1,50,1,0
286853,-135.625,4,1,1,50,0,0
287958,-135.625,4,1,1,50,0,1
304548,-135.625,4,1,1,50,0,0
323350,552.99539170507,4,1,1,50,1,0
323350,-67.8125,4,1,1,50,0,0
323902,-67.8125,4,1,1,40,0,0
332471,543.035568829758,4,1,1,45,1,8
332471,-69.05625,4,1,1,45,0,0
332742,533.40445392719,4,1,1,45,1,8
332742,-70.303125,4,1,1,45,0,0
333008,524.13190652981,4,1,1,45,1,8
333008,-71.546875,4,1,1,45,0,0
333270,515.154116939984,4,1,1,45,1,8
333270,-72.79375,4,1,1,45,0,0
333527,506.50008441668,4,1,1,45,1,8
333527,-74.0375,4,1,1,45,0,0
333780,498.111327881782,4,1,1,45,1,8
333780,-75.284375,4,1,1,45,0,0
334029,490.01592551758,4,1,1,45,1,8
334029,-76.528125,4,1,1,45,0,0
334274,482.160077145612,4,1,1,45,1,0
334274,-77.775,4,1,1,45,0,0
334515,474.57090880329,4,1,1,45,1,8
334515,-79.01875,4,1,1,45,0,0
334752,467.216944401184,4,1,1,45,1,8
334752,-80.2625,4,1,1,45,0,0
334985,460.06977724955,4,1,1,45,1,8
334985,-81.509375,4,1,1,45,0,0
335215,453.15509233035,4,1,1,45,1,8
335215,-82.753125,4,1,1,45,0,0
335441,446.428571428572,4,1,1,45,1,8
335441,-84,4,1,1,45,0,0
335664,439.914949776376,4,1,1,45,1,8
335664,-85.24375,4,1,1,45,0,0
335883,433.573002854356,4,1,1,45,1,8
335883,-86.490625,4,1,1,45,0,0
336099,427.426536064114,4,1,1,45,1,0
336099,-87.734375,4,1,1,45,0,0
336312,421.451901801706,4,1,1,45,1,8
336312,-88.978125,4,1,1,45,0,0
336522,415.627597672486,4,1,1,45,1,8
336522,-90.225,4,1,1,45,0,0
336729,409.97608472839,4,1,1,45,1,8
336729,-91.46875,4,1,1,45,0,0
336933,404.462570359634,4,1,1,45,1,8
336933,-92.715625,4,1,1,45,0,0
337135,399.108657331958,4,1,1,45,1,8
337135,-93.959375,4,1,1,45,0,0
337334,393.88170419484,4,1,1,45,1,8
337334,-95.20625,4,1,1,45,0,0
337530,388.802488335926,4,1,1,45,1,8
337530,-96.45,4,1,1,45,0,0
337724,383.85260060137,4,1,1,45,1,0
337724,-97.69375,4,1,1,45,0,0
337915,379.015192192288,4,1,1,45,1,8
337915,-98.940625,4,1,1,45,0,0
338104,374.309866184222,4,1,1,45,1,8
338104,-100.184375,4,1,1,45,0,0
338291,369.708546429232,4,1,1,45,1,8
338291,-101.43125,4,1,1,45,0,0
338475,365.230094959824,4,1,1,45,1,8
338475,-102.675,4,1,1,45,0,0
338657,360.84799278304,4,1,1,45,1,8
338657,-103.921875,4,1,1,45,0,0
338837,356.580394021336,4,1,1,45,1,8
338837,-105.165625,4,1,1,45,0,0
339015,352.402208387172,4,1,1,45,1,8
339015,-106.4125,4,1,1,45,0,0
339191,348.33091436865,4,1,1,50,1,0
339191,-107.65625,4,1,1,50,0,0
339365,344.35261707989,4,1,1,50,1,8
339365,-108.9,4,1,1,50,0,0
339537,340.454506766534,4,1,1,50,1,8
339537,-110.146875,4,1,1,50,0,0
339707,336.653107027634,4,1,1,50,1,8
339707,-111.390625,4,1,1,50,0,0
339875,332.92642326046,4,1,1,50,1,8
339875,-112.6375,4,1,1,50,0,0
340041,329.290379232754,4,1,1,50,1,8
340041,-113.88125,4,1,1,50,0,0
340205,325.724057436008,4,1,1,50,1,8
340205,-115.128125,4,1,1,50,0,0
340367,322.242809957302,4,1,1,50,1,8
340367,-116.371875,4,1,1,50,0,0
340528,318.826717678942,4,1,1,50,1,0
340528,-117.61875,4,1,1,50,0,0
340687,315.490587864128,4,1,1,50,1,8
340687,-118.8625,4,1,1,50,0,0
340844,312.223552063278,4,1,1,50,1,8
340844,-120.10625,4,1,1,50,0,0
341000,309.015528030284,4,1,1,50,1,8
341000,-121.353125,4,1,1,50,0,0
341154,305.880553643802,4,1,1,50,1,8
341154,-122.596875,4,1,1,50,0,0
341306,302.800908402726,4,1,1,50,1,8
341306,-123.84375,4,1,1,50,0,0
341457,299.790146897172,4,1,1,50,1,8
341457,-125.0875,4,1,1,50,0,0
341606,296.831325599228,4,1,1,50,1,8
341606,-126.334375,4,1,1,50,0,0
341754,293.937538273116,4,1,1,50,1,0
341754,-127.578125,4,1,1,50,0,0
341900,291.099628847974,4,1,1,50,1,8
341900,-128.821875,4,1,1,50,0,0
342045,288.309067320168,4,1,1,50,1,8
342045,-130.06875,4,1,1,50,0,0
342189,285.5782960495,4,1,1,50,1,8
342189,-131.3125,4,1,1,50,0,0
342331,282.8921002381,4,1,1,50,1,8
342331,-132.559375,4,1,1,50,0,0
342472,280.262512553426,4,1,1,50,1,8
342472,-133.803125,4,1,1,50,0,0
342612,277.674935209182,4,1,1,50,1,8
342612,-135.05,4,1,1,50,0,0
342750,275.141009767506,4,1,1,50,1,8
342750,-136.29375,4,1,1,50,0,0
342887,272.652912841952,4,1,1,50,1,0
342887,-137.5375,4,1,1,50,0,0
343023,270.203328004324,4,1,1,50,1,8
343023,-138.784375,4,1,1,50,0,0
343158,267.8033430784,4,1,1,50,1,8
343158,-140.028125,4,1,1,50,0,0
343291,265.439745177844,4,1,1,50,1,8
343291,-141.275,4,1,1,50,0,0
343423,263.12327325352,4,1,1,50,1,8
343423,-142.51875,4,1,1,50,0,0
343554,260.84121291164,4,1,1,50,1,8
343554,-143.765625,4,1,1,50,0,0
343684,258.603969570932,4,1,1,50,1,8
343684,-145.009375,4,1,1,50,0,0
343813,256.399299175248,4,1,1,50,1,8
343813,-146.25625,4,1,1,50,0,0
343941,254.237288135594,4,1,1,50,1,0
343941,-147.5,4,1,1,50,0,0
344068,252.111433253498,4,1,1,50,1,8
344068,-148.74375,4,1,1,50,0,0
344194,250.015625976624,4,1,1,50,1,8
344194,-149.990625,4,1,1,50,0,0
344319,247.959499948342,4,1,1,50,1,8
344319,-151.234375,4,1,1,50,0,0
344442,245.931876870106,4,1,1,50,1,8
344442,-152.48125,4,1,1,50,0,0
344564,243.94210440722,4,1,1,50,1,8
344564,-153.725,4,1,1,50,0,0
344685,241.97939142183,4,1,1,50,1,8
344685,-154.971875,4,1,1,50,0,0
344805,240.052811618556,4,1,1,50,1,8
344805,-156.215625,4,1,1,50,0,0
344925,238.151940938318,4,1,1,50,1,0
344925,-157.4625,4,1,1,50,0,0
345044,236.285590517072,4,1,1,50,1,8
345044,-158.70625,4,1,1,50,0,0
345162,234.448265082838,4,1,1,50,1,8
345162,-159.95,4,1,1,50,0,0
345279,232.634782777272,4,1,1,50,1,8
345279,-161.196875,4,1,1,50,0,0
345395,230.853581116178,4,1,1,50,1,8
345395,-162.440625,4,1,1,50,0,0
345510,229.0950744559,4,1,1,50,1,8
345510,-163.6875,4,1,1,50,0,0
345624,227.367463715942,4,1,1,50,1,8
345624,-164.93125,4,1,1,50,0,0
345737,225.661470184478,4,1,1,50,1,8
345737,-166.178125,4,1,1,50,0,0
345849,223.985067662156,4,1,1,50,1,0
345849,-167.421875,4,1,1,50,0,0
345960,222.33338891668,4,1,1,50,1,8
345960,-168.665625,4,1,1,50,0,0
346071,220.701831825204,4,1,1,50,1,8
346071,-169.9125,4,1,1,50,0,0
346181,219.098046375754,4,1,1,50,1,8
346181,-171.15625,4,1,1,50,0,0
346290,217.513458645254,4,1,1,50,1,8
346290,-172.403125,4,1,1,50,0,0
346398,215.955513164288,4,1,1,50,1,8
346398,-173.646875,4,1,1,50,0,0
346505,214.415895365044,4,1,1,50,1,8
346505,-174.89375,4,1,1,50,0,0
346612,212.901852246114,4,1,1,50,1,8
346612,-176.1375,4,1,1,50,0,0
346718,211.409041259998,4,1,1,50,1,0
346718,-177.38125,4,1,1,50,0,0
346823,209.933346162594,4,1,1,50,1,8
346823,-178.628125,4,1,1,50,0,0
346927,208.481731788252,4,1,1,50,1,8
346927,-179.871875,4,1,1,50,0,0
347031,207.046481935194,4,1,1,50,1,8
347031,-181.11875,4,1,1,50,0,0
347134,205.634382068682,4,1,1,50,1,8
347134,-182.3625,4,1,1,50,0,0
347236,204.237937196834,4,1,1,50,1,8
347236,-183.609375,4,1,1,50,0,0
347338,202.863760079794,4,1,1,50,1,8
347338,-184.853125,4,1,1,50,0,0
347439,201.504567436862,4,1,1,50,1,8
347439,-186.1,4,1,1,50,0,0
347539,200.166805671392,4,1,1,50,1,0
347539,-187.34375,4,1,1,50,0,0
347639,198.846689202625,4,1,1,50,1,8
347639,-188.5875,4,1,1,50,0,0
347738,197.540619289841,4,1,1,50,1,8
347738,-189.834375,4,1,1,50,0,0
347836,196.25480415406,4,1,1,50,1,8
347836,-191.078125,4,1,1,50,0,0
347934,194.982451579358,4,1,1,50,1,8
347934,-192.325,4,1,1,50,0,0
348031,193.72961802977,4,1,1,50,1,8
348031,-193.56875,4,1,1,50,0,0
348127,192.489693780979,4,1,1,50,1,8
348127,-194.815625,4,1,1,50,0,0
348223,191.268588915985,4,1,1,50,1,8
348223,-196.059375,4,1,1,50,0,0
348318,190.05986885869,4,1,1,50,1,0
348318,-197.30625,4,1,1,50,0,0
348413,188.86930244271,4,1,1,50,1,8
348413,-198.55,4,1,1,50,0,0
348507,187.693558982701,4,1,1,50,1,8
348507,-199.79375,4,1,1,50,0,0
348600,186.529463883233,4,1,1,50,1,8
348600,-201.040625,4,1,1,50,0,0
348693,185.382583306298,4,1,1,50,1,8
348693,-202.284375,4,1,1,50,0,0
348785,184.246890833717,4,1,1,50,1,8
348785,-203.53125,4,1,1,50,0,0
348877,183.127823220608,4,1,1,50,1,8
348877,-204.775,4,1,1,50,0,0
348968,182.019506423772,4,1,1,50,1,8
348968,-206.021875,4,1,1,50,0,0
349059,180.927252167358,4,1,1,50,1,0
349059,-207.265625,4,1,1,50,0,0
349149,179.848028415988,4,1,1,50,1,8
349149,-208.509375,4,1,1,50,0,0
349238,178.778939840887,4,1,1,50,1,8
349238,-209.75625,4,1,1,50,0,0
349327,177.725118483412,4,1,1,50,1,8
349327,-211,4,1,1,50,0,0
349415,176.681046540732,4,1,1,50,1,8
349415,-212.246875,4,1,1,50,0,0
349503,175.651741147884,4,1,1,50,1,8
349503,-213.490625,4,1,1,50,0,0
349590,174.631817917225,4,1,1,50,1,8
349590,-214.7375,4,1,1,50,0,0
349677,173.626182828371,4,1,1,50,1,8
349677,-215.98125,4,1,1,50,0,0
349763,172.632063528599,4,1,1,50,1,0
349763,-217.225,4,1,1,50,0,0
349849,171.646808084565,4,1,1,50,1,8
349849,-218.471875,4,1,1,50,0,0
349934,170.675162496978,4,1,1,50,1,8
349934,-219.715625,4,1,1,50,0,0
350019,169.712055212989,4,1,1,50,1,8
350019,-220.9625,4,1,1,50,0,0
350103,168.762129778078,4,1,1,50,1,8
350103,-222.20625,4,1,1,50,0,0
350187,167.820432137613,4,1,1,50,1,8
350187,-223.453125,4,1,1,50,0,0
350270,166.891506613076,4,1,1,50,1,8
350270,-224.696875,4,1,1,50,0,0
350353,165.970512572266,4,1,1,50,1,8
350353,-225.94375,4,1,1,50,0,0
350435,82.5309491059147,4,1,1,50,1,0
350435,-454.545454545455,4,1,1,50,0,0
356129,-454.545454545455,4,1,1,20,0,0
357037,-454.545454545455,4,1,1,72,0,0
359018,-454.545454545455,4,1,1,50,0,0
361659,-454.545454545455,4,1,1,50,0,1
371562,-454.545454545455,4,1,1,50,0,0
372223,-454.545454545455,4,1,1,50,0,1
376844,-454.545454545455,4,1,1,50,0,0
393433,-454.545454545455,4,1,1,30,0,0

[HitObjects]
448,192,1777,128,0,1840:0:0:0:0:
192,192,1777,1,0,0:0:0:0:
448,192,1902,128,0,2027:0:0:0:0:
64,192,1902,1,0,0:0:0:0:
320,192,1965,128,0,2121:0:0:0:0:
192,192,2027,128,0,2340:0:0:0:0:
64,192,2121,1,0,0:0:0:0:
320,192,2215,1,0,0:0:0:0:
64,192,2340,1,0,0:0:0:0:
320,192,2621,128,0,2715:0:0:0:0:
192,192,2621,1,0,0:0:0:0:
320,192,2902,1,0,0:0:0:0:
64,192,2902,128,0,2996:0:0:0:0:
64,192,3184,1,0,0:0:0:0:
192,192,3184,128,0,3277:0:0:0:0:
192,192,3465,1,0,0:0:0:0:
448,192,3465,128,0,3559:0:0:0:0:
448,192,3746,1,0,0:0:0:0:
320,192,3746,128,0,3840:0:0:0:0:
320,192,4059,1,0,0:0:0:0:
192,192,4059,128,0,4152:0:0:0:0:
448,192,4309,1,0,0:0:0:0:
64,192,4309,128,0,4402:0:0:0:0:
448,192,4871,1,0,0:0:0:0:
64,192,4871,128,0,4965:0:0:0:0:
64,192,5465,1,0,0:0:0:0:
320,192,5465,128,0,5559:0:0:0:0:
320,192,5871,1,0,0:0:0:0:
192,192,5871,128,0,5965:0:0:0:0:
448,192,5965,128,0,6090:0:0:0:0:
64,192,5965,1,0,0:0:0:0:
320,192,6027,1,0,0:0:0:0:
192,192,6090,1,0,0:0:0:0:
64,192,6137,128,0,6230:0:0:0:0:
320,192,6184,128,0,6277:0:0:0:0:
448,192,6230,128,0,6324:0:0:0:0:
192,192,6277,128,0,6371:0:0:0:0:
64,192,6324,128,0,6559:0:0:0:0:
320,192,6559,128,0,6652:0:0:0:0:
64,192,6605,128,0,6699:0:0:0:0:
192,192,6652,128,0,6746:0:0:0:0:
320,192,6699,128,0,6793:0:0:0:0:
448,192,6746,128,0,6840:0:0:0:0:
192,192,6793,128,0,6887:0:0:0:0:
64,192,6840,128,0,6934:0:0:0:0:
320,192,6934,128,0,7090:0:0:0:0:
192,192,7090,128,0,7184:0:0:0:0:
448,192,7184,1,0,0:0:0:0:
448,192,7309,128,0,7402:0:0:0:0:
320,192,7355,128,0,7449:0:0:0:0:
192,192,7402,1,0,0:0:0:0:
64,192,7449,1,0,0:0:0:0:
320,192,7496,1,0,0:0:0:0:
64,192,7543,1,0,0:0:0:0:
448,192,7684,128,0,7767:0:0:0:0:
64,192,7725,128,0,7809:0:0:0:0:
320,192,7767,128,0,7850:0:0:0:0:
192,192,7809,128,0,7933:0:0:0:0:
448,192,9137,128,0,9559:0:0:0:0:
320,192,9137,128,0,9559:0:0:0:0:
192,192,9559,128,0,10496:0:0:0:0:
64,192,10496,128,0,10559:0:0:0:0:
448,192,10527,128,0,10621:0:0:0:0:
192,192,10684,1,0,0:0:0:0:
320,192,10684,1,0,0:0:0:0:
64,192,10746,1,0,0:0:0:0:
320,192,10809,1,0,0:0:0:0:
64,192,10934,1,0,0:0:0:0:
192,192,11059,1,0,0:0:0:0:
448,192,11059,1,0,0:0:0:0:
320,192,11121,1,0,0:0:0:0:
192,192,11184,1,0,0:0:0:0:
320,192,11309,1,0,0:0:0:0:
64,192,11434,1,0,0:0:0:0:
448,192,11434,1,0,0:0:0:0:
192,192,11496,1,0,0:0:0:0:
320,192,11559,1,0,0:0:0:0:
448,192,11621,128,0,11684:0:0:0:0:
192,192,11684,1,0,0:0:0:0:
64,192,11809,1,0,0:0:0:0:
320,192,11809,1,0,0:0:0:0:
448,192,11871,128,0,11934:0:0:0:0:
192,192,11934,1,0,0:0:0:0:
64,192,12059,1,0,0:0:0:0:
448,192,12121,128,0,12184:0:0:0:0:
320,192,12184,1,0,0:0:0:0:
192,192,12184,128,0,12559:0:0:0:0:
64,192,12184,128,0,12371:0:0:0:0:
64,192,12559,1,0,0:0:0:0:
320,192,12559,128,0,12621:0:0:0:0:
320,192,12746,128,0,12809:0:0:0:0:
320,192,12934,128,0,12996:0:0:0:0:
448,192,13121,128,0,13309:0:0:0:0:
64,192,13309,1,0,0:0:0:0:
320,192,13309,128,0,13371:0:0:0:0:
64,192,13496,128,0,13871:0:0:0:0:
192,192,13871,128,0,13934:0:0:0:0:
448,192,14059,1,0,0:0:0:0:
192,192,14059,128,0,14121:0:0:0:0:
320,192,14246,128,0,14621:0:0:0:0:
64,192,14621,128,0,14684:0:0:0:0:
448,192,14809,1,0,0:0:0:0:
64,192,14809,128,0,14871:0:0:0:0:
64,192,14996,128,0,15184:0:0:0:0:
192,192,15184,128,0,15559:0:0:0:0:
64,192,15559,1,0,0:0:0:0:
320,192,15559,128,0,15621:0:0:0:0:
320,192,15746,128,0,15809:0:0:0:0:
320,192,15934,128,0,15996:0:0:0:0:
448,192,16121,128,0,16309:0:0:0:0:
64,192,16309,1,0,0:0:0:0:
320,192,16309,128,0,16371:0:0:0:0:
64,192,16496,128,0,16871:0:0:0:0:
192,192,16871,128,0,16934:0:0:0:0:
448,192,17059,1,0,0:0:0:0:
192,192,17059,128,0,17246:0:0:0:0:
320,192,17246,128,0,17621:0:0:0:0:
64,192,17621,128,0,17684:0:0:0:0:
64,192,17809,1,0,0:0:0:0:
448,192,17809,128,0,17996:0:0:0:0:
320,192,17996,128,0,18184:0:0:0:0:
192,192,18184,128,0,18559:0:0:0:0:
448,192,18184,1,0,0:0:0:0:
64,192,18184,128,0,18371:0:0:0:0:
320,192,18559,128,0,18621:0:0:0:0:
64,192,18559,1,0,0:0:0:0:
320,192,18746,128,0,18809:0:0:0:0:
320,192,18934,128,0,18996:0:0:0:0:
448,192,19121,128,0,19309:0:0:0:0:
320,192,19309,128,0,19496:0:0:0:0:
64,192,19309,1,0,0:0:0:0:
64,192,19496,128,0,19871:0:0:0:0:
192,192,19871,128,0,19934:0:0:0:0:
192,192,20059,128,0,20121:0:0:0:0:
448,192,20059,1,0,0:0:0:0:
320,192,20246,128,0,20621:0:0:0:0:
64,192,20621,128,0,20684:0:0:0:0:
64,192,20809,1,0,0:0:0:0:
320,192,20855,1,0,0:0:0:0:
448,192,20855,1,0,0:0:0:0:
192,192,20902,1,0,0:0:0:0:
64,192,20996,1,0,0:0:0:0:
320,192,21059,1,0,0:0:0:0:
192,192,21184,128,0,21465:0:0:0:0:
448,192,21465,1,0,0:0:0:0:
320,192,21465,1,0,0:0:0:0:
64,192,21512,1,0,0:0:0:0:
320,192,21559,128,0,21621:0:0:0:0:
192,192,21559,1,0,0:0:0:0:
320,192,21746,128,0,21809:0:0:0:0:
320,192,21934,128,0,21996:0:0:0:0:
448,192,22121,128,0,22215:0:0:0:0:
192,192,22215,1,0,0:0:0:0:
64,192,22215,1,0,0:0:0:0:
320,192,22262,1,0,0:0:0:0:
64,192,22309,1,0,0:0:0:0:
448,192,22309,1,0,0:0:0:0:
192,192,22402,1,0,0:0:0:0:
320,192,22402,1,0,0:0:0:0:
64,192,22496,128,0,22684:0:0:0:0:
192,192,22590,1,0,0:0:0:0:
320,192,22684,1,0,0:0:0:0:
448,192,22684,1,0,0:0:0:0:
320,192,22777,1,0,0:0:0:0:
448,192,22777,1,0,0:0:0:0:
320,192,22871,1,0,0:0:0:0:
448,192,22871,1,0,0:0:0:0:
64,192,22965,1,0,0:0:0:0:
448,192,23012,1,0,0:0:0:0:
320,192,23059,1,0,0:0:0:0:
192,192,23059,1,0,0:0:0:0:
64,192,23152,1,0,0:0:0:0:
320,192,23152,1,0,0:0:0:0:
64,192,23246,1,0,0:0:0:0:
448,192,23246,1,0,0:0:0:0:
192,192,23340,1,0,0:0:0:0:
448,192,23340,1,0,0:0:0:0:
320,192,23434,1,0,0:0:0:0:
192,192,23527,1,0,0:0:0:0:
64,192,23527,1,0,0:0:0:0:
448,192,23621,1,0,0:0:0:0:
320,192,23621,1,0,0:0:0:0:
64,192,23715,1,0,0:0:0:0:
192,192,23809,1,0,0:0:0:0:
448,192,23809,1,0,0:0:0:0:
192,192,23902,1,0,0:0:0:0:
320,192,23996,1,0,0:0:0:0:
320,192,24090,1,0,0:0:0:0:
192,192,24184,128,0,24559:0:0:0:0:
448,192,24184,1,0,0:0:0:0:
64,192,24184,1,0,0:0:0:0:
448,192,24371,1,0,0:0:0:0:
64,192,24559,1,0,0:0:0:0:
320,192,24559,128,0,24621:0:0:0:0:
448,192,24559,1,0,0:0:0:0:
320,192,24746,128,0,24809:0:0:0:0:
320,192,24934,128,0,24996:0:0:0:0:
192,192,24934,1,0,0:0:0:0:
448,192,25121,128,0,25309:0:0:0:0:
192,192,25121,1,0,0:0:0:0:
64,192,25309,1,0,0:0:0:0:
320,192,25309,128,0,25371:0:0:0:0:
192,192,25309,1,0,0:0:0:0:
64,192,25496,128,0,25871:0:0:0:0:
448,192,25496,1,0,0:0:0:0:
320,192,25684,1,0,0:0:0:0:
192,192,25871,128,0,25934:0:0:0:0:
448,192,25871,1,0,0:0:0:0:
192,192,26059,128,0,26121:0:0:0:0:
448,192,26059,1,0,0:0:0:0:
64,192,26059,1,0,0:0:0:0:
64,192,26246,1,0,0:0:0:0:
320,192,26246,128,0,26621:0:0:0:0:
192,192,26434,1,0,0:0:0:0:
64,192,26621,128,0,26684:0:0:0:0:
448,192,26621,1,0,0:0:0:0:
448,192,26715,1,0,0:0:0:0:
64,192,26809,128,0,26871:0:0:0:0:
192,192,26809,1,0,0:0:0:0:
320,192,26809,1,0,0:0:0:0:
64,192,26996,128,0,27059:0:0:0:0:
192,192,27184,128,0,27559:0:0:0:0:
448,192,27184,1,0,0:0:0:0:
448,192,27371,1,0,0:0:0:0:
448,192,27559,1,0,0:0:0:0:
320,192,27559,128,0,27621:0:0:0:0:
64,192,27559,1,0,0:0:0:0:
320,192,27746,128,0,27809:0:0:0:0:
192,192,27934,1,0,0:0:0:0:
320,192,27934,128,0,27996:0:0:0:0:
192,192,28121,1,0,0:0:0:0:
448,192,28121,128,0,28309:0:0:0:0:
192,192,28309,1,0,0:0:0:0:
320,192,28309,128,0,28371:0:0:0:0:
64,192,28309,1,0,0:0:0:0:
448,192,28496,1,0,0:0:0:0:
64,192,28496,128,0,28871:0:0:0:0:
320,192,28684,1,0,0:0:0:0:
448,192,28871,1,0,0:0:0:0:
192,192,28871,128,0,28934:0:0:0:0:
64,192,29059,1,0,0:0:0:0:
448,192,29059,1,0,0:0:0:0:
192,192,29059,128,0,29121:0:0:0:0:
320,192,29246,128,0,29621:0:0:0:0:
64,192,29246,1,0,0:0:0:0:
192,192,29434,1,0,0:0:0:0:
448,192,29621,1,0,0:0:0:0:
64,192,29621,1,0,0:0:0:0:
64,192,29715,1,0,0:0:0:0:
192,192,29809,1,0,0:0:0:0:
320,192,29809,1,0,0:0:0:0:
448,192,29809,128,0,29996:0:0:0:0:
320,192,29996,128,0,30184:0:0:0:0:
448,192,30184,1,0,0:0:0:0:
64,192,30184,1,0,0:0:0:0:
192,192,30184,128,0,30559:0:0:0:0:
448,192,30371,1,0,0:0:0:0:
320,192,30559,128,0,30621:0:0:0:0:
448,192,30559,1,0,0:0:0:0:
64,192,30559,1,0,0:0:0:0:
320,192,30746,128,0,30809:0:0:0:0:
192,192,30934,1,0,0:0:0:0:
320,192,30934,128,0,30996:0:0:0:0:
448,192,31121,128,0,31309:0:0:0:0:
192,192,31121,1,0,0:0:0:0:
64,192,31309,1,0,0:0:0:0:
192,192,31309,1,0,0:0:0:0:
320,192,31309,128,0,31496:0:0:0:0:
448,192,31496,1,0,0:0:0:0:
64,192,31496,128,0,31871:0:0:0:0:
320,192,31684,1,0,0:0:0:0:
192,192,31871,128,0,31934:0:0:0:0:
448,192,31871,1,0,0:0:0:0:
320,192,32012,5,0,0:0:0:0:
448,192,32059,1,0,0:0:0:0:
64,192,32059,1,0,0:0:0:0:
192,192,32105,128,0,32340:0:0:0:0:
320,192,32152,128,0,32527:0:0:0:0:
64,192,32199,128,0,32434:0:0:0:0:
448,192,32246,128,0,32527:0:0:0:0:
192,192,32434,1,0,0:0:0:0:
64,192,32621,128,0,32684:0:0:0:0:
448,192,32621,1,0,0:0:0:0:
448,192,32715,1,0,0:0:0:0:
320,192,32809,1,0,0:0:0:0:
192,192,32809,1,0,0:0:0:0:
64,192,32809,128,0,32871:0:0:0:0:
64,192,32996,128,0,33059:0:0:0:0:
448,192,33184,1,0,0:0:0:0:
192,192,33184,128,0,33559:0:0:0:0:
448,192,33371,1,0,0:0:0:0:
64,192,33559,1,0,0:0:0:0:
320,192,33559,128,0,33621:0:0:0:0:
448,192,33559,1,0,0:0:0:0:
320,192,33746,128,0,33809:0:0:0:0:
320,192,33934,128,0,33996:0:0:0:0:
192,192,33934,1,0,0:0:0:0:
448,192,34121,128,0,34309:0:0:0:0:
192,192,34121,1,0,0:0:0:0:
64,192,34309,1,0,0:0:0:0:
320,192,34309,128,0,34371:0:0:0:0:
192,192,34309,1,0,0:0:0:0:
64,192,34496,128,0,34871:0:0:0:0:
448,192,34496,1,0,0:0:0:0:
320,192,34684,1,0,0:0:0:0:
192,192,34871,128,0,34934:0:0:0:0:
448,192,34871,1,0,0:0:0:0:
192,192,35059,128,0,35121:0:0:0:0:
448,192,35059,1,0,0:0:0:0:
64,192,35059,1,0,0:0:0:0:
64,192,35246,1,0,0:0:0:0:
320,192,35246,128,0,35621:0:0:0:0:
192,192,35434,1,0,0:0:0:0:
64,192,35621,1,0,0:0:0:0:
448,192,35621,1,0,0:0:0:0:
64,192,35715,1,0,0:0:0:0:
320,192,35809,1,0,0:0:0:0:
192,192,35809,1,0,0:0:0:0:
448,192,35809,1,0,0:0:0:0:
448,192,35902,1,0,0:0:0:0:
192,192,35902,1,0,0:0:0:0:
64,192,35996,1,0,0:0:0:0:
320,192,35996,1,0,0:0:0:0:
64,192,36090,1,0,0:0:0:0:
192,192,36184,128,0,36371:0:0:0:0:
320,192,36184,128,0,36371:0:0:0:0:
448,192,36184,128,0,36277:0:0:0:0:
448,192,36371,1,0,0:0:0:0:
64,192,36371,1,0,0:0:0:0:
64,192,36465,1,0,0:0:0:0:
448,192,36465,1,0,0:0:0:0:
320,192,36559,1,0,0:0:0:0:
192,192,36559,1,0,0:0:0:0:
320,192,36652,1,0,0:0:0:0:
448,192,36746,128,0,36934:0:0:0:0:
192,192,36746,128,0,36934:0:0:0:0:
64,192,36746,128,0,36840:0:0:0:0:
320,192,36934,1,0,0:0:0:0:
64,192,36934,1,0,0:0:0:0:
320,192,37027,1,0,0:0:0:0:
64,192,37027,1,0,0:0:0:0:
192,192,37121,1,0,0:0:0:0:
448,192,37121,1,0,0:0:0:0:
192,192,37215,1,0,0:0:0:0:
64,192,37309,128,0,37496:0:0:0:0:
320,192,37309,128,0,37402:0:0:0:0:
448,192,37309,128,0,37496:0:0:0:0:
192,192,37496,1,0,0:0:0:0:
320,192,37496,1,0,0:0:0:0:
320,192,37590,1,0,0:0:0:0:
448,192,37684,128,0,37871:0:0:0:0:
64,192,37684,128,0,37777:0:0:0:0:
192,192,37684,128,0,37871:0:0:0:0:
64,192,37871,1,0,0:0:0:0:
64,192,37965,1,0,0:0:0:0:
448,192,38059,1,0,0:0:0:0:
448,192,38152,1,0,0:0:0:0:
320,192,38246,128,0,38340:0:0:0:0:
192,192,38246,128,0,38434:0:0:0:0:
64,192,38246,128,0,38434:0:0:0:0:
320,192,38434,1,0,0:0:0:0:
320,192,38527,1,0,0:0:0:0:
192,192,38621,1,0,0:0:0:0:
192,192,38715,1,0,0:0:0:0:
320,192,38809,128,0,38996:0:0:0:0:
448,192,38809,128,0,38902:0:0:0:0:
64,192,38809,128,0,38996:0:0:0:0:
448,192,38996,1,0,0:0:0:0:
64,192,39090,1,0,0:0:0:0:
448,192,39184,128,0,39371:0:0:0:0:
192,192,39184,128,0,39277:0:0:0:0:
320,192,39184,128,0,39371:0:0:0:0:
64,192,39371,1,0,0:0:0:0:
192,192,39371,1,0,0:0:0:0:
64,192,39465,1,0,0:0:0:0:
192,192,39465,1,0,0:0:0:0:
448,192,39559,1,0,0:0:0:0:
320,192,39559,1,0,0:0:0:0:
320,192,39652,1,0,0:0:0:0:
192,192,39746,128,0,39934:0:0:0:0:
64,192,39746,128,0,39934:0:0:0:0:
448,192,39746,128,0,39840:0:0:0:0:
320,192,39934,1,0,0:0:0:0:
448,192,39934,1,0,0:0:0:0:
448,192,40027,1,0,0:0:0:0:
320,192,40027,1,0,0:0:0:0:
64,192,40121,1,0,0:0:0:0:
192,192,40121,1,0,0:0:0:0:
448,192,40215,1,0,0:0:0:0:
192,192,40309,128,0,40402:0:0:0:0:
64,192,40309,128,0,40496:0:0:0:0:
320,192,40309,128,0,40496:0:0:0:0:
448,192,40496,1,0,0:0:0:0:
192,192,40496,1,0,0:0:0:0:
192,192,40590,1,0,0:0:0:0:
64,192,40684,128,0,40871:0:0:0:0:
320,192,40684,128,0,40777:0:0:0:0:
448,192,40684,128,0,40871:0:0:0:0:
320,192,40871,1,0,0:0:0:0:
192,192,40871,1,0,0:0:0:0:
320,192,40965,1,0,0:0:0:0:
64,192,41059,1,0,0:0:0:0:
448,192,41059,1,0,0:0:0:0:
64,192,41152,1,0,0:0:0:0:
448,192,41246,128,0,41340:0:0:0:0:
320,192,41246,128,0,41434:0:0:0:0:
192,192,41246,128,0,41434:0:0:0:0:
64,192,41434,1,0,0:0:0:0:
448,192,41434,1,0,0:0:0:0:
64,192,41527,1,0,0:0:0:0:
192,192,41621,1,0,0:0:0:0:
320,192,41621,1,0,0:0:0:0:
320,192,41715,1,0,0:0:0:0:
64,192,41809,128,0,41902:0:0:0:0:
448,192,41809,128,0,41996:0:0:0:0:
192,192,41809,128,0,41996:0:0:0:0:
64,192,41996,1,0,0:0:0:0:
64,192,42090,1,0,0:0:0:0:
192,192,42184,128,0,42371:0:0:0:0:
320,192,42184,128,0,42371:0:0:0:0:
448,192,42184,128,0,42277:0:0:0:0:
448,192,42371,1,0,0:0:0:0:
64,192,42371,1,0,0:0:0:0:
64,192,42465,1,0,0:0:0:0:
448,192,42465,1,0,0:0:0:0:
320,192,42559,1,0,0:0:0:0:
192,192,42559,1,0,0:0:0:0:
320,192,42652,1,0,0:0:0:0:
448,192,42746,128,0,42934:0:0:0:0:
192,192,42746,128,0,42934:0:0:0:0:
64,192,42746,128,0,42840:0:0:0:0:
320,192,42934,1,0,0:0:0:0:
64,192,42934,1,0,0:0:0:0:
320,192,43027,1,0,0:0:0:0:
64,192,43027,1,0,0:0:0:0:
192,192,43121,1,0,0:0:0:0:
448,192,43121,1,0,0:0:0:0:
192,192,43215,1,0,0:0:0:0:
64,192,43309,128,0,43496:0:0:0:0:
320,192,43309,128,0,43402:0:0:0:0:
448,192,43309,128,0,43496:0:0:0:0:
192,192,43496,1,0,0:0:0:0:
320,192,43496,1,0,0:0:0:0:
320,192,43590,1,0,0:0:0:0:
448,192,43684,128,0,43871:0:0:0:0:
64,192,43684,128,0,43777:0:0:0:0:
192,192,43684,128,0,43871:0:0:0:0:
64,192,43871,1,0,0:0:0:0:
64,192,43965,1,0,0:0:0:0:
448,192,44059,1,0,0:0:0:0:
448,192,44152,1,0,0:0:0:0:
320,192,44246,128,0,44340:0:0:0:0:
192,192,44246,128,0,44434:0:0:0:0:
64,192,44246,128,0,44434:0:0:0:0:
320,192,44434,1,0,0:0:0:0:
320,192,44527,1,0,0:0:0:0:
192,192,44621,1,0,0:0:0:0:
192,192,44715,1,0,0:0:0:0:
320,192,44809,128,0,44996:0:0:0:0:
448,192,44809,128,0,44902:0:0:0:0:
64,192,44809,128,0,44996:0:0:0:0:
448,192,44996,1,0,0:0:0:0:
64,192,45090,1,0,0:0:0:0:
448,192,45184,128,0,45371:0:0:0:0:
192,192,45184,128,0,45277:0:0:0:0:
320,192,45184,128,0,45371:0:0:0:0:
64,192,45371,1,0,0:0:0:0:
192,192,45371,1,0,0:0:0:0:
64,192,45465,1,0,0:0:0:0:
192,192,45465,1,0,0:0:0:0:
448,192,45559,1,0,0:0:0:0:
320,192,45559,1,0,0:0:0:0:
320,192,45652,1,0,0:0:0:0:
192,192,45746,128,0,45934:0:0:0:0:
64,192,45746,128,0,45934:0:0:0:0:
448,192,45746,128,0,45840:0:0:0:0:
320,192,45934,1,0,0:0:0:0:
448,192,45934,1,0,0:0:0:0:
448,192,46027,1,0,0:0:0:0:
320,192,46027,1,0,0:0:0:0:
64,192,46121,1,0,0:0:0:0:
192,192,46121,1,0,0:0:0:0:
448,192,46215,1,0,0:0:0:0:
192,192,46309,128,0,46402:0:0:0:0:
64,192,46309,128,0,46496:0:0:0:0:
320,192,46309,128,0,46496:0:0:0:0:
448,192,46496,1,0,0:0:0:0:
192,192,46496,1,0,0:0:0:0:
192,192,46590,1,0,0:0:0:0:
64,192,46684,128,0,46871:0:0:0:0:
320,192,46684,128,0,46777:0:0:0:0:
448,192,46684,128,0,46871:0:0:0:0:
320,192,46871,1,0,0:0:0:0:
192,192,46871,1,0,0:0:0:0:
320,192,46965,1,0,0:0:0:0:
64,192,47059,1,0,0:0:0:0:
448,192,47059,1,0,0:0:0:0:
64,192,47152,1,0,0:0:0:0:
448,192,47246,128,0,47340:0:0:0:0:
320,192,47246,128,0,47434:0:0:0:0:
192,192,47246,128,0,47434:0:0:0:0:
64,192,47434,1,0,0:0:0:0:
448,192,47434,1,0,0:0:0:0:
64,192,47527,1,0,0:0:0:0:
192,192,47621,1,0,0:0:0:0:
320,192,47621,1,0,0:0:0:0:
320,192,47715,1,0,0:0:0:0:
64,192,47809,128,0,47902:0:0:0:0:
448,192,47809,128,0,47996:0:0:0:0:
192,192,47809,128,0,47996:0:0:0:0:
64,192,47996,1,0,0:0:0:0:
64,192,48090,1,0,0:0:0:0:
320,192,48184,128,0,48559:0:0:0:0:
448,192,48184,128,0,48559:0:0:0:0:
192,192,48184,128,0,52684:0:0:0:0:
64,192,52684,1,0,0:0:0:0:
448,192,52684,1,0,0:0:0:0:
320,192,52707,1,0,0:0:0:0:
192,192,52871,1,0,0:0:0:0:
320,192,52871,1,0,0:0:0:0:
64,192,53059,5,0,0:0:0:0:
448,192,53059,1,0,0:0:0:0:
192,192,53082,1,0,0:0:0:0:
192,192,53246,1,0,0:0:0:0:
320,192,53246,1,0,0:0:0:0:
64,192,53434,1,0,0:0:0:0:
448,192,53434,1,0,0:0:0:0:
320,192,53457,1,0,0:0:0:0:
320,192,53621,1,0,0:0:0:0:
192,192,53621,1,0,0:0:0:0:
192,192,53809,1,0,0:0:0:0:
448,192,53809,1,0,0:0:0:0:
64,192,53949,1,0,0:0:0:0:
448,192,53996,1,0,0:0:0:0:
320,192,53996,1,0,0:0:0:0:
448,192,54184,128,0,54559:0:0:0:0:
320,192,54184,128,0,54465:0:0:0:0:
192,192,54184,128,0,54465:0:0:0:0:
64,192,54184,128,0,54465:0:0:0:0:
192,192,54559,128,0,54934:0:0:0:0:
64,192,54559,128,0,54840:0:0:0:0:
448,192,54746,128,0,55121:0:0:0:0:
192,192,55121,128,0,55496:0:0:0:0:
64,192,55121,128,0,55402:0:0:0:0:
448,192,55309,128,0,55684:0:0:0:0:
192,192,55684,128,0,56059:0:0:0:0:
64,192,55684,128,0,55965:0:0:0:0:
448,192,55871,128,0,56246:0:0:0:0:
64,192,56246,128,0,56340:0:0:0:0:
192,192,56246,128,0,56434:0:0:0:0:
64,192,56434,1,0,0:0:0:0:
320,192,56434,1,0,0:0:0:0:
448,192,56434,1,0,0:0:0:0:
448,192,56527,1,0,0:0:0:0:
320,192,56527,1,0,0:0:0:0:
448,192,56621,1,0,0:0:0:0:
320,192,56621,1,0,0:0:0:0:
448,192,56715,1,0,0:0:0:0:
320,192,56715,1,0,0:0:0:0:
192,192,56809,1,0,0:0:0:0:
448,192,56871,1,0,0:0:0:0:
320,192,56871,1,0,0:0:0:0:
192,192,56934,1,0,0:0:0:0:
64,192,56934,1,0,0:0:0:0:
320,192,56996,1,0,0:0:0:0:
64,192,57059,1,0,0:0:0:0:
192,192,57121,1,0,0:0:0:0:
64,192,57184,128,0,57465:0:0:0:0:
320,192,57184,128,0,57465:0:0:0:0:
448,192,57184,128,0,57559:0:0:0:0:
64,192,57559,128,0,57840:0:0:0:0:
192,192,57559,128,0,57934:0:0:0:0:
448,192,57746,128,0,58121:0:0:0:0:
64,192,58121,128,0,58402:0:0:0:0:
192,192,58121,128,0,58496:0:0:0:0:
448,192,58309,128,0,58684:0:0:0:0:
192,192,58684,1,0,0:0:0:0:
64,192,58684,128,0,58809:0:0:0:0:
320,192,58684,128,0,58809:0:0:0:0:
64,192,58871,1,0,0:0:0:0:
320,192,58871,1,0,0:0:0:0:
320,192,59059,1,0,0:0:0:0:
448,192,59059,128,0,59184:0:0:0:0:
192,192,59059,128,0,59184:0:0:0:0:
192,192,59246,1,0,0:0:0:0:
448,192,59246,1,0,0:0:0:0:
192,192,59434,1,0,0:0:0:0:
320,192,59434,128,0,59559:0:0:0:0:
64,192,59434,128,0,59559:0:0:0:0:
64,192,59621,1,0,0:0:0:0:
320,192,59621,1,0,0:0:0:0:
64,192,59715,1,0,0:0:0:0:
192,192,59809,1,0,0:0:0:0:
320,192,59809,1,0,0:0:0:0:
448,192,59809,1,0,0:0:0:0:
320,192,59902,1,0,0:0:0:0:
192,192,59996,1,0,0:0:0:0:
192,192,60090,1,0,0:0:0:0:
448,192,60184,1,0,0:0:0:0:
320,192,60184,1,0,0:0:0:0:
64,192,60184,1,0,0:0:0:0:
448,192,60277,1,0,0:0:0:0:
64,192,60277,1,0,0:0:0:0:
320,192,60371,1,0,0:0:0:0:
192,192,60371,1,0,0:0:0:0:
192,192,60465,1,0,0:0:0:0:
448,192,60465,1,0,0:0:0:0:
320,192,60559,1,0,0:0:0:0:
64,192,60559,1,0,0:0:0:0:
320,192,60652,1,0,0:0:0:0:
64,192,60652,1,0,0:0:0:0:
448,192,60746,1,0,0:0:0:0:
192,192,60746,1,0,0:0:0:0:
320,192,60840,1,0,0:0:0:0:
192,192,60934,1,0,0:0:0:0:
64,192,60934,1,0,0:0:0:0:
448,192,60934,1,0,0:0:0:0:
448,192,61027,1,0,0:0:0:0:
192,192,61027,1,0,0:0:0:0:
64,192,61121,1,0,0:0:0:0:
320,192,61121,1,0,0:0:0:0:
320,192,61215,1,0,0:0:0:0:
192,192,61215,1,0,0:0:0:0:
448,192,61309,1,0,0:0:0:0:
64,192,61309,1,0,0:0:0:0:
64,192,61402,1,0,0:0:0:0:
320,192,61402,1,0,0:0:0:0:
192,192,61496,1,0,0:0:0:0:
320,192,61590,1,0,0:0:0:0:
448,192,61684,1,0,0:0:0:0:
192,192,61684,1,0,0:0:0:0:
64,192,61684,1,0,0:0:0:0:
448,192,61777,1,0,0:0:0:0:
64,192,61777,1,0,0:0:0:0:
320,192,61871,1,0,0:0:0:0:
192,192,61871,1,0,0:0:0:0:
64,192,61965,1,0,0:0:0:0:
320,192,61965,1,0,0:0:0:0:
192,192,62059,1,0,0:0:0:0:
448,192,62059,1,0,0:0:0:0:
448,192,62152,1,0,0:0:0:0:
192,192,62152,1,0,0:0:0:0:
320,192,62246,1,0,0:0:0:0:
64,192,62246,1,0,0:0:0:0:
192,192,62340,1,0,0:0:0:0:
448,192,62434,1,0,0:0:0:0:
320,192,62434,1,0,0:0:0:0:
64,192,62434,1,0,0:0:0:0:
320,192,62527,1,0,0:0:0:0:
64,192,62527,1,0,0:0:0:0:
192,192,62621,1,0,0:0:0:0:
448,192,62621,1,0,0:0:0:0:
320,192,62715,1,0,0:0:0:0:
192,192,62715,1,0,0:0:0:0:
448,192,62809,1,0,0:0:0:0:
64,192,62809,1,0,0:0:0:0:
448,192,62902,1,0,0:0:0:0:
192,192,62902,1,0,0:0:0:0:
320,192,62996,1,0,0:0:0:0:
192,192,63090,1,0,0:0:0:0:
64,192,63184,1,0,0:0:0:0:
320,192,63184,1,0,0:0:0:0:
448,192,63184,1,0,0:0:0:0:
192,192,63277,1,0,0:0:0:0:
448,192,63277,1,0,0:0:0:0:
64,192,63371,1,0,0:0:0:0:
192,192,63371,1,0,0:0:0:0:
320,192,63371,1,0,0:0:0:0:
320,192,63465,1,0,0:0:0:0:
64,192,63559,1,0,0:0:0:0:
192,192,63559,1,0,0:0:0:0:
448,192,63559,1,0,0:0:0:0:
320,192,63652,1,0,0:0:0:0:
192,192,63652,1,0,0:0:0:0:
320,192,63746,1,0,0:0:0:0:
448,192,63746,1,0,0:0:0:0:
64,192,63746,1,0,0:0:0:0:
64,192,63840,1,0,0:0:0:0:
192,192,63934,1,0,0:0:0:0:
320,192,63934,1,0,0:0:0:0:
448,192,63934,1,0,0:0:0:0:
64,192,64027,1,0,0:0:0:0:
320,192,64027,1,0,0:0:0:0:
192,192,64121,1,0,0:0:0:0:
64,192,64121,1,0,0:0:0:0:
448,192,64121,1,0,0:0:0:0:
448,192,64215,1,0,0:0:0:0:
320,192,64309,1,0,0:0:0:0:
192,192,64309,1,0,0:0:0:0:
64,192,64309,1,0,0:0:0:0:
64,192,64402,1,0,0:0:0:0:
448,192,64402,1,0,0:0:0:0:
192,192,64496,1,0,0:0:0:0:
320,192,64496,1,0,0:0:0:0:
448,192,64543,1,0,0:0:0:0:
192,192,64590,1,0,0:0:0:0:
448,192,64637,1,0,0:0:0:0:
64,192,64684,128,0,65059:0:0:0:0:
320,192,65059,128,0,65121:0:0:0:0:
448,192,65059,128,0,65121:0:0:0:0:
192,192,65434,128,0,65496:0:0:0:0:
320,192,65434,128,0,65496:0:0:0:0:
320,192,65559,1,0,0:0:0:0:
64,192,65621,1,0,0:0:0:0:
192,192,65684,1,0,0:0:0:0:
448,192,65684,1,0,0:0:0:0:
320,192,65746,1,0,0:0:0:0:
192,192,65809,128,0,65871:0:0:0:0:
64,192,65809,128,0,65871:0:0:0:0:
448,192,65809,1,0,0:0:0:0:
448,192,66184,1,0,0:0:0:0:
320,192,66184,128,0,66309:0:0:0:0:
192,192,66246,128,0,66371:0:0:0:0:
64,192,66309,128,0,66434:0:0:0:0:
448,192,66371,128,0,66496:0:0:0:0:
192,192,66434,128,0,66559:0:0:0:0:
320,192,66496,128,0,66652:0:0:0:0:
448,192,66559,128,0,66746:0:0:0:0:
64,192,66559,128,0,66652:0:0:0:0:
192,192,66652,128,0,66746:0:0:0:0:
64,192,66746,128,0,66871:0:0:0:0:
320,192,66746,1,0,0:0:0:0:
448,192,66809,128,0,66934:0:0:0:0:
320,192,66871,128,0,66996:0:0:0:0:
64,192,66934,128,0,67059:0:0:0:0:
192,192,66934,1,0,0:0:0:0:
448,192,66996,128,0,67121:0:0:0:0:
192,192,67059,128,0,67215:0:0:0:0:
320,192,67121,1,0,0:0:0:0:
64,192,67121,128,0,67309:0:0:0:0:
320,192,67215,128,0,67309:0:0:0:0:
448,192,67309,128,0,67371:0:0:0:0:
192,192,67309,128,0,67371:0:0:0:0:
64,192,67496,128,0,67809:0:0:0:0:
448,192,67496,128,0,67559:0:0:0:0:
320,192,67559,128,0,67621:0:0:0:0:
448,192,67621,128,0,67684:0:0:0:0:
320,192,67684,128,0,67746:0:0:0:0:
448,192,67746,128,0,67871:0:0:0:0:
320,192,67809,128,0,67871:0:0:0:0:
192,192,67871,1,0,0:0:0:0:
64,192,67871,1,0,0:0:0:0:
64,192,67965,1,0,0:0:0:0:
192,192,67965,1,0,0:0:0:0:
320,192,68059,128,0,68152:0:0:0:0:
448,192,68059,128,0,68309:0:0:0:0:
64,192,68246,128,0,68340:0:0:0:0:
320,192,68246,128,0,68496:0:0:0:0:
192,192,68434,1,0,0:0:0:0:
448,192,68434,128,0,68527:0:0:0:0:
64,192,68434,128,0,68684:0:0:0:0:
192,192,68621,128,0,68715:0:0:0:0:
448,192,68621,128,0,68871:0:0:0:0:
320,192,68809,128,0,68902:0:0:0:0:
192,192,68809,128,0,69059:0:0:0:0:
64,192,68996,128,0,69090:0:0:0:0:
320,192,68996,128,0,69184:0:0:0:0:
64,192,69184,1,0,0:0:0:0:
192,192,69184,128,0,69309:0:0:0:0:
320,192,69246,128,0,69371:0:0:0:0:
448,192,69309,128,0,69434:0:0:0:0:
64,192,69371,128,0,69496:0:0:0:0:
320,192,69434,128,0,69559:0:0:0:0:
192,192,69496,128,0,69652:0:0:0:0:
448,192,69559,1,0,0:0:0:0:
64,192,69559,128,0,69746:0:0:0:0:
448,192,69652,1,0,0:0:0:0:
320,192,69746,128,0,69871:0:0:0:0:
192,192,69746,1,0,0:0:0:0:
64,192,69809,128,0,69934:0:0:0:0:
192,192,69871,128,0,69996:0:0:0:0:
448,192,69934,128,0,70059:0:0:0:0:
320,192,69934,1,0,0:0:0:0:
64,192,69996,128,0,70121:0:0:0:0:
320,192,70059,128,0,70215:0:0:0:0:
192,192,70121,1,0,0:0:0:0:
448,192,70121,128,0,70309:0:0:0:0:
192,192,70215,1,0,0:0:0:0:
192,192,70309,128,0,70371:0:0:0:0:
320,192,70309,128,0,70371:0:0:0:0:
448,192,70496,128,0,70809:0:0:0:0:
64,192,70496,128,0,70559:0:0:0:0:
192,192,70559,128,0,70621:0:0:0:0:
64,192,70621,128,0,70684:0:0:0:0:
192,192,70684,128,0,70746:0:0:0:0:
64,192,70746,128,0,70871:0:0:0:0:
192,192,70809,128,0,70871:0:0:0:0:
320,192,70871,1,0,0:0:0:0:
448,192,70871,1,0,0:0:0:0:
448,192,70965,1,0,0:0:0:0:
320,192,70965,1,0,0:0:0:0:
192,192,71059,128,0,71152:0:0:0:0:
64,192,71059,128,0,71309:0:0:0:0:
448,192,71246,128,0,71340:0:0:0:0:
192,192,71246,128,0,71496:0:0:0:0:
320,192,71434,1,0,0:0:0:0:
64,192,71434,128,0,71527:0:0:0:0:
448,192,71434,128,0,71684:0:0:0:0:
320,192,71621,128,0,71715:0:0:0:0:
64,192,71621,128,0,71871:0:0:0:0:
192,192,71809,128,0,71902:0:0:0:0:
320,192,71809,1,0,0:0:0:0:
320,192,71902,1,0,0:0:0:0:
448,192,71996,128,0,72090:0:0:0:0:
192,192,71996,1,0,0:0:0:0:
192,192,72090,1,0,0:0:0:0:
64,192,72184,1,0,0:0:0:0:
448,192,72184,128,0,72309:0:0:0:0:
320,192,72246,128,0,72371:0:0:0:0:
192,192,72309,128,0,72434:0:0:0:0:
448,192,72371,128,0,72496:0:0:0:0:
64,192,72434,128,0,72559:0:0:0:0:
192,192,72496,128,0,72652:0:0:0:0:
448,192,72559,128,0,72652:0:0:0:0:
320,192,72652,128,0,72746:0:0:0:0:
448,192,72746,1,0,0:0:0:0:
64,192,72746,128,0,72871:0:0:0:0:
192,192,72809,128,0,72871:0:0:0:0:
320,192,72871,128,0,72996:0:0:0:0:
64,192,72934,128,0,73059:0:0:0:0:
192,192,72934,1,0,0:0:0:0:
448,192,72996,128,0,73121:0:0:0:0:
320,192,73059,128,0,73215:0:0:0:0:
64,192,73121,128,0,73215:0:0:0:0:
192,192,73215,128,0,73309:0:0:0:0:
448,192,73309,128,0,73434:0:0:0:0:
64,192,73309,1,0,0:0:0:0:
320,192,73371,128,0,73496:0:0:0:0:
192,192,73434,128,0,73559:0:0:0:0:
448,192,73496,128,0,73621:0:0:0:0:
64,192,73559,128,0,73684:0:0:0:0:
192,192,73621,128,0,73965:0:0:0:0:
448,192,73684,128,0,73777:0:0:0:0:
320,192,73777,128,0,73871:0:0:0:0:
448,192,73871,128,0,74012:0:0:0:0:
320,192,73965,128,0,74059:0:0:0:0:
64,192,74059,128,0,74184:0:0:0:0:
192,192,74059,128,0,74121:0:0:0:0:
448,192,74246,128,0,74559:0:0:0:0:
320,192,74246,128,0,74309:0:0:0:0:
192,192,74309,128,0,74371:0:0:0:0:
320,192,74371,128,0,74434:0:0:0:0:
192,192,74434,128,0,74496:0:0:0:0:
64,192,74434,1,0,0:0:0:0:
320,192,74496,128,0,74621:0:0:0:0:
192,192,74559,128,0,74621:0:0:0:0:
448,192,74621,128,0,74684:0:0:0:0:
64,192,74809,128,0,75121:0:0:0:0:
192,192,74809,128,0,74871:0:0:0:0:
320,192,74871,128,0,74934:0:0:0:0:
192,192,74934,128,0,74996:0:0:0:0:
320,192,74996,128,0,75059:0:0:0:0:
192,192,75059,128,0,75184:0:0:0:0:
320,192,75121,128,0,75184:0:0:0:0:
448,192,75184,1,0,0:0:0:0:
64,192,75184,128,0,75309:0:0:0:0:
192,192,75246,128,0,75371:0:0:0:0:
320,192,75309,128,0,75434:0:0:0:0:
64,192,75371,128,0,75496:0:0:0:0:
448,192,75434,128,0,75559:0:0:0:0:
320,192,75496,128,0,75652:0:0:0:0:
64,192,75559,128,0,75652:0:0:0:0:
192,192,75652,128,0,75746:0:0:0:0:
64,192,75746,1,0,0:0:0:0:
448,192,75746,128,0,75871:0:0:0:0:
320,192,75809,128,0,75871:0:0:0:0:
192,192,75871,128,0,75996:0:0:0:0:
448,192,75934,128,0,76059:0:0:0:0:
320,192,75934,1,0,0:0:0:0:
64,192,75996,128,0,76121:0:0:0:0:
192,192,76059,128,0,76215:0:0:0:0:
448,192,76121,128,0,76215:0:0:0:0:
320,192,76215,128,0,76309:0:0:0:0:
64,192,76309,128,0,76434:0:0:0:0:
448,192,76309,1,0,0:0:0:0:
192,192,76371,128,0,76496:0:0:0:0:
320,192,76434,128,0,76559:0:0:0:0:
64,192,76496,128,0,76621:0:0:0:0:
448,192,76559,1,0,0:0:0:0:
320,192,76621,1,0,0:0:0:0:
192,192,76652,1,0,0:0:0:0:
64,192,76684,1,0,0:0:0:0:
448,192,76684,128,0,76777:0:0:0:0:
192,192,76871,1,0,0:0:0:0:
320,192,76918,1,0,0:0:0:0:
64,192,76965,1,0,0:0:0:0:
192,192,77012,1,0,0:0:0:0:
320,192,77059,128,0,77121:0:0:0:0:
448,192,77059,128,0,77121:0:0:0:0:
64,192,77246,1,0,0:0:0:0:
448,192,77246,1,0,0:0:0:0:
64,192,77340,1,0,0:0:0:0:
448,192,77434,1,0,0:0:0:0:
320,192,77434,1,0,0:0:0:0:
192,192,77434,1,0,0:0:0:0:
448,192,77527,1,0,0:0:0:0:
192,192,77527,1,0,0:0:0:0:
64,192,77621,1,0,0:0:0:0:
320,192,77621,1,0,0:0:0:0:
320,192,77715,1,0,0:0:0:0:
448,192,77809,1,0,0:0:0:0:
192,192,77809,1,0,0:0:0:0:
64,192,77809,1,0,0:0:0:0:
64,192,77902,1,0,0:0:0:0:
448,192,77902,1,0,0:0:0:0:
320,192,77949,1,0,0:0:0:0:
192,192,77996,1,0,0:0:0:0:
448,192,78043,1,0,0:0:0:0:
192,192,78090,1,0,0:0:0:0:
64,192,78137,1,0,0:0:0:0:
448,192,78184,1,0,0:0:0:0:
320,192,78184,1,0,0:0:0:0:
192,192,78246,1,0,0:0:0:0:
320,192,78309,1,0,0:0:0:0:
448,192,78371,128,0,78559:0:0:0:0:
64,192,78371,128,0,78496:0:0:0:0:
192,192,78434,1,0,0:0:0:0:
320,192,78496,1,0,0:0:0:0:
64,192,78559,1,0,0:0:0:0:
192,192,78559,1,0,0:0:0:0:
64,192,78652,1,0,0:0:0:0:
448,192,78652,1,0,0:0:0:0:
448,192,78746,1,0,0:0:0:0:
192,192,78840,1,0,0:0:0:0:
64,192,78840,1,0,0:0:0:0:
320,192,78887,1,0,0:0:0:0:
192,192,78934,1,0,0:0:0:0:
64,192,78934,128,0,79121:0:0:0:0:
448,192,78934,128,0,79059:0:0:0:0:
320,192,79121,1,0,0:0:0:0:
448,192,79121,1,0,0:0:0:0:
64,192,79215,1,0,0:0:0:0:
448,192,79215,1,0,0:0:0:0:
192,192,79309,1,0,0:0:0:0:
448,192,79402,1,0,0:0:0:0:
192,192,79449,1,0,0:0:0:0:
448,192,79496,128,0,79684:0:0:0:0:
64,192,79496,128,0,79684:0:0:0:0:
320,192,79590,128,0,79684:0:0:0:0:
192,192,79684,1,0,0:0:0:0:
320,192,79777,1,0,0:0:0:0:
448,192,79777,1,0,0:0:0:0:
64,192,79824,1,0,0:0:0:0:
192,192,79871,1,0,0:0:0:0:
448,192,79871,1,0,0:0:0:0:
448,192,79965,128,0,80152:0:0:0:0:
64,192,79965,128,0,80059:0:0:0:0:
320,192,80012,1,0,0:0:0:0:
192,192,80059,1,0,0:0:0:0:
64,192,80152,1,0,0:0:0:0:
64,192,80246,1,0,0:0:0:0:
320,192,80246,1,0,0:0:0:0:
320,192,80340,1,0,0:0:0:0:
192,192,80340,1,0,0:0:0:0:
192,192,80434,1,0,0:0:0:0:
64,192,80434,128,0,80559:0:0:0:0:
448,192,80434,128,0,80621:0:0:0:0:
64,192,80621,1,0,0:0:0:0:
64,192,80715,128,0,80840:0:0:0:0:
320,192,80809,1,0,0:0:0:0:
448,192,80809,1,0,0:0:0:0:
64,192,80902,1,0,0:0:0:0:
64,192,80996,128,0,81121:0:0:0:0:
448,192,80996,1,0,0:0:0:0:
320,192,81059,1,0,0:0:0:0:
192,192,81121,1,0,0:0:0:0:
320,192,81184,1,0,0:0:0:0:
448,192,81184,1,0,0:0:0:0:
192,192,81277,1,0,0:0:0:0:
64,192,81371,128,0,81559:0:0:0:0:
448,192,81371,128,0,81496:0:0:0:0:
320,192,81434,1,0,0:0:0:0:
192,192,81496,1,0,0:0:0:0:
448,192,81559,1,0,0:0:0:0:
320,192,81559,1,0,0:0:0:0:
448,192,81652,1,0,0:0:0:0:
64,192,81652,1,0,0:0:0:0:
64,192,81746,1,0,0:0:0:0:
320,192,81840,1,0,0:0:0:0:
448,192,81840,1,0,0:0:0:0:
192,192,81887,1,0,0:0:0:0:
320,192,81934,1,0,0:0:0:0:
448,192,81934,128,0,82121:0:0:0:0:
64,192,81934,128,0,82059:0:0:0:0:
192,192,82121,1,0,0:0:0:0:
64,192,82121,1,0,0:0:0:0:
448,192,82215,1,0,0:0:0:0:
64,192,82215,1,0,0:0:0:0:
320,192,82309,1,0,0:0:0:0:
192,192,82402,1,0,0:0:0:0:
320,192,82449,1,0,0:0:0:0:
448,192,82496,1,0,0:0:0:0:
192,192,82496,1,0,0:0:0:0:
64,192,82590,128,0,82684:0:0:0:0:
448,192,82590,128,0,82777:0:0:0:0:
320,192,82684,1,0,0:0:0:0:
64,192,82777,1,0,0:0:0:0:
192,192,82777,1,0,0:0:0:0:
64,192,82871,1,0,0:0:0:0:
448,192,82871,1,0,0:0:0:0:
192,192,82918,1,0,0:0:0:0:
448,192,82965,1,0,0:0:0:0:
192,192,83012,1,0,0:0:0:0:
64,192,83059,1,0,0:0:0:0:
320,192,83059,1,0,0:0:0:0:
320,192,83152,1,0,0:0:0:0:
192,192,83246,1,0,0:0:0:0:
448,192,83246,1,0,0:0:0:0:
192,192,83340,1,0,0:0:0:0:
64,192,83434,1,0,0:0:0:0:
320,192,83434,1,0,0:0:0:0:
448,192,83434,1,0,0:0:0:0:
448,192,83527,128,0,83621:0:0:0:0:
64,192,83527,128,0,83715:0:0:0:0:
192,192,83621,128,0,83715:0:0:0:0:
320,192,83621,1,0,0:0:0:0:
320,192,83715,1,0,0:0:0:0:
64,192,83809,128,0,83892:0:0:0:0:
192,192,83850,128,0,83934:0:0:0:0:
320,192,83892,128,0,84017:0:0:0:0:
448,192,83934,128,0,84100:0:0:0:0:
192,192,84184,1,0,0:0:0:0:
64,192,84184,1,0,0:0:0:0:
320,192,84184,1,0,0:0:0:0:
448,192,84246,1,0,0:0:0:0:
64,192,84309,1,0,0:0:0:0:
192,192,84371,128,0,84559:0:0:0:0:
320,192,84371,128,0,84496:0:0:0:0:
448,192,84434,1,0,0:0:0:0:
64,192,84496,1,0,0:0:0:0:
320,192,84559,1,0,0:0:0:0:
448,192,84559,1,0,0:0:0:0:
320,192,84652,1,0,0:0:0:0:
192,192,84652,1,0,0:0:0:0:
192,192,84746,1,0,0:0:0:0:
448,192,84840,1,0,0:0:0:0:
320,192,84840,1,0,0:0:0:0:
64,192,84887,1,0,0:0:0:0:
448,192,84934,1,0,0:0:0:0:
320,192,84934,128,0,85121:0:0:0:0:
192,192,84934,128,0,85059:0:0:0:0:
64,192,85121,1,0,0:0:0:0:
192,192,85121,1,0,0:0:0:0:
320,192,85215,1,0,0:0:0:0:
192,192,85215,1,0,0:0:0:0:
448,192,85309,1,0,0:0:0:0:
192,192,85402,1,0,0:0:0:0:
448,192,85449,1,0,0:0:0:0:
192,192,85496,128,0,85684:0:0:0:0:
320,192,85496,128,0,85684:0:0:0:0:
64,192,85590,128,0,85684:0:0:0:0:
448,192,85684,1,0,0:0:0:0:
64,192,85777,1,0,0:0:0:0:
192,192,85777,1,0,0:0:0:0:
320,192,85824,1,0,0:0:0:0:
448,192,85871,1,0,0:0:0:0:
192,192,85871,1,0,0:0:0:0:
192,192,85965,128,0,86152:0:0:0:0:
320,192,85965,128,0,86059:0:0:0:0:
64,192,86012,1,0,0:0:0:0:
448,192,86059,1,0,0:0:0:0:
320,192,86152,1,0,0:0:0:0:
320,192,86246,1,0,0:0:0:0:
64,192,86246,1,0,0:0:0:0:
64,192,86340,1,0,0:0:0:0:
448,192,86340,1,0,0:0:0:0:
448,192,86434,1,0,0:0:0:0:
320,192,86434,128,0,86559:0:0:0:0:
192,192,86434,128,0,86621:0:0:0:0:
320,192,86621,1,0,0:0:0:0:
320,192,86715,128,0,86840:0:0:0:0:
64,192,86809,1,0,0:0:0:0:
192,192,86809,1,0,0:0:0:0:
320,192,86902,1,0,0:0:0:0:
320,192,86996,128,0,87121:0:0:0:0:
192,192,86996,1,0,0:0:0:0:
64,192,87059,1,0,0:0:0:0:
448,192,87121,1,0,0:0:0:0:
64,192,87184,1,0,0:0:0:0:
192,192,87184,1,0,0:0:0:0:
448,192,87277,1,0,0:0:0:0:
320,192,87371,128,0,87559:0:0:0:0:
192,192,87371,128,0,87496:0:0:0:0:
64,192,87434,1,0,0:0:0:0:
448,192,87496,5,0,0:0:0:0:
192,192,87559,1,0,0:0:0:0:
64,192,87559,1,0,0:0:0:0:
192,192,87652,1,0,0:0:0:0:
320,192,87652,1,0,0:0:0:0:
320,192,87746,1,0,0:0:0:0:
64,192,87840,1,0,0:0:0:0:
192,192,87840,1,0,0:0:0:0:
448,192,87887,1,0,0:0:0:0:
64,192,87934,1,0,0:0:0:0:
192,192,87934,128,0,88121:0:0:0:0:
320,192,87934,128,0,88059:0:0:0:0:
448,192,88121,1,0,0:0:0:0:
320,192,88121,1,0,0:0:0:0:
192,192,88215,1,0,0:0:0:0:
320,192,88215,1,0,0:0:0:0:
64,192,88309,1,0,0:0:0:0:
448,192,88402,1,0,0:0:0:0:
64,192,88449,1,0,0:0:0:0:
192,192,88496,1,0,0:0:0:0:
448,192,88496,1,0,0:0:0:0:
192,192,88590,1,0,0:0:0:0:
64,192,88684,5,0,0:0:0:0:
448,192,88684,1,0,0:0:0:0:
320,192,88791,1,0,0:0:0:0:
64,192,88791,1,0,0:0:0:0:
64,192,88898,1,0,0:0:0:0:
192,192,88898,1,0,0:0:0:0:
448,192,88898,1,0,0:0:0:0:
192,192,89005,1,0,0:0:0:0:
448,192,89005,1,0,0:0:0:0:
64,192,89112,1,0,0:0:0:0:
320,192,89112,1,0,0:0:0:0:
448,192,89112,1,0,0:0:0:0:
192,192,89166,1,0,0:0:0:0:
64,192,89219,1,0,0:0:0:0:
320,192,89219,1,0,0:0:0:0:
192,192,89326,1,0,0:0:0:0:
320,192,89326,1,0,0:0:0:0:
192,192,89434,1,0,0:0:0:0:
64,192,89434,1,0,0:0:0:0:
448,192,89434,1,0,0:0:0:0:
320,192,89496,1,0,0:0:0:0:
64,192,89559,1,0,0:0:0:0:
448,192,89621,128,0,89809:0:0:0:0:
448,192,89902,1,0,0:0:0:0:
448,192,89996,1,0,0:0:0:0:
448,192,90090,1,0,0:0:0:0:
320,192,90184,1,0,0:0:0:0:
64,192,90184,1,0,0:0:0:0:
192,192,90184,128,0,95434:0:0:0:0:
320,192,95434,128,0,96090:0:0:0:0:
64,192,95902,128,0,96184:0:0:0:0:
192,192,96090,128,0,96184:0:0:0:0:
320,192,96184,1,0,0:0:0:0:
448,192,96184,1,0,0:0:0:0:
192,192,96371,1,0,0:0:0:0:
320,192,96559,1,0,0:0:0:0:
64,192,96559,1,0,0:0:0:0:
320,192,96746,1,0,0:0:0:0:
320,192,96934,1,0,0:0:0:0:
192,192,96934,1,0,0:0:0:0:
448,192,97121,1,0,0:0:0:0:
64,192,97309,1,0,0:0:0:0:
320,192,97309,1,0,0:0:0:0:
64,192,97496,1,0,0:0:0:0:
320,192,97684,1,0,0:0:0:0:
448,192,97684,1,0,0:0:0:0:
192,192,97871,1,0,0:0:0:0:
192,192,98059,1,0,0:0:0:0:
64,192,98059,1,0,0:0:0:0:
320,192,98246,1,0,0:0:0:0:
192,192,98434,1,0,0:0:0:0:
448,192,98434,1,0,0:0:0:0:
64,192,98621,1,0,0:0:0:0:
64,192,98809,1,0,0:0:0:0:
448,192,98809,1,0,0:0:0:0:
64,192,98996,1,0,0:0:0:0:
320,192,99184,1,0,0:0:0:0:
448,192,99184,1,0,0:0:0:0:
192,192,99371,1,0,0:0:0:0:
320,192,99559,1,0,0:0:0:0:
64,192,99559,1,0,0:0:0:0:
320,192,99746,1,0,0:0:0:0:
320,192,99934,1,0,0:0:0:0:
192,192,99934,1,0,0:0:0:0:
448,192,100121,1,0,0:0:0:0:
64,192,100309,1,0,0:0:0:0:
320,192,100309,1,0,0:0:0:0:
64,192,100496,1,0,0:0:0:0:
320,192,100684,1,0,0:0:0:0:
448,192,100684,1,0,0:0:0:0:
192,192,100871,1,0,0:0:0:0:
448,192,100871,1,0,0:0:0:0:
192,192,101059,1,0,0:0:0:0:
64,192,101059,1,0,0:0:0:0:
320,192,101246,1,0,0:0:0:0:
64,192,101246,1,0,0:0:0:0:
192,192,101434,1,0,0:0:0:0:
448,192,101434,1,0,0:0:0:0:
320,192,101434,1,0,0:0:0:0:
320,192,101527,1,0,0:0:0:0:
448,192,101527,1,0,0:0:0:0:
64,192,101621,1,0,0:0:0:0:
192,192,101621,1,0,0:0:0:0:
192,192,101715,1,0,0:0:0:0:
64,192,101715,1,0,0:0:0:0:
64,192,101809,1,0,0:0:0:0:
448,192,101809,1,0,0:0:0:0:
320,192,101809,1,0,0:0:0:0:
192,192,101902,1,0,0:0:0:0:
448,192,101902,1,0,0:0:0:0:
64,192,101996,1,0,0:0:0:0:
320,192,101996,1,0,0:0:0:0:
192,192,102090,1,0,0:0:0:0:
320,192,102090,1,0,0:0:0:0:
192,192,102184,1,0,0:0:0:0:
64,192,102184,1,0,0:0:0:0:
448,192,102184,1,0,0:0:0:0:
192,192,107434,132,0,107621:0:0:0:0:
320,192,107434,128,0,107715:0:0:0:0:
64,192,107621,1,0,0:0:0:0:
320,192,107809,128,0,107996:0:0:0:0:
64,192,107809,128,0,108090:0:0:0:0:
448,192,107996,1,0,0:0:0:0:
448,192,108184,128,0,108371:0:0:0:0:
64,192,108184,1,0,0:0:0:0:
320,192,108184,1,0,0:0:0:0:
192,192,108277,1,0,0:0:0:0:
192,192,108371,1,0,0:0:0:0:
320,192,108371,1,0,0:0:0:0:
64,192,108559,128,0,108746:0:0:0:0:
320,192,108559,1,0,0:0:0:0:
192,192,108559,1,0,0:0:0:0:
448,192,108652,1,0,0:0:0:0:
448,192,108746,1,0,0:0:0:0:
192,192,108746,1,0,0:0:0:0:
192,192,108934,1,0,0:0:0:0:
320,192,108934,128,0,109121:0:0:0:0:
448,192,108934,1,0,0:0:0:0:
64,192,109027,1,0,0:0:0:0:
64,192,109121,1,0,0:0:0:0:
448,192,109121,1,0,0:0:0:0:
192,192,109309,128,0,109496:0:0:0:0:
448,192,109309,1,0,0:0:0:0:
64,192,109309,1,0,0:0:0:0:
320,192,109402,1,0,0:0:0:0:
320,192,109496,1,0,0:0:0:0:
64,192,109496,1,0,0:0:0:0:
448,192,109684,128,0,109871:0:0:0:0:
64,192,109684,1,0,0:0:0:0:
320,192,109684,1,0,0:0:0:0:
192,192,109777,1,0,0:0:0:0:
192,192,109871,1,0,0:0:0:0:
320,192,109871,1,0,0:0:0:0:
64,192,110059,128,0,110246:0:0:0:0:
320,192,110059,1,0,0:0:0:0:
192,192,110059,1,0,0:0:0:0:
448,192,110152,1,0,0:0:0:0:
448,192,110246,1,0,0:0:0:0:
192,192,110246,1,0,0:0:0:0:
192,192,110434,1,0,0:0:0:0:
320,192,110434,128,0,110621:0:0:0:0:
448,192,110434,1,0,0:0:0:0:
64,192,110527,1,0,0:0:0:0:
64,192,110621,1,0,0:0:0:0:
448,192,110621,1,0,0:0:0:0:
192,192,110809,128,0,110996:0:0:0:0:
448,192,110809,1,0,0:0:0:0:
64,192,110809,1,0,0:0:0:0:
320,192,110902,1,0,0:0:0:0:
320,192,110996,1,0,0:0:0:0:
64,192,110996,1,0,0:0:0:0:
64,192,111184,1,0,0:0:0:0:
448,192,111184,128,0,111371:0:0:0:0:
320,192,111184,1,0,0:0:0:0:
64,192,111277,1,0,0:0:0:0:
192,192,111371,1,0,0:0:0:0:
320,192,111371,1,0,0:0:0:0:
320,192,111465,1,0,0:0:0:0:
64,192,111465,1,0,0:0:0:0:
448,192,111559,1,0,0:0:0:0:
64,192,111559,128,0,111746:0:0:0:0:
192,192,111559,1,0,0:0:0:0:
448,192,111652,1,0,0:0:0:0:
192,192,111746,1,0,0:0:0:0:
320,192,111746,1,0,0:0:0:0:
192,192,111840,1,0,0:0:0:0:
448,192,111840,1,0,0:0:0:0:
64,192,111934,1,0,0:0:0:0:
448,192,111934,128,0,112121:0:0:0:0:
320,192,111934,1,0,0:0:0:0:
64,192,112027,1,0,0:0:0:0:
192,192,112121,1,0,0:0:0:0:
320,192,112121,1,0,0:0:0:0:
320,192,112215,1,0,0:0:0:0:
64,192,112215,1,0,0:0:0:0:
448,192,112309,1,0,0:0:0:0:
64,192,112309,128,0,112496:0:0:0:0:
192,192,112309,1,0,0:0:0:0:
448,192,112402,1,0,0:0:0:0:
320,192,112496,1,0,0:0:0:0:
192,192,112496,1,0,0:0:0:0:
448,192,112543,1,0,0:0:0:0:
192,192,112590,1,0,0:0:0:0:
320,192,112637,1,0,0:0:0:0:
64,192,112684,1,0,0:0:0:0:
448,192,112684,1,0,0:0:0:0:
64,192,114184,128,0,114309:0:0:0:0:
192,192,114184,1,0,0:0:0:0:
448,192,114277,128,0,114371:0:0:0:0:
320,192,114371,128,0,114496:0:0:0:0:
64,192,114371,128,0,114559:0:0:0:0:
192,192,114559,128,0,114684:0:0:0:0:
320,192,114559,128,0,114746:0:0:0:0:
192,192,114746,1,0,0:0:0:0:
64,192,114840,1,0,0:0:0:0:
320,192,114887,1,0,0:0:0:0:
448,192,114934,128,0,115059:0:0:0:0:
64,192,114980,128,0,115121:0:0:0:0:
192,192,115121,128,0,115246:0:0:0:0:
448,192,115121,128,0,115309:0:0:0:0:
192,192,115309,128,0,115496:0:0:0:0:
320,192,115309,128,0,115434:0:0:0:0:
320,192,115496,1,0,0:0:0:0:
320,192,115590,1,0,0:0:0:0:
64,192,115684,128,0,115809:0:0:0:0:
448,192,115684,1,0,0:0:0:0:
64,192,115871,128,0,116059:0:0:0:0:
320,192,115871,128,0,115996:0:0:0:0:
192,192,116059,128,0,116184:0:0:0:0:
320,192,116059,128,0,116246:0:0:0:0:
192,192,116246,1,0,0:0:0:0:
64,192,116340,1,0,0:0:0:0:
320,192,116387,1,0,0:0:0:0:
448,192,116434,128,0,116559:0:0:0:0:
64,192,116480,128,0,116621:0:0:0:0:
192,192,116621,128,0,116746:0:0:0:0:
448,192,116621,128,0,116809:0:0:0:0:
192,192,116809,128,0,117184:0:0:0:0:
64,192,116855,128,0,117090:0:0:0:0:
320,192,116902,128,0,117043:0:0:0:0:
64,192,117184,1,0,0:0:0:0:
320,192,117184,1,0,0:0:0:0:
448,192,117184,1,0,0:0:0:0:
192,192,117246,128,0,117371:0:0:0:0:
320,192,117309,128,0,117434:0:0:0:0:
64,192,117371,128,0,117496:0:0:0:0:
448,192,117434,128,0,117559:0:0:0:0:
320,192,117496,128,0,117559:0:0:0:0:
192,192,117559,1,0,0:0:0:0:
64,192,117559,1,0,0:0:0:0:
448,192,117652,1,0,0:0:0:0:
64,192,117652,1,0,0:0:0:0:
448,192,117746,1,0,0:0:0:0:
192,192,117746,1,0,0:0:0:0:
320,192,117840,1,0,0:0:0:0:
192,192,117840,1,0,0:0:0:0:
64,192,117934,1,0,0:0:0:0:
320,192,117934,1,0,0:0:0:0:
448,192,117934,1,0,0:0:0:0:
64,192,118027,128,0,118184:0:0:0:0:
192,192,118121,128,0,118184:0:0:0:0:
320,192,118121,128,0,118184:0:0:0:0:
448,192,118309,1,0,0:0:0:0:
192,192,118309,128,0,118402:0:0:0:0:
64,192,118355,128,0,118496:0:0:0:0:
320,192,118402,128,0,118496:0:0:0:0:
448,192,118496,1,0,0:0:0:0:
192,192,118496,1,0,0:0:0:0:
192,192,118590,1,0,0:0:0:0:
320,192,118684,1,0,0:0:0:0:
448,192,118684,1,0,0:0:0:0:
64,192,118777,1,0,0:0:0:0:
448,192,118777,1,0,0:0:0:0:
320,192,118871,1,0,0:0:0:0:
64,192,118871,1,0,0:0:0:0:
192,192,118965,1,0,0:0:0:0:
320,192,118965,1,0,0:0:0:0:
448,192,119059,128,0,119152:0:0:0:0:
192,192,119059,128,0,119152:0:0:0:0:
64,192,119105,1,0,0:0:0:0:
320,192,119152,1,0,0:0:0:0:
64,192,119246,128,0,119340:0:0:0:0:
448,192,119246,128,0,119340:0:0:0:0:
320,192,119293,1,0,0:0:0:0:
192,192,119340,1,0,0:0:0:0:
64,192,119434,1,0,0:0:0:0:
448,192,119434,1,0,0:0:0:0:
320,192,119434,1,0,0:0:0:0:
64,192,119527,128,0,119684:0:0:0:0:
192,192,119621,128,0,119684:0:0:0:0:
320,192,119621,128,0,119684:0:0:0:0:
64,192,119809,1,0,0:0:0:0:
320,192,119809,1,0,0:0:0:0:
448,192,119840,1,0,0:0:0:0:
448,192,119996,1,0,0:0:0:0:
192,192,119996,1,0,0:0:0:0:
448,192,120090,1,0,0:0:0:0:
64,192,120184,1,0,0:0:0:0:
192,192,120184,1,0,0:0:0:0:
320,192,120184,1,0,0:0:0:0:
192,192,120277,1,0,0:0:0:0:
320,192,120371,1,0,0:0:0:0:
64,192,120371,1,0,0:0:0:0:
320,192,120465,1,0,0:0:0:0:
192,192,120465,1,0,0:0:0:0:
192,192,120559,1,0,0:0:0:0:
64,192,120596,1,0,0:0:0:0:
448,192,120634,1,0,0:0:0:0:
192,192,120671,1,0,0:0:0:0:
320,192,120709,1,0,0:0:0:0:
64,192,120746,1,0,0:0:0:0:
448,192,120746,1,0,0:0:0:0:
448,192,120840,1,0,0:0:0:0:
320,192,120934,1,0,0:0:0:0:
192,192,120934,1,0,0:0:0:0:
64,192,120934,1,0,0:0:0:0:
192,192,121121,1,0,0:0:0:0:
320,192,121159,1,0,0:0:0:0:
448,192,121196,1,0,0:0:0:0:
320,192,121234,1,0,0:0:0:0:
64,192,121309,1,0,0:0:0:0:
448,192,121340,1,0,0:0:0:0:
320,192,121371,1,0,0:0:0:0:
192,192,121402,1,0,0:0:0:0:
64,192,121434,1,0,0:0:0:0:
320,192,121496,1,0,0:0:0:0:
192,192,121534,1,0,0:0:0:0:
64,192,121571,1,0,0:0:0:0:
192,192,121609,1,0,0:0:0:0:
448,192,121684,1,0,0:0:0:0:
320,192,121684,1,0,0:0:0:0:
64,192,121777,1,0,0:0:0:0:
192,192,121871,1,0,0:0:0:0:
448,192,121871,1,0,0:0:0:0:
192,192,121965,1,0,0:0:0:0:
320,192,121965,1,0,0:0:0:0:
320,192,122059,1,0,0:0:0:0:
448,192,122096,1,0,0:0:0:0:
64,192,122134,1,0,0:0:0:0:
320,192,122171,1,0,0:0:0:0:
192,192,122209,1,0,0:0:0:0:
448,192,122246,1,0,0:0:0:0:
64,192,122246,1,0,0:0:0:0:
64,192,122340,1,0,0:0:0:0:
192,192,122434,1,0,0:0:0:0:
320,192,122434,1,0,0:0:0:0:
448,192,122434,1,0,0:0:0:0:
320,192,122621,1,0,0:0:0:0:
192,192,122659,1,0,0:0:0:0:
64,192,122696,1,0,0:0:0:0:
192,192,122734,1,0,0:0:0:0:
448,192,122809,1,0,0:0:0:0:
64,192,122840,1,0,0:0:0:0:
192,192,122871,1,0,0:0:0:0:
320,192,122902,1,0,0:0:0:0:
448,192,122934,1,0,0:0:0:0:
192,192,122996,1,0,0:0:0:0:
320,192,123034,1,0,0:0:0:0:
448,192,123071,1,0,0:0:0:0:
320,192,123109,1,0,0:0:0:0:
64,192,123184,1,0,0:0:0:0:
192,192,123184,1,0,0:0:0:0:
448,192,123277,128,0,123371:0:0:0:0:
320,192,123371,1,0,0:0:0:0:
64,192,123371,1,0,0:0:0:0:
64,192,123465,1,0,0:0:0:0:
192,192,123559,1,0,0:0:0:0:
320,192,123559,1,0,0:0:0:0:
192,192,123652,1,0,0:0:0:0:
320,192,123652,1,0,0:0:0:0:
448,192,123746,1,0,0:0:0:0:
192,192,123840,1,0,0:0:0:0:
64,192,123840,1,0,0:0:0:0:
448,192,123934,1,0,0:0:0:0:
320,192,123934,1,0,0:0:0:0:
192,192,123934,1,0,0:0:0:0:
64,192,124027,128,0,124121:0:0:0:0:
448,192,124121,1,0,0:0:0:0:
192,192,124121,1,0,0:0:0:0:
448,192,124215,1,0,0:0:0:0:
192,192,124309,1,0,0:0:0:0:
320,192,124309,1,0,0:0:0:0:
320,192,124402,1,0,0:0:0:0:
192,192,124402,1,0,0:0:0:0:
64,192,124496,1,0,0:0:0:0:
320,192,124590,1,0,0:0:0:0:
448,192,124590,1,0,0:0:0:0:
64,192,124684,1,0,0:0:0:0:
192,192,124684,1,0,0:0:0:0:
448,192,124777,128,0,124871:0:0:0:0:
64,192,124871,1,0,0:0:0:0:
320,192,124871,1,0,0:0:0:0:
64,192,124965,1,0,0:0:0:0:
320,192,125059,1,0,0:0:0:0:
192,192,125059,1,0,0:0:0:0:
192,192,125152,1,0,0:0:0:0:
320,192,125152,1,0,0:0:0:0:
448,192,125246,1,0,0:0:0:0:
192,192,125340,1,0,0:0:0:0:
64,192,125340,1,0,0:0:0:0:
448,192,125434,1,0,0:0:0:0:
192,192,125434,1,0,0:0:0:0:
320,192,125434,1,0,0:0:0:0:
64,192,125496,1,0,0:0:0:0:
192,192,125559,128,0,125621:0:0:0:0:
448,192,125559,128,0,125621:0:0:0:0:
320,192,125621,1,0,0:0:0:0:
64,192,125684,128,0,125746:0:0:0:0:
448,192,125684,128,0,125746:0:0:0:0:
192,192,125746,1,0,0:0:0:0:
320,192,125809,128,0,125902:0:0:0:0:
64,192,125809,128,0,125934:0:0:0:0:
192,192,125996,128,0,126090:0:0:0:0:
320,192,125996,128,0,126121:0:0:0:0:
64,192,126184,128,0,126309:0:0:0:0:
192,192,126184,1,0,0:0:0:0:
448,192,126277,128,0,126371:0:0:0:0:
320,192,126371,128,0,126496:0:0:0:0:
64,192,126371,128,0,126559:0:0:0:0:
192,192,126559,128,0,126684:0:0:0:0:
320,192,126559,128,0,126746:0:0:0:0:
192,192,126746,1,0,0:0:0:0:
64,192,126840,1,0,0:0:0:0:
320,192,126887,1,0,0:0:0:0:
448,192,126934,128,0,127059:0:0:0:0:
64,192,126980,128,0,127121:0:0:0:0:
192,192,127121,128,0,127246:0:0:0:0:
448,192,127121,128,0,127309:0:0:0:0:
192,192,127309,128,0,127496:0:0:0:0:
320,192,127309,128,0,127434:0:0:0:0:
320,192,127496,1,0,0:0:0:0:
320,192,127590,1,0,0:0:0:0:
64,192,127684,128,0,127809:0:0:0:0:
448,192,127684,1,0,0:0:0:0:
64,192,127871,128,0,128059:0:0:0:0:
320,192,127871,128,0,127996:0:0:0:0:
192,192,128059,128,0,128184:0:0:0:0:
320,192,128059,128,0,128246:0:0:0:0:
192,192,128246,1,0,0:0:0:0:
64,192,128340,1,0,0:0:0:0:
320,192,128387,1,0,0:0:0:0:
448,192,128434,128,0,128559:0:0:0:0:
64,192,128480,128,0,128621:0:0:0:0:
192,192,128621,128,0,128746:0:0:0:0:
448,192,128621,128,0,128809:0:0:0:0:
192,192,128809,128,0,128902:0:0:0:0:
64,192,128902,1,0,0:0:0:0:
320,192,128996,1,0,0:0:0:0:
64,192,129184,1,0,0:0:0:0:
192,192,129184,1,0,0:0:0:0:
448,192,129230,1,0,0:0:0:0:
64,192,129277,1,0,0:0:0:0:
192,192,129324,1,0,0:0:0:0:
320,192,129371,1,0,0:0:0:0:
64,192,129434,1,0,0:0:0:0:
320,192,129496,1,0,0:0:0:0:
192,192,129559,1,0,0:0:0:0:
448,192,129600,1,0,0:0:0:0:
320,192,129642,1,0,0:0:0:0:
64,192,129684,1,0,0:0:0:0:
448,192,129725,1,0,0:0:0:0:
192,192,129767,1,0,0:0:0:0:
320,192,129809,1,0,0:0:0:0:
64,192,129850,1,0,0:0:0:0:
192,192,129892,1,0,0:0:0:0:
448,192,129934,128,0,129996:0:0:0:0:
320,192,129934,128,0,130215:0:0:0:0:
64,192,129996,128,0,130121:0:0:0:0:
448,192,130059,128,0,130309:0:0:0:0:
192,192,130121,128,0,130184:0:0:0:0:
64,192,130184,128,0,130246:0:0:0:0:
192,192,130246,128,0,130309:0:0:0:0:
320,192,130309,1,0,0:0:0:0:
64,192,130350,1,0,0:0:0:0:
192,192,130392,1,0,0:0:0:0:
448,192,130434,1,0,0:0:0:0:
64,192,130475,1,0,0:0:0:0:
320,192,130517,1,0,0:0:0:0:
192,192,130559,1,0,0:0:0:0:
448,192,130600,1,0,0:0:0:0:
320,192,130642,1,0,0:0:0:0:
64,192,130684,128,0,130746:0:0:0:0:
192,192,130684,128,0,130965:0:0:0:0:
448,192,130746,128,0,130871:0:0:0:0:
64,192,130809,128,0,131059:0:0:0:0:
320,192,130871,128,0,130934:0:0:0:0:
448,192,130934,128,0,130996:0:0:0:0:
320,192,130996,128,0,131059:0:0:0:0:
192,192,131059,1,0,0:0:0:0:
448,192,131100,1,0,0:0:0:0:
320,192,131142,1,0,0:0:0:0:
64,192,131184,1,0,0:0:0:0:
448,192,131225,1,0,0:0:0:0:
192,192,131267,1,0,0:0:0:0:
320,192,131309,1,0,0:0:0:0:
64,192,131350,1,0,0:0:0:0:
192,192,131392,1,0,0:0:0:0:
448,192,131434,1,0,0:0:0:0:
320,192,131434,128,0,131621:0:0:0:0:
64,192,131480,1,0,0:0:0:0:
192,192,131527,1,0,0:0:0:0:
448,192,131574,1,0,0:0:0:0:
64,192,131621,128,0,131809:0:0:0:0:
320,192,131684,1,0,0:0:0:0:
192,192,131746,1,0,0:0:0:0:
320,192,131809,128,0,131871:0:0:0:0:
192,192,131996,1,0,0:0:0:0:
448,192,132027,1,0,0:0:0:0:
320,192,132059,1,0,0:0:0:0:
64,192,132090,1,0,0:0:0:0:
192,192,132137,1,0,0:0:0:0:
448,192,132184,1,0,0:0:0:0:
320,192,132184,1,0,0:0:0:0:
64,192,132230,1,0,0:0:0:0:
448,192,132277,1,0,0:0:0:0:
320,192,132324,1,0,0:0:0:0:
192,192,132371,1,0,0:0:0:0:
448,192,132434,1,0,0:0:0:0:
192,192,132496,1,0,0:0:0:0:
320,192,132559,1,0,0:0:0:0:
64,192,132600,1,0,0:0:0:0:
192,192,132642,1,0,0:0:0:0:
448,192,132684,1,0,0:0:0:0:
64,192,132725,1,0,0:0:0:0:
320,192,132767,1,0,0:0:0:0:
192,192,132809,1,0,0:0:0:0:
448,192,132850,1,0,0:0:0:0:
320,192,132892,1,0,0:0:0:0:
64,192,132934,128,0,132996:0:0:0:0:
192,192,132934,128,0,133215:0:0:0:0:
448,192,132996,128,0,133121:0:0:0:0:
64,192,133059,128,0,133309:0:0:0:0:
320,192,133121,128,0,133184:0:0:0:0:
448,192,133184,128,0,133246:0:0:0:0:
320,192,133246,128,0,133309:0:0:0:0:
192,192,133309,1,0,0:0:0:0:
448,192,133350,1,0,0:0:0:0:
320,192,133392,1,0,0:0:0:0:
64,192,133434,1,0,0:0:0:0:
448,192,133475,1,0,0:0:0:0:
192,192,133517,1,0,0:0:0:0:
320,192,133559,1,0,0:0:0:0:
64,192,133600,1,0,0:0:0:0:
192,192,133642,1,0,0:0:0:0:
448,192,133684,128,0,133746:0:0:0:0:
320,192,133684,128,0,133965:0:0:0:0:
64,192,133746,128,0,133871:0:0:0:0:
448,192,133809,128,0,134059:0:0:0:0:
192,192,133871,128,0,133934:0:0:0:0:
64,192,133934,128,0,133996:0:0:0:0:
192,192,133996,128,0,134059:0:0:0:0:
320,192,134059,1,0,0:0:0:0:
64,192,134100,1,0,0:0:0:0:
192,192,134142,1,0,0:0:0:0:
448,192,134184,1,0,0:0:0:0:
64,192,134225,1,0,0:0:0:0:
320,192,134267,1,0,0:0:0:0:
192,192,134309,1,0,0:0:0:0:
448,192,134350,1,0,0:0:0:0:
320,192,134392,1,0,0:0:0:0:
64,192,134434,1,0,0:0:0:0:
192,192,134434,1,0,0:0:0:0:
448,192,134480,1,0,0:0:0:0:
320,192,134527,1,0,0:0:0:0:
64,192,134574,1,0,0:0:0:0:
448,192,134621,128,0,134684:0:0:0:0:
192,192,134652,128,0,134746:0:0:0:0:
64,192,134684,128,0,134809:0:0:0:0:
320,192,134809,1,0,0:0:0:0:
192,192,134855,1,0,0:0:0:0:
320,192,134902,1,0,0:0:0:0:
64,192,134996,1,0,0:0:0:0:
192,192,135027,1,0,0:0:0:0:
448,192,135059,1,0,0:0:0:0:
320,192,135090,1,0,0:0:0:0:
192,192,135137,1,0,0:0:0:0:
64,192,135184,1,0,0:0:0:0:
448,192,135184,1,0,0:0:0:0:
192,192,135277,1,0,0:0:0:0:
320,192,135277,1,0,0:0:0:0:
192,192,135371,1,0,0:0:0:0:
320,192,135371,1,0,0:0:0:0:
448,192,135559,1,0,0:0:0:0:
192,192,135559,1,0,0:0:0:0:
64,192,135605,1,0,0:0:0:0:
448,192,135652,1,0,0:0:0:0:
320,192,135746,1,0,0:0:0:0:
192,192,135746,1,0,0:0:0:0:
448,192,135793,1,0,0:0:0:0:
192,192,135840,1,0,0:0:0:0:
448,192,135934,1,0,0:0:0:0:
64,192,135934,1,0,0:0:0:0:
320,192,135934,1,0,0:0:0:0:
320,192,136027,1,0,0:0:0:0:
192,192,136027,1,0,0:0:0:0:
320,192,136121,1,0,0:0:0:0:
192,192,136121,1,0,0:0:0:0:
64,192,136309,1,0,0:0:0:0:
320,192,136309,1,0,0:0:0:0:
448,192,136355,1,0,0:0:0:0:
64,192,136402,1,0,0:0:0:0:
192,192,136496,1,0,0:0:0:0:
320,192,136496,1,0,0:0:0:0:
64,192,136543,1,0,0:0:0:0:
320,192,136590,1,0,0:0:0:0:
64,192,136684,1,0,0:0:0:0:
448,192,136684,1,0,0:0:0:0:
192,192,136777,1,0,0:0:0:0:
320,192,136777,1,0,0:0:0:0:
192,192,136871,1,0,0:0:0:0:
320,192,136871,1,0,0:0:0:0:
320,192,137059,1,0,0:0:0:0:
448,192,137059,1,0,0:0:0:0:
64,192,137105,1,0,0:0:0:0:
448,192,137152,1,0,0:0:0:0:
192,192,137246,1,0,0:0:0:0:
320,192,137246,1,0,0:0:0:0:
448,192,137293,1,0,0:0:0:0:
192,192,137340,1,0,0:0:0:0:
320,192,137434,1,0,0:0:0:0:
448,192,137434,1,0,0:0:0:0:
64,192,137434,128,0,137559:0:0:0:0:
192,192,137496,128,0,137621:0:0:0:0:
320,192,137559,128,0,137621:0:0:0:0:
448,192,137621,1,0,0:0:0:0:
64,192,137621,1,0,0:0:0:0:
64,192,137809,1,0,0:0:0:0:
192,192,137809,1,0,0:0:0:0:
448,192,137809,128,0,137934:0:0:0:0:
320,192,137871,128,0,137996:0:0:0:0:
192,192,137934,128,0,137996:0:0:0:0:
448,192,137996,1,0,0:0:0:0:
64,192,137996,1,0,0:0:0:0:
192,192,138090,1,0,0:0:0:0:
320,192,138184,1,0,0:0:0:0:
64,192,138184,1,0,0:0:0:0:
448,192,138184,1,0,0:0:0:0:
64,192,138559,1,0,0:0:0:0:
64,192,138934,1,0,0:0:0:0:
64,192,139309,1,0,0:0:0:0:
64,192,139684,1,0,0:0:0:0:
64,192,140059,1,0,0:0:0:0:
64,192,140434,1,0,0:0:0:0:
64,192,140809,1,0,0:0:0:0:
64,192,141184,1,0,0:0:0:0:
64,192,141559,1,0,0:0:0:0:
64,192,141934,1,0,0:0:0:0:
64,192,142309,1,0,0:0:0:0:
64,192,142684,1,0,0:0:0:0:
64,192,143059,1,0,0:0:0:0:
64,192,143434,1,0,0:0:0:0:
64,192,143809,1,0,0:0:0:0:
448,192,143809,1,0,0:0:0:0:
448,192,143996,1,0,0:0:0:0:
192,192,143996,1,0,0:0:0:0:
192,192,144090,1,0,0:0:0:0:
320,192,144090,1,0,0:0:0:0:
64,192,144184,1,0,0:0:0:0:
448,192,144184,1,0,0:0:0:0:
320,192,144184,1,0,0:0:0:0:
64,192,144559,1,0,0:0:0:0:
64,192,144934,1,0,0:0:0:0:
64,192,145309,1,0,0:0:0:0:
64,192,145684,1,0,0:0:0:0:
64,192,146059,1,0,0:0:0:0:
64,192,146434,1,0,0:0:0:0:
64,192,146809,1,0,0:0:0:0:
64,192,147184,1,0,0:0:0:0:
64,192,147559,1,0,0:0:0:0:
64,192,147934,1,0,0:0:0:0:
64,192,148309,1,0,0:0:0:0:
192,192,148871,128,0,149012:0:0:0:0:
64,192,148918,128,0,149105:0:0:0:0:
448,192,148965,128,0,149105:0:0:0:0:
192,192,149105,128,0,149199:0:0:0:0:
320,192,149152,128,0,149246:0:0:0:0:
448,192,149199,128,0,149293:0:0:0:0:
64,192,149246,128,0,149434:0:0:0:0:
320,192,149340,1,0,0:0:0:0:
192,192,149387,1,0,0:0:0:0:
448,192,149434,1,0,0:0:0:0:
320,192,149480,128,0,149574:0:0:0:0:
64,192,149527,1,0,0:0:0:0:
192,192,149574,128,0,149668:0:0:0:0:
448,192,149621,1,0,0:0:0:0:
64,192,149668,128,0,149902:0:0:0:0:
320,192,149715,1,0,0:0:0:0:
192,192,149762,128,0,149996:0:0:0:0:
448,192,149809,128,0,149871:0:0:0:0:
320,192,149871,128,0,150090:0:0:0:0:
448,192,149934,128,0,150090:0:0:0:0:
64,192,149996,128,0,150059:0:0:0:0:
192,192,150059,128,0,150121:0:0:0:0:
64,192,150121,128,0,150184:0:0:0:0:
192,192,150184,1,0,0:0:0:0:
320,192,150184,128,0,150496:0:0:0:0:
448,192,150184,128,0,150496:0:0:0:0:
192,192,150371,1,0,0:0:0:0:
64,192,150559,1,0,0:0:0:0:
448,192,150559,128,0,150684:0:0:0:0:
320,192,150559,128,0,150684:0:0:0:0:
64,192,150746,1,0,0:0:0:0:
320,192,150746,128,0,150871:0:0:0:0:
448,192,150746,128,0,150871:0:0:0:0:
64,192,150934,128,0,151059:0:0:0:0:
192,192,150934,128,0,151059:0:0:0:0:
448,192,150934,1,0,0:0:0:0:
192,192,151121,128,0,151246:0:0:0:0:
320,192,151121,1,0,0:0:0:0:
448,192,151121,128,0,151246:0:0:0:0:
320,192,151309,1,0,0:0:0:0:
448,192,151309,1,0,0:0:0:0:
64,192,151309,1,0,0:0:0:0:
320,192,151402,128,0,151621:0:0:0:0:
192,192,151402,128,0,151621:0:0:0:0:
64,192,151496,1,0,0:0:0:0:
448,192,151496,1,0,0:0:0:0:
192,192,151684,128,0,151809:0:0:0:0:
64,192,151684,128,0,151809:0:0:0:0:
320,192,151684,1,0,0:0:0:0:
192,192,151871,128,0,151996:0:0:0:0:
320,192,151871,1,0,0:0:0:0:
64,192,151871,128,0,151996:0:0:0:0:
64,192,152059,128,0,152184:0:0:0:0:
192,192,152059,1,0,0:0:0:0:
448,192,152059,128,0,152184:0:0:0:0:
320,192,152246,128,0,152559:0:0:0:0:
448,192,152246,128,0,152559:0:0:0:0:
192,192,152246,1,0,0:0:0:0:
64,192,152434,1,0,0:0:0:0:
192,192,152434,1,0,0:0:0:0:
64,192,152621,128,0,152746:0:0:0:0:
320,192,152621,128,0,152746:0:0:0:0:
448,192,152621,1,0,0:0:0:0:
192,192,152809,1,0,0:0:0:0:
64,192,152809,1,0,0:0:0:0:
448,192,152809,1,0,0:0:0:0:
320,192,152902,128,0,153090:0:0:0:0:
64,192,152902,128,0,153027:0:0:0:0:
448,192,152996,1,0,0:0:0:0:
192,192,153090,1,0,0:0:0:0:
64,192,153090,1,0,0:0:0:0:
320,192,153184,128,0,153496:0:0:0:0:
448,192,153184,128,0,153496:0:0:0:0:
192,192,153184,1,0,0:0:0:0:
192,192,153371,1,0,0:0:0:0:
64,192,153559,1,0,0:0:0:0:
448,192,153559,128,0,153684:0:0:0:0:
320,192,153559,128,0,153684:0:0:0:0:
64,192,153746,1,0,0:0:0:0:
320,192,153746,128,0,153871:0:0:0:0:
448,192,153746,128,0,153871:0:0:0:0:
64,192,153934,128,0,154059:0:0:0:0:
192,192,153934,128,0,154059:0:0:0:0:
448,192,153934,1,0,0:0:0:0:
192,192,154121,128,0,154246:0:0:0:0:
320,192,154121,1,0,0:0:0:0:
448,192,154121,128,0,154246:0:0:0:0:
320,192,154309,1,0,0:0:0:0:
448,192,154309,1,0,0:0:0:0:
64,192,154309,1,0,0:0:0:0:
320,192,154402,128,0,154621:0:0:0:0:
192,192,154402,128,0,154621:0:0:0:0:
64,192,154496,1,0,0:0:0:0:
448,192,154496,1,0,0:0:0:0:
192,192,154684,128,0,154809:0:0:0:0:
64,192,154684,128,0,154809:0:0:0:0:
320,192,154684,1,0,0:0:0:0:
192,192,154871,128,0,154996:0:0:0:0:
320,192,154871,1,0,0:0:0:0:
64,192,154871,128,0,154996:0:0:0:0:
64,192,155059,128,0,155184:0:0:0:0:
192,192,155059,1,0,0:0:0:0:
448,192,155059,128,0,155184:0:0:0:0:
320,192,155246,128,0,155559:0:0:0:0:
448,192,155246,128,0,155559:0:0:0:0:
192,192,155246,1,0,0:0:0:0:
64,192,155434,1,0,0:0:0:0:
192,192,155434,1,0,0:0:0:0:
64,192,155621,128,0,155746:0:0:0:0:
320,192,155621,128,0,155746:0:0:0:0:
448,192,155621,1,0,0:0:0:0:
192,192,155809,1,0,0:0:0:0:
64,192,155809,1,0,0:0:0:0:
448,192,155809,1,0,0:0:0:0:
320,192,155902,128,0,156090:0:0:0:0:
64,192,155902,128,0,156027:0:0:0:0:
448,192,155996,1,0,0:0:0:0:
192,192,156090,1,0,0:0:0:0:
64,192,156090,1,0,0:0:0:0:
320,192,156184,1,0,0:0:0:0:
448,192,156184,1,0,0:0:0:0:
192,192,156184,128,0,156277:0:0:0:0:
64,192,156277,1,0,0:0:0:0:
448,192,156277,1,0,0:0:0:0:
320,192,156371,1,0,0:0:0:0:
192,192,156371,128,0,156465:0:0:0:0:
64,192,156559,1,0,0:0:0:0:
192,192,156559,1,0,0:0:0:0:
448,192,156559,128,0,156652:0:0:0:0:
64,192,156652,1,0,0:0:0:0:
320,192,156652,1,0,0:0:0:0:
192,192,156746,1,0,0:0:0:0:
448,192,156746,128,0,156840:0:0:0:0:
320,192,156934,1,0,0:0:0:0:
448,192,156934,1,0,0:0:0:0:
64,192,156934,128,0,157027:0:0:0:0:
192,192,157027,1,0,0:0:0:0:
320,192,157027,1,0,0:0:0:0:
448,192,157121,1,0,0:0:0:0:
64,192,157121,128,0,157215:0:0:0:0:
64,192,157309,1,0,0:0:0:0:
192,192,157309,1,0,0:0:0:0:
320,192,157309,128,0,157402:0:0:0:0:
192,192,157402,1,0,0:0:0:0:
448,192,157402,1,0,0:0:0:0:
64,192,157496,1,0,0:0:0:0:
320,192,157496,128,0,157590:0:0:0:0:
320,192,157684,1,0,0:0:0:0:
448,192,157684,1,0,0:0:0:0:
192,192,157684,128,0,157777:0:0:0:0:
64,192,157777,1,0,0:0:0:0:
448,192,157777,1,0,0:0:0:0:
320,192,157871,1,0,0:0:0:0:
192,192,157871,128,0,157965:0:0:0:0:
64,192,158059,1,0,0:0:0:0:
192,192,158059,1,0,0:0:0:0:
448,192,158059,128,0,158152:0:0:0:0:
64,192,158152,1,0,0:0:0:0:
320,192,158152,1,0,0:0:0:0:
192,192,158246,1,0,0:0:0:0:
448,192,158246,128,0,158340:0:0:0:0:
320,192,158434,1,0,0:0:0:0:
448,192,158434,1,0,0:0:0:0:
64,192,158434,128,0,158527:0:0:0:0:
192,192,158527,1,0,0:0:0:0:
320,192,158527,1,0,0:0:0:0:
448,192,158621,1,0,0:0:0:0:
64,192,158621,128,0,158715:0:0:0:0:
64,192,158809,1,0,0:0:0:0:
192,192,158809,1,0,0:0:0:0:
320,192,158809,128,0,158902:0:0:0:0:
192,192,158902,1,0,0:0:0:0:
448,192,158902,1,0,0:0:0:0:
64,192,158996,1,0,0:0:0:0:
320,192,158996,128,0,159090:0:0:0:0:
448,192,159184,1,0,0:0:0:0:
320,192,159184,1,0,0:0:0:0:
192,192,159184,1,0,0:0:0:0:
192,192,159277,1,0,0:0:0:0:
448,192,159277,1,0,0:0:0:0:
64,192,159371,1,0,0:0:0:0:
320,192,159371,1,0,0:0:0:0:
320,192,159465,1,0,0:0:0:0:
192,192,159465,1,0,0:0:0:0:
448,192,159559,1,0,0:0:0:0:
64,192,159559,1,0,0:0:0:0:
448,192,159652,1,0,0:0:0:0:
64,192,159652,1,0,0:0:0:0:
320,192,159746,1,0,0:0:0:0:
192,192,159746,1,0,0:0:0:0:
192,192,159840,1,0,0:0:0:0:
64,192,159934,1,0,0:0:0:0:
448,192,159934,1,0,0:0:0:0:
320,192,159934,1,0,0:0:0:0:
64,192,160027,1,0,0:0:0:0:
320,192,160027,1,0,0:0:0:0:
192,192,160121,1,0,0:0:0:0:
448,192,160121,1,0,0:0:0:0:
448,192,160215,1,0,0:0:0:0:
64,192,160215,1,0,0:0:0:0:
192,192,160309,1,0,0:0:0:0:
320,192,160309,1,0,0:0:0:0:
192,192,160402,1,0,0:0:0:0:
320,192,160402,1,0,0:0:0:0:
64,192,160496,1,0,0:0:0:0:
448,192,160496,1,0,0:0:0:0:
64,192,160590,1,0,0:0:0:0:
448,192,160684,1,0,0:0:0:0:
320,192,160684,1,0,0:0:0:0:
192,192,160730,1,0,0:0:0:0:
448,192,160777,1,0,0:0:0:0:
64,192,160824,1,0,0:0:0:0:
192,192,160871,1,0,0:0:0:0:
320,192,160918,1,0,0:0:0:0:
192,192,160965,1,0,0:0:0:0:
448,192,161012,1,0,0:0:0:0:
320,192,161059,1,0,0:0:0:0:
64,192,161105,1,0,0:0:0:0:
320,192,161152,1,0,0:0:0:0:
192,192,161199,1,0,0:0:0:0:
64,192,161246,1,0,0:0:0:0:
448,192,161293,1,0,0:0:0:0:
64,192,161340,1,0,0:0:0:0:
320,192,161387,1,0,0:0:0:0:
192,192,161434,1,0,0:0:0:0:
448,192,161434,1,0,0:0:0:0:
64,192,161480,1,0,0:0:0:0:
320,192,161527,1,0,0:0:0:0:
192,192,161574,1,0,0:0:0:0:
448,192,161621,1,0,0:0:0:0:
64,192,161668,1,0,0:0:0:0:
192,192,161715,1,0,0:0:0:0:
320,192,161762,1,0,0:0:0:0:
64,192,161809,1,0,0:0:0:0:
448,192,161855,1,0,0:0:0:0:
192,192,161902,1,0,0:0:0:0:
320,192,161949,1,0,0:0:0:0:
64,192,161996,1,0,0:0:0:0:
448,192,162043,1,0,0:0:0:0:
320,192,162090,1,0,0:0:0:0:
192,192,162137,1,0,0:0:0:0:
448,192,162184,1,0,0:0:0:0:
64,192,162184,1,0,0:0:0:0:
64,192,162371,1,0,0:0:0:0:
448,192,162371,1,0,0:0:0:0:
448,192,162559,1,0,0:0:0:0:
64,192,162559,1,0,0:0:0:0:
448,192,162746,1,0,0:0:0:0:
320,192,162746,1,0,0:0:0:0:
192,192,162840,1,0,0:0:0:0:
448,192,162840,1,0,0:0:0:0:
64,192,163027,1,0,0:0:0:0:
192,192,163027,1,0,0:0:0:0:
64,192,163121,1,0,0:0:0:0:
448,192,163121,1,0,0:0:0:0:
64,192,163309,1,0,0:0:0:0:
448,192,163309,1,0,0:0:0:0:
64,192,163684,1,0,0:0:0:0:
448,192,163684,1,0,0:0:0:0:
64,192,163871,1,0,0:0:0:0:
448,192,163871,1,0,0:0:0:0:
192,192,164059,1,0,0:0:0:0:
448,192,164059,1,0,0:0:0:0:
192,192,164246,1,0,0:0:0:0:
320,192,164246,1,0,0:0:0:0:
320,192,164340,1,0,0:0:0:0:
192,192,164340,1,0,0:0:0:0:
64,192,164434,1,0,0:0:0:0:
448,192,164434,1,0,0:0:0:0:
64,192,164621,1,0,0:0:0:0:
320,192,164621,128,0,164746:0:0:0:0:
448,192,164621,128,0,164746:0:0:0:0:
192,192,164809,1,0,0:0:0:0:
320,192,164809,1,0,0:0:0:0:
448,192,164892,1,0,0:0:0:0:
64,192,164934,1,0,0:0:0:0:
192,192,164975,1,0,0:0:0:0:
448,192,165017,1,0,0:0:0:0:
64,192,165059,1,0,0:0:0:0:
320,192,165100,1,0,0:0:0:0:
192,192,165142,1,0,0:0:0:0:
320,192,165184,1,0,0:0:0:0:
448,192,165184,1,0,0:0:0:0:
64,192,165184,128,0,165277:0:0:0:0:
448,192,165277,1,0,0:0:0:0:
64,192,165371,1,0,0:0:0:0:
320,192,165465,1,0,0:0:0:0:
192,192,165559,1,0,0:0:0:0:
64,192,165559,1,0,0:0:0:0:
448,192,165559,128,0,165652:0:0:0:0:
192,192,165652,1,0,0:0:0:0:
448,192,165746,1,0,0:0:0:0:
64,192,165840,1,0,0:0:0:0:
320,192,165934,1,0,0:0:0:0:
448,192,165934,1,0,0:0:0:0:
192,192,165934,128,0,166027:0:0:0:0:
320,192,166027,1,0,0:0:0:0:
192,192,166121,1,0,0:0:0:0:
448,192,166215,1,0,0:0:0:0:
192,192,166309,1,0,0:0:0:0:
64,192,166309,1,0,0:0:0:0:
320,192,166309,128,0,166402:0:0:0:0:
64,192,166402,1,0,0:0:0:0:
320,192,166496,1,0,0:0:0:0:
192,192,166590,1,0,0:0:0:0:
64,192,166684,128,0,166965:0:0:0:0:
320,192,166684,128,0,166871:0:0:0:0:
320,192,166965,1,0,0:0:0:0:
192,192,167012,1,0,0:0:0:0:
64,192,167059,1,0,0:0:0:0:
448,192,167105,1,0,0:0:0:0:
64,192,167152,1,0,0:0:0:0:
320,192,167199,1,0,0:0:0:0:
192,192,167246,1,0,0:0:0:0:
320,192,167293,1,0,0:0:0:0:
64,192,167340,1,0,0:0:0:0:
448,192,167387,1,0,0:0:0:0:
192,192,167434,128,0,167559:0:0:0:0:
64,192,167496,128,0,167621:0:0:0:0:
320,192,167559,1,0,0:0:0:0:
192,192,167621,1,0,0:0:0:0:
320,192,167809,128,0,167934:0:0:0:0:
448,192,167871,128,0,167996:0:0:0:0:
192,192,167934,1,0,0:0:0:0:
320,192,167996,1,0,0:0:0:0:
448,192,168059,1,0,0:0:0:0:
192,192,168121,1,0,0:0:0:0:
320,192,168184,128,0,168496:0:0:0:0:
64,192,168184,128,0,168246:0:0:0:0:
448,192,168184,128,0,168277:0:0:0:0:
320,192,168559,128,0,168871:0:0:0:0:
64,192,168559,128,0,168621:0:0:0:0:
448,192,168559,128,0,168652:0:0:0:0:
448,192,168934,128,0,169027:0:0:0:0:
64,192,168934,128,0,168996:0:0:0:0:
320,192,168934,128,0,169246:0:0:0:0:
320,192,169309,128,0,169527:0:0:0:0:
64,192,169309,128,0,169371:0:0:0:0:
448,192,169309,128,0,169402:0:0:0:0:
320,192,169590,1,0,0:0:0:0:
448,192,169590,1,0,0:0:0:0:
64,192,169684,128,0,169777:0:0:0:0:
448,192,169684,128,0,169746:0:0:0:0:
192,192,169684,128,0,169996:0:0:0:0:
64,192,170059,128,0,170152:0:0:0:0:
192,192,170059,128,0,170277:0:0:0:0:
448,192,170059,128,0,170121:0:0:0:0:
64,192,170340,1,0,0:0:0:0:
192,192,170340,1,0,0:0:0:0:
320,192,170387,1,0,0:0:0:0:
448,192,170434,128,0,170621:0:0:0:0:
64,192,170434,128,0,170559:0:0:0:0:
192,192,170496,128,0,170621:0:0:0:0:
320,192,170559,128,0,170621:0:0:0:0:
64,192,170621,1,0,0:0:0:0:
64,192,170715,1,0,0:0:0:0:
448,192,170809,1,0,0:0:0:0:
320,192,170809,128,0,170902:0:0:0:0:
192,192,170855,128,0,170926:0:0:0:0:
448,192,170996,1,0,0:0:0:0:
64,192,171043,1,0,0:0:0:0:
320,192,171090,1,0,0:0:0:0:
192,192,171137,1,0,0:0:0:0:
320,192,171184,128,0,171496:0:0:0:0:
64,192,171184,128,0,171246:0:0:0:0:
448,192,171184,128,0,171277:0:0:0:0:
320,192,171559,128,0,171777:0:0:0:0:
64,192,171559,128,0,171621:0:0:0:0:
448,192,171559,128,0,171652:0:0:0:0:
320,192,171840,1,0,0:0:0:0:
448,192,171840,1,0,0:0:0:0:
192,192,171887,1,0,0:0:0:0:
448,192,171934,128,0,171996:0:0:0:0:
64,192,171934,128,0,171996:0:0:0:0:
64,192,172121,128,0,172184:0:0:0:0:
448,192,172121,128,0,172184:0:0:0:0:
64,192,172309,128,0,172434:0:0:0:0:
192,192,172309,128,0,172434:0:0:0:0:
320,192,172309,1,0,0:0:0:0:
320,192,172496,1,0,0:0:0:0:
192,192,172496,1,0,0:0:0:0:
448,192,172559,1,0,0:0:0:0:
192,192,172621,1,0,0:0:0:0:
448,192,172684,128,0,172754:0:0:0:0:
64,192,172684,128,0,172801:0:0:0:0:
320,192,172730,128,0,172894:0:0:0:0:
192,192,172777,128,0,172848:0:0:0:0:
448,192,172824,128,0,172941:0:0:0:0:
64,192,172871,128,0,172988:0:0:0:0:
192,192,172918,128,0,173082:0:0:0:0:
320,192,172965,128,0,173035:0:0:0:0:
448,192,173012,128,0,173176:0:0:0:0:
64,192,173059,128,0,173129:0:0:0:0:
320,192,173105,128,0,173223:0:0:0:0:
192,192,173152,128,0,173269:0:0:0:0:
64,192,173199,128,0,173363:0:0:0:0:
448,192,173246,128,0,173316:0:0:0:0:
320,192,173293,128,0,173387:0:0:0:0:
192,192,173340,128,0,173434:0:0:0:0:
448,192,173387,1,0,0:0:0:0:
64,192,173434,1,0,0:0:0:0:
320,192,173527,1,0,0:0:0:0:
320,192,173621,1,0,0:0:0:0:
64,192,173715,1,0,0:0:0:0:
192,192,173809,1,0,0:0:0:0:
320,192,173809,1,0,0:0:0:0:
64,192,173996,1,0,0:0:0:0:
64,192,174090,1,0,0:0:0:0:
320,192,174184,1,0,0:0:0:0:
448,192,174184,128,0,174465:0:0:0:0:
64,192,174371,128,0,174465:0:0:0:0:
320,192,174465,128,0,174559:0:0:0:0:
64,192,174559,128,0,174840:0:0:0:0:
448,192,174559,128,0,174621:0:0:0:0:
192,192,174559,128,0,174652:0:0:0:0:
192,192,174746,1,0,0:0:0:0:
448,192,174746,1,0,0:0:0:0:
448,192,174934,128,0,175121:0:0:0:0:
64,192,174934,128,0,174996:0:0:0:0:
320,192,174934,128,0,175027:0:0:0:0:
448,192,175215,1,0,0:0:0:0:
320,192,175215,1,0,0:0:0:0:
64,192,175309,128,0,175496:0:0:0:0:
448,192,175309,128,0,175371:0:0:0:0:
192,192,175309,128,0,175402:0:0:0:0:
192,192,175496,1,0,0:0:0:0:
320,192,175496,1,0,0:0:0:0:
192,192,175590,1,0,0:0:0:0:
448,192,175684,128,0,175871:0:0:0:0:
320,192,175684,128,0,175871:0:0:0:0:
64,192,175684,128,0,175871:0:0:0:0:
192,192,175871,1,0,0:0:0:0:
320,192,175965,1,0,0:0:0:0:
448,192,175965,1,0,0:0:0:0:
64,192,176059,128,0,176340:0:0:0:0:
192,192,176059,128,0,176246:0:0:0:0:
448,192,176059,128,0,176152:0:0:0:0:
448,192,176246,1,0,0:0:0:0:
320,192,176340,1,0,0:0:0:0:
192,192,176387,1,0,0:0:0:0:
64,192,176434,128,0,176621:0:0:0:0:
448,192,176434,128,0,176559:0:0:0:0:
320,192,176496,128,0,176621:0:0:0:0:
192,192,176559,128,0,176621:0:0:0:0:
448,192,176621,1,0,0:0:0:0:
448,192,176715,1,0,0:0:0:0:
320,192,176809,1,0,0:0:0:0:
64,192,176809,1,0,0:0:0:0:
448,192,176902,1,0,0:0:0:0:
64,192,176902,1,0,0:0:0:0:
320,192,176996,1,0,0:0:0:0:
192,192,176996,1,0,0:0:0:0:
192,192,177090,1,0,0:0:0:0:
64,192,177184,128,0,177371:0:0:0:0:
320,192,177184,128,0,177324:0:0:0:0:
448,192,177184,128,0,177277:0:0:0:0:
448,192,177465,128,0,177652:0:0:0:0:
192,192,177465,128,0,177559:0:0:0:0:
64,192,177465,128,0,177605:0:0:0:0:
448,192,177746,128,0,177840:0:0:0:0:
192,192,177746,128,0,177840:0:0:0:0:
64,192,177746,128,0,177934:0:0:0:0:
320,192,177934,128,0,178027:0:0:0:0:
448,192,177934,128,0,178074:0:0:0:0:
192,192,177934,128,0,178121:0:0:0:0:
320,192,178215,128,0,178402:0:0:0:0:
192,192,178215,128,0,178355:0:0:0:0:
64,192,178215,128,0,178309:0:0:0:0:
64,192,178496,128,0,178590:0:0:0:0:
320,192,178496,128,0,178590:0:0:0:0:
192,192,178496,128,0,178684:0:0:0:0:
64,192,178684,1,0,0:0:0:0:
320,192,178715,128,0,178809:0:0:0:0:
320,192,178871,128,0,178996:0:0:0:0:
192,192,179059,1,0,0:0:0:0:
64,192,179090,128,0,179152:0:0:0:0:
192,192,179246,128,0,179340:0:0:0:0:
448,192,179434,1,0,0:0:0:0:
192,192,179475,1,0,0:0:0:0:
64,192,179517,1,0,0:0:0:0:
320,192,179559,1,0,0:0:0:0:
192,192,179600,1,0,0:0:0:0:
448,192,179642,1,0,0:0:0:0:
320,192,179684,1,0,0:0:0:0:
64,192,179809,1,0,0:0:0:0:
64,192,179902,1,0,0:0:0:0:
192,192,179996,1,0,0:0:0:0:
448,192,179996,1,0,0:0:0:0:
448,192,180090,1,0,0:0:0:0:
192,192,180184,1,0,0:0:0:0:
448,192,180184,128,0,180309:0:0:0:0:
64,192,180184,128,0,180309:0:0:0:0:
320,192,180371,1,0,0:0:0:0:
192,192,180402,1,0,0:0:0:0:
64,192,180434,1,0,0:0:0:0:
192,192,180559,1,0,0:0:0:0:
448,192,180559,128,0,180684:0:0:0:0:
320,192,180559,128,0,180684:0:0:0:0:
320,192,180746,1,0,0:0:0:0:
192,192,180777,1,0,0:0:0:0:
64,192,180809,1,0,0:0:0:0:
448,192,180934,128,0,181059:0:0:0:0:
320,192,180934,128,0,181059:0:0:0:0:
192,192,180965,1,0,0:0:0:0:
64,192,180996,1,0,0:0:0:0:
192,192,181121,1,0,0:0:0:0:
192,192,181215,1,0,0:0:0:0:
64,192,181246,1,0,0:0:0:0:
448,192,181309,128,0,181434:0:0:0:0:
320,192,181309,128,0,181434:0:0:0:0:
64,192,181402,1,0,0:0:0:0:
64,192,181496,1,0,0:0:0:0:
448,192,181590,1,0,0:0:0:0:
192,192,181590,128,0,181684:0:0:0:0:
448,192,181684,128,0,181809:0:0:0:0:
64,192,181684,128,0,181809:0:0:0:0:
320,192,181684,1,0,0:0:0:0:
192,192,181871,1,0,0:0:0:0:
320,192,181902,1,0,0:0:0:0:
448,192,181934,1,0,0:0:0:0:
320,192,182059,1,0,0:0:0:0:
64,192,182059,128,0,182184:0:0:0:0:
192,192,182059,128,0,182184:0:0:0:0:
192,192,182246,1,0,0:0:0:0:
320,192,182277,1,0,0:0:0:0:
448,192,182309,1,0,0:0:0:0:
192,192,182434,128,0,182559:0:0:0:0:
64,192,182434,128,0,182559:0:0:0:0:
448,192,182434,1,0,0:0:0:0:
320,192,182527,1,0,0:0:0:0:
320,192,182621,1,0,0:0:0:0:
192,192,182652,1,0,0:0:0:0:
64,192,182684,1,0,0:0:0:0:
448,192,182715,1,0,0:0:0:0:
64,192,182809,1,0,0:0:0:0:
192,192,182809,1,0,0:0:0:0:
320,192,182809,1,0,0:0:0:0:
64,192,182996,1,0,0:0:0:0:
192,192,182996,1,0,0:0:0:0:
320,192,182996,1,0,0:0:0:0:
192,192,183184,1,0,0:0:0:0:
448,192,183184,128,0,183309:0:0:0:0:
320,192,183184,128,0,183309:0:0:0:0:
320,192,183371,128,0,183496:0:0:0:0:
448,192,183371,128,0,183496:0:0:0:0:
192,192,183402,1,0,0:0:0:0:
64,192,183434,1,0,0:0:0:0:
448,192,183559,128,0,183684:0:0:0:0:
192,192,183559,128,0,183684:0:0:0:0:
64,192,183746,128,0,183871:0:0:0:0:
192,192,183746,128,0,183871:0:0:0:0:
320,192,183777,1,0,0:0:0:0:
448,192,183809,1,0,0:0:0:0:
448,192,183934,128,0,184059:0:0:0:0:
320,192,183934,128,0,184059:0:0:0:0:
192,192,184027,1,0,0:0:0:0:
192,192,184121,1,0,0:0:0:0:
320,192,184152,1,0,0:0:0:0:
448,192,184184,1,0,0:0:0:0:
64,192,184215,1,0,0:0:0:0:
448,192,184309,128,0,184434:0:0:0:0:
320,192,184309,128,0,184434:0:0:0:0:
192,192,184340,1,0,0:0:0:0:
64,192,184371,1,0,0:0:0:0:
192,192,184496,1,0,0:0:0:0:
448,192,184590,1,0,0:0:0:0:
192,192,184590,128,0,184684:0:0:0:0:
320,192,184684,1,0,0:0:0:0:
64,192,184684,128,0,184809:0:0:0:0:
448,192,184684,128,0,184809:0:0:0:0:
320,192,184871,1,0,0:0:0:0:
448,192,184871,128,0,184996:0:0:0:0:
64,192,184871,128,0,184996:0:0:0:0:
64,192,185059,1,0,0:0:0:0:
448,192,185059,1,0,0:0:0:0:
64,192,185152,1,0,0:0:0:0:
448,192,185152,1,0,0:0:0:0:
192,192,185246,1,0,0:0:0:0:
320,192,185293,1,0,0:0:0:0:
192,192,185340,1,0,0:0:0:0:
320,192,185387,1,0,0:0:0:0:
64,192,185434,128,0,185496:0:0:0:0:
448,192,185527,128,0,185590:0:0:0:0:
64,192,185621,1,0,0:0:0:0:
320,192,185621,128,0,185746:0:0:0:0:
192,192,185621,128,0,185715:0:0:0:0:
320,192,185809,128,0,185934:0:0:0:0:
64,192,185809,1,0,0:0:0:0:
192,192,185809,128,0,185902:0:0:0:0:
448,192,185996,128,0,186090:0:0:0:0:
192,192,185996,128,0,186121:0:0:0:0:
320,192,186184,1,0,0:0:0:0:
64,192,186184,128,0,186309:0:0:0:0:
448,192,186184,128,0,186309:0:0:0:0:
64,192,186371,1,0,0:0:0:0:
320,192,186402,1,0,0:0:0:0:
448,192,186434,1,0,0:0:0:0:
320,192,186559,1,0,0:0:0:0:
192,192,186559,128,0,186684:0:0:0:0:
64,192,186559,128,0,186684:0:0:0:0:
64,192,186746,1,0,0:0:0:0:
320,192,186777,1,0,0:0:0:0:
448,192,186809,1,0,0:0:0:0:
192,192,186934,128,0,187059:0:0:0:0:
64,192,186934,128,0,187059:0:0:0:0:
320,192,186965,1,0,0:0:0:0:
448,192,186996,1,0,0:0:0:0:
320,192,187121,1,0,0:0:0:0:
320,192,187215,1,0,0:0:0:0:
448,192,187246,1,0,0:0:0:0:
192,192,187309,128,0,187434:0:0:0:0:
64,192,187309,128,0,187434:0:0:0:0:
448,192,187402,1,0,0:0:0:0:
448,192,187496,1,0,0:0:0:0:
192,192,187590,1,0,0:0:0:0:
320,192,187590,128,0,187684:0:0:0:0:
192,192,187684,128,0,187809:0:0:0:0:
448,192,187684,128,0,187809:0:0:0:0:
64,192,187684,1,0,0:0:0:0:
448,192,187871,1,0,0:0:0:0:
192,192,187902,1,0,0:0:0:0:
64,192,187934,1,0,0:0:0:0:
192,192,188059,1,0,0:0:0:0:
448,192,188059,128,0,188184:0:0:0:0:
320,192,188059,128,0,188184:0:0:0:0:
448,192,188246,1,0,0:0:0:0:
192,192,188277,1,0,0:0:0:0:
64,192,188309,1,0,0:0:0:0:
320,192,188434,128,0,188559:0:0:0:0:
448,192,188434,128,0,188559:0:0:0:0:
192,192,188434,1,0,0:0:0:0:
64,192,188527,1,0,0:0:0:0:
64,192,188621,1,0,0:0:0:0:
320,192,188652,1,0,0:0:0:0:
448,192,188684,1,0,0:0:0:0:
192,192,188715,1,0,0:0:0:0:
64,192,188809,128,0,188996:0:0:0:0:
448,192,188809,128,0,188902:0:0:0:0:
320,192,188809,128,0,188949:0:0:0:0:
448,192,188996,1,0,0:0:0:0:
192,192,189043,1,0,0:0:0:0:
320,192,189090,1,0,0:0:0:0:
192,192,189137,1,0,0:0:0:0:
64,192,189184,128,0,189277:0:0:0:0:
320,192,189184,128,0,189277:0:0:0:0:
448,192,189184,128,0,189371:0:0:0:0:
320,192,189371,128,0,189465:0:0:0:0:
192,192,189371,128,0,189465:0:0:0:0:
64,192,189371,128,0,189559:0:0:0:0:
192,192,189559,128,0,189652:0:0:0:0:
320,192,189559,128,0,189746:0:0:0:0:
448,192,189559,128,0,189652:0:0:0:0:
192,192,189746,1,0,0:0:0:0:
64,192,189793,1,0,0:0:0:0:
448,192,189840,1,0,0:0:0:0:
192,192,189887,1,0,0:0:0:0:
64,192,189934,128,0,190027:0:0:0:0:
448,192,189934,128,0,190121:0:0:0:0:
320,192,189934,128,0,190027:0:0:0:0:
64,192,190121,1,0,0:0:0:0:
192,192,190121,1,0,0:0:0:0:
320,192,190121,1,0,0:0:0:0:
64,192,190215,1,0,0:0:0:0:
448,192,190215,1,0,0:0:0:0:
192,192,190215,1,0,0:0:0:0:
64,192,190309,128,0,190371:0:0:0:0:
320,192,190309,128,0,190402:0:0:0:0:
448,192,190309,128,0,190402:0:0:0:0:
192,192,190371,1,0,0:0:0:0:
320,192,190496,128,0,190559:0:0:0:0:
192,192,190496,128,0,190590:0:0:0:0:
64,192,190496,128,0,190590:0:0:0:0:
448,192,190621,128,0,190684:0:0:0:0:
320,192,190684,128,0,190746:0:0:0:0:
64,192,190684,128,0,190871:0:0:0:0:
64,192,190965,1,0,0:0:0:0:
320,192,191059,128,0,191246:0:0:0:0:
192,192,191434,128,0,191809:0:0:0:0:
320,192,191434,128,0,191684:0:0:0:0:
64,192,191684,128,0,192090:0:0:0:0:
448,192,191809,128,0,192090:0:0:0:0:
64,192,192184,5,0,0:0:0:0:
448,192,192184,1,0,0:0:0:0:
320,192,192184,1,0,0:0:0:0:
448,192,192370,1,0,0:0:0:0:
192,192,192432,1,0,0:0:0:0:
64,192,192556,1,0,0:0:0:0:
448,192,192680,1,0,0:0:0:0:
64,192,192743,1,0,0:0:0:0:
320,192,192929,1,0,0:0:0:0:
320,192,193115,1,0,0:0:0:0:
64,192,193150,1,0,0:0:0:0:
192,192,193302,1,0,0:0:0:0:
448,192,193371,1,0,0:0:0:0:
192,192,193488,1,0,0:0:0:0:
64,192,193581,1,0,0:0:0:0:
448,192,193674,1,0,0:0:0:0:
192,192,193789,1,0,0:0:0:0:
448,192,193859,1,0,0:0:0:0:
320,192,193986,1,0,0:0:0:0:
64,192,194044,1,0,0:0:0:0:
448,192,194183,1,0,0:0:0:0:
64,192,194229,1,0,0:0:0:0:
192,192,194368,1,0,0:0:0:0:
320,192,194414,1,0,0:0:0:0:
448,192,194553,1,0,0:0:0:0:
320,192,194599,1,0,0:0:0:0:
64,192,194727,1,0,0:0:0:0:
192,192,194785,1,0,0:0:0:0:
448,192,194900,1,0,0:0:0:0:
192,192,194970,1,0,0:0:0:0:
320,192,195062,1,0,0:0:0:0:
64,192,195155,1,0,0:0:0:0:
448,192,195155,1,0,0:0:0:0:
192,192,195223,1,0,0:0:0:0:
448,192,195337,1,0,0:0:0:0:
320,192,195383,1,0,0:0:0:0:
64,192,195520,1,0,0:0:0:0:
448,192,195543,1,0,0:0:0:0:
192,192,195703,1,0,0:0:0:0:
64,192,195703,1,0,0:0:0:0:
448,192,195856,1,0,0:0:0:0:
320,192,195886,1,0,0:0:0:0:
192,192,195993,1,0,0:0:0:0:
320,192,196069,1,0,0:0:0:0:
64,192,196130,1,0,0:0:0:0:
192,192,196252,1,0,0:0:0:0:
320,192,196267,1,0,0:0:0:0:
448,192,196405,1,0,0:0:0:0:
192,192,196435,1,0,0:0:0:0:
320,192,196542,1,0,0:0:0:0:
448,192,196618,1,0,0:0:0:0:
64,192,196678,1,0,0:0:0:0:
320,192,196798,1,0,0:0:0:0:
448,192,196798,1,0,0:0:0:0:
192,192,196919,1,0,0:0:0:0:
64,192,196979,1,0,0:0:0:0:
320,192,197039,1,0,0:0:0:0:
64,192,197160,1,0,0:0:0:0:
192,192,197160,1,0,0:0:0:0:
448,192,197280,1,0,0:0:0:0:
320,192,197340,1,0,0:0:0:0:
192,192,197401,1,0,0:0:0:0:
64,192,197521,1,0,0:0:0:0:
320,192,197521,1,0,0:0:0:0:
448,192,197634,1,0,0:0:0:0:
192,192,197702,1,0,0:0:0:0:
64,192,197747,1,0,0:0:0:0:
448,192,197860,1,0,0:0:0:0:
192,192,197883,1,0,0:0:0:0:
320,192,197962,1,0,0:0:0:0:
64,192,198063,1,0,0:0:0:0:
448,192,198063,1,0,0:0:0:0:
192,192,198152,1,0,0:0:0:0:
448,192,198152,1,0,0:0:0:0:
64,192,198242,1,0,0:0:0:0:
320,192,198242,1,0,0:0:0:0:
320,192,198332,1,0,0:0:0:0:
192,192,198422,1,0,0:0:0:0:
448,192,198422,1,0,0:0:0:0:
192,192,198512,1,0,0:0:0:0:
320,192,198512,1,0,0:0:0:0:
64,192,198601,1,0,0:0:0:0:
448,192,198601,1,0,0:0:0:0:
64,192,198691,1,0,0:0:0:0:
192,192,198781,1,0,0:0:0:0:
320,192,198781,1,0,0:0:0:0:
64,192,198871,1,0,0:0:0:0:
320,192,198871,1,0,0:0:0:0:
192,192,198961,1,0,0:0:0:0:
448,192,198961,1,0,0:0:0:0:
448,192,199051,1,0,0:0:0:0:
320,192,199140,1,0,0:0:0:0:
64,192,199140,1,0,0:0:0:0:
64,192,199230,1,0,0:0:0:0:
448,192,199230,1,0,0:0:0:0:
192,192,199320,1,0,0:0:0:0:
320,192,199320,1,0,0:0:0:0:
192,192,199410,1,0,0:0:0:0:
64,192,199500,1,0,0:0:0:0:
448,192,199500,1,0,0:0:0:0:
192,192,199588,1,0,0:0:0:0:
448,192,199588,1,0,0:0:0:0:
64,192,199676,1,0,0:0:0:0:
320,192,199676,1,0,0:0:0:0:
320,192,199764,1,0,0:0:0:0:
192,192,199852,1,0,0:0:0:0:
448,192,199852,1,0,0:0:0:0:
192,192,199941,1,0,0:0:0:0:
320,192,199941,1,0,0:0:0:0:
64,192,200029,1,0,0:0:0:0:
320,192,200073,1,0,0:0:0:0:
64,192,200117,1,0,0:0:0:0:
448,192,200161,1,0,0:0:0:0:
320,192,200205,1,0,0:0:0:0:
192,192,200250,1,0,0:0:0:0:
320,192,200294,1,0,0:0:0:0:
192,192,200338,1,0,0:0:0:0:
448,192,200382,1,0,0:0:0:0:
64,192,200426,1,0,0:0:0:0:
448,192,200470,1,0,0:0:0:0:
192,192,200514,1,0,0:0:0:0:
64,192,200558,1,0,0:0:0:0:
320,192,200558,1,0,0:0:0:0:
448,192,200602,1,0,0:0:0:0:
64,192,200647,1,0,0:0:0:0:
448,192,200691,1,0,0:0:0:0:
192,192,200735,1,0,0:0:0:0:
64,192,200779,1,0,0:0:0:0:
320,192,200823,1,0,0:0:0:0:
192,192,200867,1,0,0:0:0:0:
448,192,200911,1,0,0:0:0:0:
64,192,201000,128,0,201176:0:0:0:0:
448,192,201088,128,0,201264:0:0:0:0:
192,192,201176,128,0,201352:0:0:0:0:
64,192,201264,128,0,201441:0:0:0:0:
448,192,201352,128,0,201441:0:0:0:0:
320,192,201441,128,0,201617:0:0:0:0:
448,192,201529,128,0,201705:0:0:0:0:
192,192,201617,128,0,201705:0:0:0:0:
64,192,201705,128,0,201882:0:0:0:0:
192,192,201794,128,0,201970:0:0:0:0:
320,192,201882,128,0,201970:0:0:0:0:
448,192,201970,128,0,202147:0:0:0:0:
320,192,202058,128,0,202191:0:0:0:0:
192,192,202147,128,0,202500:0:0:0:0:
448,192,202235,128,0,202941:0:0:0:0:
320,192,202279,128,0,203029:0:0:0:0:
64,192,202323,128,0,202676:0:0:0:0:
192,192,202588,128,0,202764:0:0:0:0:
64,192,202764,128,0,202882:0:0:0:0:
192,192,202882,128,0,202955:0:0:0:0:
64,192,202955,128,0,203029:0:0:0:0:
448,192,203029,1,0,0:0:0:0:
192,192,203029,128,0,203100:0:0:0:0:
64,192,203100,128,0,203170:0:0:0:0:
448,192,203117,1,0,0:0:0:0:
192,192,203170,128,0,203241:0:0:0:0:
64,192,203241,128,0,203311:0:0:0:0:
320,192,203294,1,0,0:0:0:0:
192,192,203311,128,0,203382:0:0:0:0:
448,192,203382,1,0,0:0:0:0:
64,192,203382,128,0,203452:0:0:0:0:
192,192,203452,128,0,203523:0:0:0:0:
64,192,203523,128,0,203594:0:0:0:0:
448,192,203558,1,0,0:0:0:0:
192,192,203594,128,0,203664:0:0:0:0:
320,192,203664,1,0,0:0:0:0:
192,192,203735,1,0,0:0:0:0:
64,192,203735,1,0,0:0:0:0:
448,192,203735,1,0,0:0:0:0:
192,192,203823,1,0,0:0:0:0:
320,192,203911,1,0,0:0:0:0:
64,192,203911,1,0,0:0:0:0:
64,192,204000,1,0,0:0:0:0:
448,192,204000,1,0,0:0:0:0:
320,192,204088,1,0,0:0:0:0:
448,192,204088,1,0,0:0:0:0:
192,192,204088,1,0,0:0:0:0:
64,192,204176,1,0,0:0:0:0:
192,192,204264,1,0,0:0:0:0:
320,192,204264,1,0,0:0:0:0:
320,192,204352,1,0,0:0:0:0:
64,192,204352,1,0,0:0:0:0:
448,192,204441,1,0,0:0:0:0:
192,192,204441,1,0,0:0:0:0:
64,192,204441,1,0,0:0:0:0:
320,192,204500,1,0,0:0:0:0:
448,192,204558,1,0,0:0:0:0:
192,192,204617,1,0,0:0:0:0:
320,192,204661,1,0,0:0:0:0:
64,192,204705,1,0,0:0:0:0:
448,192,204750,1,0,0:0:0:0:
192,192,204794,1,0,0:0:0:0:
320,192,204794,1,0,0:0:0:0:
64,192,204838,1,0,0:0:0:0:
320,192,204882,1,0,0:0:0:0:
448,192,204970,1,0,0:0:0:0:
192,192,204970,1,0,0:0:0:0:
192,192,205058,1,0,0:0:0:0:
64,192,205102,1,0,0:0:0:0:
320,192,205147,1,0,0:0:0:0:
448,192,205147,1,0,0:0:0:0:
192,192,205191,1,0,0:0:0:0:
448,192,205235,1,0,0:0:0:0:
64,192,205279,1,0,0:0:0:0:
320,192,205323,1,0,0:0:0:0:
192,192,205323,1,0,0:0:0:0:
320,192,205411,1,0,0:0:0:0:
192,192,205500,1,0,0:0:0:0:
64,192,205500,1,0,0:0:0:0:
448,192,205500,1,0,0:0:0:0:
320,192,205588,1,0,0:0:0:0:
448,192,205676,1,0,0:0:0:0:
192,192,205676,1,0,0:0:0:0:
192,192,205764,1,0,0:0:0:0:
64,192,205852,1,0,0:0:0:0:
320,192,205852,1,0,0:0:0:0:
448,192,205852,1,0,0:0:0:0:
192,192,205911,1,0,0:0:0:0:
64,192,205970,1,0,0:0:0:0:
448,192,206029,1,0,0:0:0:0:
448,192,206117,1,0,0:0:0:0:
64,192,206117,1,0,0:0:0:0:
192,192,206205,1,0,0:0:0:0:
64,192,206205,1,0,0:0:0:0:
320,192,206205,1,0,0:0:0:0:
448,192,206294,1,0,0:0:0:0:
192,192,206382,1,0,0:0:0:0:
320,192,206382,1,0,0:0:0:0:
192,192,206470,1,0,0:0:0:0:
320,192,206558,1,0,0:0:0:0:
64,192,206558,1,0,0:0:0:0:
448,192,206558,1,0,0:0:0:0:
192,192,206647,1,0,0:0:0:0:
320,192,206735,1,0,0:0:0:0:
64,192,206735,1,0,0:0:0:0:
64,192,206823,1,0,0:0:0:0:
448,192,206823,1,0,0:0:0:0:
320,192,206911,1,0,0:0:0:0:
448,192,206911,1,0,0:0:0:0:
192,192,206911,1,0,0:0:0:0:
64,192,207000,1,0,0:0:0:0:
192,192,207088,1,0,0:0:0:0:
320,192,207088,1,0,0:0:0:0:
320,192,207176,1,0,0:0:0:0:
64,192,207176,1,0,0:0:0:0:
448,192,207264,1,0,0:0:0:0:
192,192,207264,1,0,0:0:0:0:
64,192,207264,1,0,0:0:0:0:
320,192,207323,1,0,0:0:0:0:
448,192,207382,1,0,0:0:0:0:
192,192,207441,1,0,0:0:0:0:
448,192,207529,1,0,0:0:0:0:
192,192,207529,128,0,207705:0:0:0:0:
448,192,207617,1,0,0:0:0:0:
64,192,207617,128,0,207882:0:0:0:0:
320,192,207705,1,0,0:0:0:0:
448,192,207794,1,0,0:0:0:0:
192,192,207794,128,0,207882:0:0:0:0:
320,192,207882,1,0,0:0:0:0:
320,192,207970,1,0,0:0:0:0:
448,192,207970,1,0,0:0:0:0:
64,192,207970,1,0,0:0:0:0:
192,192,208029,1,0,0:0:0:0:
64,192,208088,1,0,0:0:0:0:
448,192,208147,128,0,208441:0:0:0:0:
64,192,208235,1,0,0:0:0:0:
64,192,208323,1,0,0:0:0:0:
320,192,208323,1,0,0:0:0:0:
192,192,208441,128,0,208588:0:0:0:0:
320,192,208500,128,0,208588:0:0:0:0:
448,192,208588,1,0,0:0:0:0:
64,192,208588,128,0,208764:0:0:0:0:
448,192,208676,1,0,0:0:0:0:
192,192,208676,128,0,208852:0:0:0:0:
320,192,208764,128,0,208852:0:0:0:0:
64,192,208852,128,0,208941:0:0:0:0:
192,192,208941,1,0,0:0:0:0:
448,192,208941,128,0,209117:0:0:0:0:
192,192,209029,1,0,0:0:0:0:
320,192,209029,128,0,209205:0:0:0:0:
64,192,209117,128,0,209205:0:0:0:0:
448,192,209205,128,0,209294:0:0:0:0:
192,192,209294,1,0,0:0:0:0:
64,192,209294,1,0,0:0:0:0:
320,192,209382,1,0,0:0:0:0:
448,192,209382,1,0,0:0:0:0:
64,192,209382,1,0,0:0:0:0:
320,192,209470,1,0,0:0:0:0:
192,192,209558,1,0,0:0:0:0:
448,192,209558,1,0,0:0:0:0:
448,192,209647,1,0,0:0:0:0:
64,192,209647,1,0,0:0:0:0:
192,192,209735,1,0,0:0:0:0:
64,192,209735,1,0,0:0:0:0:
320,192,209735,1,0,0:0:0:0:
448,192,209823,1,0,0:0:0:0:
320,192,209911,1,0,0:0:0:0:
192,192,209911,1,0,0:0:0:0:
192,192,210000,1,0,0:0:0:0:
448,192,210000,1,0,0:0:0:0:
64,192,210088,1,0,0:0:0:0:
320,192,210088,1,0,0:0:0:0:
448,192,210088,1,0,0:0:0:0:
192,192,210147,1,0,0:0:0:0:
64,192,210205,1,0,0:0:0:0:
320,192,210264,1,0,0:0:0:0:
192,192,210308,1,0,0:0:0:0:
448,192,210352,1,0,0:0:0:0:
64,192,210397,1,0,0:0:0:0:
320,192,210441,1,0,0:0:0:0:
192,192,210441,1,0,0:0:0:0:
448,192,210485,1,0,0:0:0:0:
192,192,210529,1,0,0:0:0:0:
320,192,210617,1,0,0:0:0:0:
64,192,210617,1,0,0:0:0:0:
320,192,210705,1,0,0:0:0:0:
448,192,210750,1,0,0:0:0:0:
192,192,210794,1,0,0:0:0:0:
64,192,210794,1,0,0:0:0:0:
320,192,210838,1,0,0:0:0:0:
64,192,210882,1,0,0:0:0:0:
448,192,210926,1,0,0:0:0:0:
192,192,210970,1,0,0:0:0:0:
320,192,210970,1,0,0:0:0:0:
192,192,211058,1,0,0:0:0:0:
320,192,211147,1,0,0:0:0:0:
448,192,211147,1,0,0:0:0:0:
64,192,211147,1,0,0:0:0:0:
192,192,211235,1,0,0:0:0:0:
64,192,211323,1,0,0:0:0:0:
320,192,211323,1,0,0:0:0:0:
320,192,211411,1,0,0:0:0:0:
448,192,211500,1,0,0:0:0:0:
192,192,211500,1,0,0:0:0:0:
64,192,211500,1,0,0:0:0:0:
320,192,211558,1,0,0:0:0:0:
448,192,211617,1,0,0:0:0:0:
64,192,211676,1,0,0:0:0:0:
64,192,211764,1,0,0:0:0:0:
448,192,211764,1,0,0:0:0:0:
320,192,211852,1,0,0:0:0:0:
448,192,211852,1,0,0:0:0:0:
192,192,211852,1,0,0:0:0:0:
64,192,211941,1,0,0:0:0:0:
320,192,212029,1,0,0:0:0:0:
192,192,212029,1,0,0:0:0:0:
320,192,212117,1,0,0:0:0:0:
192,192,212205,1,0,0:0:0:0:
448,192,212205,1,0,0:0:0:0:
64,192,212205,1,0,0:0:0:0:
320,192,212294,1,0,0:0:0:0:
192,192,212382,1,0,0:0:0:0:
448,192,212382,1,0,0:0:0:0:
448,192,212470,1,0,0:0:0:0:
64,192,212470,1,0,0:0:0:0:
192,192,212558,1,0,0:0:0:0:
64,192,212558,1,0,0:0:0:0:
320,192,212558,1,0,0:0:0:0:
448,192,212647,1,0,0:0:0:0:
320,192,212735,1,0,0:0:0:0:
192,192,212735,1,0,0:0:0:0:
192,192,212823,1,0,0:0:0:0:
448,192,212823,1,0,0:0:0:0:
64,192,212911,1,0,0:0:0:0:
320,192,212911,1,0,0:0:0:0:
448,192,212911,1,0,0:0:0:0:
192,192,212970,1,0,0:0:0:0:
64,192,213029,1,0,0:0:0:0:
320,192,213088,1,0,0:0:0:0:
192,192,213132,1,0,0:0:0:0:
448,192,213176,1,0,0:0:0:0:
64,192,213220,1,0,0:0:0:0:
192,192,213264,1,0,0:0:0:0:
320,192,213264,1,0,0:0:0:0:
448,192,213308,1,0,0:0:0:0:
64,192,213352,1,0,0:0:0:0:
448,192,213397,1,0,0:0:0:0:
192,192,213441,1,0,0:0:0:0:
192,192,213529,1,0,0:0:0:0:
64,192,213617,128,0,213794:0:0:0:0:
448,192,213617,128,0,213794:0:0:0:0:
320,192,213794,1,0,0:0:0:0:
320,192,213882,1,0,0:0:0:0:
64,192,213882,1,0,0:0:0:0:
192,192,213970,1,0,0:0:0:0:
320,192,214058,1,0,0:0:0:0:
448,192,214058,1,0,0:0:0:0:
64,192,214147,1,0,0:0:0:0:
448,192,214147,1,0,0:0:0:0:
192,192,214235,1,0,0:0:0:0:
320,192,214323,1,0,0:0:0:0:
64,192,214323,1,0,0:0:0:0:
448,192,214411,1,0,0:0:0:0:
192,192,214500,1,0,0:0:0:0:
320,192,214500,1,0,0:0:0:0:
192,192,214588,1,0,0:0:0:0:
64,192,214676,128,0,214764:0:0:0:0:
448,192,214676,128,0,214764:0:0:0:0:
320,192,214720,1,0,0:0:0:0:
192,192,214764,1,0,0:0:0:0:
64,192,214852,128,0,214941:0:0:0:0:
448,192,214852,128,0,214941:0:0:0:0:
320,192,214897,1,0,0:0:0:0:
192,192,214941,1,0,0:0:0:0:
64,192,215029,1,0,0:0:0:0:
320,192,215029,1,0,0:0:0:0:
448,192,215029,128,0,215294:0:0:0:0:
192,192,215117,1,0,0:0:0:0:
320,192,215205,1,0,0:0:0:0:
192,192,215294,1,0,0:0:0:0:
64,192,215294,1,0,0:0:0:0:
64,192,215382,1,0,0:0:0:0:
448,192,215382,1,0,0:0:0:0:
192,192,215470,1,0,0:0:0:0:
320,192,215558,128,0,215647:0:0:0:0:
448,192,215558,1,0,0:0:0:0:
192,192,215647,1,0,0:0:0:0:
320,192,215735,1,0,0:0:0:0:
192,192,215735,128,0,215823:0:0:0:0:
64,192,215823,1,0,0:0:0:0:
448,192,215911,128,0,216000:0:0:0:0:
192,192,215911,1,0,0:0:0:0:
320,192,216000,1,0,0:0:0:0:
64,192,216000,128,0,216176:0:0:0:0:
192,192,216088,1,0,0:0:0:0:
320,192,216088,1,0,0:0:0:0:
448,192,216176,1,0,0:0:0:0:
320,192,216264,128,0,216352:0:0:0:0:
448,192,216352,1,0,0:0:0:0:
64,192,216352,128,0,216529:0:0:0:0:
192,192,216441,1,0,0:0:0:0:
448,192,216441,128,0,216705:0:0:0:0:
320,192,216529,128,0,216617:0:0:0:0:
192,192,216617,128,0,216705:0:0:0:0:
64,192,216705,1,0,0:0:0:0:
320,192,216705,128,0,216882:0:0:0:0:
448,192,216794,1,0,0:0:0:0:
64,192,216794,128,0,217058:0:0:0:0:
192,192,216882,128,0,216970:0:0:0:0:
448,192,216970,128,0,217058:0:0:0:0:
320,192,217058,1,0,0:0:0:0:
192,192,217058,128,0,217235:0:0:0:0:
64,192,217147,1,0,0:0:0:0:
320,192,217147,128,0,217411:0:0:0:0:
448,192,217235,128,0,217323:0:0:0:0:
64,192,217323,128,0,217411:0:0:0:0:
192,192,217411,1,0,0:0:0:0:
448,192,217411,128,0,217588:0:0:0:0:
192,192,217500,128,0,217764:0:0:0:0:
320,192,217500,1,0,0:0:0:0:
64,192,217588,128,0,217676:0:0:0:0:
320,192,217676,128,0,217764:0:0:0:0:
448,192,217764,1,0,0:0:0:0:
64,192,217764,128,0,217852:0:0:0:0:
192,192,217852,128,0,218029:0:0:0:0:
448,192,217852,128,0,217941:0:0:0:0:
64,192,217941,1,0,0:0:0:0:
448,192,218029,1,0,0:0:0:0:
320,192,218088,1,0,0:0:0:0:
64,192,218117,1,0,0:0:0:0:
192,192,218117,1,0,0:0:0:0:
448,192,218147,1,0,0:0:0:0:
192,192,218205,1,0,0:0:0:0:
320,192,218205,1,0,0:0:0:0:
64,192,218264,1,0,0:0:0:0:
192,192,218323,1,0,0:0:0:0:
64,192,218382,1,0,0:0:0:0:
448,192,218382,128,0,218470:0:0:0:0:
320,192,218470,1,0,0:0:0:0:
192,192,218470,128,0,218558:0:0:0:0:
64,192,218558,1,0,0:0:0:0:
320,192,218558,128,0,218735:0:0:0:0:
448,192,218676,128,0,218735:0:0:0:0:
192,192,218735,128,0,218852:0:0:0:0:
448,192,218823,1,0,0:0:0:0:
64,192,218852,128,0,219088:0:0:0:0:
448,192,218911,1,0,0:0:0:0:
320,192,218911,1,0,0:0:0:0:
192,192,219000,1,0,0:0:0:0:
448,192,219088,1,0,0:0:0:0:
64,192,219176,1,0,0:0:0:0:
320,192,219176,1,0,0:0:0:0:
320,192,219264,128,0,219617:0:0:0:0:
192,192,219264,128,0,219441:0:0:0:0:
64,192,219352,1,0,0:0:0:0:
448,192,219441,1,0,0:0:0:0:
192,192,219529,1,0,0:0:0:0:
64,192,219529,1,0,0:0:0:0:
192,192,219617,128,0,219970:0:0:0:0:
448,192,219617,128,0,219794:0:0:0:0:
320,192,219705,1,0,0:0:0:0:
64,192,219794,1,0,0:0:0:0:
448,192,219882,1,0,0:0:0:0:
320,192,219970,128,0,220147:0:0:0:0:
64,192,220147,1,0,0:0:0:0:
64,192,220235,1,0,0:0:0:0:
192,192,220323,1,0,0:0:0:0:
320,192,220323,1,0,0:0:0:0:
320,192,220411,1,0,0:0:0:0:
192,192,220500,128,0,220676:0:0:0:0:
448,192,220500,1,0,0:0:0:0:
448,192,220676,128,0,220764:0:0:0:0:
320,192,220676,128,0,220764:0:0:0:0:
64,192,220676,128,0,220852:0:0:0:0:
320,192,220852,1,0,0:0:0:0:
320,192,220941,128,0,221117:0:0:0:0:
192,192,220941,128,0,221029:0:0:0:0:
64,192,220941,128,0,221117:0:0:0:0:
448,192,221029,1,0,0:0:0:0:
192,192,221205,128,0,221294:0:0:0:0:
64,192,221205,128,0,221294:0:0:0:0:
448,192,221205,128,0,221382:0:0:0:0:
64,192,221382,1,0,0:0:0:0:
320,192,221470,128,0,221647:0:0:0:0:
448,192,221470,128,0,221558:0:0:0:0:
64,192,221470,128,0,221647:0:0:0:0:
192,192,221558,128,0,221647:0:0:0:0:
448,192,221647,1,0,0:0:0:0:
192,192,221735,128,0,221911:0:0:0:0:
64,192,221735,128,0,221911:0:0:0:0:
320,192,221735,128,0,221823:0:0:0:0:
448,192,221823,1,0,0:0:0:0:
320,192,221911,1,0,0:0:0:0:
320,192,222000,128,0,222176:0:0:0:0:
64,192,222000,128,0,222176:0:0:0:0:
192,192,222000,128,0,222088:0:0:0:0:
448,192,222088,128,0,222176:0:0:0:0:
192,192,222176,128,0,222264:0:0:0:0:
64,192,222264,1,0,0:0:0:0:
320,192,222264,128,0,222352:0:0:0:0:
448,192,222264,128,0,222352:0:0:0:0:
64,192,222352,5,0,0:0:0:0:
192,192,222441,128,0,222617:0:0:0:0:
320,192,222441,128,0,222529:0:0:0:0:
448,192,222441,128,0,222617:0:0:0:0:
64,192,222529,128,0,222617:0:0:0:0:
320,192,222617,1,0,0:0:0:0:
448,192,222705,128,0,222794:0:0:0:0:
192,192,222705,128,0,222882:0:0:0:0:
64,192,222705,128,0,222882:0:0:0:0:
320,192,222794,128,0,222882:0:0:0:0:
448,192,222882,1,0,0:0:0:0:
192,192,222970,128,0,223058:0:0:0:0:
64,192,222970,128,0,223147:0:0:0:0:
448,192,222970,128,0,223147:0:0:0:0:
320,192,223058,128,0,223147:0:0:0:0:
192,192,223147,1,0,0:0:0:0:
448,192,223235,128,0,223411:0:0:0:0:
64,192,223235,128,0,223323:0:0:0:0:
320,192,223235,128,0,223411:0:0:0:0:
192,192,223323,128,0,223411:0:0:0:0:
64,192,223411,1,0,0:0:0:0:
448,192,223500,5,0,0:0:0:0:
320,192,223500,1,0,0:0:0:0:
64,192,223500,1,0,0:0:0:0:
320,192,223588,1,0,0:0:0:0:
192,192,223632,1,0,0:0:0:0:
448,192,223676,1,0,0:0:0:0:
320,192,223764,1,0,0:0:0:0:
192,192,223764,1,0,0:0:0:0:
64,192,223764,1,0,0:0:0:0:
192,192,223852,1,0,0:0:0:0:
448,192,223897,1,0,0:0:0:0:
64,192,223941,1,0,0:0:0:0:
192,192,224029,1,0,0:0:0:0:
320,192,224029,1,0,0:0:0:0:
448,192,224029,1,0,0:0:0:0:
448,192,224117,1,0,0:0:0:0:
64,192,224161,1,0,0:0:0:0:
320,192,224205,1,0,0:0:0:0:
448,192,224250,1,0,0:0:0:0:
192,192,224294,1,0,0:0:0:0:
64,192,224338,1,0,0:0:0:0:
320,192,224382,1,0,0:0:0:0:
448,192,224382,1,0,0:0:0:0:
192,192,224426,1,0,0:0:0:0:
320,192,224470,1,0,0:0:0:0:
64,192,224514,1,0,0:0:0:0:
192,192,224558,1,0,0:0:0:0:
448,192,224602,1,0,0:0:0:0:
64,192,224647,1,0,0:0:0:0:
320,192,224691,1,0,0:0:0:0:
448,192,224735,1,0,0:0:0:0:
192,192,224735,1,0,0:0:0:0:
64,192,224779,1,0,0:0:0:0:
448,192,224823,1,0,0:0:0:0:
320,192,224867,1,0,0:0:0:0:
192,192,224911,1,0,0:0:0:0:
64,192,224911,1,0,0:0:0:0:
448,192,224970,1,0,0:0:0:0:
320,192,225009,1,0,0:0:0:0:
64,192,225049,1,0,0:0:0:0:
448,192,225088,1,0,0:0:0:0:
192,192,225132,1,0,0:0:0:0:
64,192,225176,1,0,0:0:0:0:
320,192,225235,1,0,0:0:0:0:
192,192,225294,1,0,0:0:0:0:
64,192,225411,1,0,0:0:0:0:
448,192,225529,1,0,0:0:0:0:
192,192,225617,1,0,0:0:0:0:
64,192,225617,1,0,0:0:0:0:
320,192,225794,1,0,0:0:0:0:
192,192,225852,1,0,0:0:0:0:
320,192,225911,1,0,0:0:0:0:
192,192,225970,1,0,0:0:0:0:
448,192,225970,1,0,0:0:0:0:
64,192,226147,1,0,0:0:0:0:
448,192,226323,1,0,0:0:0:0:
192,192,226323,1,0,0:0:0:0:
64,192,226323,1,0,0:0:0:0:
320,192,226323,128,0,226411:0:0:0:0:
320,192,226851,1,0,0:0:0:0:
64,192,226851,128,0,226939:0:0:0:0:
64,192,227379,1,0,0:0:0:0:
448,192,227379,128,0,227466:0:0:0:0:
192,192,228256,1,0,0:0:0:0:
448,192,228435,1,0,0:0:0:0:
192,192,228610,1,0,0:0:0:0:
320,192,228782,1,0,0:0:0:0:
64,192,228956,1,0,0:0:0:0:
448,192,229132,1,0,0:0:0:0:
192,192,229132,128,0,229219:0:0:0:0:
64,192,230006,1,0,0:0:0:0:
320,192,230181,1,0,0:0:0:0:
192,192,230355,1,0,0:0:0:0:
448,192,230530,1,0,0:0:0:0:
320,192,230878,1,0,0:0:0:0:
192,192,231226,1,0,0:0:0:0:
64,192,231573,1,0,0:0:0:0:
192,192,231920,1,0,0:0:0:0:
320,192,231920,128,0,232006:0:0:0:0:
320,192,232439,1,0,0:0:0:0:
64,192,232439,128,0,232526:0:0:0:0:
64,192,232959,1,0,0:0:0:0:
448,192,232959,128,0,233045:0:0:0:0:
192,192,233821,1,0,0:0:0:0:
448,192,233994,1,0,0:0:0:0:
192,192,234165,1,0,0:0:0:0:
64,192,234338,1,0,0:0:0:0:
448,192,234509,1,0,0:0:0:0:
320,192,234683,1,0,0:0:0:0:
192,192,234683,128,0,234768:0:0:0:0:
192,192,235197,1,0,0:0:0:0:
448,192,235197,128,0,235282:0:0:0:0:
448,192,235708,1,0,0:0:0:0:
64,192,235708,128,0,235793:0:0:0:0:
320,192,236220,1,0,0:0:0:0:
448,192,236566,1,0,0:0:0:0:
64,192,236736,1,0,0:0:0:0:
320,192,236907,1,0,0:0:0:0:
448,192,237078,1,0,0:0:0:0:
192,192,237078,128,0,237163:0:0:0:0:
64,192,237248,1,0,0:0:0:0:
192,192,237409,1,0,0:0:0:0:
320,192,237409,128,0,237493:0:0:0:0:
448,192,237578,1,0,0:0:0:0:
448,192,237741,1,0,0:0:0:0:
64,192,237910,128,0,237995:0:0:0:0:
320,192,237910,1,0,0:0:0:0:
192,192,238081,1,0,0:0:0:0:
192,192,238250,1,0,0:0:0:0:
64,192,238420,1,0,0:0:0:0:
448,192,238420,128,0,238504:0:0:0:0:
320,192,238589,1,0,0:0:0:0:
192,192,238759,1,0,0:0:0:0:
448,192,238928,1,0,0:0:0:0:
192,192,239012,1,0,0:0:0:0:
320,192,239182,1,0,0:0:0:0:
64,192,239436,1,0,0:0:0:0:
64,192,239604,1,0,0:0:0:0:
320,192,239774,1,0,0:0:0:0:
320,192,239942,1,0,0:0:0:0:
192,192,240103,128,0,240187:0:0:0:0:
448,192,240103,1,0,0:0:0:0:
64,192,240271,1,0,0:0:0:0:
64,192,240440,1,0,0:0:0:0:
448,192,240608,1,0,0:0:0:0:
192,192,240767,1,0,0:0:0:0:
64,192,240934,1,0,0:0:0:0:
320,192,241103,1,0,0:0:0:0:
192,192,241270,1,0,0:0:0:0:
448,192,241439,1,0,0:0:0:0:
64,192,241690,1,0,0:0:0:0:
320,192,241774,1,0,0:0:0:0:
64,192,241857,1,0,0:0:0:0:
448,192,241941,1,0,0:0:0:0:
320,192,242024,1,0,0:0:0:0:
192,192,242109,1,0,0:0:0:0:
448,192,242276,1,0,0:0:0:0:
64,192,242444,1,0,0:0:0:0:
192,192,242610,1,0,0:0:0:0:
448,192,242694,1,0,0:0:0:0:
192,192,242773,1,0,0:0:0:0:
320,192,242773,1,0,0:0:0:0:
64,192,242856,1,0,0:0:0:0:
320,192,242939,1,0,0:0:0:0:
192,192,243023,1,0,0:0:0:0:
448,192,243190,1,0,0:0:0:0:
64,192,243273,1,0,0:0:0:0:
320,192,243273,1,0,0:0:0:0:
448,192,243356,1,0,0:0:0:0:
64,192,243527,1,0,0:0:0:0:
320,192,243610,1,0,0:0:0:0:
64,192,243777,1,0,0:0:0:0:
448,192,243777,1,0,0:0:0:0:
192,192,243860,1,0,0:0:0:0:
320,192,243943,1,0,0:0:0:0:
64,192,244026,1,0,0:0:0:0:
448,192,244110,1,0,0:0:0:0:
192,192,244192,1,0,0:0:0:0:
320,192,244275,128,0,244442:0:0:0:0:
64,192,244358,1,0,0:0:0:0:
448,192,244442,1,0,0:0:0:0:
192,192,244524,1,0,0:0:0:0:
448,192,244607,1,0,0:0:0:0:
64,192,244690,1,0,0:0:0:0:
192,192,244774,1,0,0:0:0:0:
320,192,244856,1,0,0:0:0:0:
192,192,244939,1,0,0:0:0:0:
448,192,245022,1,0,0:0:0:0:
64,192,245106,1,0,0:0:0:0:
320,192,245188,1,0,0:0:0:0:
448,192,245271,1,0,0:0:0:0:
64,192,245353,1,0,0:0:0:0:
320,192,245437,1,0,0:0:0:0:
192,192,245437,1,0,0:0:0:0:
448,192,245519,1,0,0:0:0:0:
64,192,245602,1,0,0:0:0:0:
448,192,245684,128,0,245850:0:0:0:0:
64,192,245850,1,0,0:0:0:0:
192,192,245932,1,0,0:0:0:0:
448,192,245932,1,0,0:0:0:0:
64,192,246015,1,0,0:0:0:0:
320,192,246180,1,0,0:0:0:0:
192,192,246262,1,0,0:0:0:0:
320,192,246345,128,0,246515:0:0:0:0:
448,192,246433,1,0,0:0:0:0:
64,192,246433,1,0,0:0:0:0:
192,192,246515,1,0,0:0:0:0:
64,192,246597,1,0,0:0:0:0:
192,192,246679,1,0,0:0:0:0:
320,192,246763,1,0,0:0:0:0:
64,192,246845,1,0,0:0:0:0:
448,192,246927,1,0,0:0:0:0:
64,192,247009,128,0,247178:0:0:0:0:
192,192,247178,1,0,0:0:0:0:
320,192,247260,1,0,0:0:0:0:
448,192,247342,128,0,247499:0:0:0:0:
320,192,247417,1,0,0:0:0:0:
192,192,247417,1,0,0:0:0:0:
64,192,247499,1,0,0:0:0:0:
448,192,247581,1,0,0:0:0:0:
192,192,247663,1,0,0:0:0:0:
64,192,247749,1,0,0:0:0:0:
320,192,247830,1,0,0:0:0:0:
448,192,247912,1,0,0:0:0:0:
64,192,247994,1,0,0:0:0:0:
192,192,248082,1,0,0:0:0:0:
320,192,248082,1,0,0:0:0:0:
448,192,248163,1,0,0:0:0:0:
192,192,248245,1,0,0:0:0:0:
320,192,248327,128,0,248491:0:0:0:0:
64,192,248491,1,0,0:0:0:0:
192,192,248573,1,0,0:0:0:0:
448,192,248573,1,0,0:0:0:0:
64,192,248655,128,0,248818:0:0:0:0:
448,192,248818,1,0,0:0:0:0:
192,192,248900,1,0,0:0:0:0:
64,192,249063,1,0,0:0:0:0:
448,192,249063,1,0,0:0:0:0:
320,192,249144,1,0,0:0:0:0:
192,192,249226,1,0,0:0:0:0:
448,192,249307,128,0,249470:0:0:0:0:
192,192,249389,1,0,0:0:0:0:
64,192,249470,1,0,0:0:0:0:
320,192,249551,128,0,249633:0:0:0:0:
320,192,249714,1,0,0:0:0:0:
192,192,249795,1,0,0:0:0:0:
448,192,249876,1,0,0:0:0:0:
320,192,249958,1,0,0:0:0:0:
448,192,250039,1,0,0:0:0:0:
192,192,250120,1,0,0:0:0:0:
64,192,250201,1,0,0:0:0:0:
448,192,250282,1,0,0:0:0:0:
192,192,250364,1,0,0:0:0:0:
320,192,250445,1,0,0:0:0:0:
64,192,250526,1,0,0:0:0:0:
320,192,250607,1,0,0:0:0:0:
192,192,250688,1,0,0:0:0:0:
448,192,250688,1,0,0:0:0:0:
64,192,250769,1,0,0:0:0:0:
448,192,250850,1,0,0:0:0:0:
192,192,250931,128,0,251088:0:0:0:0:
320,192,251088,1,0,0:0:0:0:
64,192,251169,1,0,0:0:0:0:
448,192,251169,1,0,0:0:0:0:
320,192,251250,128,0,251413:0:0:0:0:
192,192,251413,1,0,0:0:0:0:
64,192,251494,128,0,251656:0:0:0:0:
448,192,251657,1,0,0:0:0:0:
64,192,251737,1,0,0:0:0:0:
448,192,251818,1,0,0:0:0:0:
192,192,251899,1,0,0:0:0:0:
64,192,251981,1,0,0:0:0:0:
320,192,252061,1,0,0:0:0:0:
448,192,252142,128,0,252298:0:0:0:0:
64,192,252223,1,0,0:0:0:0:
192,192,252298,1,0,0:0:0:0:
320,192,252378,128,0,252539:0:0:0:0:
64,192,252459,1,0,0:0:0:0:
448,192,252539,1,0,0:0:0:0:
192,192,252621,128,0,252782:0:0:0:0:
64,192,252782,128,0,252944:0:0:0:0:
320,192,252944,128,0,253104:0:0:0:0:
192,192,253104,1,0,0:0:0:0:
320,192,253185,1,0,0:0:0:0:
192,192,253266,1,0,0:0:0:0:
64,192,253266,1,0,0:0:0:0:
448,192,253346,1,0,0:0:0:0:
64,192,253426,1,0,0:0:0:0:
192,192,253507,128,0,253668:0:0:0:0:
320,192,253588,1,0,0:0:0:0:
448,192,253588,1,0,0:0:0:0:
64,192,253668,1,0,0:0:0:0:
320,192,253748,1,0,0:0:0:0:
448,192,253828,128,0,253995:0:0:0:0:
64,192,253915,1,0,0:0:0:0:
192,192,253915,1,0,0:0:0:0:
320,192,253995,1,0,0:0:0:0:
64,192,254075,128,0,254235:0:0:0:0:
448,192,254155,1,0,0:0:0:0:
192,192,254235,1,0,0:0:0:0:
320,192,254235,1,0,0:0:0:0:
64,192,254315,1,0,0:0:0:0:
448,192,254395,1,0,0:0:0:0:
192,192,254475,128,0,254634:0:0:0:0:
448,192,254554,1,0,0:0:0:0:
320,192,254554,1,0,0:0:0:0:
64,192,254634,1,0,0:0:0:0:
320,192,254714,128,0,254874:0:0:0:0:
192,192,254794,1,0,0:0:0:0:
64,192,254874,1,0,0:0:0:0:
448,192,254874,128,0,254953:0:0:0:0:
192,192,254953,128,0,255033:0:0:0:0:
448,192,255033,128,0,255113:0:0:0:0:
64,192,255113,128,0,255193:0:0:0:0:
192,192,255193,1,0,0:0:0:0:
320,192,255193,128,0,255272:0:0:0:0:
64,192,255272,128,0,255352:0:0:0:0:
320,192,255352,128,0,255432:0:0:0:0:
192,192,255432,128,0,255512:0:0:0:0:
448,192,255512,1,0,0:0:0:0:
64,192,255512,128,0,255591:0:0:0:0:
320,192,255591,128,0,255671:0:0:0:0:
64,192,255671,128,0,255751:0:0:0:0:
192,192,255751,128,0,255836:0:0:0:0:
320,192,255836,1,0,0:0:0:0:
448,192,255836,1,0,0:0:0:0:
64,192,255915,128,0,255995:0:0:0:0:
448,192,255995,128,0,256074:0:0:0:0:
192,192,256074,128,0,256239:0:0:0:0:
320,192,256074,128,0,256160:0:0:0:0:
64,192,256160,1,0,0:0:0:0:
320,192,256239,128,0,256319:0:0:0:0:
192,192,256319,1,0,0:0:0:0:
64,192,256319,128,0,256398:0:0:0:0:
448,192,256398,128,0,256557:0:0:0:0:
64,192,256478,1,0,0:0:0:0:
320,192,256557,128,0,256636:0:0:0:0:
192,192,256636,128,0,256716:0:0:0:0:
320,192,256716,128,0,256871:0:0:0:0:
64,192,256716,128,0,256792:0:0:0:0:
448,192,256792,1,0,0:0:0:0:
64,192,256871,128,0,256950:0:0:0:0:
448,192,256950,128,0,257030:0:0:0:0:
192,192,257030,128,0,257106:0:0:0:0:
320,192,257106,1,0,0:0:0:0:
448,192,257185,128,0,257264:0:0:0:0:
192,192,257264,128,0,257343:0:0:0:0:
64,192,257343,128,0,257419:0:0:0:0:
448,192,257343,128,0,257739:0:0:0:0:
320,192,257419,1,0,0:0:0:0:
64,192,257498,128,0,257656:0:0:0:0:
192,192,257577,128,0,257656:0:0:0:0:
320,192,257656,128,0,257739:0:0:0:0:
64,192,257739,1,0,0:0:0:0:
192,192,257739,1,0,0:0:0:0:
192,192,257897,1,0,0:0:0:0:
320,192,257897,1,0,0:0:0:0:
448,192,257976,1,0,0:0:0:0:
192,192,257976,1,0,0:0:0:0:
320,192,258048,1,0,0:0:0:0:
64,192,258048,1,0,0:0:0:0:
320,192,258127,1,0,0:0:0:0:
192,192,258127,1,0,0:0:0:0:
448,192,258206,1,0,0:0:0:0:
64,192,258206,1,0,0:0:0:0:
448,192,258285,1,0,0:0:0:0:
192,192,258361,128,0,258676:0:0:0:0:
64,192,258361,1,0,0:0:0:0:
320,192,258676,1,0,0:0:0:0:
320,192,258834,1,0,0:0:0:0:
320,192,258992,1,0,0:0:0:0:
448,192,259150,128,0,259308:0:0:0:0:
320,192,259308,1,0,0:0:0:0:
64,192,259466,128,0,259782:0:0:0:0:
192,192,259782,1,0,0:0:0:0:
192,192,259939,1,0,0:0:0:0:
320,192,260097,128,0,260413:0:0:0:0:
64,192,260413,1,0,0:0:0:0:
64,192,260571,1,0,0:0:0:0:
64,192,260729,1,0,0:0:0:0:
192,192,260887,128,0,261203:0:0:0:0:
320,192,261203,1,0,0:0:0:0:
320,192,261361,1,0,0:0:0:0:
320,192,261518,1,0,0:0:0:0:
448,192,261676,128,0,261834:0:0:0:0:
320,192,261834,1,0,0:0:0:0:
64,192,261992,128,0,262308:0:0:0:0:
448,192,262150,1,0,0:0:0:0:
192,192,262308,1,0,0:0:0:0:
192,192,262466,1,0,0:0:0:0:
448,192,262466,1,0,0:0:0:0:
320,192,262624,128,0,262939:0:0:0:0:
448,192,262782,1,0,0:0:0:0:
64,192,262939,1,0,0:0:0:0:
192,192,263097,1,0,0:0:0:0:
448,192,263097,128,0,263176:0:0:0:0:
448,192,263255,128,0,263334:0:0:0:0:
320,192,263413,128,0,263729:0:0:0:0:
192,192,263413,1,0,0:0:0:0:
64,192,263413,1,0,0:0:0:0:
448,192,263650,1,0,0:0:0:0:
192,192,263729,1,0,0:0:0:0:
64,192,263729,1,0,0:0:0:0:
192,192,263887,1,0,0:0:0:0:
448,192,263887,1,0,0:0:0:0:
192,192,264045,1,0,0:0:0:0:
320,192,264124,1,0,0:0:0:0:
64,192,264203,128,0,264361:0:0:0:0:
320,192,264282,1,0,0:0:0:0:
192,192,264361,1,0,0:0:0:0:
448,192,264361,1,0,0:0:0:0:
448,192,264518,128,0,264834:0:0:0:0:
64,192,264518,1,0,0:0:0:0:
192,192,264676,1,0,0:0:0:0:
64,192,264676,1,0,0:0:0:0:
320,192,264834,1,0,0:0:0:0:
192,192,264913,1,0,0:0:0:0:
320,192,264992,1,0,0:0:0:0:
192,192,265150,128,0,265466:0:0:0:0:
64,192,265150,1,0,0:0:0:0:
320,192,265308,1,0,0:0:0:0:
64,192,265387,1,0,0:0:0:0:
448,192,265466,1,0,0:0:0:0:
192,192,265545,1,0,0:0:0:0:
448,192,265624,1,0,0:0:0:0:
64,192,265624,1,0,0:0:0:0:
448,192,265782,1,0,0:0:0:0:
320,192,265939,128,0,266255:0:0:0:0:
64,192,265939,1,0,0:0:0:0:
448,192,266176,1,0,0:0:0:0:
192,192,266255,1,0,0:0:0:0:
64,192,266255,1,0,0:0:0:0:
192,192,266413,1,0,0:0:0:0:
448,192,266413,1,0,0:0:0:0:
192,192,266571,1,0,0:0:0:0:
320,192,266650,1,0,0:0:0:0:
64,192,266729,128,0,266887:0:0:0:0:
320,192,266808,1,0,0:0:0:0:
192,192,266887,1,0,0:0:0:0:
448,192,266887,1,0,0:0:0:0:
448,192,267045,128,0,267361:0:0:0:0:
64,192,267045,1,0,0:0:0:0:
64,192,267203,1,0,0:0:0:0:
192,192,267203,1,0,0:0:0:0:
320,192,267361,5,0,0:0:0:0:
192,192,267439,1,0,0:0:0:0:
320,192,267518,1,0,0:0:0:0:
192,192,267676,128,0,267992:0:0:0:0:
64,192,267676,1,0,0:0:0:0:
448,192,267834,1,0,0:0:0:0:
64,192,267913,1,0,0:0:0:0:
448,192,267992,1,0,0:0:0:0:
192,192,268071,1,0,0:0:0:0:
320,192,268150,1,0,0:0:0:0:
64,192,268150,128,0,268229:0:0:0:0:
64,192,268308,128,0,268387:0:0:0:0:
320,192,268387,1,0,0:0:0:0:
192,192,268466,128,0,268861:0:0:0:0:
64,192,268466,128,0,268861:0:0:0:0:
448,192,268466,1,0,0:0:0:0:
448,192,268782,1,0,0:0:0:0:
192,192,268939,128,0,269334:0:0:0:0:
320,192,268939,128,0,269334:0:0:0:0:
64,192,268939,1,0,0:0:0:0:
448,192,269097,1,0,0:0:0:0:
320,192,269413,128,0,270913:0:0:0:0:
448,192,269413,128,0,270913:0:0:0:0:
192,192,269413,1,0,0:0:0:0:
64,192,269729,1,0,0:0:0:0:
64,192,270045,1,0,0:0:0:0:
64,192,270361,1,0,0:0:0:0:
64,192,270676,1,0,0:0:0:0:
192,192,270992,128,0,271387:0:0:0:0:
64,192,270992,128,0,271387:0:0:0:0:
448,192,270992,1,0,0:0:0:0:
448,192,271308,1,0,0:0:0:0:
192,192,271466,128,0,271861:0:0:0:0:
320,192,271466,128,0,271861:0:0:0:0:
64,192,271466,1,0,0:0:0:0:
448,192,271624,1,0,0:0:0:0:
192,192,271939,1,0,0:0:0:0:
320,192,271939,128,0,273045:0:0:0:0:
448,192,271939,128,0,273045:0:0:0:0:
64,192,272255,1,0,0:0:0:0:
64,192,272571,1,0,0:0:0:0:
64,192,272887,1,0,0:0:0:0:
192,192,273045,1,0,0:0:0:0:
448,192,273124,1,0,0:0:0:0:
64,192,273203,1,0,0:0:0:0:
320,192,273203,1,0,0:0:0:0:
64,192,273282,1,0,0:0:0:0:
448,192,273282,1,0,0:0:0:0:
192,192,273361,1,0,0:0:0:0:
320,192,273361,1,0,0:0:0:0:
320,192,273439,1,0,0:0:0:0:
448,192,273518,1,0,0:0:0:0:
192,192,273518,128,0,273913:0:0:0:0:
64,192,273518,128,0,273913:0:0:0:0:
448,192,273834,1,0,0:0:0:0:
320,192,273992,128,0,274387:0:0:0:0:
192,192,273992,128,0,274387:0:0:0:0:
64,192,273992,1,0,0:0:0:0:
448,192,274150,1,0,0:0:0:0:
192,192,274466,1,0,0:0:0:0:
320,192,274466,128,0,275966:0:0:0:0:
448,192,274466,128,0,275966:0:0:0:0:
64,192,274782,1,0,0:0:0:0:
64,192,275097,1,0,0:0:0:0:
64,192,275413,1,0,0:0:0:0:
64,192,275729,1,0,0:0:0:0:
448,192,276045,1,0,0:0:0:0:
192,192,276045,128,0,276439:0:0:0:0:
64,192,276045,128,0,276439:0:0:0:0:
448,192,276361,1,0,0:0:0:0:
64,192,276518,1,0,0:0:0:0:
192,192,276518,128,0,276913:0:0:0:0:
320,192,276518,128,0,276913:0:0:0:0:
448,192,276676,1,0,0:0:0:0:
192,192,276992,1,0,0:0:0:0:
320,192,276992,128,0,277308:0:0:0:0:
448,192,276992,128,0,277308:0:0:0:0:
192,192,277308,1,0,0:0:0:0:
64,192,277308,1,0,0:0:0:0:
448,192,277387,5,0,0:0:0:0:
64,192,277466,1,0,0:0:0:0:
448,192,277545,1,0,0:0:0:0:
192,192,277624,1,0,0:0:0:0:
320,192,277624,1,0,0:0:0:0:
192,192,277782,1,0,0:0:0:0:
320,192,277861,1,0,0:0:0:0:
64,192,277939,1,0,0:0:0:0:
448,192,277939,1,0,0:0:0:0:
192,192,278018,1,0,0:0:0:0:
320,192,278018,1,0,0:0:0:0:
64,192,278097,1,0,0:0:0:0:
320,192,278176,1,0,0:0:0:0:
448,192,278176,1,0,0:0:0:0:
192,192,278255,1,0,0:0:0:0:
64,192,278255,1,0,0:0:0:0:
64,192,278334,1,0,0:0:0:0:
192,192,278334,1,0,0:0:0:0:
320,192,278413,1,0,0:0:0:0:
448,192,278413,1,0,0:0:0:0:
192,192,278492,1,0,0:0:0:0:
64,192,278571,5,0,0:0:0:0:
320,192,278571,1,0,0:0:0:0:
448,192,278571,1,0,0:0:0:0:
192,192,278624,1,0,0:0:0:0:
448,192,278676,1,0,0:0:0:0:
64,192,278729,1,0,0:0:0:0:
320,192,278782,1,0,0:0:0:0:
192,192,278834,1,0,0:0:0:0:
64,192,278887,1,0,0:0:0:0:
320,192,278939,1,0,0:0:0:0:
64,192,278991,1,0,0:0:0:0:
448,192,279044,1,0,0:0:0:0:
192,192,279096,1,0,0:0:0:0:
320,192,279148,1,0,0:0:0:0:
448,192,279201,1,0,0:0:0:0:
64,192,279253,1,0,0:0:0:0:
448,192,279279,1,0,0:0:0:0:
192,192,279305,1,0,0:0:0:0:
320,192,279357,1,0,0:0:0:0:
192,192,279409,1,0,0:0:0:0:
320,192,279461,1,0,0:0:0:0:
64,192,279513,1,0,0:0:0:0:
448,192,279564,1,0,0:0:0:0:
64,192,279590,1,0,0:0:0:0:
320,192,279616,1,0,0:0:0:0:
192,192,279668,1,0,0:0:0:0:
320,192,279720,1,0,0:0:0:0:
192,192,279772,1,0,0:0:0:0:
448,192,279824,1,0,0:0:0:0:
64,192,279875,1,0,0:0:0:0:
448,192,279901,1,0,0:0:0:0:
192,192,279927,1,0,0:0:0:0:
320,192,279978,1,0,0:0:0:0:
192,192,280030,1,0,0:0:0:0:
320,192,280081,1,0,0:0:0:0:
64,192,280133,1,0,0:0:0:0:
448,192,280184,1,0,0:0:0:0:
64,192,280209,1,0,0:0:0:0:
320,192,280235,1,0,0:0:0:0:
192,192,280286,1,0,0:0:0:0:
320,192,280338,1,0,0:0:0:0:
192,192,280389,1,0,0:0:0:0:
448,192,280440,1,0,0:0:0:0:
64,192,280491,1,0,0:0:0:0:
448,192,280516,1,0,0:0:0:0:
192,192,280542,1,0,0:0:0:0:
320,192,280593,1,0,0:0:0:0:
448,192,280644,1,0,0:0:0:0:
192,192,280695,1,0,0:0:0:0:
64,192,280746,1,0,0:0:0:0:
448,192,280796,1,0,0:0:0:0:
64,192,280822,1,0,0:0:0:0:
320,192,280847,1,0,0:0:0:0:
192,192,280898,1,0,0:0:0:0:
64,192,280949,1,0,0:0:0:0:
448,192,281000,1,0,0:0:0:0:
320,192,281050,1,0,0:0:0:0:
192,192,281050,1,0,0:0:0:0:
64,192,281100,1,0,0:0:0:0:
320,192,281151,1,0,0:0:0:0:
192,192,281201,1,0,0:0:0:0:
448,192,281252,1,0,0:0:0:0:
64,192,281302,1,0,0:0:0:0:
192,192,281353,1,0,0:0:0:0:
448,192,281403,1,0,0:0:0:0:
192,192,281453,1,0,0:0:0:0:
320,192,281503,1,0,0:0:0:0:
64,192,281554,1,0,0:0:0:0:
448,192,281604,1,0,0:0:0:0:
320,192,281654,1,0,0:0:0:0:
192,192,281704,1,0,0:0:0:0:
320,192,281729,1,0,0:0:0:0:
64,192,281754,1,0,0:0:0:0:
448,192,281804,1,0,0:0:0:0:
64,192,281854,1,0,0:0:0:0:
448,192,281904,1,0,0:0:0:0:
192,192,281954,1,0,0:0:0:0:
320,192,282003,1,0,0:0:0:0:
192,192,282028,1,0,0:0:0:0:
448,192,282053,1,0,0:0:0:0:
64,192,282103,1,0,0:0:0:0:
320,192,282140,1,0,0:0:0:0:
448,192,282178,1,0,0:0:0:0:
64,192,282253,1,0,0:0:0:0:
192,192,282286,1,0,0:0:0:0:
448,192,282319,1,0,0:0:0:0:
64,192,282385,1,0,0:0:0:0:
320,192,282451,1,0,0:0:0:0:
448,192,282484,1,0,0:0:0:0:
64,192,282517,1,0,0:0:0:0:
320,192,282582,1,0,0:0:0:0:
192,192,282648,1,0,0:0:0:0:
64,192,282681,1,0,0:0:0:0:
320,192,282714,1,0,0:0:0:0:
192,192,282780,1,0,0:0:0:0:
448,192,282846,1,0,0:0:0:0:
320,192,282878,1,0,0:0:0:0:
192,192,282911,1,0,0:0:0:0:
448,192,282977,1,0,0:0:0:0:
64,192,283042,1,0,0:0:0:0:
192,192,283075,1,0,0:0:0:0:
448,192,283108,1,0,0:0:0:0:
64,192,283172,1,0,0:0:0:0:
320,192,283237,1,0,0:0:0:0:
448,192,283270,1,0,0:0:0:0:
64,192,283303,1,0,0:0:0:0:
320,192,283368,1,0,0:0:0:0:
192,192,283433,5,0,0:0:0:0:
448,192,283433,1,0,0:0:0:0:
64,192,283474,1,0,0:0:0:0:
320,192,283516,1,0,0:0:0:0:
192,192,283558,1,0,0:0:0:0:
64,192,283599,1,0,0:0:0:0:
448,192,283641,1,0,0:0:0:0:
192,192,283683,1,0,0:0:0:0:
320,192,283725,1,0,0:0:0:0:
448,192,283766,1,0,0:0:0:0:
64,192,283808,1,0,0:0:0:0:
320,192,283849,1,0,0:0:0:0:
448,192,283891,1,0,0:0:0:0:
192,192,283932,1,0,0:0:0:0:
320,192,283974,1,0,0:0:0:0:
64,192,284015,1,0,0:0:0:0:
192,192,284056,1,0,0:0:0:0:
448,192,284097,1,0,0:0:0:0:
64,192,284139,1,0,0:0:0:0:
192,192,284180,1,0,0:0:0:0:
320,192,284221,1,0,0:0:0:0:
64,192,284263,1,0,0:0:0:0:
448,192,284304,1,0,0:0:0:0:
320,192,284345,1,0,0:0:0:0:
192,192,284386,1,0,0:0:0:0:
448,192,284427,1,0,0:0:0:0:
320,192,284468,1,0,0:0:0:0:
64,192,284509,1,0,0:0:0:0:
192,192,284550,1,0,0:0:0:0:
320,192,284592,1,0,0:0:0:0:
448,192,284592,1,0,0:0:0:0:
64,192,284632,1,0,0:0:0:0:
192,192,284673,1,0,0:0:0:0:
448,192,284714,1,0,0:0:0:0:
64,192,284755,1,0,0:0:0:0:
320,192,284796,1,0,0:0:0:0:
448,192,284837,1,0,0:0:0:0:
192,192,284878,1,0,0:0:0:0:
320,192,284918,1,0,0:0:0:0:
64,192,284959,1,0,0:0:0:0:
192,192,285000,1,0,0:0:0:0:
320,192,285041,1,0,0:0:0:0:
448,192,285081,1,0,0:0:0:0:
192,192,285122,1,0,0:0:0:0:
64,192,285163,1,0,0:0:0:0:
448,192,285203,1,0,0:0:0:0:
320,192,285244,1,0,0:0:0:0:
64,192,285284,1,0,0:0:0:0:
448,192,285325,1,0,0:0:0:0:
192,192,285365,1,0,0:0:0:0:
64,192,285406,1,0,0:0:0:0:
320,192,285447,1,0,0:0:0:0:
192,192,285494,1,0,0:0:0:0:
64,192,285541,1,0,0:0:0:0:
448,192,285588,1,0,0:0:0:0:
320,192,285588,1,0,0:0:0:0:
192,192,285659,1,0,0:0:0:0:
448,192,285729,1,0,0:0:0:0:
64,192,285729,1,0,0:0:0:0:
64,192,285799,1,0,0:0:0:0:
320,192,285799,1,0,0:0:0:0:
192,192,285869,1,0,0:0:0:0:
320,192,285940,1,0,0:0:0:0:
64,192,286010,1,0,0:0:0:0:
448,192,286010,1,0,0:0:0:0:
192,192,286080,1,0,0:0:0:0:
448,192,286080,1,0,0:0:0:0:
320,192,286150,1,0,0:0:0:0:
192,192,286220,1,0,0:0:0:0:
64,192,286290,1,0,0:0:0:0:
448,192,286290,1,0,0:0:0:0:
320,192,286329,1,0,0:0:0:0:
192,192,286369,1,0,0:0:0:0:
448,192,286409,1,0,0:0:0:0:
64,192,286449,1,0,0:0:0:0:
192,192,286489,1,0,0:0:0:0:
320,192,286529,1,0,0:0:0:0:
448,192,286568,1,0,0:0:0:0:
192,192,286607,1,0,0:0:0:0:
320,192,286647,1,0,0:0:0:0:
64,192,286687,1,0,0:0:0:0:
448,192,286726,1,0,0:0:0:0:
320,192,286766,1,0,0:0:0:0:
192,192,286806,1,0,0:0:0:0:
64,192,286853,1,0,0:0:0:0:
448,192,286853,1,0,0:0:0:0:
64,192,286991,128,0,287129:0:0:0:0:
320,192,287129,128,0,287267:0:0:0:0:
192,192,287267,128,0,287405:0:0:0:0:
448,192,287405,128,0,287544:0:0:0:0:
64,192,287405,1,0,0:0:0:0:
320,192,287475,1,0,0:0:0:0:
64,192,287544,128,0,287682:0:0:0:0:
192,192,287544,1,0,0:0:0:0:
320,192,287613,1,0,0:0:0:0:
448,192,287682,128,0,287820:0:0:0:0:
192,192,287682,1,0,0:0:0:0:
64,192,287751,1,0,0:0:0:0:
320,192,287820,128,0,287958:0:0:0:0:
192,192,287820,1,0,0:0:0:0:
448,192,287889,1,0,0:0:0:0:
192,192,287958,128,0,288097:0:0:0:0:
64,192,287958,128,0,288028:0:0:0:0:
320,192,288028,128,0,288097:0:0:0:0:
448,192,288028,128,0,288166:0:0:0:0:
64,192,288097,128,0,288166:0:0:0:0:
192,192,288166,128,0,288304:0:0:0:0:
320,192,288166,128,0,288235:0:0:0:0:
64,192,288235,128,0,288373:0:0:0:0:
320,192,288304,128,0,288581:0:0:0:0:
448,192,288304,128,0,288373:0:0:0:0:
192,192,288373,128,0,288442:0:0:0:0:
64,192,288442,128,0,288581:0:0:0:0:
448,192,288442,128,0,288511:0:0:0:0:
192,192,288511,128,0,288581:0:0:0:0:
448,192,288581,128,0,288788:0:0:0:0:
320,192,288650,128,0,288719:0:0:0:0:
64,192,288650,128,0,288719:0:0:0:0:
192,192,288719,128,0,288788:0:0:0:0:
64,192,288788,128,0,288857:0:0:0:0:
320,192,288788,128,0,288926:0:0:0:0:
448,192,288857,128,0,288995:0:0:0:0:
64,192,288926,128,0,289064:0:0:0:0:
192,192,288995,128,0,289064:0:0:0:0:
320,192,288995,128,0,289134:0:0:0:0:
448,192,289064,128,0,289134:0:0:0:0:
64,192,289134,128,0,289203:0:0:0:0:
192,192,289134,128,0,289341:0:0:0:0:
320,192,289203,128,0,289272:0:0:0:0:
448,192,289203,128,0,289272:0:0:0:0:
64,192,289272,128,0,289410:0:0:0:0:
320,192,289341,128,0,289410:0:0:0:0:
448,192,289341,128,0,289479:0:0:0:0:
192,192,289410,128,0,289548:0:0:0:0:
64,192,289479,128,0,289687:0:0:0:0:
320,192,289479,128,0,289548:0:0:0:0:
448,192,289548,128,0,289617:0:0:0:0:
192,192,289617,128,0,289687:0:0:0:0:
320,192,289617,128,0,289756:0:0:0:0:
448,192,289687,128,0,289756:0:0:0:0:
192,192,289756,128,0,289894:0:0:0:0:
64,192,289756,128,0,289825:0:0:0:0:
320,192,289825,128,0,289963:0:0:0:0:
448,192,289825,128,0,289894:0:0:0:0:
64,192,289894,128,0,289963:0:0:0:0:
448,192,289963,128,0,290101:0:0:0:0:
320,192,290032,128,0,290101:0:0:0:0:
64,192,290032,128,0,290170:0:0:0:0:
192,192,290101,128,0,290170:0:0:0:0:
320,192,290170,128,0,290309:0:0:0:0:
448,192,290170,128,0,290240:0:0:0:0:
192,192,290240,128,0,290378:0:0:0:0:
64,192,290240,128,0,290309:0:0:0:0:
448,192,290309,128,0,290378:0:0:0:0:
320,192,290378,128,0,290516:0:0:0:0:
64,192,290378,128,0,290447:0:0:0:0:
448,192,290447,128,0,290585:0:0:0:0:
192,192,290516,128,0,290585:0:0:0:0:
64,192,290516,128,0,290793:0:0:0:0:
320,192,290585,128,0,290654:0:0:0:0:
192,192,290654,128,0,290723:0:0:0:0:
448,192,290654,128,0,290793:0:0:0:0:
320,192,290723,128,0,290793:0:0:0:0:
192,192,290793,128,0,291000:0:0:0:0:
64,192,290862,128,0,290931:0:0:0:0:
448,192,290862,128,0,290931:0:0:0:0:
320,192,290931,128,0,291069:0:0:0:0:
64,192,291000,128,0,291138:0:0:0:0:
448,192,291000,128,0,291069:0:0:0:0:
192,192,291069,128,0,291207:0:0:0:0:
320,192,291138,128,0,291207:0:0:0:0:
448,192,291138,128,0,291276:0:0:0:0:
64,192,291207,128,0,291276:0:0:0:0:
192,192,291276,128,0,291553:0:0:0:0:
320,192,291276,128,0,291346:0:0:0:0:
64,192,291346,128,0,291484:0:0:0:0:
320,192,291415,128,0,291553:0:0:0:0:
448,192,291415,128,0,291484:0:0:0:0:
64,192,291553,128,0,291691:0:0:0:0:
448,192,291553,128,0,291622:0:0:0:0:
192,192,291622,128,0,291760:0:0:0:0:
320,192,291622,128,0,291691:0:0:0:0:
448,192,291691,128,0,291829:0:0:0:0:
320,192,291760,128,0,291829:0:0:0:0:
192,192,291829,128,0,292037:0:0:0:0:
64,192,291829,128,0,291899:0:0:0:0:
320,192,291968,128,0,292037:0:0:0:0:
64,192,291968,128,0,292175:0:0:0:0:
320,192,292106,128,0,292244:0:0:0:0:
192,192,292106,128,0,292244:0:0:0:0:
448,192,292244,128,0,292382:0:0:0:0:
64,192,292244,128,0,292313:0:0:0:0:
320,192,292313,128,0,292382:0:0:0:0:
192,192,292382,128,0,292452:0:0:0:0:
64,192,292382,128,0,292521:0:0:0:0:
448,192,292452,128,0,292521:0:0:0:0:
320,192,292452,128,0,292590:0:0:0:0:
192,192,292521,128,0,292590:0:0:0:0:
64,192,292590,128,0,292728:0:0:0:0:
448,192,292590,128,0,292659:0:0:0:0:
192,192,292659,128,0,292797:0:0:0:0:
320,192,292728,128,0,292797:0:0:0:0:
448,192,292728,128,0,293005:0:0:0:0:
64,192,292797,128,0,292866:0:0:0:0:
192,192,292866,128,0,293005:0:0:0:0:
320,192,292866,128,0,292935:0:0:0:0:
64,192,292935,128,0,293005:0:0:0:0:
320,192,293005,128,0,293212:0:0:0:0:
448,192,293074,128,0,293143:0:0:0:0:
192,192,293074,128,0,293143:0:0:0:0:
64,192,293143,128,0,293212:0:0:0:0:
192,192,293212,128,0,293281:0:0:0:0:
448,192,293212,128,0,293350:0:0:0:0:
320,192,293281,128,0,293419:0:0:0:0:
192,192,293350,128,0,293488:0:0:0:0:
64,192,293419,128,0,293488:0:0:0:0:
448,192,293419,128,0,293558:0:0:0:0:
320,192,293488,128,0,293558:0:0:0:0:
192,192,293558,128,0,293627:0:0:0:0:
64,192,293558,128,0,293696:0:0:0:0:
320,192,293627,128,0,293765:0:0:0:0:
448,192,293627,128,0,293696:0:0:0:0:
192,192,293696,128,0,293765:0:0:0:0:
64,192,293765,128,0,293903:0:0:0:0:
448,192,293765,128,0,293834:0:0:0:0:
320,192,293834,128,0,293903:0:0:0:0:
192,192,293903,128,0,293972:0:0:0:0:
448,192,293903,128,0,294041:0:0:0:0:
320,192,293972,128,0,294180:0:0:0:0:
192,192,294041,128,0,294111:0:0:0:0:
64,192,294041,128,0,294111:0:0:0:0:
448,192,294111,128,0,294249:0:0:0:0:
192,192,294180,128,0,294318:0:0:0:0:
64,192,294180,128,0,294249:0:0:0:0:
320,192,294249,128,0,294387:0:0:0:0:
448,192,294318,128,0,294456:0:0:0:0:
64,192,294318,128,0,294387:0:0:0:0:
192,192,294387,128,0,294456:0:0:0:0:
64,192,294456,128,0,294594:0:0:0:0:
320,192,294456,128,0,294525:0:0:0:0:
192,192,294525,128,0,294664:0:0:0:0:
320,192,294594,128,0,294664:0:0:0:0:
448,192,294664,128,0,294802:0:0:0:0:
64,192,294664,128,0,294733:0:0:0:0:
320,192,294733,128,0,294871:0:0:0:0:
192,192,294802,128,0,294871:0:0:0:0:
64,192,294802,128,0,294940:0:0:0:0:
448,192,294871,128,0,294940:0:0:0:0:
320,192,294940,128,0,295078:0:0:0:0:
192,192,294940,128,0,295009:0:0:0:0:
64,192,295009,128,0,295078:0:0:0:0:
448,192,295078,128,0,295147:0:0:0:0:
192,192,295078,128,0,295217:0:0:0:0:
64,192,295147,128,0,295286:0:0:0:0:
320,192,295217,128,0,295286:0:0:0:0:
448,192,295217,128,0,295286:0:0:0:0:
192,192,295286,128,0,295424:0:0:0:0:
320,192,295355,128,0,295424:0:0:0:0:
448,192,295355,128,0,295493:0:0:0:0:
64,192,295424,128,0,295631:0:0:0:0:
192,192,295493,128,0,295562:0:0:0:0:
320,192,295493,128,0,295631:0:0:0:0:
448,192,295562,128,0,295631:0:0:0:0:
192,192,295631,128,0,295700:0:0:0:0:
64,192,295700,128,0,295908:0:0:0:0:
448,192,295700,128,0,295839:0:0:0:0:
320,192,295700,1,0,0:0:0:0:
192,192,295770,128,0,295908:0:0:0:0:
320,192,295839,128,0,296046:0:0:0:0:
448,192,295908,128,0,295977:0:0:0:0:
192,192,295977,128,0,296115:0:0:0:0:
64,192,295977,1,0,0:0:0:0:
448,192,296046,128,0,296184:0:0:0:0:
64,192,296115,128,0,296253:0:0:0:0:
320,192,296184,128,0,296323:0:0:0:0:
448,192,296253,1,0,0:0:0:0:
192,192,296253,128,0,296392:0:0:0:0:
64,192,296323,128,0,296461:0:0:0:0:
320,192,296392,128,0,296461:0:0:0:0:
448,192,296392,128,0,296530:0:0:0:0:
192,192,296461,128,0,296599:0:0:0:0:
64,192,296530,128,0,296737:0:0:0:0:
320,192,296530,128,0,296599:0:0:0:0:
448,192,296599,128,0,296668:0:0:0:0:
192,192,296668,128,0,296737:0:0:0:0:
320,192,296668,128,0,296806:0:0:0:0:
448,192,296737,128,0,296806:0:0:0:0:
192,192,296806,128,0,296945:0:0:0:0:
64,192,296806,128,0,296876:0:0:0:0:
320,192,296876,128,0,296945:0:0:0:0:
448,192,296876,128,0,297014:0:0:0:0:
64,192,296945,128,0,297014:0:0:0:0:
192,192,297014,128,0,297152:0:0:0:0:
320,192,297014,128,0,297083:0:0:0:0:
64,192,297083,128,0,297221:0:0:0:0:
320,192,297152,128,0,297429:0:0:0:0:
448,192,297152,128,0,297221:0:0:0:0:
192,192,297221,128,0,297290:0:0:0:0:
64,192,297290,128,0,297429:0:0:0:0:
448,192,297290,128,0,297359:0:0:0:0:
192,192,297359,128,0,297429:0:0:0:0:
448,192,297429,128,0,297636:0:0:0:0:
320,192,297498,128,0,297567:0:0:0:0:
64,192,297498,128,0,297567:0:0:0:0:
192,192,297567,128,0,297636:0:0:0:0:
64,192,297636,128,0,297705:0:0:0:0:
320,192,297636,128,0,297774:0:0:0:0:
448,192,297705,128,0,297843:0:0:0:0:
64,192,297774,128,0,297912:0:0:0:0:
192,192,297843,128,0,297912:0:0:0:0:
320,192,297843,128,0,297982:0:0:0:0:
448,192,297912,128,0,297982:0:0:0:0:
64,192,297982,128,0,298051:0:0:0:0:
192,192,297982,128,0,298189:0:0:0:0:
320,192,298051,128,0,298120:0:0:0:0:
448,192,298051,128,0,298120:0:0:0:0:
64,192,298120,128,0,298258:0:0:0:0:
448,192,298189,128,0,298327:0:0:0:0:
320,192,298189,128,0,298258:0:0:0:0:
192,192,298258,128,0,298396:0:0:0:0:
320,192,298327,128,0,298396:0:0:0:0:
64,192,298327,128,0,298535:0:0:0:0:
448,192,298396,128,0,298465:0:0:0:0:
320,192,298465,128,0,298604:0:0:0:0:
192,192,298465,128,0,298535:0:0:0:0:
448,192,298535,128,0,298604:0:0:0:0:
192,192,298604,128,0,298742:0:0:0:0:
64,192,298604,128,0,298673:0:0:0:0:
320,192,298673,128,0,298811:0:0:0:0:
448,192,298673,128,0,298742:0:0:0:0:
64,192,298742,128,0,298811:0:0:0:0:
448,192,298811,128,0,298949:0:0:0:0:
320,192,298880,128,0,298949:0:0:0:0:
64,192,298880,128,0,298949:0:0:0:0:
192,192,298949,128,0,299018:0:0:0:0:
64,192,299018,128,0,299157:0:0:0:0:
320,192,299018,128,0,299157:0:0:0:0:
448,192,299018,128,0,299088:0:0:0:0:
448,192,299157,128,0,299295:0:0:0:0:
320,192,299226,128,0,299364:0:0:0:0:
192,192,299226,128,0,299364:0:0:0:0:
64,192,299226,128,0,299295:0:0:0:0:
64,192,299364,128,0,299502:0:0:0:0:
192,192,299433,128,0,299571:0:0:0:0:
320,192,299433,128,0,299502:0:0:0:0:
448,192,299433,128,0,299571:0:0:0:0:
320,192,299571,128,0,299710:0:0:0:0:
192,192,299641,128,0,299710:0:0:0:0:
64,192,299641,128,0,299779:0:0:0:0:
448,192,299641,128,0,299779:0:0:0:0:
192,192,299779,128,0,299917:0:0:0:0:
448,192,299848,128,0,299917:0:0:0:0:
320,192,299848,128,0,300055:0:0:0:0:
64,192,299848,128,0,299986:0:0:0:0:
448,192,299986,128,0,300055:0:0:0:0:
64,192,300055,128,0,300194:0:0:0:0:
320,192,300124,128,0,300194:0:0:0:0:
448,192,300124,128,0,300263:0:0:0:0:
192,192,300124,128,0,300263:0:0:0:0:
320,192,300263,128,0,300401:0:0:0:0:
64,192,300332,128,0,300470:0:0:0:0:
192,192,300332,128,0,300401:0:0:0:0:
448,192,300332,128,0,300470:0:0:0:0:
192,192,300470,128,0,300608:0:0:0:0:
64,192,300539,128,0,300677:0:0:0:0:
320,192,300539,128,0,300677:0:0:0:0:
448,192,300539,128,0,300608:0:0:0:0:
448,192,300677,128,0,300816:0:0:0:0:
192,192,300747,128,0,300885:0:0:0:0:
64,192,300747,128,0,300816:0:0:0:0:
320,192,300747,128,0,300885:0:0:0:0:
64,192,300885,128,0,300954:0:0:0:0:
192,192,300954,128,0,301092:0:0:0:0:
320,192,300954,128,0,301023:0:0:0:0:
448,192,300954,128,0,301023:0:0:0:0:
64,192,301023,128,0,301092:0:0:0:0:
320,192,301092,128,0,301230:0:0:0:0:
448,192,301092,128,0,301161:0:0:0:0:
192,192,301161,128,0,301230:0:0:0:0:
448,192,301230,128,0,301438:0:0:0:0:
64,192,301230,128,0,301300:0:0:0:0:
320,192,301300,128,0,301369:0:0:0:0:
192,192,301369,128,0,301438:0:0:0:0:
64,192,301369,128,0,301507:0:0:0:0:
320,192,301438,128,0,301507:0:0:0:0:
192,192,301507,128,0,301714:0:0:0:0:
448,192,301507,128,0,301576:0:0:0:0:
64,192,301576,128,0,301645:0:0:0:0:
320,192,301645,128,0,301714:0:0:0:0:
448,192,301645,128,0,301783:0:0:0:0:
64,192,301714,128,0,301783:0:0:0:0:
320,192,301783,128,0,301991:0:0:0:0:
192,192,301783,128,0,301853:0:0:0:0:
448,192,301853,128,0,301922:0:0:0:0:
192,192,301922,128,0,302060:0:0:0:0:
64,192,301922,128,0,301991:0:0:0:0:
448,192,301991,128,0,302060:0:0:0:0:
320,192,302060,128,0,302129:0:0:0:0:
64,192,302060,128,0,302267:0:0:0:0:
192,192,302129,128,0,302198:0:0:0:0:
448,192,302198,128,0,302336:0:0:0:0:
320,192,302198,128,0,302267:0:0:0:0:
192,192,302267,128,0,302336:0:0:0:0:
320,192,302336,128,0,302544:0:0:0:0:
64,192,302336,128,0,302405:0:0:0:0:
448,192,302405,128,0,302475:0:0:0:0:
192,192,302475,128,0,302544:0:0:0:0:
64,192,302475,128,0,302544:0:0:0:0:
448,192,302544,128,0,302613:0:0:0:0:
192,192,302613,128,0,302820:0:0:0:0:
320,192,302613,128,0,302682:0:0:0:0:
64,192,302682,128,0,302751:0:0:0:0:
448,192,302751,128,0,302820:0:0:0:0:
320,192,302751,128,0,302820:0:0:0:0:
64,192,302820,128,0,302889:0:0:0:0:
448,192,302889,128,0,303097:0:0:0:0:
192,192,302889,128,0,302958:0:0:0:0:
320,192,302958,128,0,303028:0:0:0:0:
192,192,303028,128,0,303097:0:0:0:0:
64,192,303028,128,0,303097:0:0:0:0:
320,192,303097,128,0,303166:0:0:0:0:
448,192,303166,128,0,303235:0:0:0:0:
64,192,303166,128,0,303373:0:0:0:0:
192,192,303235,128,0,303304:0:0:0:0:
320,192,303304,128,0,303373:0:0:0:0:
448,192,303304,128,0,303373:0:0:0:0:
192,192,303373,128,0,303442:0:0:0:0:
320,192,303442,128,0,303650:0:0:0:0:
64,192,303442,128,0,303511:0:0:0:0:
448,192,303511,128,0,303581:0:0:0:0:
64,192,303581,128,0,303788:0:0:0:0:
448,192,303650,128,0,303788:0:0:0:0:
192,192,303719,128,0,303788:0:0:0:0:
320,192,303719,1,0,0:0:0:0:
64,192,303857,1,0,0:0:0:0:
192,192,303857,1,0,0:0:0:0:
448,192,303857,128,0,303926:0:0:0:0:
320,192,303903,128,0,303995:0:0:0:0:
64,192,303949,128,0,304203:0:0:0:0:
448,192,303995,128,0,304064:0:0:0:0:
192,192,304064,128,0,304134:0:0:0:0:
448,192,304134,128,0,304203:0:0:0:0:
320,192,304134,1,0,0:0:0:0:
192,192,304203,128,0,304272:0:0:0:0:
64,192,304272,1,0,0:0:0:0:
320,192,304272,1,0,0:0:0:0:
448,192,304272,1,0,0:0:0:0:
64,192,304410,128,0,304479:0:0:0:0:
192,192,304456,128,0,304548:0:0:0:0:
448,192,304502,128,0,304687:0:0:0:0:
64,192,304548,128,0,304756:0:0:0:0:
320,192,304548,1,0,0:0:0:0:
192,192,304687,128,0,304756:0:0:0:0:
448,192,304756,128,0,304894:0:0:0:0:
64,192,304825,128,0,305032:0:0:0:0:
448,192,304963,128,0,305170:0:0:0:0:
320,192,305032,1,0,0:0:0:0:
192,192,305101,1,0,0:0:0:0:
64,192,305101,128,0,305240:0:0:0:0:
448,192,305240,128,0,305378:0:0:0:0:
64,192,305309,1,0,0:0:0:0:
320,192,305378,1,0,0:0:0:0:
192,192,305378,128,0,305516:0:0:0:0:
448,192,305447,128,0,305516:0:0:0:0:
64,192,305516,1,0,0:0:0:0:
320,192,305516,128,0,305654:0:0:0:0:
448,192,305585,128,0,305654:0:0:0:0:
64,192,305654,128,0,305793:0:0:0:0:
192,192,305654,128,0,305793:0:0:0:0:
448,192,305793,1,0,0:0:0:0:
192,192,305931,1,0,0:0:0:0:
64,192,305931,1,0,0:0:0:0:
448,192,305931,1,0,0:0:0:0:
192,192,306069,128,0,306207:0:0:0:0:
320,192,306069,128,0,306207:0:0:0:0:
448,192,306207,1,0,0:0:0:0:
64,192,306346,1,0,0:0:0:0:
192,192,306346,1,0,0:0:0:0:
64,192,306484,128,0,306622:0:0:0:0:
448,192,306484,1,0,0:0:0:0:
320,192,306484,128,0,306622:0:0:0:0:
192,192,306622,1,0,0:0:0:0:
320,192,306760,128,0,306899:0:0:0:0:
448,192,306760,128,0,306899:0:0:0:0:
192,192,306760,128,0,306829:0:0:0:0:
64,192,306899,1,0,0:0:0:0:
64,192,307037,1,0,0:0:0:0:
448,192,307037,1,0,0:0:0:0:
320,192,307037,1,0,0:0:0:0:
192,192,307175,1,0,0:0:0:0:
320,192,307175,1,0,0:0:0:0:
64,192,307244,128,0,307382:0:0:0:0:
448,192,307313,128,0,307382:0:0:0:0:
192,192,307382,128,0,307521:0:0:0:0:
64,192,307452,1,0,0:0:0:0:
448,192,307452,128,0,307590:0:0:0:0:
320,192,307521,128,0,307659:0:0:0:0:
192,192,307590,1,0,0:0:0:0:
64,192,307590,128,0,307728:0:0:0:0:
448,192,307659,128,0,307728:0:0:0:0:
192,192,307728,128,0,307866:0:0:0:0:
448,192,307797,128,0,307866:0:0:0:0:
64,192,307866,128,0,308005:0:0:0:0:
320,192,307866,128,0,307935:0:0:0:0:
192,192,308005,1,0,0:0:0:0:
320,192,308074,128,0,308212:0:0:0:0:
448,192,308074,128,0,308212:0:0:0:0:
192,192,308143,1,0,0:0:0:0:
64,192,308143,1,0,0:0:0:0:
64,192,308281,128,0,308419:0:0:0:0:
448,192,308281,128,0,308419:0:0:0:0:
320,192,308419,1,0,0:0:0:0:
64,192,308488,128,0,308627:0:0:0:0:
192,192,308558,1,0,0:0:0:0:
320,192,308558,128,0,308696:0:0:0:0:
448,192,308627,128,0,308765:0:0:0:0:
64,192,308696,1,0,0:0:0:0:
192,192,308696,128,0,308834:0:0:0:0:
320,192,308765,128,0,308903:0:0:0:0:
64,192,308834,128,0,308972:0:0:0:0:
192,192,308903,128,0,309041:0:0:0:0:
320,192,308972,128,0,309041:0:0:0:0:
448,192,308972,128,0,309111:0:0:0:0:
192,192,309111,128,0,309180:0:0:0:0:
320,192,309111,128,0,309249:0:0:0:0:
64,192,309249,128,0,309318:0:0:0:0:
448,192,309249,1,0,0:0:0:0:
192,192,309249,128,0,309387:0:0:0:0:
320,192,309387,128,0,309456:0:0:0:0:
64,192,309387,128,0,309525:0:0:0:0:
320,192,309525,128,0,309664:0:0:0:0:
192,192,309594,1,0,0:0:0:0:
64,192,309594,1,0,0:0:0:0:
448,192,309664,128,0,309733:0:0:0:0:
64,192,309802,1,0,0:0:0:0:
448,192,309802,128,0,309940:0:0:0:0:
192,192,309802,128,0,309871:0:0:0:0:
192,192,309940,128,0,310078:0:0:0:0:
320,192,309940,128,0,310009:0:0:0:0:
64,192,310009,128,0,310078:0:0:0:0:
320,192,310078,128,0,310217:0:0:0:0:
448,192,310078,128,0,310147:0:0:0:0:
192,192,310217,1,0,0:0:0:0:
448,192,310355,1,0,0:0:0:0:
192,192,310355,128,0,310493:0:0:0:0:
320,192,310355,128,0,310631:0:0:0:0:
448,192,310493,128,0,310770:0:0:0:0:
64,192,310493,128,0,310631:0:0:0:0:
192,192,310631,1,0,0:0:0:0:
320,192,310770,1,0,0:0:0:0:
64,192,310770,128,0,310839:0:0:0:0:
192,192,310839,128,0,310977:0:0:0:0:
448,192,310908,1,0,0:0:0:0:
64,192,310908,128,0,311046:0:0:0:0:
320,192,310977,128,0,311115:0:0:0:0:
192,192,311046,128,0,311184:0:0:0:0:
64,192,311115,128,0,311253:0:0:0:0:
448,192,311184,128,0,311323:0:0:0:0:
320,192,311184,128,0,311253:0:0:0:0:
192,192,311253,128,0,311392:0:0:0:0:
320,192,311323,128,0,311461:0:0:0:0:
64,192,311392,128,0,311530:0:0:0:0:
192,192,311461,128,0,311530:0:0:0:0:
448,192,311461,1,0,0:0:0:0:
320,192,311530,128,0,311668:0:0:0:0:
64,192,311599,1,0,0:0:0:0:
192,192,311599,128,0,311737:0:0:0:0:
448,192,311668,128,0,311806:0:0:0:0:
64,192,311737,128,0,311876:0:0:0:0:
192,192,311806,128,0,311945:0:0:0:0:
320,192,311876,1,0,0:0:0:0:
448,192,311876,128,0,312014:0:0:0:0:
64,192,311945,128,0,312083:0:0:0:0:
192,192,312014,1,0,0:0:0:0:
320,192,312014,128,0,312152:0:0:0:0:
448,192,312083,128,0,312221:0:0:0:0:
192,192,312152,128,0,312290:0:0:0:0:
320,192,312221,128,0,312359:0:0:0:0:
64,192,312290,128,0,312429:0:0:0:0:
448,192,312290,128,0,312359:0:0:0:0:
192,192,312359,128,0,312498:0:0:0:0:
448,192,312429,128,0,312567:0:0:0:0:
320,192,312498,128,0,312636:0:0:0:0:
64,192,312567,1,0,0:0:0:0:
192,192,312567,128,0,312705:0:0:0:0:
448,192,312636,128,0,312774:0:0:0:0:
64,192,312705,128,0,312843:0:0:0:0:
320,192,312774,128,0,312912:0:0:0:0:
192,192,312843,128,0,312912:0:0:0:0:
64,192,312912,128,0,313051:0:0:0:0:
448,192,312982,1,0,0:0:0:0:
192,192,312982,128,0,313120:0:0:0:0:
320,192,313051,128,0,313189:0:0:0:0:
64,192,313120,1,0,0:0:0:0:
448,192,313120,128,0,313258:0:0:0:0:
192,192,313189,128,0,313327:0:0:0:0:
320,192,313258,128,0,313327:0:0:0:0:
64,192,313327,128,0,313396:0:0:0:0:
320,192,313396,128,0,313535:0:0:0:0:
192,192,313396,128,0,313465:0:0:0:0:
448,192,313535,1,0,0:0:0:0:
64,192,313604,128,0,313742:0:0:0:0:
192,192,313604,128,0,313742:0:0:0:0:
320,192,313673,1,0,0:0:0:0:
448,192,313673,1,0,0:0:0:0:
448,192,313811,128,0,313949:0:0:0:0:
64,192,313811,128,0,313949:0:0:0:0:
192,192,313949,128,0,314018:0:0:0:0:
320,192,314018,1,0,0:0:0:0:
448,192,314018,128,0,314157:0:0:0:0:
64,192,314088,128,0,314226:0:0:0:0:
320,192,314157,128,0,314226:0:0:0:0:
448,192,314226,128,0,314364:0:0:0:0:
192,192,314226,128,0,314295:0:0:0:0:
64,192,314295,128,0,314364:0:0:0:0:
320,192,314364,128,0,314433:0:0:0:0:
192,192,314364,128,0,314433:0:0:0:0:
448,192,314433,128,0,314502:0:0:0:0:
320,192,314502,128,0,314641:0:0:0:0:
192,192,314502,1,0,0:0:0:0:
64,192,314502,128,0,314571:0:0:0:0:
448,192,314571,128,0,314641:0:0:0:0:
192,192,314641,128,0,314779:0:0:0:0:
64,192,314641,1,0,0:0:0:0:
320,192,314710,128,0,314917:0:0:0:0:
448,192,314710,128,0,314848:0:0:0:0:
64,192,314779,128,0,314848:0:0:0:0:
192,192,314848,128,0,314986:0:0:0:0:
64,192,314917,128,0,315055:0:0:0:0:
448,192,314917,128,0,314986:0:0:0:0:
320,192,314986,128,0,315055:0:0:0:0:
192,192,315055,128,0,315194:0:0:0:0:
448,192,315055,1,0,0:0:0:0:
64,192,315124,128,0,315194:0:0:0:0:
448,192,315194,128,0,315332:0:0:0:0:
320,192,315194,1,0,0:0:0:0:
192,192,315263,128,0,315470:0:0:0:0:
64,192,315263,128,0,315401:0:0:0:0:
320,192,315332,128,0,315401:0:0:0:0:
448,192,315401,128,0,315539:0:0:0:0:
320,192,315470,128,0,315608:0:0:0:0:
64,192,315470,128,0,315539:0:0:0:0:
192,192,315539,128,0,315608:0:0:0:0:
448,192,315608,128,0,315747:0:0:0:0:
64,192,315608,1,0,0:0:0:0:
320,192,315677,128,0,315747:0:0:0:0:
64,192,315747,128,0,315885:0:0:0:0:
192,192,315747,1,0,0:0:0:0:
448,192,315816,128,0,316023:0:0:0:0:
320,192,315816,128,0,315954:0:0:0:0:
192,192,315885,128,0,315954:0:0:0:0:
64,192,315954,128,0,316092:0:0:0:0:
192,192,316023,128,0,316161:0:0:0:0:
320,192,316023,128,0,316092:0:0:0:0:
448,192,316092,128,0,316161:0:0:0:0:
64,192,316161,128,0,316300:0:0:0:0:
320,192,316161,1,0,0:0:0:0:
192,192,316230,128,0,316300:0:0:0:0:
320,192,316300,128,0,316507:0:0:0:0:
448,192,316300,1,0,0:0:0:0:
64,192,316369,128,0,316438:0:0:0:0:
192,192,316369,128,0,316576:0:0:0:0:
448,192,316438,128,0,316507:0:0:0:0:
64,192,316507,128,0,316645:0:0:0:0:
320,192,316576,128,0,316783:0:0:0:0:
448,192,316576,128,0,316645:0:0:0:0:
192,192,316645,128,0,316714:0:0:0:0:
64,192,316714,128,0,316853:0:0:0:0:
448,192,316714,1,0,0:0:0:0:
192,192,316783,128,0,316853:0:0:0:0:
448,192,316853,128,0,316991:0:0:0:0:
320,192,316853,1,0,0:0:0:0:
64,192,316922,128,0,317129:0:0:0:0:
192,192,316922,128,0,317060:0:0:0:0:
320,192,316991,128,0,317060:0:0:0:0:
448,192,317060,128,0,317198:0:0:0:0:
192,192,317129,128,0,317198:0:0:0:0:
320,192,317129,128,0,317267:0:0:0:0:
64,192,317198,128,0,317267:0:0:0:0:
448,192,317267,128,0,317405:0:0:0:0:
192,192,317267,1,0,0:0:0:0:
320,192,317336,128,0,317405:0:0:0:0:
64,192,317405,1,0,0:0:0:0:
192,192,317405,128,0,317544:0:0:0:0:
448,192,317475,128,0,317682:0:0:0:0:
320,192,317475,128,0,317613:0:0:0:0:
64,192,317544,128,0,317613:0:0:0:0:
192,192,317613,128,0,317751:0:0:0:0:
320,192,317682,128,0,317751:0:0:0:0:
64,192,317682,128,0,317820:0:0:0:0:
448,192,317751,128,0,317820:0:0:0:0:
192,192,317820,128,0,317889:0:0:0:0:
320,192,317820,128,0,317958:0:0:0:0:
64,192,317889,128,0,317958:0:0:0:0:
192,192,317958,128,0,318097:0:0:0:0:
448,192,317958,128,0,318028:0:0:0:0:
64,192,318028,128,0,318097:0:0:0:0:
320,192,318097,128,0,318166:0:0:0:0:
448,192,318097,128,0,318235:0:0:0:0:
192,192,318166,128,0,318235:0:0:0:0:
320,192,318235,128,0,318304:0:0:0:0:
64,192,318235,128,0,318373:0:0:0:0:
192,192,318304,128,0,318373:0:0:0:0:
320,192,318373,128,0,318511:0:0:0:0:
448,192,318373,128,0,318442:0:0:0:0:
64,192,318442,128,0,318511:0:0:0:0:
192,192,318511,128,0,318581:0:0:0:0:
448,192,318511,128,0,318650:0:0:0:0:
320,192,318581,128,0,318650:0:0:0:0:
192,192,318650,128,0,318788:0:0:0:0:
64,192,318650,128,0,318719:0:0:0:0:
448,192,318719,128,0,318788:0:0:0:0:
64,192,318788,128,0,318857:0:0:0:0:
320,192,318788,128,0,318857:0:0:0:0:
192,192,318857,128,0,318926:0:0:0:0:
448,192,318926,128,0,318995:0:0:0:0:
64,192,318926,128,0,319064:0:0:0:0:
320,192,318926,1,0,0:0:0:0:
320,192,319064,128,0,319203:0:0:0:0:
192,192,319064,128,0,319134:0:0:0:0:
448,192,319064,1,0,0:0:0:0:
64,192,319134,128,0,319272:0:0:0:0:
448,192,319203,128,0,319341:0:0:0:0:
192,192,319203,128,0,319272:0:0:0:0:
64,192,319341,5,0,0:0:0:0:
192,192,319341,128,0,319479:0:0:0:0:
320,192,319341,128,0,319410:0:0:0:0:
448,192,319410,128,0,319548:0:0:0:0:
320,192,319479,128,0,319548:0:0:0:0:
64,192,319479,128,0,319617:0:0:0:0:
448,192,319617,1,0,0:0:0:0:
320,192,319617,128,0,319687:0:0:0:0:
192,192,319617,128,0,319756:0:0:0:0:
64,192,319687,128,0,319756:0:0:0:0:
448,192,319756,128,0,319894:0:0:0:0:
320,192,319756,128,0,319894:0:0:0:0:
64,192,319894,128,0,319963:0:0:0:0:
192,192,319894,128,0,319963:0:0:0:0:
448,192,319963,128,0,320032:0:0:0:0:
64,192,320032,5,0,0:0:0:0:
320,192,320032,128,0,320170:0:0:0:0:
192,192,320032,128,0,320101:0:0:0:0:
192,192,320170,1,0,0:0:0:0:
64,192,320170,128,0,320309:0:0:0:0:
448,192,320170,128,0,320240:0:0:0:0:
320,192,320240,128,0,320378:0:0:0:0:
192,192,320309,128,0,320447:0:0:0:0:
448,192,320309,128,0,320378:0:0:0:0:
320,192,320447,1,0,0:0:0:0:
64,192,320447,128,0,320516:0:0:0:0:
448,192,320447,128,0,320585:0:0:0:0:
192,192,320516,128,0,320654:0:0:0:0:
64,192,320585,128,0,320723:0:0:0:0:
320,192,320585,128,0,320654:0:0:0:0:
192,192,320723,1,0,0:0:0:0:
320,192,320723,128,0,320862:0:0:0:0:
64,192,320793,128,0,320931:0:0:0:0:
448,192,320793,128,0,320931:0:0:0:0:
192,192,320862,128,0,320931:0:0:0:0:
320,192,320931,128,0,321000:0:0:0:0:
64,192,321000,1,0,0:0:0:0:
192,192,321000,128,0,321138:0:0:0:0:
448,192,321000,128,0,321069:0:0:0:0:
448,192,321138,128,0,321207:0:0:0:0:
64,192,321138,128,0,321253:0:0:0:0:
320,192,321184,128,0,321346:0:0:0:0:
192,192,321230,128,0,321300:0:0:0:0:
448,192,321276,128,0,321392:0:0:0:0:
64,192,321323,128,0,321438:0:0:0:0:
192,192,321369,128,0,321530:0:0:0:0:
320,192,321415,128,0,321484:0:0:0:0:
448,192,321461,128,0,321622:0:0:0:0:
64,192,321507,128,0,321576:0:0:0:0:
320,192,321553,128,0,321668:0:0:0:0:
192,192,321599,128,0,321714:0:0:0:0:
64,192,321645,128,0,321806:0:0:0:0:
448,192,321691,128,0,321760:0:0:0:0:
320,192,321737,128,0,321899:0:0:0:0:
192,192,321783,128,0,321853:0:0:0:0:
448,192,321829,128,0,321945:0:0:0:0:
64,192,321876,128,0,321991:0:0:0:0:
192,192,321922,128,0,322083:0:0:0:0:
320,192,321968,128,0,322037:0:0:0:0:
448,192,322014,128,0,322175:0:0:0:0:
64,192,322060,128,0,322129:0:0:0:0:
320,192,322106,128,0,322175:0:0:0:0:
192,192,322152,128,0,322221:0:0:0:0:
64,192,322198,1,0,0:0:0:0:
448,192,322244,1,0,0:0:0:0:
320,192,322244,1,0,0:0:0:0:
192,192,322290,1,0,0:0:0:0:
448,192,322336,1,0,0:0:0:0:
192,192,322382,1,0,0:0:0:0:
320,192,322452,1,0,0:0:0:0:
64,192,322521,1,0,0:0:0:0:
448,192,322521,1,0,0:0:0:0:
320,192,322590,1,0,0:0:0:0:
192,192,322659,1,0,0:0:0:0:
448,192,322659,1,0,0:0:0:0:
64,192,322728,1,0,0:0:0:0:
448,192,322797,1,0,0:0:0:0:
320,192,322843,128,0,322889:0:0:0:0:
192,192,322843,128,0,322912:0:0:0:0:
64,192,322958,128,0,323005:0:0:0:0:
320,192,322958,128,0,323028:0:0:0:0:
64,192,323074,1,0,0:0:0:0:
448,192,323153,1,0,0:0:0:0:
192,192,323192,1,0,0:0:0:0:
448,192,323232,1,0,0:0:0:0:
64,192,323271,1,0,0:0:0:0:
320,192,323311,1,0,0:0:0:0:
448,192,323350,1,0,0:0:0:0:
64,192,323350,1,0,0:0:0:0:
192,192,323350,1,0,0:0:0:0:
192,192,323902,1,0,0:0:0:0:
448,192,323902,1,0,0:0:0:0:
64,192,324317,1,0,0:0:0:0:
320,192,324732,1,0,0:0:0:0:
448,192,324732,1,0,0:0:0:0:
64,192,325008,1,0,0:0:0:0:
320,192,325008,1,0,0:0:0:0:
192,192,325285,1,0,0:0:0:0:
64,192,325423,1,0,0:0:0:0:
320,192,325561,1,0,0:0:0:0:
448,192,325561,1,0,0:0:0:0:
192,192,325838,1,0,0:0:0:0:
448,192,325976,1,0,0:0:0:0:
192,192,326114,1,0,0:0:0:0:
320,192,326114,1,0,0:0:0:0:
448,192,326391,1,0,0:0:0:0:
64,192,326529,1,0,0:0:0:0:
320,192,326667,1,0,0:0:0:0:
64,192,326806,1,0,0:0:0:0:
192,192,326944,1,0,0:0:0:0:
448,192,326944,1,0,0:0:0:0:
320,192,327082,1,0,0:0:0:0:
64,192,327220,1,0,0:0:0:0:
448,192,327220,1,0,0:0:0:0:
192,192,327497,1,0,0:0:0:0:
320,192,327497,1,0,0:0:0:0:
448,192,327635,1,0,0:0:0:0:
192,192,327773,128,0,328326:0:0:0:0:
64,192,327773,1,0,0:0:0:0:
448,192,328188,1,0,0:0:0:0:
320,192,328326,1,0,0:0:0:0:
64,192,328326,1,0,0:0:0:0:
320,192,328603,1,0,0:0:0:0:
64,192,328741,1,0,0:0:0:0:
320,192,328879,1,0,0:0:0:0:
64,192,329018,1,0,0:0:0:0:
448,192,329156,128,0,329432:0:0:0:0:
192,192,329156,1,0,0:0:0:0:
320,192,329432,1,0,0:0:0:0:
64,192,329432,1,0,0:0:0:0:
64,192,329709,128,0,330262:0:0:0:0:
192,192,329847,1,0,0:0:0:0:
320,192,329985,1,0,0:0:0:0:
448,192,329985,1,0,0:0:0:0:
192,192,330262,1,0,0:0:0:0:
448,192,330400,1,0,0:0:0:0:
192,192,330538,1,0,0:0:0:0:
320,192,330538,1,0,0:0:0:0:
320,192,330815,128,0,331368:0:0:0:0:
448,192,330815,1,0,0:0:0:0:
64,192,330953,1,0,0:0:0:0:
192,192,331091,5,0,0:0:0:0:
448,192,331230,1,0,0:0:0:0:
64,192,331368,5,0,0:0:0:0:
192,192,331368,1,0,0:0:0:0:
448,192,331644,128,0,331921:0:0:0:0:
64,192,331644,1,0,0:0:0:0:
320,192,331921,128,0,332197:0:0:0:0:
192,192,331921,1,0,0:0:0:0:
448,192,332059,1,0,0:0:0:0:
192,192,332197,128,0,332742:0:0:0:0:
64,192,332197,1,0,0:0:0:0:
320,192,332742,1,0,0:0:0:0:
64,192,332742,1,0,0:0:0:0:
320,192,333008,1,0,0:0:0:0:
64,192,333139,1,0,0:0:0:0:
320,192,333270,1,0,0:0:0:0:
448,192,333527,128,0,333780:0:0:0:0:
64,192,333527,1,0,0:0:0:0:
320,192,333780,1,0,0:0:0:0:
64,192,334029,128,0,334515:0:0:0:0:
320,192,334029,1,0,0:0:0:0:
192,192,334151,1,0,0:0:0:0:
320,192,334274,1,0,0:0:0:0:
448,192,334274,1,0,0:0:0:0:
192,192,334515,5,0,0:0:0:0:
192,192,334752,5,0,0:0:0:0:
320,192,334752,1,0,0:0:0:0:
320,192,334985,128,0,335441:0:0:0:0:
64,192,335100,1,0,0:0:0:0:
448,192,335328,1,0,0:0:0:0:
64,192,335441,5,0,0:0:0:0:
192,192,335441,1,0,0:0:0:0:
64,192,335664,1,0,0:0:0:0:
448,192,335664,1,0,0:0:0:0:
64,192,335883,128,0,336099:0:0:0:0:
448,192,335883,1,0,0:0:0:0:
320,192,336099,128,0,336522:0:0:0:0:
192,192,336099,1,0,0:0:0:0:
64,192,336417,1,0,0:0:0:0:
192,192,336522,1,0,0:0:0:0:
448,192,336522,1,0,0:0:0:0:
192,192,336729,1,0,0:0:0:0:
192,192,336933,1,0,0:0:0:0:
64,192,337135,128,0,337334:0:0:0:0:
320,192,337135,1,0,0:0:0:0:
320,192,337334,1,0,0:0:0:0:
192,192,337432,1,0,0:0:0:0:
448,192,337530,128,0,337915:0:0:0:0:
64,192,337530,1,0,0:0:0:0:
320,192,337627,1,0,0:0:0:0:
64,192,337724,1,0,0:0:0:0:
192,192,337724,1,0,0:0:0:0:
320,192,337915,1,0,0:0:0:0:
320,192,338104,5,0,0:0:0:0:
64,192,338104,1,0,0:0:0:0:
192,192,338291,128,0,338657:0:0:0:0:
64,192,338657,1,0,0:0:0:0:
448,192,338657,1,0,0:0:0:0:
64,192,338837,128,0,339015:0:0:0:0:
320,192,338837,1,0,0:0:0:0:
192,192,339015,128,0,339103:0:0:0:0:
448,192,339015,1,0,0:0:0:0:
320,192,339103,1,0,0:0:0:0:
192,192,339191,128,0,339537:0:0:0:0:
64,192,339191,128,0,339365:0:0:0:0:
448,192,339191,128,0,339537:0:0:0:0:
320,192,339537,1,0,0:0:0:0:
64,192,339537,1,0,0:0:0:0:
320,192,339707,1,0,0:0:0:0:
192,192,339875,1,0,0:0:0:0:
320,192,339875,1,0,0:0:0:0:
448,192,340041,128,0,340205:0:0:0:0:
320,192,340205,1,0,0:0:0:0:
64,192,340205,1,0,0:0:0:0:
64,192,340367,128,0,340687:0:0:0:0:
320,192,340528,128,0,340687:0:0:0:0:
192,192,340528,128,0,340687:0:0:0:0:
448,192,340528,128,0,340607:0:0:0:0:
448,192,340687,5,0,0:0:0:0:
320,192,340844,1,0,0:0:0:0:
192,192,340844,1,0,0:0:0:0:
320,192,341000,128,0,341306:0:0:0:0:
192,192,341154,1,0,0:0:0:0:
64,192,341306,1,0,0:0:0:0:
192,192,341457,1,0,0:0:0:0:
448,192,341457,1,0,0:0:0:0:
192,192,341606,128,0,341754:0:0:0:0:
320,192,341754,128,0,342045:0:0:0:0:
448,192,341754,128,0,341900:0:0:0:0:
64,192,341754,128,0,342045:0:0:0:0:
448,192,342045,1,0,0:0:0:0:
192,192,342045,1,0,0:0:0:0:
320,192,342117,1,0,0:0:0:0:
192,192,342189,1,0,0:0:0:0:
320,192,342260,1,0,0:0:0:0:
192,192,342331,1,0,0:0:0:0:
64,192,342331,1,0,0:0:0:0:
64,192,342472,128,0,342612:0:0:0:0:
320,192,342542,1,0,0:0:0:0:
448,192,342612,1,0,0:0:0:0:
192,192,342612,1,0,0:0:0:0:
448,192,342750,128,0,343023:0:0:0:0:
64,192,342887,128,0,342955:0:0:0:0:
192,192,342887,128,0,343023:0:0:0:0:
320,192,342887,128,0,343023:0:0:0:0:
64,192,343023,5,0,0:0:0:0:
320,192,343158,1,0,0:0:0:0:
192,192,343158,1,0,0:0:0:0:
192,192,343291,128,0,343554:0:0:0:0:
448,192,343357,1,0,0:0:0:0:
64,192,343423,1,0,0:0:0:0:
320,192,343488,1,0,0:0:0:0:
448,192,343554,1,0,0:0:0:0:
64,192,343619,1,0,0:0:0:0:
192,192,343684,1,0,0:0:0:0:
448,192,343684,1,0,0:0:0:0:
320,192,343748,1,0,0:0:0:0:
64,192,343813,1,0,0:0:0:0:
320,192,343877,1,0,0:0:0:0:
192,192,343941,128,0,344194:0:0:0:0:
64,192,343941,128,0,344068:0:0:0:0:
448,192,343941,128,0,344004:0:0:0:0:
448,192,344068,1,0,0:0:0:0:
64,192,344194,1,0,0:0:0:0:
320,192,344194,1,0,0:0:0:0:
320,192,344319,1,0,0:0:0:0:
64,192,344380,1,0,0:0:0:0:
320,192,344442,1,0,0:0:0:0:
192,192,344442,1,0,0:0:0:0:
64,192,344503,5,0,0:0:0:0:
448,192,344564,128,0,344685:0:0:0:0:
192,192,344624,1,0,0:0:0:0:
64,192,344685,1,0,0:0:0:0:
320,192,344685,1,0,0:0:0:0:
64,192,344805,128,0,345044:0:0:0:0:
192,192,344925,128,0,345044:0:0:0:0:
320,192,344925,128,0,345044:0:0:0:0:
448,192,344925,128,0,344984:0:0:0:0:
448,192,345044,1,0,0:0:0:0:
320,192,345162,1,0,0:0:0:0:
192,192,345162,1,0,0:0:0:0:
320,192,345279,128,0,345510:0:0:0:0:
64,192,345337,1,0,0:0:0:0:
448,192,345395,1,0,0:0:0:0:
192,192,345452,1,0,0:0:0:0:
64,192,345510,1,0,0:0:0:0:
448,192,345567,1,0,0:0:0:0:
320,192,345624,1,0,0:0:0:0:
192,192,345624,1,0,0:0:0:0:
192,192,345737,1,0,0:0:0:0:
320,192,345849,128,0,346071:0:0:0:0:
448,192,345849,128,0,345960:0:0:0:0:
64,192,345849,128,0,345904:0:0:0:0:
64,192,345960,1,0,0:0:0:0:
192,192,346071,1,0,0:0:0:0:
448,192,346071,1,0,0:0:0:0:
192,192,346181,1,0,0:0:0:0:
448,192,346235,1,0,0:0:0:0:
192,192,346290,1,0,0:0:0:0:
320,192,346290,1,0,0:0:0:0:
448,192,346344,5,0,0:0:0:0:
64,192,346398,128,0,346505:0:0:0:0:
320,192,346451,1,0,0:0:0:0:
448,192,346505,1,0,0:0:0:0:
192,192,346505,1,0,0:0:0:0:
448,192,346612,128,0,346823:0:0:0:0:
192,192,346718,128,0,346823:0:0:0:0:
320,192,346718,128,0,346823:0:0:0:0:
64,192,346718,128,0,346770:0:0:0:0:
64,192,346823,1,0,0:0:0:0:
320,192,346927,1,0,0:0:0:0:
192,192,346927,1,0,0:0:0:0:
192,192,347031,128,0,347236:0:0:0:0:
448,192,347082,1,0,0:0:0:0:
64,192,347134,1,0,0:0:0:0:
320,192,347185,1,0,0:0:0:0:
448,192,347236,1,0,0:0:0:0:
64,192,347287,1,0,0:0:0:0:
320,192,347338,1,0,0:0:0:0:
192,192,347338,1,0,0:0:0:0:
320,192,347439,1,0,0:0:0:0:
64,192,347539,5,0,0:0:0:0:
192,192,347539,1,0,0:0:0:0:
448,192,347539,1,0,0:0:0:0:
320,192,347639,1,0,0:0:0:0:
64,192,347688,1,0,0:0:0:0:
448,192,347738,1,0,0:0:0:0:
320,192,347787,1,0,0:0:0:0:
192,192,347836,1,0,0:0:0:0:
64,192,347934,1,0,0:0:0:0:
320,192,347934,1,0,0:0:0:0:
448,192,347934,1,0,0:0:0:0:
448,192,348031,1,0,0:0:0:0:
64,192,348079,1,0,0:0:0:0:
320,192,348127,1,0,0:0:0:0:
192,192,348127,1,0,0:0:0:0:
192,192,348223,1,0,0:0:0:0:
448,192,348223,1,0,0:0:0:0:
64,192,348318,1,0,0:0:0:0:
320,192,348318,1,0,0:0:0:0:
448,192,348318,1,0,0:0:0:0:
192,192,348413,1,0,0:0:0:0:
320,192,348460,1,0,0:0:0:0:
64,192,348507,1,0,0:0:0:0:
192,192,348553,1,0,0:0:0:0:
448,192,348600,1,0,0:0:0:0:
320,192,348693,1,0,0:0:0:0:
192,192,348693,1,0,0:0:0:0:
64,192,348693,1,0,0:0:0:0:
64,192,348785,1,0,0:0:0:0:
320,192,348831,1,0,0:0:0:0:
448,192,348877,1,0,0:0:0:0:
192,192,348877,1,0,0:0:0:0:
448,192,348968,1,0,0:0:0:0:
64,192,348968,1,0,0:0:0:0:
320,192,349059,1,0,0:0:0:0:
192,192,349059,1,0,0:0:0:0:
64,192,349059,1,0,0:0:0:0:
448,192,349149,1,0,0:0:0:0:
192,192,349193,1,0,0:0:0:0:
320,192,349238,1,0,0:0:0:0:
448,192,349282,1,0,0:0:0:0:
64,192,349327,1,0,0:0:0:0:
192,192,349415,1,0,0:0:0:0:
320,192,349415,1,0,0:0:0:0:
448,192,349415,1,0,0:0:0:0:
320,192,349503,1,0,0:0:0:0:
192,192,349546,1,0,0:0:0:0:
64,192,349590,1,0,0:0:0:0:
448,192,349590,1,0,0:0:0:0:
320,192,349677,1,0,0:0:0:0:
64,192,349677,1,0,0:0:0:0:
192,192,349763,1,0,0:0:0:0:
320,192,349763,1,0,0:0:0:0:
448,192,349763,1,0,0:0:0:0:
64,192,349849,1,0,0:0:0:0:
448,192,349891,1,0,0:0:0:0:
192,192,349934,1,0,0:0:0:0:
64,192,349976,1,0,0:0:0:0:
320,192,350019,1,0,0:0:0:0:
64,192,350103,1,0,0:0:0:0:
192,192,350103,1,0,0:0:0:0:
448,192,350103,1,0,0:0:0:0:
192,192,350187,1,0,0:0:0:0:
448,192,350228,1,0,0:0:0:0:
64,192,350270,1,0,0:0:0:0:
320,192,350270,1,0,0:0:0:0:
192,192,350353,1,0,0:0:0:0:
320,192,350353,1,0,0:0:0:0:
64,192,350435,1,0,0:0:0:0:
448,192,350435,1,0,0:0:0:0:
192,192,350476,1,0,0:0:0:0:
448,192,350517,1,0,0:0:0:0:
192,192,350600,1,0,0:0:0:0:
320,192,350600,1,0,0:0:0:0:
192,192,350682,1,0,0:0:0:0:
64,192,350765,1,0,0:0:0:0:
320,192,350765,1,0,0:0:0:0:
448,192,350806,1,0,0:0:0:0:
64,192,350847,1,0,0:0:0:0:
192,192,350930,1,0,0:0:0:0:
448,192,350930,1,0,0:0:0:0:
448,192,351012,1,0,0:0:0:0:
320,192,351095,1,0,0:0:0:0:
192,192,351095,1,0,0:0:0:0:
64,192,351136,1,0,0:0:0:0:
320,192,351177,1,0,0:0:0:0:
448,192,351260,1,0,0:0:0:0:
64,192,351260,1,0,0:0:0:0:
64,192,351342,1,0,0:0:0:0:
448,192,351425,1,0,0:0:0:0:
192,192,351425,1,0,0:0:0:0:
320,192,351466,1,0,0:0:0:0:
192,192,351507,1,0,0:0:0:0:
320,192,351590,1,0,0:0:0:0:
64,192,351590,1,0,0:0:0:0:
320,192,351672,1,0,0:0:0:0:
64,192,351755,5,0,0:0:0:0:
192,192,351755,1,0,0:0:0:0:
448,192,351796,1,0,0:0:0:0:
320,192,351838,1,0,0:0:0:0:
192,192,351879,1,0,0:0:0:0:
448,192,351920,1,0,0:0:0:0:
320,192,351961,1,0,0:0:0:0:
64,192,352003,1,0,0:0:0:0:
192,192,352044,1,0,0:0:0:0:
320,192,352085,5,0,0:0:0:0:
448,192,352085,1,0,0:0:0:0:
64,192,352126,1,0,0:0:0:0:
192,192,352168,1,0,0:0:0:0:
448,192,352209,1,0,0:0:0:0:
64,192,352250,5,0,0:0:0:0:
192,192,352291,1,0,0:0:0:0:
320,192,352333,1,0,0:0:0:0:
448,192,352374,1,0,0:0:0:0:
64,192,352415,5,0,0:0:0:0:
192,192,352415,1,0,0:0:0:0:
320,192,352457,1,0,0:0:0:0:
64,192,352498,1,0,0:0:0:0:
448,192,352539,1,0,0:0:0:0:
192,192,352580,1,0,0:0:0:0:
64,192,352622,1,0,0:0:0:0:
320,192,352663,1,0,0:0:0:0:
192,192,352704,1,0,0:0:0:0:
320,192,352745,1,0,0:0:0:0:
64,192,352787,1,0,0:0:0:0:
448,192,352828,1,0,0:0:0:0:
320,192,352869,1,0,0:0:0:0:
192,192,352910,1,0,0:0:0:0:
448,192,352952,1,0,0:0:0:0:
192,192,352993,1,0,0:0:0:0:
320,192,353034,1,0,0:0:0:0:
448,192,353075,1,0,0:0:0:0:
64,192,353075,1,0,0:0:0:0:
448,192,356129,128,0,356294:0:0:0:0:
320,192,356157,1,0,0:0:0:0:
192,192,356184,1,0,0:0:0:0:
64,192,356212,1,0,0:0:0:0:
320,192,356294,1,0,0:0:0:0:
64,192,356459,128,0,356624:0:0:0:0:
320,192,356459,128,0,356514:0:0:0:0:
448,192,356459,128,0,356624:0:0:0:0:
192,192,356514,128,0,356569:0:0:0:0:
320,192,356624,1,0,0:0:0:0:
448,192,356789,128,0,356954:0:0:0:0:
320,192,356817,1,0,0:0:0:0:
192,192,356844,1,0,0:0:0:0:
64,192,356872,1,0,0:0:0:0:
320,192,356954,1,0,0:0:0:0:
64,192,357037,1,0,0:0:0:0:
192,192,357037,1,0,0:0:0:0:
320,192,357037,1,0,0:0:0:0:
448,192,357037,1,0,0:0:0:0:
64,192,357587,1,0,0:0:0:0:
192,192,357587,1,0,0:0:0:0:
320,192,357587,1,0,0:0:0:0:
448,192,357587,1,0,0:0:0:0:
64,192,357862,128,0,358082:0:0:0:0:
64,192,358137,1,0,0:0:0:0:
192,192,358137,1,0,0:0:0:0:
320,192,358137,1,0,0:0:0:0:
448,192,358137,1,0,0:0:0:0:
192,192,358357,1,0,0:0:0:0:
320,192,358357,1,0,0:0:0:0:
448,192,358357,1,0,0:0:0:0:
64,192,358357,1,0,0:0:0:0:
64,192,358523,1,0,0:0:0:0:
192,192,358523,1,0,0:0:0:0:
320,192,358523,1,0,0:0:0:0:
448,192,358523,1,0,0:0:0:0:
64,192,358660,1,0,0:0:0:0:
192,192,358660,1,0,0:0:0:0:
320,192,358660,1,0,0:0:0:0:
448,192,358660,1,0,0:0:0:0:
64,192,358798,1,0,0:0:0:0:
192,192,358798,1,0,0:0:0:0:
320,192,358798,1,0,0:0:0:0:
448,192,358798,1,0,0:0:0:0:
192,192,358935,1,0,0:0:0:0:
64,192,358935,1,0,0:0:0:0:
320,192,358935,1,0,0:0:0:0:
448,192,358935,1,0,0:0:0:0:
64,192,359018,1,0,0:0:0:0:
448,192,359018,1,0,0:0:0:0:
192,192,359100,1,0,0:0:0:0:
64,192,359183,1,0,0:0:0:0:
320,192,359183,1,0,0:0:0:0:
448,192,359265,1,0,0:0:0:0:
320,192,359348,1,0,0:0:0:0:
192,192,359348,1,0,0:0:0:0:
64,192,359430,1,0,0:0:0:0:
448,192,359513,1,0,0:0:0:0:
192,192,359513,1,0,0:0:0:0:
320,192,359595,1,0,0:0:0:0:
64,192,359678,1,0,0:0:0:0:
192,192,359678,1,0,0:0:0:0:
64,192,359760,1,0,0:0:0:0:
448,192,359760,1,0,0:0:0:0:
192,192,359843,1,0,0:0:0:0:
320,192,359843,1,0,0:0:0:0:
320,192,359926,1,0,0:0:0:0:
448,192,359926,1,0,0:0:0:0:
64,192,360008,1,0,0:0:0:0:
192,192,360008,1,0,0:0:0:0:
64,192,360091,1,0,0:0:0:0:
192,192,360091,1,0,0:0:0:0:
448,192,360173,1,0,0:0:0:0:
320,192,360173,1,0,0:0:0:0:
448,192,360256,1,0,0:0:0:0:
320,192,360256,1,0,0:0:0:0:
64,192,360256,1,0,0:0:0:0:
192,192,360297,1,0,0:0:0:0:
320,192,360338,1,0,0:0:0:0:
320,192,361329,128,0,361411:0:0:0:0:
320,192,361494,128,0,361576:0:0:0:0:
192,192,361576,1,0,0:0:0:0:
64,192,361659,1,0,0:0:0:0:
320,192,361659,1,0,0:0:0:0:
448,192,361659,1,0,0:0:0:0:
192,192,361700,1,0,0:0:0:0:
448,192,361741,1,0,0:0:0:0:
320,192,361783,1,0,0:0:0:0:
64,192,361824,1,0,0:0:0:0:
192,192,361824,1,0,0:0:0:0:
448,192,361865,1,0,0:0:0:0:
64,192,361906,1,0,0:0:0:0:
320,192,361948,1,0,0:0:0:0:
192,192,361989,1,0,0:0:0:0:
448,192,361989,1,0,0:0:0:0:
192,192,362071,1,0,0:0:0:0:
64,192,362154,1,0,0:0:0:0:
320,192,362154,1,0,0:0:0:0:
192,192,362236,1,0,0:0:0:0:
320,192,362236,1,0,0:0:0:0:
192,192,362319,1,0,0:0:0:0:
448,192,362319,1,0,0:0:0:0:
448,192,362401,1,0,0:0:0:0:
192,192,362484,1,0,0:0:0:0:
64,192,362484,1,0,0:0:0:0:
64,192,362567,1,0,0:0:0:0:
448,192,362567,1,0,0:0:0:0:
320,192,362649,1,0,0:0:0:0:
320,192,362732,1,0,0:0:0:0:
448,192,362814,1,0,0:0:0:0:
64,192,362814,1,0,0:0:0:0:
192,192,362855,1,0,0:0:0:0:
448,192,362897,1,0,0:0:0:0:
320,192,362938,1,0,0:0:0:0:
192,192,362979,1,0,0:0:0:0:
64,192,362979,1,0,0:0:0:0:
448,192,363062,1,0,0:0:0:0:
64,192,363062,1,0,0:0:0:0:
192,192,363144,1,0,0:0:0:0:
448,192,363144,1,0,0:0:0:0:
192,192,363227,1,0,0:0:0:0:
64,192,363309,1,0,0:0:0:0:
320,192,363309,1,0,0:0:0:0:
320,192,363392,1,0,0:0:0:0:
192,192,363474,1,0,0:0:0:0:
448,192,363474,1,0,0:0:0:0:
192,192,363557,1,0,0:0:0:0:
320,192,363557,1,0,0:0:0:0:
64,192,363639,1,0,0:0:0:0:
320,192,363639,1,0,0:0:0:0:
64,192,363722,1,0,0:0:0:0:
320,192,363805,1,0,0:0:0:0:
448,192,363805,1,0,0:0:0:0:
448,192,363887,1,0,0:0:0:0:
192,192,363887,1,0,0:0:0:0:
192,192,363970,1,0,0:0:0:0:
320,192,364052,1,0,0:0:0:0:
64,192,364135,1,0,0:0:0:0:
320,192,364135,1,0,0:0:0:0:
64,192,364217,1,0,0:0:0:0:
448,192,364217,1,0,0:0:0:0:
192,192,364300,1,0,0:0:0:0:
192,192,364382,1,0,0:0:0:0:
320,192,364382,1,0,0:0:0:0:
64,192,364465,1,0,0:0:0:0:
320,192,364547,1,0,0:0:0:0:
448,192,364547,1,0,0:0:0:0:
64,192,364589,1,0,0:0:0:0:
192,192,364630,1,0,0:0:0:0:
448,192,364630,1,0,0:0:0:0:
192,192,364712,1,0,0:0:0:0:
64,192,364795,1,0,0:0:0:0:
320,192,364795,1,0,0:0:0:0:
192,192,364877,1,0,0:0:0:0:
320,192,364877,1,0,0:0:0:0:
192,192,364960,1,0,0:0:0:0:
448,192,364960,1,0,0:0:0:0:
448,192,365042,1,0,0:0:0:0:
192,192,365125,1,0,0:0:0:0:
64,192,365125,1,0,0:0:0:0:
64,192,365208,1,0,0:0:0:0:
448,192,365208,1,0,0:0:0:0:
320,192,365290,1,0,0:0:0:0:
320,192,365373,1,0,0:0:0:0:
448,192,365455,1,0,0:0:0:0:
64,192,365455,1,0,0:0:0:0:
192,192,365496,1,0,0:0:0:0:
448,192,365538,1,0,0:0:0:0:
320,192,365579,1,0,0:0:0:0:
192,192,365620,1,0,0:0:0:0:
64,192,365620,1,0,0:0:0:0:
448,192,365703,1,0,0:0:0:0:
64,192,365703,1,0,0:0:0:0:
192,192,365785,1,0,0:0:0:0:
448,192,365785,1,0,0:0:0:0:
192,192,365868,1,0,0:0:0:0:
64,192,365950,1,0,0:0:0:0:
320,192,365950,1,0,0:0:0:0:
320,192,366033,1,0,0:0:0:0:
192,192,366115,1,0,0:0:0:0:
448,192,366115,1,0,0:0:0:0:
192,192,366198,1,0,0:0:0:0:
320,192,366198,1,0,0:0:0:0:
320,192,366280,1,0,0:0:0:0:
64,192,366280,128,0,366342:0:0:0:0:
448,192,366280,128,0,366342:0:0:0:0:
64,192,366404,1,0,0:0:0:0:
192,192,366404,128,0,366466:0:0:0:0:
448,192,366404,128,0,366466:0:0:0:0:
448,192,366528,1,0,0:0:0:0:
192,192,366528,128,0,366590:0:0:0:0:
320,192,366528,128,0,366590:0:0:0:0:
192,192,366652,1,0,0:0:0:0:
320,192,366652,128,0,366714:0:0:0:0:
64,192,366652,128,0,366714:0:0:0:0:
448,192,366776,1,0,0:0:0:0:
448,192,366858,1,0,0:0:0:0:
192,192,366941,128,0,367051:0:0:0:0:
64,192,366982,1,0,0:0:0:0:
320,192,367023,1,0,0:0:0:0:
192,192,367106,1,0,0:0:0:0:
64,192,367106,1,0,0:0:0:0:
448,192,367106,1,0,0:0:0:0:
192,192,367188,1,0,0:0:0:0:
320,192,367271,1,0,0:0:0:0:
448,192,367304,1,0,0:0:0:0:
64,192,367337,1,0,0:0:0:0:
320,192,367370,1,0,0:0:0:0:
192,192,367403,1,0,0:0:0:0:
64,192,367436,1,0,0:0:0:0:
448,192,367436,1,0,0:0:0:0:
192,192,367518,1,0,0:0:0:0:
320,192,367518,1,0,0:0:0:0:
192,192,367601,1,0,0:0:0:0:
448,192,367601,1,0,0:0:0:0:
448,192,367683,1,0,0:0:0:0:
192,192,367766,1,0,0:0:0:0:
64,192,367766,1,0,0:0:0:0:
64,192,367849,1,0,0:0:0:0:
448,192,367849,1,0,0:0:0:0:
320,192,367931,1,0,0:0:0:0:
320,192,368014,1,0,0:0:0:0:
64,192,368096,1,0,0:0:0:0:
448,192,368096,1,0,0:0:0:0:
192,192,368137,1,0,0:0:0:0:
448,192,368179,1,0,0:0:0:0:
320,192,368220,1,0,0:0:0:0:
192,192,368261,1,0,0:0:0:0:
64,192,368261,1,0,0:0:0:0:
64,192,368344,1,0,0:0:0:0:
448,192,368344,1,0,0:0:0:0:
192,192,368426,1,0,0:0:0:0:
448,192,368426,1,0,0:0:0:0:
192,192,368509,1,0,0:0:0:0:
64,192,368591,1,0,0:0:0:0:
320,192,368591,1,0,0:0:0:0:
320,192,368674,1,0,0:0:0:0:
192,192,368756,1,0,0:0:0:0:
448,192,368756,1,0,0:0:0:0:
320,192,368839,1,0,0:0:0:0:
192,192,368839,1,0,0:0:0:0:
64,192,368921,1,0,0:0:0:0:
320,192,368921,1,0,0:0:0:0:
64,192,369004,1,0,0:0:0:0:
320,192,369086,1,0,0:0:0:0:
448,192,369086,1,0,0:0:0:0:
192,192,369169,1,0,0:0:0:0:
448,192,369169,1,0,0:0:0:0:
192,192,369252,1,0,0:0:0:0:
64,192,369334,1,0,0:0:0:0:
64,192,369417,1,0,0:0:0:0:
320,192,369417,1,0,0:0:0:0:
192,192,369499,1,0,0:0:0:0:
320,192,369499,1,0,0:0:0:0:
64,192,369582,1,0,0:0:0:0:
448,192,369582,1,0,0:0:0:0:
192,192,369623,1,0,0:0:0:0:
448,192,369664,1,0,0:0:0:0:
64,192,369747,1,0,0:0:0:0:
192,192,369774,1,0,0:0:0:0:
320,192,369802,1,0,0:0:0:0:
448,192,369829,1,0,0:0:0:0:
192,192,369871,1,0,0:0:0:0:
64,192,369912,1,0,0:0:0:0:
320,192,369912,1,0,0:0:0:0:
448,192,369974,1,0,0:0:0:0:
64,192,370036,1,0,0:0:0:0:
448,192,370097,1,0,0:0:0:0:
192,192,370159,1,0,0:0:0:0:
64,192,370201,1,0,0:0:0:0:
320,192,370242,1,0,0:0:0:0:
448,192,370242,1,0,0:0:0:0:
448,192,370324,1,0,0:0:0:0:
192,192,370407,1,0,0:0:0:0:
64,192,370407,1,0,0:0:0:0:
64,192,370490,1,0,0:0:0:0:
448,192,370490,1,0,0:0:0:0:
192,192,370531,1,0,0:0:0:0:
320,192,370572,1,0,0:0:0:0:
448,192,370634,1,0,0:0:0:0:
192,192,370696,1,0,0:0:0:0:
64,192,370737,1,0,0:0:0:0:
320,192,370770,1,0,0:0:0:0:
192,192,370803,1,0,0:0:0:0:
448,192,370836,1,0,0:0:0:0:
320,192,370869,1,0,0:0:0:0:
192,192,370902,1,0,0:0:0:0:
64,192,370902,1,0,0:0:0:0:
448,192,370943,1,0,0:0:0:0:
320,192,370985,1,0,0:0:0:0:
64,192,371026,1,0,0:0:0:0:
448,192,371067,1,0,0:0:0:0:
192,192,371067,1,0,0:0:0:0:
448,192,371150,1,0,0:0:0:0:
64,192,371232,1,0,0:0:0:0:
448,192,371315,1,0,0:0:0:0:
192,192,371397,1,0,0:0:0:0:
64,192,371397,1,0,0:0:0:0:
320,192,371439,1,0,0:0:0:0:
448,192,371480,1,0,0:0:0:0:
192,192,371521,1,0,0:0:0:0:
64,192,371562,1,0,0:0:0:0:
320,192,371562,1,0,0:0:0:0:
320,192,371645,1,0,0:0:0:0:
64,192,371727,1,0,0:0:0:0:
192,192,371741,1,0,0:0:0:0:
64,192,371810,1,0,0:0:0:0:
192,192,371824,1,0,0:0:0:0:
448,192,371893,128,0,371975:0:0:0:0:
64,192,371975,1,0,0:0:0:0:
64,192,372058,1,0,0:0:0:0:
192,192,372223,1,0,0:0:0:0:
448,192,372223,128,0,372388:0:0:0:0:
64,192,372305,128,0,372388:0:0:0:0:
192,192,372388,128,0,372553:0:0:0:0:
320,192,372388,1,0,0:0:0:0:
448,192,372470,128,0,372553:0:0:0:0:
320,192,372553,1,0,0:0:0:0:
64,192,372553,128,0,372718:0:0:0:0:
192,192,372635,1,0,0:0:0:0:
320,192,372635,128,0,372800:0:0:0:0:
448,192,372718,128,0,372883:0:0:0:0:
192,192,372800,1,0,0:0:0:0:
64,192,372800,1,0,0:0:0:0:
320,192,372883,1,0,0:0:0:0:
64,192,372883,128,0,373048:0:0:0:0:
448,192,372965,128,0,373048:0:0:0:0:
192,192,373048,1,0,0:0:0:0:
320,192,373048,128,0,373213:0:0:0:0:
64,192,373131,128,0,373213:0:0:0:0:
192,192,373213,128,0,373378:0:0:0:0:
448,192,373213,1,0,0:0:0:0:
448,192,373378,1,0,0:0:0:0:
64,192,373378,128,0,373461:0:0:0:0:
192,192,373461,1,0,0:0:0:0:
448,192,373461,128,0,373543:0:0:0:0:
320,192,373543,1,0,0:0:0:0:
192,192,373543,128,0,373708:0:0:0:0:
64,192,373626,128,0,373708:0:0:0:0:
320,192,373708,1,0,0:0:0:0:
448,192,373708,1,0,0:0:0:0:
192,192,373791,1,0,0:0:0:0:
320,192,373791,128,0,373956:0:0:0:0:
64,192,373873,128,0,373956:0:0:0:0:
448,192,373956,1,0,0:0:0:0:
192,192,373956,128,0,374038:0:0:0:0:
64,192,374038,1,0,0:0:0:0:
448,192,374038,128,0,374121:0:0:0:0:
192,192,374121,1,0,0:0:0:0:
192,192,374203,1,0,0:0:0:0:
320,192,374203,1,0,0:0:0:0:
64,192,374258,1,0,0:0:0:0:
448,192,374258,1,0,0:0:0:0:
192,192,374313,1,0,0:0:0:0:
320,192,374313,1,0,0:0:0:0:
448,192,374368,128,0,374534:0:0:0:0:
64,192,374368,128,0,374451:0:0:0:0:
192,192,374534,1,0,0:0:0:0:
64,192,374534,1,0,0:0:0:0:
320,192,374616,1,0,0:0:0:0:
64,192,374616,1,0,0:0:0:0:
320,192,374699,128,0,374781:0:0:0:0:
192,192,374699,1,0,0:0:0:0:
64,192,374781,128,0,374864:0:0:0:0:
448,192,374781,1,0,0:0:0:0:
192,192,374864,1,0,0:0:0:0:
448,192,374864,128,0,375029:0:0:0:0:
64,192,374946,128,0,375029:0:0:0:0:
192,192,375029,128,0,375194:0:0:0:0:
320,192,375029,1,0,0:0:0:0:
448,192,375111,128,0,375194:0:0:0:0:
320,192,375194,1,0,0:0:0:0:
64,192,375194,128,0,375359:0:0:0:0:
192,192,375276,1,0,0:0:0:0:
320,192,375276,128,0,375441:0:0:0:0:
448,192,375359,128,0,375524:0:0:0:0:
192,192,375441,1,0,0:0:0:0:
64,192,375441,1,0,0:0:0:0:
320,192,375524,1,0,0:0:0:0:
64,192,375524,128,0,375689:0:0:0:0:
448,192,375606,128,0,375689:0:0:0:0:
192,192,375689,1,0,0:0:0:0:
320,192,375689,128,0,375854:0:0:0:0:
64,192,375772,128,0,375854:0:0:0:0:
192,192,375854,128,0,376019:0:0:0:0:
448,192,375854,1,0,0:0:0:0:
448,192,376019,1,0,0:0:0:0:
64,192,376019,128,0,376102:0:0:0:0:
192,192,376102,1,0,0:0:0:0:
448,192,376102,128,0,376184:0:0:0:0:
320,192,376184,1,0,0:0:0:0:
192,192,376184,128,0,376349:0:0:0:0:
64,192,376267,128,0,376349:0:0:0:0:
320,192,376349,1,0,0:0:0:0:
448,192,376349,1,0,0:0:0:0:
64,192,376432,1,0,0:0:0:0:
320,192,376432,1,0,0:0:0:0:
192,192,376514,1,0,0:0:0:0:
448,192,376514,1,0,0:0:0:0:
64,192,376556,1,0,0:0:0:0:
448,192,376597,1,0,0:0:0:0:
192,192,376638,1,0,0:0:0:0:
64,192,376679,1,0,0:0:0:0:
320,192,376679,128,0,376762:0:0:0:0:
64,192,376762,128,0,376844:0:0:0:0:
448,192,376762,1,0,0:0:0:0:
320,192,376844,1,0,0:0:0:0:
192,192,376927,1,0,0:0:0:0:
448,192,377009,1,0,0:0:0:0:
64,192,377051,1,0,0:0:0:0:
448,192,377092,1,0,0:0:0:0:
192,192,377133,1,0,0:0:0:0:
64,192,377175,1,0,0:0:0:0:
320,192,377257,1,0,0:0:0:0:
320,192,377340,1,0,0:0:0:0:
64,192,377422,1,0,0:0:0:0:
192,192,377505,1,0,0:0:0:0:
320,192,377505,1,0,0:0:0:0:
448,192,377505,1,0,0:0:0:0:
64,192,377567,1,0,0:0:0:0:
192,192,377628,1,0,0:0:0:0:
448,192,377690,1,0,0:0:0:0:
320,192,377752,1,0,0:0:0:0:
192,192,377752,1,0,0:0:0:0:
64,192,377752,1,0,0:0:0:0:
448,192,377814,1,0,0:0:0:0:
320,192,377876,1,0,0:0:0:0:
192,192,377938,1,0,0:0:0:0:
64,192,378000,1,0,0:0:0:0:
448,192,378000,1,0,0:0:0:0:
320,192,378000,1,0,0:0:0:0:
192,192,378055,1,0,0:0:0:0:
448,192,378110,1,0,0:0:0:0:
320,192,378165,1,0,0:0:0:0:
192,192,378165,1,0,0:0:0:0:
64,192,378165,1,0,0:0:0:0:
448,192,378227,1,0,0:0:0:0:
320,192,378289,1,0,0:0:0:0:
192,192,378351,1,0,0:0:0:0:
64,192,378412,1,0,0:0:0:0:
448,192,378412,1,0,0:0:0:0:
320,192,378412,1,0,0:0:0:0:
192,192,378474,1,0,0:0:0:0:
64,192,378536,1,0,0:0:0:0:
320,192,378598,1,0,0:0:0:0:
192,192,378660,1,0,0:0:0:0:
64,192,378660,1,0,0:0:0:0:
448,192,378660,1,0,0:0:0:0:
320,192,378715,1,0,0:0:0:0:
192,192,378770,1,0,0:0:0:0:
64,192,378825,1,0,0:0:0:0:
320,192,378825,1,0,0:0:0:0:
448,192,378825,1,0,0:0:0:0:
192,192,378887,1,0,0:0:0:0:
64,192,378949,1,0,0:0:0:0:
320,192,379011,1,0,0:0:0:0:
448,192,379073,1,0,0:0:0:0:
192,192,379073,1,0,0:0:0:0:
64,192,379073,1,0,0:0:0:0:
320,192,379135,1,0,0:0:0:0:
448,192,379197,1,0,0:0:0:0:
64,192,379258,1,0,0:0:0:0:
192,192,379320,1,0,0:0:0:0:
320,192,379320,1,0,0:0:0:0:
448,192,379320,1,0,0:0:0:0:
64,192,379375,1,0,0:0:0:0:
320,192,379430,1,0,0:0:0:0:
192,192,379485,1,0,0:0:0:0:
192,192,379568,1,0,0:0:0:0:
448,192,379650,1,0,0:0:0:0:
448,192,379733,1,0,0:0:0:0:
192,192,379816,1,0,0:0:0:0:
192,192,379898,1,0,0:0:0:0:
448,192,379981,1,0,0:0:0:0:
448,192,380063,1,0,0:0:0:0:
192,192,380146,1,0,0:0:0:0:
64,192,380146,1,0,0:0:0:0:
320,192,380146,1,0,0:0:0:0:
448,192,380208,1,0,0:0:0:0:
320,192,380269,1,0,0:0:0:0:
64,192,380331,1,0,0:0:0:0:
448,192,380393,1,0,0:0:0:0:
192,192,380393,1,0,0:0:0:0:
320,192,380393,1,0,0:0:0:0:
64,192,380455,1,0,0:0:0:0:
192,192,380517,1,0,0:0:0:0:
320,192,380579,1,0,0:0:0:0:
448,192,380641,1,0,0:0:0:0:
192,192,380641,1,0,0:0:0:0:
64,192,380641,1,0,0:0:0:0:
320,192,380696,1,0,0:0:0:0:
64,192,380751,1,0,0:0:0:0:
320,192,380806,1,0,0:0:0:0:
448,192,380806,1,0,0:0:0:0:
192,192,380806,1,0,0:0:0:0:
64,192,380868,1,0,0:0:0:0:
192,192,380930,1,0,0:0:0:0:
320,192,380992,1,0,0:0:0:0:
192,192,381053,1,0,0:0:0:0:
64,192,381053,1,0,0:0:0:0:
448,192,381053,1,0,0:0:0:0:
320,192,381115,1,0,0:0:0:0:
448,192,381177,1,0,0:0:0:0:
192,192,381239,1,0,0:0:0:0:
320,192,381301,1,0,0:0:0:0:
448,192,381301,1,0,0:0:0:0:
64,192,381301,1,0,0:0:0:0:
192,192,381356,1,0,0:0:0:0:
320,192,381411,1,0,0:0:0:0:
448,192,381466,1,0,0:0:0:0:
192,192,381466,1,0,0:0:0:0:
64,192,381466,1,0,0:0:0:0:
320,192,381528,1,0,0:0:0:0:
448,192,381590,1,0,0:0:0:0:
192,192,381652,1,0,0:0:0:0:
320,192,381714,1,0,0:0:0:0:
448,192,381714,1,0,0:0:0:0:
64,192,381714,1,0,0:0:0:0:
192,192,381776,1,0,0:0:0:0:
64,192,381838,1,0,0:0:0:0:
448,192,381899,1,0,0:0:0:0:
320,192,381961,1,0,0:0:0:0:
192,192,381961,1,0,0:0:0:0:
64,192,381961,1,0,0:0:0:0:
448,192,382016,1,0,0:0:0:0:
192,192,382071,1,0,0:0:0:0:
64,192,382126,128,0,382622:0:0:0:0:
320,192,382126,1,0,0:0:0:0:
320,192,382291,1,0,0:0:0:0:
192,192,382457,1,0,0:0:0:0:
448,192,382457,1,0,0:0:0:0:
320,192,382622,1,0,0:0:0:0:
64,192,382704,1,0,0:0:0:0:
448,192,382787,5,0,0:0:0:0:
320,192,382787,1,0,0:0:0:0:
192,192,382828,1,0,0:0:0:0:
448,192,382869,1,0,0:0:0:0:
64,192,382910,1,0,0:0:0:0:
192,192,382952,1,0,0:0:0:0:
320,192,382993,1,0,0:0:0:0:
64,192,383034,1,0,0:0:0:0:
448,192,383075,1,0,0:0:0:0:
192,192,383117,1,0,0:0:0:0:
64,192,383158,1,0,0:0:0:0:
320,192,383199,1,0,0:0:0:0:
192,192,383241,1,0,0:0:0:0:
448,192,383282,1,0,0:0:0:0:
64,192,383323,1,0,0:0:0:0:
320,192,383364,1,0,0:0:0:0:
448,192,383406,1,0,0:0:0:0:
64,192,383447,5,0,0:0:0:0:
192,192,383447,1,0,0:0:0:0:
320,192,383488,1,0,0:0:0:0:
192,192,383529,1,0,0:0:0:0:
448,192,383571,1,0,0:0:0:0:
320,192,383612,1,0,0:0:0:0:
64,192,383653,1,0,0:0:0:0:
448,192,383694,1,0,0:0:0:0:
192,192,383736,1,0,0:0:0:0:
320,192,383777,1,0,0:0:0:0:
448,192,383818,1,0,0:0:0:0:
64,192,383860,1,0,0:0:0:0:
320,192,383901,1,0,0:0:0:0:
192,192,383942,1,0,0:0:0:0:
448,192,383983,1,0,0:0:0:0:
64,192,384025,1,0,0:0:0:0:
192,192,384066,1,0,0:0:0:0:
320,192,384107,1,0,0:0:0:0:
448,192,384107,1,0,0:0:0:0:
64,192,384140,1,0,0:0:0:0:
192,192,384173,1,0,0:0:0:0:
320,192,384206,1,0,0:0:0:0:
448,192,384239,1,0,0:0:0:0:
64,192,384272,1,0,0:0:0:0:
192,192,384305,1,0,0:0:0:0:
320,192,384338,1,0,0:0:0:0:
448,192,384371,1,0,0:0:0:0:
64,192,384404,1,0,0:0:0:0:
320,192,384437,1,0,0:0:0:0:
192,192,384470,1,0,0:0:0:0:
64,192,384503,1,0,0:0:0:0:
448,192,384536,1,0,0:0:0:0:
320,192,384569,1,0,0:0:0:0:
192,192,384602,1,0,0:0:0:0:
64,192,384635,1,0,0:0:0:0:
448,192,384668,1,0,0:0:0:0:
320,192,384701,1,0,0:0:0:0:
192,192,384734,1,0,0:0:0:0:
64,192,384767,128,0,384850:0:0:0:0:
448,192,384788,128,0,384891:0:0:0:0:
320,192,385097,1,0,0:0:0:0:
192,192,385263,128,0,385428:0:0:0:0:
64,192,385428,1,0,0:0:0:0:
320,192,385428,1,0,0:0:0:0:
448,192,385428,1,0,0:0:0:0:
192,192,385510,1,0,0:0:0:0:
320,192,385510,1,0,0:0:0:0:
448,192,385510,1,0,0:0:0:0:
448,192,385593,1,0,0:0:0:0:
64,192,385675,1,0,0:0:0:0:
192,192,385675,1,0,0:0:0:0:
320,192,385675,1,0,0:0:0:0:
64,192,385758,1,0,0:0:0:0:
192,192,385840,1,0,0:0:0:0:
448,192,385840,1,0,0:0:0:0:
320,192,385840,1,0,0:0:0:0:
448,192,385923,1,0,0:0:0:0:
64,192,386005,1,0,0:0:0:0:
192,192,386005,1,0,0:0:0:0:
320,192,386005,1,0,0:0:0:0:
64,192,386088,1,0,0:0:0:0:
448,192,386088,1,0,0:0:0:0:
192,192,386170,1,0,0:0:0:0:
448,192,386170,1,0,0:0:0:0:
320,192,386253,1,0,0:0:0:0:
192,192,386253,1,0,0:0:0:0:
64,192,386335,1,0,0:0:0:0:
320,192,386335,1,0,0:0:0:0:
64,192,386418,1,0,0:0:0:0:
448,192,386418,1,0,0:0:0:0:
192,192,386501,1,0,0:0:0:0:
448,192,386501,1,0,0:0:0:0:
192,192,386583,1,0,0:0:0:0:
320,192,386583,1,0,0:0:0:0:
64,192,386666,1,0,0:0:0:0:
320,192,386666,1,0,0:0:0:0:
192,192,386748,1,0,0:0:0:0:
64,192,386748,1,0,0:0:0:0:
448,192,386748,1,0,0:0:0:0:
64,192,388069,1,0,0:0:0:0:
192,192,388069,1,0,0:0:0:0:
320,192,388110,1,0,0:0:0:0:
448,192,388151,1,0,0:0:0:0:
64,192,388206,1,0,0:0:0:0:
320,192,388261,1,0,0:0:0:0:
192,192,388316,1,0,0:0:0:0:
448,192,388399,1,0,0:0:0:0:
320,192,388399,1,0,0:0:0:0:
64,192,388440,1,0,0:0:0:0:
192,192,388440,1,0,0:0:0:0:
448,192,388481,1,0,0:0:0:0:
64,192,388564,1,0,0:0:0:0:
192,192,388646,1,0,0:0:0:0:
448,192,388729,1,0,0:0:0:0:
320,192,388791,1,0,0:0:0:0:
192,192,388853,1,0,0:0:0:0:
64,192,388853,1,0,0:0:0:0:
448,192,388915,1,0,0:0:0:0:
192,192,388976,1,0,0:0:0:0:
320,192,388976,1,0,0:0:0:0:
64,192,389059,1,0,0:0:0:0:
448,192,389142,128,0,389224:0:0:0:0:
320,192,389142,128,0,389224:0:0:0:0:
192,192,389224,1,0,0:0:0:0:
64,192,389307,1,0,0:0:0:0:
448,192,389389,128,0,389513:0:0:0:0:
320,192,389389,128,0,389513:0:0:0:0:
192,192,389513,1,0,0:0:0:0:
320,192,389575,1,0,0:0:0:0:
64,192,389637,1,0,0:0:0:0:
448,192,389719,128,0,389967:0:0:0:0:
320,192,389719,128,0,389967:0:0:0:0:
448,192,390049,128,0,390132:0:0:0:0:
320,192,390049,128,0,390132:0:0:0:0:
192,192,390132,128,0,393351:0:0:0:0:
448,192,393433,1,0,0:0:0:0:
64,192,393516,1,0,0:0:0:0:
192,192,393598,1,0,0:0:0:0:
320,192,393598,1,0,0:0:0:0:
448,192,393653,1,0,0:0:0:0:
192,192,393708,1,0,0:0:0:0:
320,192,393763,1,0,0:0:0:0:
64,192,393763,1,0,0:0:0:0:
320,192,393928,1,0,0:0:0:0:
192,192,393928,1,0,0:0:0:0:
192,192,394093,1,0,0:0:0:0:
448,192,394093,1,0,0:0:0:0:
64,192,394148,1,0,0:0:0:0:
448,192,394203,1,0,0:0:0:0:
320,192,394272,1,0,0:0:0:0:
