osu file format v14

[General]
AudioFilename: audio.mp3
AudioLeadIn: 0
PreviewTime: 286845
Countdown: 0
SampleSet: Soft
StackLeniency: 0.7
Mode: 3
LetterboxInBreaks: 0
SpecialStyle: 0
WidescreenStoryboard: 1

[Editor]
Bookmarks: 27184
DistanceSpacing: 1.1
BeatDivisor: 8
GridSize: 4
TimelineZoom: 2.5

[Metadata]
Title:Multigenre Smackdown
TitleUnicode:Multigenre Smackdown
Artist:ReeK
ArtistUnicode:ReeK
Creator:[Crz]hinako1804
Version:TESTESTESTESTESTESTESTESTEST
Source:Expert Global Taiko Showdown 2021
Tags:Metal Trap Brostep Briddim Hardbass Rawstyle Schranz Electro Swing J-Rock Hardcore Hitech Speedcore Electronic Instrumental egts finals tb tiebreaker 727 WYSI
BeatmapID:3519359
BeatmapSetID:1721944

[Difficulty]
HPDrainRate:8.3
CircleSize:4
OverallDifficulty:7.8
ApproachRate:5
SliderMultiplier:1.4
SliderTickRate:1

[Events]
//Background and Video events
0,0,"background.png",0,0
//Break Periods
//Storyboard Layer 0 (Background)
//Storyboard Layer 1 (Fail)
//Storyboard Layer 2 (Pass)
//Storyboard Layer 3 (Foreground)
//Storyboard Layer 4 (Overlay)
//Storyboard Sound Samples

[TimingPoints]
184,375,100,2,1,30,1,8
184,-100,100,2,1,30,0,8
10684,375,4,2,1,30,1,0
10684,-100,4,2,1,30,0,0
192184,372.670807453416,4,2,1,30,1,0
192184,-100.625,5,2,1,30,0,0
193674,370.37037037037,4,2,1,30,1,0
193674,-101.25,4,2,1,30,0,0
195155,365.853658536585,4,2,1,30,1,0
195155,-102.5,4,2,1,30,0,0
196618,361.44578313253,4,2,1,30,1,0
196618,-103.75,4,2,1,30,0,0
198063,359.281437125748,4,2,1,30,1,0
198063,-104.375,4,2,1,30,0,0
199500,352.941176470588,4,2,1,30,1,0
199500,-106.25,4,2,1,30,0,0
226675,352.505728218084,4,2,1,30,1,8
226675,-106.38125,4,2,1,30,0,0
227027,352.071353127567,4,2,1,30,1,8
227027,-106.5125,4,2,1,30,0,0
227379,351.658656663932,4,2,1,30,1,8
227379,-106.6375,4,2,1,30,0,0
227730,351.226365392495,4,2,1,30,1,0
227730,-106.76875,4,2,1,30,0,0
228081,350.795135640786,4,2,1,30,1,8
228081,-106.9,4,2,1,30,0,0
228435,350.36496350365,4,2,1,30,1,8
228435,-107.03125,4,2,1,30,0,0
228782,349.935845095066,4,2,1,30,1,8
228782,-107.1625,4,2,1,30,0,0
229132,349.507776548028,4,2,1,30,1,0
229132,-107.29375,4,2,1,30,0,0
229482,349.080754014429,4,2,1,30,1,8
229482,-107.425,4,2,1,30,0,0
229832,348.675034867503,4,2,1,30,1,8
229832,-107.55,4,2,1,30,0,0
230181,348.250043531255,4,2,1,30,1,8
230181,-107.68125,4,2,1,30,0,0
230530,347.826086956522,4,2,1,30,1,0
230530,-107.8125,4,2,1,30,0,0
230878,347.403161368768,4,2,1,30,1,8
230878,-107.94375,4,2,1,30,0,0
231226,346.981263011797,4,2,1,30,1,8
231226,-108.075,4,2,1,30,0,0
231573,346.580406654344,4,2,1,30,1,8
231573,-108.2,4,2,1,30,0,0
231920,346.160503086598,4,2,1,30,1,0
231920,-108.33125,4,2,1,30,0,0
232267,345.741615765818,4,2,1,30,1,8
232267,-108.4625,4,2,1,30,0,0
232613,345.323741007194,4,2,1,30,1,8
232613,-108.59375,4,2,1,30,0,0
232959,344.906875143711,4,2,1,30,1,8
232959,-108.725,4,2,1,30,0,0
233304,344.491014526038,4,2,1,30,1,0
233304,-108.85625,4,2,1,30,0,0
233649,344.076155522422,4,2,1,30,1,8
233649,-108.9875,4,2,1,30,0,0
233994,343.681979608203,4,2,1,30,1,8
233994,-109.1125,4,2,1,30,0,0
234338,343.269065736026,4,2,1,30,1,8
234338,-109.24375,4,2,1,30,0,0
234683,342.857142857143,4,2,1,30,1,0
234683,-109.375,4,2,1,30,0,0
235026,342.446207408253,4,2,1,30,1,8
235026,-109.50625,4,2,1,30,0,0
235369,342.036255843119,4,2,1,30,1,8
235369,-109.6375,4,2,1,30,0,0
235708,341.646737273659,4,2,1,30,1,8
235708,-109.7625,4,2,1,30,0,0
236050,341.238696468179,4,2,1,30,1,0
236050,-109.89375,4,2,1,30,0,0
236396,340.831629175187,4,2,1,30,1,8
236396,-110.025,4,2,1,30,0,0
236737,340.425531914894,4,2,1,30,1,8
236737,-110.15625,4,2,1,30,0,0
237078,340.020401224073,4,2,1,30,1,8
237078,-110.2875,4,2,1,30,0,0
237409,339.616233655969,4,2,1,30,1,0
237409,-110.41875,4,2,1,30,0,0
237741,339.21302578019,4,2,1,30,1,8
237741,-110.55,4,2,1,30,0,0
238081,338.829907386492,4,2,1,30,1,8
238081,-110.675,4,2,1,30,0,0
238420,338.428563370749,4,2,1,30,1,8
238420,-110.80625,4,2,1,30,0,0
238759,338.028169014084,4,2,1,30,1,0
238759,-110.9375,4,2,1,30,0,0
239098,337.628720949862,4,2,1,30,1,8
239098,-111.06875,4,2,1,30,0,0
239436,337.230215827338,4,2,1,30,1,8
239436,-111.2,4,2,1,30,0,0
239774,336.851560745565,4,2,1,30,1,8
239774,-111.325,4,2,1,30,0,0
240103,336.454887007234,4,2,1,30,1,0
240103,-111.45625,4,2,1,30,0,0
240440,336.059146409768,4,2,1,30,1,8
240440,-111.5875,4,2,1,30,0,0
240767,335.664335664336,4,2,1,30,1,8
240767,-111.71875,4,2,1,30,0,0
241103,335.270451497541,4,2,1,30,1,8
241103,-111.85,4,2,1,30,0,0
241439,334.877490651337,4,2,1,30,1,0
241439,-111.98125,4,2,1,30,0,0
241774,334.48544988293,4,2,1,30,1,8
241774,-112.1125,4,2,1,30,0,0
242109,334.112930170398,4,2,1,30,1,8
242109,-112.2375,4,2,1,30,0,0
242444,333.722676455865,4,2,1,30,1,8
242444,-112.36875,4,2,1,30,0,0
242773,333.333333333333,4,2,1,30,1,0
242773,-112.5,4,2,1,30,0,0
243107,332.944897619444,4,2,1,30,1,8
243107,-112.63125,4,2,1,30,0,0
243444,332.55736614566,4,2,1,30,1,8
243444,-112.7625,4,2,1,30,0,0
243777,332.189126342598,4,2,1,30,1,8
243777,-112.8875,4,2,1,30,0,0
244110,331.803351213847,4,2,1,30,1,0
244110,-113.01875,4,2,1,30,0,0
244442,331.41847105612,4,2,1,30,1,8
244442,-113.15,4,2,1,30,0,0
244774,331.034482758621,4,2,1,30,1,8
244774,-113.28125,4,2,1,30,0,0
245106,330.651383224953,4,2,1,30,1,8
245106,-113.4125,4,2,1,30,0,0
245437,330.269169373039,4,2,1,30,1,0
245437,-113.54375,4,2,1,30,0,0
245768,329.887838135034,4,2,1,30,1,8
245768,-113.675,4,2,1,30,0,0
246098,329.525483304042,4,2,1,30,1,8
246098,-113.8,4,2,1,30,0,0
246433,329.145866476494,4,2,1,30,1,8
246433,-113.93125,4,2,1,30,0,0
246763,328.767123287671,4,2,1,30,1,0
246763,-114.0625,4,2,1,30,0,0
247096,328.389250725193,4,2,1,30,1,8
247096,-114.19375,4,2,1,30,0,0
247417,328.01224579051,4,2,1,30,1,8
247417,-114.325,4,2,1,30,0,0
247749,327.653997378768,4,2,1,30,1,8
247749,-114.45,4,2,1,30,0,0
248082,327.278677794142,4,2,1,30,1,0
248082,-114.58125,4,2,1,30,0,0
248410,326.9042170644,4,2,1,30,1,8
248410,-114.7125,4,2,1,30,0,0
248737,326.530612244898,4,2,1,30,1,8
248737,-114.84375,4,2,1,30,0,0
249063,326.157860404436,4,2,1,30,1,8
249063,-114.975,4,2,1,30,0,0
249389,325.785958625183,4,2,1,30,1,0
249389,-115.10625,4,2,1,30,0,0
249714,325.414904002603,4,2,1,30,1,8
249714,-115.2375,4,2,1,30,0,0
250039,325.062303608192,4,2,1,30,1,8
250039,-115.3625,4,2,1,30,0,0
250364,324.692894637156,4,2,1,30,1,8
250364,-115.49375,4,2,1,30,0,0
250688,324.324324324324,4,2,1,30,1,0
250688,-115.625,4,2,1,30,0,0
251008,323.956589816965,4,2,1,30,1,8
251008,-115.75625,4,2,1,30,0,0
251333,323.589688275267,4,2,1,30,1,8
251333,-115.8875,4,2,1,30,0,0
251657,323.241030061416,4,2,1,30,1,8
251657,-116.0125,4,2,1,30,0,0
251981,322.875746650164,4,2,1,30,1,0
251981,-116.14375,4,2,1,30,0,0
252298,322.511287895076,4,2,1,30,1,8
252298,-116.275,4,2,1,30,0,0
252621,322.147651006711,4,2,1,30,1,8
252621,-116.40625,4,2,1,30,0,0
252944,321.784833208195,4,2,1,30,1,8
252944,-116.5375,4,2,1,30,0,0
253266,321.422831735148,4,2,1,30,1,0
253266,-116.66875,4,2,1,30,0,0
253588,321.061643835616,4,2,1,30,1,8
253588,-116.8,4,2,1,30,0,0
253915,320.71840923669,4,2,1,30,1,8
253915,-116.925,4,2,1,30,0,0
254235,320.358801858081,4,2,1,30,1,8
254235,-117.05625,4,2,1,30,0,0
254554,320,4,2,1,30,1,0
254554,-117.1875,4,2,1,30,0,0
254874,319.642000958926,4,2,1,30,1,8
254874,-117.31875,4,2,1,30,0,0
255193,319.284802043423,4,2,1,30,1,8
255193,-117.45,4,2,1,30,0,0
255512,318.945354029343,4,2,1,30,1,8
255512,-117.575,4,2,1,30,0,0
255836,318.589709552381,4,2,1,30,1,0
255836,-117.70625,4,2,1,30,0,0
256160,318.234857324706,4,2,1,30,1,8
256160,-117.8375,4,2,1,30,0,0
256478,317.880794701987,4,2,1,30,1,8
256478,-117.96875,4,2,1,30,0,0
256792,317.527519051651,4,2,1,30,1,8
256792,-118.1,4,2,1,30,0,0
257106,317.175027752815,4,2,1,30,1,0
257106,-118.23125,4,2,1,30,0,0
257419,316.823318196219,4,2,1,30,1,8
257419,-118.3625,4,2,1,30,0,0
257739,316.489081126701,4,2,1,30,1,8
257739,-118.4875,4,2,1,30,0,0
258048,316.138890352495,4,2,1,30,1,8
258048,-118.61875,4,2,1,30,0,0
258361,315.789473684211,4,2,1,30,1,0
258361,-118.75,4,2,1,30,0,0
278887,314.201927105153,4,2,1,30,1,8
278887,-119.35,4,2,1,30,0,0
279201,312.613973844631,4,2,1,30,1,8
279201,-119.95625,4,2,1,30,0,0
279513,311.058116024677,4,2,1,30,1,8
279513,-120.55625,4,2,1,30,0,0
279824,309.501702259362,4,2,1,30,1,0
279824,-121.1625,4,2,1,30,0,0
280133,307.976593778873,4,2,1,30,1,8
280133,-121.7625,4,2,1,30,0,0
280440,306.450789110782,4,2,1,30,1,8
280440,-122.36875,4,2,1,30,0,0
280746,304.955527318933,4,2,1,30,1,8
280746,-122.96875,4,2,1,30,0,0
281050,303.474786303171,4,2,1,30,1,0
281050,-123.56875,4,2,1,30,0,0
281353,301.993154821824,4,2,1,30,1,8
281353,-124.175,4,2,1,30,0,0
281654,300.540973752755,4,2,1,30,1,8
281654,-124.775,4,2,1,30,0,0
281954,299.087782264094,4,2,1,30,1,8
281954,-125.38125,4,2,1,30,0,0
282253,297.663342759339,4,2,1,30,1,0
282253,-125.98125,4,2,1,30,0,0
282550,296.237780191567,4,2,1,30,1,8
282550,-126.5875,4,2,1,30,0,0
282846,294.840294840295,4,2,1,30,1,8
282846,-127.1875,4,2,1,30,0,0
283140,293.455932700773,4,2,1,30,1,8
283140,-127.7875,4,2,1,30,0,0
283433,292.070291583508,4,2,1,30,1,0
283433,-128.39375,4,2,1,30,0,0
283725,290.711759290663,4,2,1,30,1,8
283725,-128.99375,4,2,1,30,0,0
284015,289.351851851852,4,2,1,30,1,8
284015,-129.6,4,2,1,30,0,0
284304,288.018433179724,4,2,1,30,1,8
284304,-130.2,4,2,1,30,0,0
284592,286.683549142338,4,2,1,30,1,0
284592,-130.80625,4,2,1,30,0,0
284878,285.374554102259,4,2,1,30,1,8
284878,-131.40625,4,2,1,30,0,0
285163,284.077458453672,4,2,1,30,1,8
285163,-132.00625,4,2,1,30,0,0
285447,282.778772740126,4,2,1,30,1,8
285447,-132.6125,4,2,1,30,0,0
285729,281.505114009571,4,2,1,30,1,0
285729,-133.2125,4,2,1,30,0,0
286010,280.22978842651,4,2,1,30,1,8
286010,-133.81875,4,2,1,30,0,0
286290,278.97893709025,4,2,1,30,1,8
286290,-134.41875,4,2,1,30,0,0
286568,277.726346972783,4,2,1,30,1,8
286568,-135.025,4,2,1,30,0,0
286853,276.497695852535,4,2,1,30,1,0
286853,-135.625,4,2,1,30,0,0
287958,-135.625,4,2,1,30,0,1
304548,-135.625,4,2,1,30,0,0
323350,552.99539170507,4,2,1,30,1,0
323350,-67.8125,4,2,1,30,0,0
332471,543.035568829758,4,2,1,30,1,8
332471,-69.05625,4,2,1,30,0,0
332742,533.40445392719,4,2,1,30,1,8
332742,-70.303125,4,2,1,30,0,0
333008,524.13190652981,4,2,1,30,1,8
333008,-71.546875,4,2,1,30,0,0
333270,515.154116939984,4,2,1,30,1,8
333270,-72.79375,4,2,1,30,0,0
333527,506.50008441668,4,2,1,30,1,8
333527,-74.0375,4,2,1,30,0,0
333780,498.111327881782,4,2,1,30,1,8
333780,-75.284375,4,2,1,30,0,0
334029,490.01592551758,4,2,1,30,1,8
334029,-76.528125,4,2,1,30,0,0
334274,482.160077145612,4,2,1,30,1,0
334274,-77.775,4,2,1,30,0,0
334515,474.57090880329,4,2,1,30,1,8
334515,-79.01875,4,2,1,30,0,0
334752,467.216944401184,4,2,1,30,1,8
334752,-80.2625,4,2,1,30,0,0
334985,460.06977724955,4,2,1,30,1,8
334985,-81.509375,4,2,1,30,0,0
335215,453.15509233035,4,2,1,30,1,8
335215,-82.753125,4,2,1,30,0,0
335441,446.428571428572,4,2,1,30,1,8
335441,-84,4,2,1,30,0,0
335664,439.914949776376,4,2,1,30,1,8
335664,-85.24375,4,2,1,30,0,0
335883,433.573002854356,4,2,1,30,1,8
335883,-86.490625,4,2,1,30,0,0
336099,427.426536064114,4,2,1,30,1,0
336099,-87.734375,4,2,1,30,0,0
336312,421.451901801706,4,2,1,30,1,8
336312,-88.978125,4,2,1,30,0,0
336522,415.627597672486,4,2,1,30,1,8
336522,-90.225,4,2,1,30,0,0
336729,409.97608472839,4,2,1,30,1,8
336729,-91.46875,4,2,1,30,0,0
336933,404.462570359634,4,2,1,30,1,8
336933,-92.715625,4,2,1,30,0,0
337135,399.108657331958,4,2,1,30,1,8
337135,-93.959375,4,2,1,30,0,0
337334,393.88170419484,4,2,1,30,1,8
337334,-95.20625,4,2,1,30,0,0
337530,388.802488335926,4,2,1,30,1,8
337530,-96.45,4,2,1,30,0,0
337724,383.85260060137,4,2,1,30,1,0
337724,-97.69375,4,2,1,30,0,0
337915,379.015192192288,4,2,1,30,1,8
337915,-98.940625,4,2,1,30,0,0
338104,374.309866184222,4,2,1,30,1,8
338104,-100.184375,4,2,1,30,0,0
338291,369.708546429232,4,2,1,30,1,8
338291,-101.43125,4,2,1,30,0,0
338475,365.230094959824,4,2,1,30,1,8
338475,-102.675,4,2,1,30,0,0
338657,360.84799278304,4,2,1,30,1,8
338657,-103.921875,4,2,1,30,0,0
338837,356.580394021336,4,2,1,30,1,8
338837,-105.165625,4,2,1,30,0,0
339015,352.402208387172,4,2,1,30,1,8
339015,-106.4125,4,2,1,30,0,0
339191,348.33091436865,4,2,1,30,1,0
339191,-107.65625,4,2,1,30,0,0
339365,344.35261707989,4,2,1,30,1,8
339365,-108.9,4,2,1,30,0,0
339537,340.454506766534,4,2,1,30,1,8
339537,-110.146875,4,2,1,30,0,0
339707,336.653107027634,4,2,1,30,1,8
339707,-111.390625,4,2,1,30,0,0
339875,332.92642326046,4,2,1,30,1,8
339875,-112.6375,4,2,1,30,0,0
340041,329.290379232754,4,2,1,30,1,8
340041,-113.88125,4,2,1,30,0,0
340205,325.724057436008,4,2,1,30,1,8
340205,-115.128125,4,2,1,30,0,0
340367,322.242809957302,4,2,1,30,1,8
340367,-116.371875,4,2,1,30,0,0
340528,318.826717678942,4,2,1,30,1,0
340528,-117.61875,4,2,1,30,0,0
340687,315.490587864128,4,2,1,30,1,8
340687,-118.8625,4,2,1,30,0,0
340844,312.223552063278,4,2,1,30,1,8
340844,-120.10625,4,2,1,30,0,0
341000,309.015528030284,4,2,1,30,1,8
341000,-121.353125,4,2,1,30,0,0
341154,305.880553643802,4,2,1,30,1,8
341154,-122.596875,4,2,1,30,0,0
341306,302.800908402726,4,2,1,30,1,8
341306,-123.84375,4,2,1,30,0,0
341457,299.790146897172,4,2,1,30,1,8
341457,-125.0875,4,2,1,30,0,0
341606,296.831325599228,4,2,1,30,1,8
341606,-126.334375,4,2,1,30,0,0
341754,293.937538273116,4,2,1,30,1,0
341754,-127.578125,4,2,1,30,0,0
341900,291.099628847974,4,2,1,30,1,8
341900,-128.821875,4,2,1,30,0,0
342045,288.309067320168,4,2,1,30,1,8
342045,-130.06875,4,2,1,30,0,0
342189,285.5782960495,4,2,1,30,1,8
342189,-131.3125,4,2,1,30,0,0
342331,282.8921002381,4,2,1,30,1,8
342331,-132.559375,4,2,1,30,0,0
342472,280.262512553426,4,2,1,30,1,8
342472,-133.803125,4,2,1,30,0,0
342612,277.674935209182,4,2,1,30,1,8
342612,-135.05,4,2,1,30,0,0
342750,275.141009767506,4,2,1,30,1,8
342750,-136.29375,4,2,1,30,0,0
342887,272.652912841952,4,2,1,30,1,0
342887,-137.5375,4,2,1,30,0,0
343023,270.203328004324,4,2,1,30,1,8
343023,-138.784375,4,2,1,30,0,0
343158,267.8033430784,4,2,1,30,1,8
343158,-140.028125,4,2,1,30,0,0
343291,265.439745177844,4,2,1,30,1,8
343291,-141.275,4,2,1,30,0,0
343423,263.12327325352,4,2,1,30,1,8
343423,-142.51875,4,2,1,30,0,0
343554,260.84121291164,4,2,1,30,1,8
343554,-143.765625,4,2,1,30,0,0
343684,258.603969570932,4,2,1,30,1,8
343684,-145.009375,4,2,1,30,0,0
343813,256.399299175248,4,2,1,30,1,8
343813,-146.25625,4,2,1,30,0,0
343941,254.237288135594,4,2,1,30,1,0
343941,-147.5,4,2,1,30,0,0
344068,252.111433253498,4,2,1,30,1,8
344068,-148.74375,4,2,1,30,0,0
344194,250.015625976624,4,2,1,30,1,8
344194,-149.990625,4,2,1,30,0,0
344319,247.959499948342,4,2,1,30,1,8
344319,-151.234375,4,2,1,30,0,0
344442,245.931876870106,4,2,1,30,1,8
344442,-152.48125,4,2,1,30,0,0
344564,243.94210440722,4,2,1,30,1,8
344564,-153.725,4,2,1,30,0,0
344685,241.97939142183,4,2,1,30,1,8
344685,-154.971875,4,2,1,30,0,0
344805,240.052811618556,4,2,1,30,1,8
344805,-156.215625,4,2,1,30,0,0
344925,238.151940938318,4,2,1,30,1,0
344925,-157.4625,4,2,1,30,0,0
345044,236.285590517072,4,2,1,30,1,8
345044,-158.70625,4,2,1,30,0,0
345162,234.448265082838,4,2,1,30,1,8
345162,-159.95,4,2,1,30,0,0
345279,232.634782777272,4,2,1,30,1,8
345279,-161.196875,4,2,1,30,0,0
345395,230.853581116178,4,2,1,30,1,8
345395,-162.440625,4,2,1,30,0,0
345510,229.0950744559,4,2,1,30,1,8
345510,-163.6875,4,2,1,30,0,0
345624,227.367463715942,4,2,1,30,1,8
345624,-164.93125,4,2,1,30,0,0
345737,225.661470184478,4,2,1,30,1,8
345737,-166.178125,4,2,1,30,0,0
345849,223.985067662156,4,2,1,30,1,0
345849,-167.421875,4,2,1,30,0,0
345960,222.33338891668,4,2,1,30,1,8
345960,-168.665625,4,2,1,30,0,0
346071,220.701831825204,4,2,1,30,1,8
346071,-169.9125,4,2,1,30,0,0
346181,219.098046375754,4,2,1,30,1,8
346181,-171.15625,4,2,1,30,0,0
346290,217.513458645254,4,2,1,30,1,8
346290,-172.403125,4,2,1,30,0,0
346398,215.955513164288,4,2,1,30,1,8
346398,-173.646875,4,2,1,30,0,0
346505,214.415895365044,4,2,1,30,1,8
346505,-174.89375,4,2,1,30,0,0
346612,212.901852246114,4,2,1,30,1,8
346612,-176.1375,4,2,1,30,0,0
346718,211.409041259998,4,2,1,30,1,0
346718,-177.38125,4,2,1,30,0,0
346823,209.933346162594,4,2,1,30,1,8
346823,-178.628125,4,2,1,30,0,0
346927,208.481731788252,4,2,1,30,1,8
346927,-179.871875,4,2,1,30,0,0
347031,207.046481935194,4,2,1,30,1,8
347031,-181.11875,4,2,1,30,0,0
347134,205.634382068682,4,2,1,30,1,8
347134,-182.3625,4,2,1,30,0,0
347236,204.237937196834,4,2,1,30,1,8
347236,-183.609375,4,2,1,30,0,0
347338,202.863760079794,4,2,1,30,1,8
347338,-184.853125,4,2,1,30,0,0
347439,201.504567436862,4,2,1,30,1,8
347439,-186.1,4,2,1,30,0,0
347539,200.166805671392,4,2,1,30,1,0
347539,-187.34375,4,2,1,30,0,0
347639,198.846689202625,4,2,1,30,1,8
347639,-188.5875,4,2,1,30,0,0
347738,197.540619289841,4,2,1,30,1,8
347738,-189.834375,4,2,1,30,0,0
347836,196.25480415406,4,2,1,30,1,8
347836,-191.078125,4,2,1,30,0,0
347934,194.982451579358,4,2,1,30,1,8
347934,-192.325,4,2,1,30,0,0
348031,193.72961802977,4,2,1,30,1,8
348031,-193.56875,4,2,1,30,0,0
348127,192.489693780979,4,2,1,30,1,8
348127,-194.815625,4,2,1,30,0,0
348223,191.268588915985,4,2,1,30,1,8
348223,-196.059375,4,2,1,30,0,0
348318,190.05986885869,4,2,1,30,1,0
348318,-197.30625,4,2,1,30,0,0
348413,188.86930244271,4,2,1,30,1,8
348413,-198.55,4,2,1,30,0,0
348507,187.693558982701,4,2,1,30,1,8
348507,-199.79375,4,2,1,30,0,0
348600,186.529463883233,4,2,1,30,1,8
348600,-201.040625,4,2,1,30,0,0
348693,185.382583306298,4,2,1,30,1,8
348693,-202.284375,4,2,1,30,0,0
348785,184.246890833717,4,2,1,30,1,8
348785,-203.53125,4,2,1,30,0,0
348877,183.127823220608,4,2,1,30,1,8
348877,-204.775,4,2,1,30,0,0
348968,182.019506423772,4,2,1,30,1,8
348968,-206.021875,4,2,1,30,0,0
349059,180.927252167358,4,2,1,30,1,0
349059,-207.265625,4,2,1,30,0,0
349149,179.848028415988,4,2,1,30,1,8
349149,-208.509375,4,2,1,30,0,0
349238,178.778939840887,4,2,1,30,1,8
349238,-209.75625,4,2,1,30,0,0
349327,177.725118483412,4,2,1,30,1,8
349327,-211,4,2,1,30,0,0
349415,176.681046540732,4,2,1,30,1,8
349415,-212.246875,4,2,1,30,0,0
349503,175.651741147884,4,2,1,30,1,8
349503,-213.490625,4,2,1,30,0,0
349590,174.631817917225,4,2,1,30,1,8
349590,-214.7375,4,2,1,30,0,0
349677,173.626182828371,4,2,1,30,1,8
349677,-215.98125,4,2,1,30,0,0
349763,172.632063528599,4,2,1,30,1,0
349763,-217.225,4,2,1,30,0,0
349849,171.646808084565,4,2,1,30,1,8
349849,-218.471875,4,2,1,30,0,0
349934,170.675162496978,4,2,1,30,1,8
349934,-219.715625,4,2,1,30,0,0
350019,169.712055212989,4,2,1,30,1,8
350019,-220.9625,4,2,1,30,0,0
350103,168.762129778078,4,2,1,30,1,8
350103,-222.20625,4,2,1,30,0,0
350187,167.820432137613,4,2,1,30,1,8
350187,-223.453125,4,2,1,30,0,0
350270,166.891506613076,4,2,1,30,1,8
350270,-224.696875,4,2,1,30,0,0
350353,165.970512572266,4,2,1,30,1,8
350353,-225.94375,4,2,1,30,0,0
350435,165.061898211829,4,2,1,30,1,0
350435,-227.1875,4,2,1,30,0,0
361659,-227.1875,4,2,1,30,0,1
371562,-227.1875,4,2,1,30,0,0
372223,-227.1875,4,2,1,30,0,1
376844,-227.1875,4,2,1,30,0,0
386748,165.061898211829,727,2,1,30,1,0
386748,-227.1875,727,2,1,30,0,0

[HitObjects]
64,192,9137,128,0,9559:0:0:0:0:
192,192,9137,128,0,9559:0:0:0:0:
320,192,9137,128,0,9559:0:0:0:0:
448,192,9137,128,0,9559:0:0:0:0:
64,192,10684,1,0,0:0:0:0:
320,192,10684,1,0,0:0:0:0:
448,192,10684,1,0,0:0:0:0:
320,192,10809,1,0,0:0:0:0:
192,192,10934,1,0,0:0:0:0:
64,192,11059,1,0,0:0:0:0:
320,192,11059,1,0,0:0:0:0:
448,192,11059,1,0,0:0:0:0:
448,192,11184,1,0,0:0:0:0:
192,192,11309,1,0,0:0:0:0:
64,192,11434,1,0,0:0:0:0:
320,192,11434,1,0,0:0:0:0:
448,192,11434,1,0,0:0:0:0:
64,192,11559,1,0,0:0:0:0:
448,192,11621,128,0,11684:0:0:0:0:
320,192,11684,1,0,0:0:0:0:
64,192,11809,1,0,0:0:0:0:
192,192,11809,1,0,0:0:0:0:
448,192,11871,128,0,11934:0:0:0:0:
192,192,11934,1,0,0:0:0:0:
64,192,12059,1,0,0:0:0:0:
448,192,12121,128,0,12184:0:0:0:0:
320,192,12184,1,0,0:0:0:0:
64,192,12184,1,0,0:0:0:0:
192,192,12184,128,0,12559:0:0:0:0:
64,192,12559,1,0,0:0:0:0:
320,192,12559,1,0,0:0:0:0:
320,192,12746,1,0,0:0:0:0:
448,192,12934,1,0,0:0:0:0:
448,192,13121,128,0,13309:0:0:0:0:
64,192,13309,1,0,0:0:0:0:
320,192,13309,1,0,0:0:0:0:
320,192,13496,128,0,13871:0:0:0:0:
192,192,13871,1,0,0:0:0:0:
192,192,14059,1,0,0:0:0:0:
448,192,14059,1,0,0:0:0:0:
64,192,14246,128,0,14621:0:0:0:0:
192,192,14621,1,0,0:0:0:0:
64,192,14809,1,0,0:0:0:0:
320,192,14809,1,0,0:0:0:0:
448,192,14996,1,0,0:0:0:0:
192,192,15184,128,0,15559:0:0:0:0:
64,192,15559,1,0,0:0:0:0:
320,192,15559,1,0,0:0:0:0:
320,192,15746,1,0,0:0:0:0:
448,192,15934,1,0,0:0:0:0:
448,192,16121,128,0,16309:0:0:0:0:
64,192,16309,1,0,0:0:0:0:
320,192,16309,1,0,0:0:0:0:
320,192,16496,128,0,16871:0:0:0:0:
192,192,16871,1,0,0:0:0:0:
192,192,17059,1,0,0:0:0:0:
448,192,17059,1,0,0:0:0:0:
64,192,17246,128,0,17621:0:0:0:0:
192,192,17621,1,0,0:0:0:0:
64,192,17809,1,0,0:0:0:0:
448,192,17809,1,0,0:0:0:0:
320,192,17996,1,0,0:0:0:0:
320,192,18184,1,0,0:0:0:0:
448,192,18184,1,0,0:0:0:0:
192,192,18184,128,0,18559:0:0:0:0:
320,192,18559,1,0,0:0:0:0:
64,192,18559,1,0,0:0:0:0:
320,192,18746,1,0,0:0:0:0:
448,192,18934,1,0,0:0:0:0:
448,192,19121,128,0,19309:0:0:0:0:
320,192,19309,1,0,0:0:0:0:
64,192,19309,1,0,0:0:0:0:
320,192,19496,128,0,19871:0:0:0:0:
192,192,19871,1,0,0:0:0:0:
448,192,20059,1,0,0:0:0:0:
192,192,20059,1,0,0:0:0:0:
64,192,20246,128,0,20621:0:0:0:0:
192,192,20621,1,0,0:0:0:0:
320,192,20809,1,0,0:0:0:0:
64,192,20809,1,0,0:0:0:0:
448,192,20996,1,0,0:0:0:0:
192,192,21184,128,0,21559:0:0:0:0:
320,192,21184,1,0,0:0:0:0:
64,192,21559,1,0,0:0:0:0:
320,192,21559,1,0,0:0:0:0:
320,192,21746,1,0,0:0:0:0:
448,192,21934,1,0,0:0:0:0:
448,192,22121,128,0,22309:0:0:0:0:
64,192,22309,1,0,0:0:0:0:
320,192,22309,1,0,0:0:0:0:
192,192,22309,1,0,0:0:0:0:
192,192,22496,128,0,22684:0:0:0:0:
64,192,22684,1,0,0:0:0:0:
320,192,22684,1,0,0:0:0:0:
448,192,22684,1,0,0:0:0:0:
320,192,22777,1,0,0:0:0:0:
448,192,22777,1,0,0:0:0:0:
64,192,22871,1,0,0:0:0:0:
192,192,22871,1,0,0:0:0:0:
64,192,22965,1,0,0:0:0:0:
192,192,22965,1,0,0:0:0:0:
448,192,23059,1,0,0:0:0:0:
320,192,23059,1,0,0:0:0:0:
320,192,23152,1,0,0:0:0:0:
448,192,23152,1,0,0:0:0:0:
192,192,23246,1,0,0:0:0:0:
64,192,23246,1,0,0:0:0:0:
64,192,23340,1,0,0:0:0:0:
192,192,23340,1,0,0:0:0:0:
448,192,23434,1,0,0:0:0:0:
448,192,23527,1,0,0:0:0:0:
320,192,23621,1,0,0:0:0:0:
320,192,23715,1,0,0:0:0:0:
192,192,23809,1,0,0:0:0:0:
192,192,23902,1,0,0:0:0:0:
64,192,23996,1,0,0:0:0:0:
64,192,24090,1,0,0:0:0:0:
192,192,24184,1,0,0:0:0:0:
448,192,24184,128,0,24277:0:0:0:0:
320,192,24184,128,0,24277:0:0:0:0:
320,192,24371,128,0,24559:0:0:0:0:
448,192,24371,128,0,24559:0:0:0:0:
192,192,24559,1,0,0:0:0:0:
64,192,24559,1,0,0:0:0:0:
64,192,24746,1,0,0:0:0:0:
64,192,24934,1,0,0:0:0:0:
448,192,25121,128,0,25309:0:0:0:0:
64,192,25309,1,0,0:0:0:0:
320,192,25309,1,0,0:0:0:0:
64,192,25496,128,0,25871:0:0:0:0:
448,192,25684,1,0,0:0:0:0:
192,192,25871,1,0,0:0:0:0:
192,192,26059,1,0,0:0:0:0:
448,192,26059,1,0,0:0:0:0:
320,192,26246,128,0,26621:0:0:0:0:
448,192,26246,1,0,0:0:0:0:
64,192,26434,1,0,0:0:0:0:
448,192,26621,1,0,0:0:0:0:
448,192,26715,1,0,0:0:0:0:
64,192,26809,1,0,0:0:0:0:
320,192,26809,1,0,0:0:0:0:
64,192,26996,1,0,0:0:0:0:
192,192,27184,1,0,0:0:0:0:
448,192,27184,128,0,27277:0:0:0:0:
320,192,27184,128,0,27277:0:0:0:0:
320,192,27371,128,0,27559:0:0:0:0:
448,192,27371,128,0,27559:0:0:0:0:
192,192,27559,1,0,0:0:0:0:
64,192,27559,1,0,0:0:0:0:
64,192,27746,1,0,0:0:0:0:
64,192,27934,1,0,0:0:0:0:
448,192,28121,128,0,28309:0:0:0:0:
64,192,28309,1,0,0:0:0:0:
320,192,28309,1,0,0:0:0:0:
64,192,28496,128,0,28871:0:0:0:0:
448,192,28684,1,0,0:0:0:0:
192,192,28871,1,0,0:0:0:0:
192,192,29059,1,0,0:0:0:0:
448,192,29059,1,0,0:0:0:0:
320,192,29246,128,0,29621:0:0:0:0:
64,192,29434,1,0,0:0:0:0:
448,192,29621,1,0,0:0:0:0:
192,192,29715,1,0,0:0:0:0:
64,192,29809,1,0,0:0:0:0:
448,192,29809,1,0,0:0:0:0:
64,192,29996,1,0,0:0:0:0:
320,192,30184,128,0,30277:0:0:0:0:
448,192,30184,128,0,30277:0:0:0:0:
192,192,30184,1,0,0:0:0:0:
448,192,30371,128,0,30559:0:0:0:0:
320,192,30371,128,0,30559:0:0:0:0:
64,192,30559,1,0,0:0:0:0:
192,192,30559,1,0,0:0:0:0:
64,192,30746,1,0,0:0:0:0:
64,192,30934,1,0,0:0:0:0:
448,192,31121,128,0,31309:0:0:0:0:
320,192,31309,1,0,0:0:0:0:
64,192,31309,1,0,0:0:0:0:
64,192,31496,128,0,31871:0:0:0:0:
448,192,31684,1,0,0:0:0:0:
192,192,31871,1,0,0:0:0:0:
448,192,32059,1,0,0:0:0:0:
192,192,32059,1,0,0:0:0:0:
320,192,32246,128,0,32621:0:0:0:0:
448,192,32246,1,0,0:0:0:0:
64,192,32434,1,0,0:0:0:0:
448,192,32621,1,0,0:0:0:0:
448,192,32715,1,0,0:0:0:0:
320,192,32809,1,0,0:0:0:0:
64,192,32809,1,0,0:0:0:0:
64,192,32996,1,0,0:0:0:0:
192,192,33184,1,0,0:0:0:0:
448,192,33184,128,0,33277:0:0:0:0:
320,192,33184,128,0,33277:0:0:0:0:
320,192,33371,128,0,33559:0:0:0:0:
448,192,33371,128,0,33559:0:0:0:0:
192,192,33559,1,0,0:0:0:0:
64,192,33559,1,0,0:0:0:0:
64,192,33746,1,0,0:0:0:0:
64,192,33934,1,0,0:0:0:0:
448,192,34121,128,0,34309:0:0:0:0:
64,192,34309,1,0,0:0:0:0:
320,192,34309,1,0,0:0:0:0:
64,192,34496,128,0,34871:0:0:0:0:
448,192,34684,1,0,0:0:0:0:
192,192,34871,1,0,0:0:0:0:
192,192,35059,1,0,0:0:0:0:
448,192,35059,1,0,0:0:0:0:
320,192,35246,128,0,35621:0:0:0:0:
448,192,35246,1,0,0:0:0:0:
64,192,35434,1,0,0:0:0:0:
448,192,35621,1,0,0:0:0:0:
448,192,35715,1,0,0:0:0:0:
64,192,35809,1,0,0:0:0:0:
192,192,35809,1,0,0:0:0:0:
448,192,35902,1,0,0:0:0:0:
320,192,35902,1,0,0:0:0:0:
192,192,35996,1,0,0:0:0:0:
64,192,35996,1,0,0:0:0:0:
320,192,36090,1,0,0:0:0:0:
448,192,36090,1,0,0:0:0:0:
192,192,36184,1,0,0:0:0:0:
64,192,36184,1,0,0:0:0:0:
448,192,36184,1,0,0:0:0:0:
64,192,36371,1,0,0:0:0:0:
192,192,36371,1,0,0:0:0:0:
320,192,36465,1,0,0:0:0:0:
448,192,36465,1,0,0:0:0:0:
192,192,36559,1,0,0:0:0:0:
64,192,36559,1,0,0:0:0:0:
448,192,36652,1,0,0:0:0:0:
320,192,36652,1,0,0:0:0:0:
192,192,36746,1,0,0:0:0:0:
64,192,36746,1,0,0:0:0:0:
320,192,36746,1,0,0:0:0:0:
448,192,36934,1,0,0:0:0:0:
320,192,36934,1,0,0:0:0:0:
64,192,37027,1,0,0:0:0:0:
192,192,37027,1,0,0:0:0:0:
448,192,37121,1,0,0:0:0:0:
320,192,37121,1,0,0:0:0:0:
192,192,37215,1,0,0:0:0:0:
64,192,37215,1,0,0:0:0:0:
192,192,37309,1,0,0:0:0:0:
320,192,37309,1,0,0:0:0:0:
448,192,37309,1,0,0:0:0:0:
320,192,37496,1,0,0:0:0:0:
448,192,37496,1,0,0:0:0:0:
64,192,37590,1,0,0:0:0:0:
192,192,37590,1,0,0:0:0:0:
192,192,37684,1,0,0:0:0:0:
64,192,37684,1,0,0:0:0:0:
320,192,37684,1,0,0:0:0:0:
320,192,37871,1,0,0:0:0:0:
320,192,37965,1,0,0:0:0:0:
64,192,38059,1,0,0:0:0:0:
64,192,38152,1,0,0:0:0:0:
192,192,38246,1,0,0:0:0:0:
320,192,38246,1,0,0:0:0:0:
448,192,38246,1,0,0:0:0:0:
192,192,38434,1,0,0:0:0:0:
192,192,38527,1,0,0:0:0:0:
448,192,38621,1,0,0:0:0:0:
448,192,38715,1,0,0:0:0:0:
64,192,38809,1,0,0:0:0:0:
320,192,38809,1,0,0:0:0:0:
192,192,38809,1,0,0:0:0:0:
64,192,38996,1,0,0:0:0:0:
64,192,39090,1,0,0:0:0:0:
448,192,39184,1,0,0:0:0:0:
320,192,39184,1,0,0:0:0:0:
192,192,39184,1,0,0:0:0:0:
192,192,39371,1,0,0:0:0:0:
192,192,39465,1,0,0:0:0:0:
448,192,39559,1,0,0:0:0:0:
448,192,39652,1,0,0:0:0:0:
192,192,39746,1,0,0:0:0:0:
64,192,39746,1,0,0:0:0:0:
320,192,39746,1,0,0:0:0:0:
320,192,39934,1,0,0:0:0:0:
320,192,40027,1,0,0:0:0:0:
64,192,40121,1,0,0:0:0:0:
64,192,40215,1,0,0:0:0:0:
192,192,40309,1,0,0:0:0:0:
320,192,40309,1,0,0:0:0:0:
448,192,40309,1,0,0:0:0:0:
448,192,40496,1,0,0:0:0:0:
448,192,40590,1,0,0:0:0:0:
64,192,40684,1,0,0:0:0:0:
192,192,40684,1,0,0:0:0:0:
320,192,40684,1,0,0:0:0:0:
192,192,40871,1,0,0:0:0:0:
192,192,40965,1,0,0:0:0:0:
448,192,41059,1,0,0:0:0:0:
448,192,41152,1,0,0:0:0:0:
192,192,41246,1,0,0:0:0:0:
64,192,41246,1,0,0:0:0:0:
320,192,41246,1,0,0:0:0:0:
320,192,41434,1,0,0:0:0:0:
320,192,41527,1,0,0:0:0:0:
64,192,41621,1,0,0:0:0:0:
64,192,41715,1,0,0:0:0:0:
192,192,41809,1,0,0:0:0:0:
320,192,41809,1,0,0:0:0:0:
448,192,41809,1,0,0:0:0:0:
448,192,41996,1,0,0:0:0:0:
448,192,42090,1,0,0:0:0:0:
192,192,42184,1,0,0:0:0:0:
64,192,42184,1,0,0:0:0:0:
320,192,42184,1,0,0:0:0:0:
448,192,42371,1,0,0:0:0:0:
320,192,42371,1,0,0:0:0:0:
192,192,42465,1,0,0:0:0:0:
64,192,42465,1,0,0:0:0:0:
448,192,42559,1,0,0:0:0:0:
320,192,42559,1,0,0:0:0:0:
64,192,42652,1,0,0:0:0:0:
192,192,42652,1,0,0:0:0:0:
192,192,42746,1,0,0:0:0:0:
320,192,42746,1,0,0:0:0:0:
448,192,42746,1,0,0:0:0:0:
64,192,42934,1,0,0:0:0:0:
192,192,42934,1,0,0:0:0:0:
448,192,43027,1,0,0:0:0:0:
320,192,43027,1,0,0:0:0:0:
192,192,43121,1,0,0:0:0:0:
64,192,43121,1,0,0:0:0:0:
320,192,43215,1,0,0:0:0:0:
448,192,43215,1,0,0:0:0:0:
192,192,43309,1,0,0:0:0:0:
320,192,43309,1,0,0:0:0:0:
64,192,43309,1,0,0:0:0:0:
192,192,43496,1,0,0:0:0:0:
64,192,43496,1,0,0:0:0:0:
448,192,43590,1,0,0:0:0:0:
320,192,43590,1,0,0:0:0:0:
192,192,43684,1,0,0:0:0:0:
448,192,43684,1,0,0:0:0:0:
320,192,43684,1,0,0:0:0:0:
192,192,43871,1,0,0:0:0:0:
192,192,43965,1,0,0:0:0:0:
448,192,44059,1,0,0:0:0:0:
448,192,44152,1,0,0:0:0:0:
320,192,44246,1,0,0:0:0:0:
192,192,44246,1,0,0:0:0:0:
64,192,44246,1,0,0:0:0:0:
320,192,44434,1,0,0:0:0:0:
320,192,44527,1,0,0:0:0:0:
64,192,44621,1,0,0:0:0:0:
64,192,44715,1,0,0:0:0:0:
448,192,44809,1,0,0:0:0:0:
192,192,44809,1,0,0:0:0:0:
320,192,44809,1,0,0:0:0:0:
448,192,44996,1,0,0:0:0:0:
448,192,45090,1,0,0:0:0:0:
64,192,45184,1,0,0:0:0:0:
192,192,45184,1,0,0:0:0:0:
320,192,45184,1,0,0:0:0:0:
320,192,45371,1,0,0:0:0:0:
320,192,45465,1,0,0:0:0:0:
64,192,45559,1,0,0:0:0:0:
64,192,45652,1,0,0:0:0:0:
320,192,45746,1,0,0:0:0:0:
448,192,45746,1,0,0:0:0:0:
192,192,45746,1,0,0:0:0:0:
192,192,45934,1,0,0:0:0:0:
192,192,46027,1,0,0:0:0:0:
448,192,46121,1,0,0:0:0:0:
448,192,46215,1,0,0:0:0:0:
320,192,46309,1,0,0:0:0:0:
192,192,46309,1,0,0:0:0:0:
64,192,46309,1,0,0:0:0:0:
64,192,46496,1,0,0:0:0:0:
64,192,46590,1,0,0:0:0:0:
448,192,46684,1,0,0:0:0:0:
320,192,46684,1,0,0:0:0:0:
192,192,46684,1,0,0:0:0:0:
320,192,46871,1,0,0:0:0:0:
320,192,46965,1,0,0:0:0:0:
64,192,47059,1,0,0:0:0:0:
64,192,47152,1,0,0:0:0:0:
320,192,47246,1,0,0:0:0:0:
448,192,47246,1,0,0:0:0:0:
192,192,47246,1,0,0:0:0:0:
192,192,47434,1,0,0:0:0:0:
192,192,47527,1,0,0:0:0:0:
448,192,47621,1,0,0:0:0:0:
448,192,47715,1,0,0:0:0:0:
320,192,47809,1,0,0:0:0:0:
192,192,47809,1,0,0:0:0:0:
64,192,47809,1,0,0:0:0:0:
64,192,47996,1,0,0:0:0:0:
64,192,48090,1,0,0:0:0:0:
320,192,48184,1,0,0:0:0:0:
448,192,48184,1,0,0:0:0:0:
192,192,48184,128,0,52684:0:0:0:0:
64,192,52684,1,0,0:0:0:0:
320,192,52684,1,0,0:0:0:0:
448,192,52684,1,0,0:0:0:0:
320,192,52871,1,0,0:0:0:0:
64,192,53059,1,0,0:0:0:0:
320,192,53059,1,0,0:0:0:0:
448,192,53059,1,0,0:0:0:0:
320,192,53246,1,0,0:0:0:0:
64,192,53434,1,0,0:0:0:0:
320,192,53434,1,0,0:0:0:0:
448,192,53434,1,0,0:0:0:0:
192,192,53621,1,0,0:0:0:0:
64,192,53809,1,0,0:0:0:0:
192,192,53809,1,0,0:0:0:0:
192,192,53996,1,0,0:0:0:0:
320,192,53996,1,0,0:0:0:0:
192,192,54184,1,0,0:0:0:0:
448,192,54184,128,0,54371:0:0:0:0:
64,192,54184,128,0,54371:0:0:0:0:
192,192,54559,128,0,54746:0:0:0:0:
448,192,54746,128,0,55121:0:0:0:0:
192,192,55121,128,0,55309:0:0:0:0:
448,192,55309,128,0,55684:0:0:0:0:
192,192,55684,128,0,55871:0:0:0:0:
448,192,55871,128,0,56246:0:0:0:0:
192,192,56246,128,0,56434:0:0:0:0:
448,192,56434,1,0,0:0:0:0:
320,192,56434,1,0,0:0:0:0:
64,192,56434,1,0,0:0:0:0:
320,192,56527,1,0,0:0:0:0:
448,192,56527,1,0,0:0:0:0:
192,192,56621,1,0,0:0:0:0:
64,192,56621,1,0,0:0:0:0:
64,192,56715,1,0,0:0:0:0:
192,192,56715,1,0,0:0:0:0:
448,192,56809,1,0,0:0:0:0:
320,192,56809,1,0,0:0:0:0:
64,192,56871,1,0,0:0:0:0:
320,192,56934,1,0,0:0:0:0:
192,192,56996,1,0,0:0:0:0:
64,192,56996,1,0,0:0:0:0:
448,192,57059,1,0,0:0:0:0:
192,192,57121,1,0,0:0:0:0:
320,192,57184,1,0,0:0:0:0:
64,192,57184,128,0,57371:0:0:0:0:
448,192,57184,128,0,57371:0:0:0:0:
192,192,57559,128,0,57746:0:0:0:0:
448,192,57746,128,0,58121:0:0:0:0:
192,192,58121,128,0,58309:0:0:0:0:
448,192,58309,128,0,58590:0:0:0:0:
192,192,58684,1,0,0:0:0:0:
448,192,58684,1,0,0:0:0:0:
64,192,58684,1,0,0:0:0:0:
192,192,58871,1,0,0:0:0:0:
192,192,59059,1,0,0:0:0:0:
448,192,59059,1,0,0:0:0:0:
64,192,59059,1,0,0:0:0:0:
448,192,59246,1,0,0:0:0:0:
192,192,59434,1,0,0:0:0:0:
448,192,59434,1,0,0:0:0:0:
64,192,59434,1,0,0:0:0:0:
192,192,59621,1,0,0:0:0:0:
192,192,59715,1,0,0:0:0:0:
320,192,59809,1,0,0:0:0:0:
64,192,59809,1,0,0:0:0:0:
448,192,59809,1,0,0:0:0:0:
192,192,59902,1,0,0:0:0:0:
320,192,59996,1,0,0:0:0:0:
320,192,60090,1,0,0:0:0:0:
192,192,60184,1,0,0:0:0:0:
64,192,60184,1,0,0:0:0:0:
448,192,60184,1,0,0:0:0:0:
192,192,60277,1,0,0:0:0:0:
64,192,60277,1,0,0:0:0:0:
320,192,60371,1,0,0:0:0:0:
448,192,60371,1,0,0:0:0:0:
192,192,60465,1,0,0:0:0:0:
64,192,60465,1,0,0:0:0:0:
320,192,60559,1,0,0:0:0:0:
448,192,60559,1,0,0:0:0:0:
64,192,60559,1,0,0:0:0:0:
320,192,60652,1,0,0:0:0:0:
448,192,60652,1,0,0:0:0:0:
192,192,60746,1,0,0:0:0:0:
64,192,60746,1,0,0:0:0:0:
448,192,60840,1,0,0:0:0:0:
320,192,60840,1,0,0:0:0:0:
192,192,60934,1,0,0:0:0:0:
64,192,60934,1,0,0:0:0:0:
448,192,60934,1,0,0:0:0:0:
192,192,61027,1,0,0:0:0:0:
64,192,61027,1,0,0:0:0:0:
320,192,61121,1,0,0:0:0:0:
448,192,61121,1,0,0:0:0:0:
192,192,61215,1,0,0:0:0:0:
64,192,61215,1,0,0:0:0:0:
64,192,61309,1,0,0:0:0:0:
320,192,61309,1,0,0:0:0:0:
448,192,61309,1,0,0:0:0:0:
320,192,61496,1,0,0:0:0:0:
192,192,61590,1,0,0:0:0:0:
64,192,61684,1,0,0:0:0:0:
320,192,61684,1,0,0:0:0:0:
448,192,61684,1,0,0:0:0:0:
320,192,61777,1,0,0:0:0:0:
448,192,61777,1,0,0:0:0:0:
64,192,61871,1,0,0:0:0:0:
192,192,61871,1,0,0:0:0:0:
320,192,61965,1,0,0:0:0:0:
448,192,61965,1,0,0:0:0:0:
192,192,62059,1,0,0:0:0:0:
64,192,62059,1,0,0:0:0:0:
448,192,62059,1,0,0:0:0:0:
192,192,62152,1,0,0:0:0:0:
64,192,62152,1,0,0:0:0:0:
320,192,62246,1,0,0:0:0:0:
448,192,62246,1,0,0:0:0:0:
192,192,62340,1,0,0:0:0:0:
64,192,62340,1,0,0:0:0:0:
64,192,62434,1,0,0:0:0:0:
320,192,62434,1,0,0:0:0:0:
448,192,62434,1,0,0:0:0:0:
320,192,62527,1,0,0:0:0:0:
448,192,62527,1,0,0:0:0:0:
192,192,62621,1,0,0:0:0:0:
64,192,62621,1,0,0:0:0:0:
320,192,62715,1,0,0:0:0:0:
448,192,62715,1,0,0:0:0:0:
192,192,62809,1,0,0:0:0:0:
64,192,62809,1,0,0:0:0:0:
448,192,62809,1,0,0:0:0:0:
192,192,62996,1,0,0:0:0:0:
448,192,63090,1,0,0:0:0:0:
192,192,63184,1,0,0:0:0:0:
64,192,63184,1,0,0:0:0:0:
320,192,63184,1,0,0:0:0:0:
64,192,63277,1,0,0:0:0:0:
320,192,63277,1,0,0:0:0:0:
192,192,63371,1,0,0:0:0:0:
448,192,63371,1,0,0:0:0:0:
64,192,63465,1,0,0:0:0:0:
192,192,63559,1,0,0:0:0:0:
320,192,63559,1,0,0:0:0:0:
448,192,63559,1,0,0:0:0:0:
192,192,63652,1,0,0:0:0:0:
448,192,63652,1,0,0:0:0:0:
320,192,63746,1,0,0:0:0:0:
64,192,63746,1,0,0:0:0:0:
448,192,63840,1,0,0:0:0:0:
192,192,63934,1,0,0:0:0:0:
64,192,63934,1,0,0:0:0:0:
320,192,63934,1,0,0:0:0:0:
64,192,64027,1,0,0:0:0:0:
320,192,64027,1,0,0:0:0:0:
192,192,64121,1,0,0:0:0:0:
448,192,64121,1,0,0:0:0:0:
64,192,64215,1,0,0:0:0:0:
192,192,64309,1,0,0:0:0:0:
320,192,64309,1,0,0:0:0:0:
448,192,64309,1,0,0:0:0:0:
192,192,64402,1,0,0:0:0:0:
448,192,64402,1,0,0:0:0:0:
320,192,64496,1,0,0:0:0:0:
64,192,64496,1,0,0:0:0:0:
448,192,64590,1,0,0:0:0:0:
64,192,64684,128,0,64777:0:0:0:0:
192,192,64715,128,0,64871:0:0:0:0:
320,192,64746,128,0,64965:0:0:0:0:
448,192,64777,128,0,65059:0:0:0:0:
64,192,65059,1,0,0:0:0:0:
320,192,65059,128,0,65246:0:0:0:0:
192,192,65434,128,0,65621:0:0:0:0:
64,192,65434,1,0,0:0:0:0:
320,192,65559,1,0,0:0:0:0:
448,192,65621,1,0,0:0:0:0:
192,192,65684,1,0,0:0:0:0:
64,192,65684,1,0,0:0:0:0:
320,192,65746,1,0,0:0:0:0:
448,192,65809,1,0,0:0:0:0:
192,192,65809,1,0,0:0:0:0:
64,192,65809,128,0,65996:0:0:0:0:
320,192,66184,1,0,0:0:0:0:
448,192,66184,1,0,0:0:0:0:
64,192,66230,1,0,0:0:0:0:
192,192,66277,1,0,0:0:0:0:
320,192,66324,1,0,0:0:0:0:
64,192,66371,1,0,0:0:0:0:
192,192,66434,1,0,0:0:0:0:
320,192,66496,1,0,0:0:0:0:
448,192,66559,1,0,0:0:0:0:
64,192,66559,1,0,0:0:0:0:
192,192,66652,1,0,0:0:0:0:
320,192,66746,1,0,0:0:0:0:
448,192,66746,1,0,0:0:0:0:
64,192,66793,1,0,0:0:0:0:
192,192,66840,1,0,0:0:0:0:
320,192,66887,1,0,0:0:0:0:
64,192,66934,1,0,0:0:0:0:
448,192,66934,1,0,0:0:0:0:
192,192,66996,1,0,0:0:0:0:
320,192,67059,1,0,0:0:0:0:
448,192,67121,1,0,0:0:0:0:
448,192,67215,1,0,0:0:0:0:
192,192,67309,1,0,0:0:0:0:
64,192,67309,1,0,0:0:0:0:
320,192,67496,128,0,67566:0:0:0:0:
192,192,67543,128,0,67613:0:0:0:0:
448,192,67590,128,0,67660:0:0:0:0:
320,192,67637,128,0,67707:0:0:0:0:
192,192,67684,128,0,67754:0:0:0:0:
448,192,67730,128,0,67871:0:0:0:0:
320,192,67777,128,0,67871:0:0:0:0:
64,192,67871,1,0,0:0:0:0:
192,192,67871,1,0,0:0:0:0:
64,192,67965,1,0,0:0:0:0:
448,192,67965,1,0,0:0:0:0:
192,192,68059,1,0,0:0:0:0:
320,192,68059,1,0,0:0:0:0:
192,192,68246,1,0,0:0:0:0:
320,192,68246,1,0,0:0:0:0:
64,192,68434,1,0,0:0:0:0:
320,192,68434,1,0,0:0:0:0:
448,192,68434,1,0,0:0:0:0:
192,192,68621,1,0,0:0:0:0:
448,192,68621,1,0,0:0:0:0:
320,192,68809,1,0,0:0:0:0:
192,192,68809,1,0,0:0:0:0:
192,192,68996,1,0,0:0:0:0:
320,192,68996,1,0,0:0:0:0:
320,192,69184,1,0,0:0:0:0:
448,192,69184,1,0,0:0:0:0:
64,192,69230,1,0,0:0:0:0:
192,192,69277,1,0,0:0:0:0:
320,192,69324,1,0,0:0:0:0:
64,192,69371,1,0,0:0:0:0:
192,192,69434,1,0,0:0:0:0:
320,192,69496,1,0,0:0:0:0:
448,192,69559,1,0,0:0:0:0:
64,192,69559,1,0,0:0:0:0:
64,192,69652,1,0,0:0:0:0:
192,192,69652,1,0,0:0:0:0:
448,192,69746,1,0,0:0:0:0:
320,192,69746,1,0,0:0:0:0:
64,192,69793,1,0,0:0:0:0:
192,192,69840,1,0,0:0:0:0:
320,192,69887,1,0,0:0:0:0:
448,192,69934,1,0,0:0:0:0:
64,192,69934,1,0,0:0:0:0:
192,192,69996,1,0,0:0:0:0:
320,192,70059,1,0,0:0:0:0:
64,192,70121,1,0,0:0:0:0:
448,192,70121,1,0,0:0:0:0:
448,192,70215,1,0,0:0:0:0:
320,192,70215,1,0,0:0:0:0:
64,192,70309,1,0,0:0:0:0:
192,192,70309,1,0,0:0:0:0:
320,192,70496,128,0,70566:0:0:0:0:
192,192,70543,128,0,70613:0:0:0:0:
448,192,70590,128,0,70660:0:0:0:0:
320,192,70637,128,0,70707:0:0:0:0:
192,192,70684,128,0,70754:0:0:0:0:
448,192,70730,128,0,70871:0:0:0:0:
320,192,70777,128,0,70871:0:0:0:0:
192,192,70871,1,0,0:0:0:0:
64,192,70871,1,0,0:0:0:0:
64,192,70965,1,0,0:0:0:0:
448,192,70965,1,0,0:0:0:0:
192,192,71059,1,0,0:0:0:0:
320,192,71059,1,0,0:0:0:0:
192,192,71246,1,0,0:0:0:0:
320,192,71246,1,0,0:0:0:0:
64,192,71434,1,0,0:0:0:0:
320,192,71434,1,0,0:0:0:0:
448,192,71434,1,0,0:0:0:0:
192,192,71621,1,0,0:0:0:0:
448,192,71621,1,0,0:0:0:0:
192,192,71809,1,0,0:0:0:0:
64,192,71809,1,0,0:0:0:0:
448,192,71902,1,0,0:0:0:0:
192,192,71902,1,0,0:0:0:0:
448,192,71996,1,0,0:0:0:0:
320,192,71996,1,0,0:0:0:0:
64,192,72090,1,0,0:0:0:0:
320,192,72090,1,0,0:0:0:0:
192,192,72184,1,0,0:0:0:0:
64,192,72184,1,0,0:0:0:0:
448,192,72230,1,0,0:0:0:0:
320,192,72277,1,0,0:0:0:0:
192,192,72324,1,0,0:0:0:0:
448,192,72371,1,0,0:0:0:0:
320,192,72418,1,0,0:0:0:0:
192,192,72465,1,0,0:0:0:0:
64,192,72512,1,0,0:0:0:0:
320,192,72559,1,0,0:0:0:0:
192,192,72621,1,0,0:0:0:0:
64,192,72684,1,0,0:0:0:0:
320,192,72746,1,0,0:0:0:0:
448,192,72746,1,0,0:0:0:0:
64,192,72793,1,0,0:0:0:0:
192,192,72840,1,0,0:0:0:0:
320,192,72887,1,0,0:0:0:0:
64,192,72934,1,0,0:0:0:0:
448,192,72934,1,0,0:0:0:0:
192,192,72980,1,0,0:0:0:0:
320,192,73027,1,0,0:0:0:0:
448,192,73074,1,0,0:0:0:0:
192,192,73121,1,0,0:0:0:0:
320,192,73184,1,0,0:0:0:0:
448,192,73246,1,0,0:0:0:0:
192,192,73309,1,0,0:0:0:0:
64,192,73309,1,0,0:0:0:0:
448,192,73355,1,0,0:0:0:0:
320,192,73402,1,0,0:0:0:0:
192,192,73449,1,0,0:0:0:0:
448,192,73496,1,0,0:0:0:0:
320,192,73543,1,0,0:0:0:0:
192,192,73590,1,0,0:0:0:0:
64,192,73637,1,0,0:0:0:0:
320,192,73684,1,0,0:0:0:0:
192,192,73746,1,0,0:0:0:0:
64,192,73809,1,0,0:0:0:0:
320,192,73871,1,0,0:0:0:0:
192,192,73934,1,0,0:0:0:0:
448,192,73996,1,0,0:0:0:0:
64,192,74059,1,0,0:0:0:0:
320,192,74059,1,0,0:0:0:0:
320,192,74246,128,0,74340:0:0:0:0:
192,192,74293,128,0,74387:0:0:0:0:
448,192,74340,128,0,74434:0:0:0:0:
320,192,74387,128,0,74480:0:0:0:0:
192,192,74434,1,0,0:0:0:0:
64,192,74434,1,0,0:0:0:0:
448,192,74480,128,0,74621:0:0:0:0:
320,192,74527,128,0,74621:0:0:0:0:
64,192,74621,128,0,74715:0:0:0:0:
320,192,74809,128,0,74902:0:0:0:0:
192,192,74855,128,0,74949:0:0:0:0:
448,192,74902,128,0,74996:0:0:0:0:
320,192,74949,128,0,75043:0:0:0:0:
192,192,74996,128,0,75090:0:0:0:0:
448,192,75043,128,0,75137:0:0:0:0:
320,192,75090,128,0,75184:0:0:0:0:
192,192,75184,1,0,0:0:0:0:
64,192,75184,1,0,0:0:0:0:
448,192,75230,1,0,0:0:0:0:
320,192,75277,1,0,0:0:0:0:
192,192,75324,1,0,0:0:0:0:
448,192,75371,1,0,0:0:0:0:
320,192,75418,1,0,0:0:0:0:
192,192,75465,1,0,0:0:0:0:
64,192,75512,1,0,0:0:0:0:
320,192,75559,1,0,0:0:0:0:
192,192,75621,1,0,0:0:0:0:
64,192,75684,1,0,0:0:0:0:
320,192,75746,1,0,0:0:0:0:
448,192,75746,1,0,0:0:0:0:
64,192,75793,1,0,0:0:0:0:
192,192,75840,1,0,0:0:0:0:
320,192,75887,1,0,0:0:0:0:
64,192,75934,1,0,0:0:0:0:
448,192,75934,1,0,0:0:0:0:
192,192,75980,1,0,0:0:0:0:
320,192,76027,1,0,0:0:0:0:
448,192,76074,1,0,0:0:0:0:
192,192,76121,1,0,0:0:0:0:
320,192,76184,1,0,0:0:0:0:
448,192,76246,1,0,0:0:0:0:
64,192,76309,1,0,0:0:0:0:
192,192,76309,1,0,0:0:0:0:
448,192,76355,1,0,0:0:0:0:
320,192,76402,1,0,0:0:0:0:
192,192,76449,1,0,0:0:0:0:
448,192,76496,1,0,0:0:0:0:
320,192,76543,1,0,0:0:0:0:
192,192,76590,1,0,0:0:0:0:
64,192,76637,1,0,0:0:0:0:
320,192,76684,128,0,76777:0:0:0:0:
448,192,76684,128,0,76777:0:0:0:0:
192,192,76871,128,0,76965:0:0:0:0:
320,192,76871,128,0,76965:0:0:0:0:
64,192,77059,128,0,77152:0:0:0:0:
192,192,77059,128,0,77152:0:0:0:0:
448,192,77059,1,0,0:0:0:0:
320,192,77246,1,0,0:0:0:0:
320,192,77340,1,0,0:0:0:0:
64,192,77434,1,0,0:0:0:0:
448,192,77434,1,0,0:0:0:0:
64,192,77527,1,0,0:0:0:0:
448,192,77527,1,0,0:0:0:0:
192,192,77621,1,0,0:0:0:0:
192,192,77715,1,0,0:0:0:0:
64,192,77809,1,0,0:0:0:0:
320,192,77809,1,0,0:0:0:0:
448,192,77809,1,0,0:0:0:0:
448,192,77902,1,0,0:0:0:0:
64,192,77902,1,0,0:0:0:0:
192,192,77949,1,0,0:0:0:0:
320,192,77996,1,0,0:0:0:0:
448,192,78043,1,0,0:0:0:0:
192,192,78090,1,0,0:0:0:0:
64,192,78137,1,0,0:0:0:0:
448,192,78184,1,0,0:0:0:0:
320,192,78184,1,0,0:0:0:0:
192,192,78371,128,0,78559:0:0:0:0:
448,192,78559,1,0,0:0:0:0:
320,192,78559,1,0,0:0:0:0:
448,192,78652,1,0,0:0:0:0:
64,192,78652,1,0,0:0:0:0:
320,192,78746,1,0,0:0:0:0:
192,192,78840,1,0,0:0:0:0:
64,192,78840,1,0,0:0:0:0:
320,192,78887,1,0,0:0:0:0:
448,192,78887,1,0,0:0:0:0:
64,192,78934,1,0,0:0:0:0:
192,192,78934,128,0,79121:0:0:0:0:
448,192,79121,1,0,0:0:0:0:
320,192,79121,1,0,0:0:0:0:
64,192,79215,1,0,0:0:0:0:
448,192,79215,1,0,0:0:0:0:
192,192,79402,1,0,0:0:0:0:
64,192,79402,1,0,0:0:0:0:
448,192,79449,1,0,0:0:0:0:
320,192,79449,1,0,0:0:0:0:
192,192,79496,128,0,79684:0:0:0:0:
64,192,79496,1,0,0:0:0:0:
64,192,79777,1,0,0:0:0:0:
192,192,79777,1,0,0:0:0:0:
320,192,79824,1,0,0:0:0:0:
448,192,79824,1,0,0:0:0:0:
192,192,79871,1,0,0:0:0:0:
64,192,79871,1,0,0:0:0:0:
192,192,79965,128,0,80152:0:0:0:0:
320,192,79965,1,0,0:0:0:0:
448,192,80152,1,0,0:0:0:0:
64,192,80152,1,0,0:0:0:0:
448,192,80246,1,0,0:0:0:0:
320,192,80246,1,0,0:0:0:0:
64,192,80340,1,0,0:0:0:0:
320,192,80340,1,0,0:0:0:0:
64,192,80434,1,0,0:0:0:0:
448,192,80434,1,0,0:0:0:0:
192,192,80434,128,0,80621:0:0:0:0:
448,192,80621,1,0,0:0:0:0:
320,192,80621,1,0,0:0:0:0:
192,192,80715,128,0,80902:0:0:0:0:
320,192,80715,1,0,0:0:0:0:
448,192,80809,1,0,0:0:0:0:
64,192,80902,1,0,0:0:0:0:
320,192,80902,1,0,0:0:0:0:
192,192,80996,128,0,81184:0:0:0:0:
320,192,80996,1,0,0:0:0:0:
64,192,81184,1,0,0:0:0:0:
448,192,81184,1,0,0:0:0:0:
320,192,81184,1,0,0:0:0:0:
320,192,81371,128,0,81559:0:0:0:0:
64,192,81559,1,0,0:0:0:0:
192,192,81559,1,0,0:0:0:0:
64,192,81652,1,0,0:0:0:0:
448,192,81652,1,0,0:0:0:0:
192,192,81746,1,0,0:0:0:0:
320,192,81840,1,0,0:0:0:0:
448,192,81840,1,0,0:0:0:0:
192,192,81887,1,0,0:0:0:0:
64,192,81887,1,0,0:0:0:0:
448,192,81934,1,0,0:0:0:0:
320,192,81934,128,0,82121:0:0:0:0:
64,192,82121,1,0,0:0:0:0:
192,192,82121,1,0,0:0:0:0:
448,192,82215,1,0,0:0:0:0:
64,192,82215,1,0,0:0:0:0:
320,192,82402,1,0,0:0:0:0:
448,192,82402,1,0,0:0:0:0:
64,192,82449,1,0,0:0:0:0:
192,192,82449,1,0,0:0:0:0:
448,192,82496,1,0,0:0:0:0:
320,192,82496,1,0,0:0:0:0:
320,192,82590,128,0,82777:0:0:0:0:
192,192,82590,1,0,0:0:0:0:
64,192,82777,1,0,0:0:0:0:
448,192,82777,1,0,0:0:0:0:
64,192,82871,1,0,0:0:0:0:
192,192,82871,1,0,0:0:0:0:
320,192,82918,1,0,0:0:0:0:
192,192,82965,1,0,0:0:0:0:
320,192,83012,1,0,0:0:0:0:
64,192,83059,1,0,0:0:0:0:
448,192,83059,1,0,0:0:0:0:
64,192,83246,1,0,0:0:0:0:
448,192,83246,1,0,0:0:0:0:
192,192,83340,1,0,0:0:0:0:
64,192,83340,1,0,0:0:0:0:
192,192,83434,1,0,0:0:0:0:
320,192,83434,1,0,0:0:0:0:
448,192,83434,1,0,0:0:0:0:
64,192,83527,1,0,0:0:0:0:
448,192,83527,1,0,0:0:0:0:
320,192,83621,1,0,0:0:0:0:
192,192,83621,1,0,0:0:0:0:
64,192,83809,128,0,83949:0:0:0:0:
192,192,83855,128,0,83902:0:0:0:0:
448,192,83902,128,0,84090:0:0:0:0:
320,192,83949,128,0,84090:0:0:0:0:
192,192,83996,128,0,84090:0:0:0:0:
64,192,84043,128,0,84090:0:0:0:0:
448,192,84184,1,0,0:0:0:0:
320,192,84184,1,0,0:0:0:0:
64,192,84184,1,0,0:0:0:0:
64,192,84371,128,0,84559:0:0:0:0:
448,192,84559,1,0,0:0:0:0:
320,192,84559,1,0,0:0:0:0:
448,192,84652,1,0,0:0:0:0:
192,192,84652,1,0,0:0:0:0:
320,192,84746,1,0,0:0:0:0:
192,192,84840,1,0,0:0:0:0:
64,192,84840,1,0,0:0:0:0:
320,192,84887,1,0,0:0:0:0:
448,192,84887,1,0,0:0:0:0:
192,192,84934,1,0,0:0:0:0:
64,192,84934,128,0,85121:0:0:0:0:
448,192,85121,1,0,0:0:0:0:
320,192,85121,1,0,0:0:0:0:
192,192,85215,1,0,0:0:0:0:
448,192,85215,1,0,0:0:0:0:
192,192,85402,1,0,0:0:0:0:
64,192,85402,1,0,0:0:0:0:
448,192,85449,1,0,0:0:0:0:
320,192,85449,1,0,0:0:0:0:
64,192,85496,128,0,85684:0:0:0:0:
192,192,85496,1,0,0:0:0:0:
64,192,85777,1,0,0:0:0:0:
192,192,85777,1,0,0:0:0:0:
320,192,85824,1,0,0:0:0:0:
448,192,85824,1,0,0:0:0:0:
192,192,85871,1,0,0:0:0:0:
64,192,85871,1,0,0:0:0:0:
64,192,85965,128,0,86152:0:0:0:0:
320,192,85965,1,0,0:0:0:0:
448,192,86152,1,0,0:0:0:0:
192,192,86152,1,0,0:0:0:0:
448,192,86246,1,0,0:0:0:0:
320,192,86246,1,0,0:0:0:0:
64,192,86340,1,0,0:0:0:0:
320,192,86340,1,0,0:0:0:0:
192,192,86434,1,0,0:0:0:0:
448,192,86434,1,0,0:0:0:0:
64,192,86434,128,0,86621:0:0:0:0:
448,192,86621,1,0,0:0:0:0:
320,192,86621,1,0,0:0:0:0:
64,192,86715,128,0,86902:0:0:0:0:
320,192,86715,1,0,0:0:0:0:
192,192,86809,1,0,0:0:0:0:
448,192,86902,1,0,0:0:0:0:
320,192,86902,1,0,0:0:0:0:
64,192,86996,128,0,87184:0:0:0:0:
320,192,86996,1,0,0:0:0:0:
192,192,87184,1,0,0:0:0:0:
448,192,87184,1,0,0:0:0:0:
320,192,87184,1,0,0:0:0:0:
448,192,87371,128,0,87559:0:0:0:0:
64,192,87559,1,0,0:0:0:0:
192,192,87559,1,0,0:0:0:0:
64,192,87652,1,0,0:0:0:0:
320,192,87652,1,0,0:0:0:0:
192,192,87746,1,0,0:0:0:0:
320,192,87840,1,0,0:0:0:0:
448,192,87840,1,0,0:0:0:0:
192,192,87887,1,0,0:0:0:0:
64,192,87887,1,0,0:0:0:0:
320,192,87934,1,0,0:0:0:0:
448,192,87934,128,0,88121:0:0:0:0:
64,192,88121,1,0,0:0:0:0:
192,192,88121,1,0,0:0:0:0:
320,192,88215,1,0,0:0:0:0:
64,192,88215,1,0,0:0:0:0:
320,192,88402,1,0,0:0:0:0:
448,192,88402,1,0,0:0:0:0:
64,192,88449,1,0,0:0:0:0:
192,192,88449,1,0,0:0:0:0:
448,192,88496,1,0,0:0:0:0:
320,192,88496,1,0,0:0:0:0:
192,192,88590,1,0,0:0:0:0:
64,192,88590,1,0,0:0:0:0:
448,192,88684,1,0,0:0:0:0:
320,192,88684,1,0,0:0:0:0:
320,192,88777,1,0,0:0:0:0:
192,192,88777,1,0,0:0:0:0:
448,192,88871,1,0,0:0:0:0:
64,192,88871,1,0,0:0:0:0:
192,192,88871,1,0,0:0:0:0:
448,192,88996,1,0,0:0:0:0:
320,192,88996,1,0,0:0:0:0:
192,192,89105,1,0,0:0:0:0:
64,192,89105,1,0,0:0:0:0:
320,192,89152,1,0,0:0:0:0:
448,192,89152,1,0,0:0:0:0:
192,192,89199,1,0,0:0:0:0:
64,192,89199,1,0,0:0:0:0:
192,192,89340,1,0,0:0:0:0:
320,192,89340,1,0,0:0:0:0:
192,192,89434,1,0,0:0:0:0:
448,192,89434,128,0,89621:0:0:0:0:
64,192,89434,1,0,0:0:0:0:
64,192,89621,128,0,89855:0:0:0:0:
64,192,89902,128,0,89949:0:0:0:0:
64,192,89996,128,0,90043:0:0:0:0:
64,192,90090,128,0,90184:0:0:0:0:
448,192,90184,1,0,0:0:0:0:
192,192,90184,1,0,0:0:0:0:
320,192,90184,128,0,91121:0:0:0:0:
448,192,91121,128,0,91309:0:0:0:0:
64,192,91309,128,0,91496:0:0:0:0:
192,192,91496,128,0,91871:0:0:0:0:
64,192,91871,128,0,92059:0:0:0:0:
192,192,92059,128,0,92246:0:0:0:0:
320,192,92246,128,0,93184:0:0:0:0:
192,192,93184,128,0,94121:0:0:0:0:
448,192,94121,128,0,94309:0:0:0:0:
64,192,94309,128,0,94496:0:0:0:0:
320,192,94496,128,0,94871:0:0:0:0:
64,192,94871,128,0,95059:0:0:0:0:
192,192,95059,128,0,95246:0:0:0:0:
320,192,95246,128,0,95621:0:0:0:0:
192,192,95621,128,0,95809:0:0:0:0:
448,192,95809,128,0,95996:0:0:0:0:
320,192,95996,128,0,96184:0:0:0:0:
192,192,96184,1,0,0:0:0:0:
64,192,96184,1,0,0:0:0:0:
448,192,96371,1,0,0:0:0:0:
64,192,96559,1,0,0:0:0:0:
320,192,96559,1,0,0:0:0:0:
64,192,96746,1,0,0:0:0:0:
64,192,96934,1,0,0:0:0:0:
320,192,96934,1,0,0:0:0:0:
448,192,97121,1,0,0:0:0:0:
192,192,97309,1,0,0:0:0:0:
448,192,97309,1,0,0:0:0:0:
64,192,97496,1,0,0:0:0:0:
192,192,97684,1,0,0:0:0:0:
448,192,97684,1,0,0:0:0:0:
64,192,97871,1,0,0:0:0:0:
64,192,98059,1,0,0:0:0:0:
320,192,98059,1,0,0:0:0:0:
448,192,98246,1,0,0:0:0:0:
64,192,98434,1,0,0:0:0:0:
320,192,98434,1,0,0:0:0:0:
320,192,98621,1,0,0:0:0:0:
320,192,98809,1,0,0:0:0:0:
64,192,98809,1,0,0:0:0:0:
320,192,98996,1,0,0:0:0:0:
192,192,99184,1,0,0:0:0:0:
448,192,99184,1,0,0:0:0:0:
192,192,99559,1,0,0:0:0:0:
448,192,99559,1,0,0:0:0:0:
448,192,99746,1,0,0:0:0:0:
192,192,99934,1,0,0:0:0:0:
448,192,99934,1,0,0:0:0:0:
64,192,100121,1,0,0:0:0:0:
64,192,100309,1,0,0:0:0:0:
320,192,100309,1,0,0:0:0:0:
448,192,100496,1,0,0:0:0:0:
64,192,100684,1,0,0:0:0:0:
320,192,100684,1,0,0:0:0:0:
64,192,100871,1,0,0:0:0:0:
320,192,100871,1,0,0:0:0:0:
192,192,101059,1,0,0:0:0:0:
448,192,101059,1,0,0:0:0:0:
192,192,101246,1,0,0:0:0:0:
448,192,101246,1,0,0:0:0:0:
192,192,101434,1,0,0:0:0:0:
64,192,101434,1,0,0:0:0:0:
64,192,101527,1,0,0:0:0:0:
192,192,101527,1,0,0:0:0:0:
320,192,101621,1,0,0:0:0:0:
448,192,101621,1,0,0:0:0:0:
448,192,101715,1,0,0:0:0:0:
320,192,101715,1,0,0:0:0:0:
192,192,101809,1,0,0:0:0:0:
64,192,101809,1,0,0:0:0:0:
192,192,101902,1,0,0:0:0:0:
448,192,101902,1,0,0:0:0:0:
448,192,101996,1,0,0:0:0:0:
320,192,101996,1,0,0:0:0:0:
64,192,102090,1,0,0:0:0:0:
320,192,102090,1,0,0:0:0:0:
192,192,102184,1,0,0:0:0:0:
64,192,102184,1,0,0:0:0:0:
448,192,102184,1,0,0:0:0:0:
320,192,103684,128,0,103871:0:0:0:0:
64,192,103871,1,0,0:0:0:0:
320,192,104059,128,0,104246:0:0:0:0:
64,192,104246,1,0,0:0:0:0:
320,192,104434,128,0,104621:0:0:0:0:
448,192,104527,128,0,104621:0:0:0:0:
64,192,104621,1,0,0:0:0:0:
320,192,104809,128,0,104996:0:0:0:0:
448,192,104902,128,0,104996:0:0:0:0:
64,192,104996,1,0,0:0:0:0:
320,192,105184,128,0,105309:0:0:0:0:
448,192,105246,128,0,105371:0:0:0:0:
192,192,105371,1,0,0:0:0:0:
64,192,105465,1,0,0:0:0:0:
320,192,105559,128,0,105684:0:0:0:0:
448,192,105621,128,0,105746:0:0:0:0:
192,192,105746,1,0,0:0:0:0:
64,192,105840,1,0,0:0:0:0:
192,192,105934,128,0,106027:0:0:0:0:
320,192,105980,128,0,106074:0:0:0:0:
448,192,106027,128,0,106121:0:0:0:0:
192,192,106121,1,0,0:0:0:0:
64,192,106215,1,0,0:0:0:0:
192,192,106309,128,0,106402:0:0:0:0:
320,192,106355,128,0,106449:0:0:0:0:
448,192,106402,128,0,106496:0:0:0:0:
192,192,106496,1,0,0:0:0:0:
64,192,106590,1,0,0:0:0:0:
192,192,106684,128,0,106746:0:0:0:0:
320,192,106715,128,0,106809:0:0:0:0:
448,192,106746,128,0,106871:0:0:0:0:
64,192,106871,1,0,0:0:0:0:
64,192,106965,1,0,0:0:0:0:
192,192,107059,128,0,107121:0:0:0:0:
320,192,107090,128,0,107184:0:0:0:0:
448,192,107121,128,0,107246:0:0:0:0:
64,192,107246,1,0,0:0:0:0:
64,192,107340,1,0,0:0:0:0:
192,192,107434,128,0,107496:0:0:0:0:
320,192,107465,128,0,107559:0:0:0:0:
448,192,107496,128,0,107621:0:0:0:0:
64,192,107621,128,0,107668:0:0:0:0:
192,192,107644,128,0,107691:0:0:0:0:
64,192,107715,1,0,0:0:0:0:
192,192,107809,128,0,107871:0:0:0:0:
320,192,107840,128,0,107934:0:0:0:0:
448,192,107871,128,0,107996:0:0:0:0:
64,192,107996,128,0,108043:0:0:0:0:
192,192,108019,128,0,108066:0:0:0:0:
64,192,108090,1,0,0:0:0:0:
192,192,108184,1,0,0:0:0:0:
320,192,108184,1,0,0:0:0:0:
448,192,108184,1,0,0:0:0:0:
64,192,108277,1,0,0:0:0:0:
192,192,108277,1,0,0:0:0:0:
320,192,108371,1,0,0:0:0:0:
448,192,108371,1,0,0:0:0:0:
64,192,108559,1,0,0:0:0:0:
320,192,108559,1,0,0:0:0:0:
192,192,108559,1,0,0:0:0:0:
448,192,108652,1,0,0:0:0:0:
320,192,108652,1,0,0:0:0:0:
192,192,108746,1,0,0:0:0:0:
64,192,108746,1,0,0:0:0:0:
64,192,108934,1,0,0:0:0:0:
448,192,108934,1,0,0:0:0:0:
320,192,108934,1,0,0:0:0:0:
192,192,109027,1,0,0:0:0:0:
320,192,109027,1,0,0:0:0:0:
64,192,109121,1,0,0:0:0:0:
448,192,109121,1,0,0:0:0:0:
192,192,109309,1,0,0:0:0:0:
64,192,109309,1,0,0:0:0:0:
448,192,109309,1,0,0:0:0:0:
320,192,109402,1,0,0:0:0:0:
192,192,109402,1,0,0:0:0:0:
448,192,109496,1,0,0:0:0:0:
64,192,109496,1,0,0:0:0:0:
192,192,109684,1,0,0:0:0:0:
448,192,109684,1,0,0:0:0:0:
320,192,109684,1,0,0:0:0:0:
320,192,109777,1,0,0:0:0:0:
448,192,109777,1,0,0:0:0:0:
64,192,109871,1,0,0:0:0:0:
192,192,109871,1,0,0:0:0:0:
64,192,110059,1,0,0:0:0:0:
192,192,110059,1,0,0:0:0:0:
320,192,110059,1,0,0:0:0:0:
192,192,110152,1,0,0:0:0:0:
64,192,110152,1,0,0:0:0:0:
448,192,110246,1,0,0:0:0:0:
320,192,110246,1,0,0:0:0:0:
192,192,110434,1,0,0:0:0:0:
448,192,110434,1,0,0:0:0:0:
320,192,110434,1,0,0:0:0:0:
448,192,110527,1,0,0:0:0:0:
192,192,110527,1,0,0:0:0:0:
64,192,110621,1,0,0:0:0:0:
320,192,110621,1,0,0:0:0:0:
320,192,110809,1,0,0:0:0:0:
192,192,110809,1,0,0:0:0:0:
64,192,110809,1,0,0:0:0:0:
64,192,110902,1,0,0:0:0:0:
320,192,110902,1,0,0:0:0:0:
448,192,110996,1,0,0:0:0:0:
192,192,110996,1,0,0:0:0:0:
192,192,111184,1,0,0:0:0:0:
448,192,111184,1,0,0:0:0:0:
64,192,111184,1,0,0:0:0:0:
448,192,111277,1,0,0:0:0:0:
320,192,111277,1,0,0:0:0:0:
64,192,111371,1,0,0:0:0:0:
320,192,111371,1,0,0:0:0:0:
64,192,111465,1,0,0:0:0:0:
192,192,111465,1,0,0:0:0:0:
192,192,111559,1,0,0:0:0:0:
448,192,111559,1,0,0:0:0:0:
448,192,111652,1,0,0:0:0:0:
320,192,111652,1,0,0:0:0:0:
64,192,111746,1,0,0:0:0:0:
320,192,111746,1,0,0:0:0:0:
192,192,111840,1,0,0:0:0:0:
64,192,111840,1,0,0:0:0:0:
320,192,111934,1,0,0:0:0:0:
448,192,111934,1,0,0:0:0:0:
192,192,112027,1,0,0:0:0:0:
448,192,112027,1,0,0:0:0:0:
192,192,112121,1,0,0:0:0:0:
64,192,112121,1,0,0:0:0:0:
64,192,112215,1,0,0:0:0:0:
320,192,112215,1,0,0:0:0:0:
320,192,112309,1,0,0:0:0:0:
448,192,112309,1,0,0:0:0:0:
192,192,112402,1,0,0:0:0:0:
448,192,112402,1,0,0:0:0:0:
192,192,112496,1,0,0:0:0:0:
64,192,112496,1,0,0:0:0:0:
320,192,112590,1,0,0:0:0:0:
64,192,112590,1,0,0:0:0:0:
320,192,112684,1,0,0:0:0:0:
448,192,112684,1,0,0:0:0:0:
64,192,114184,128,0,114309:0:0:0:0:
448,192,114184,128,0,114371:0:0:0:0:
64,192,114371,128,0,114465:0:0:0:0:
192,192,114402,128,0,114496:0:0:0:0:
192,192,114559,128,0,114652:0:0:0:0:
320,192,114590,128,0,114684:0:0:0:0:
64,192,114746,1,0,0:0:0:0:
448,192,114746,1,0,0:0:0:0:
320,192,114840,1,0,0:0:0:0:
192,192,114887,1,0,0:0:0:0:
448,192,114934,1,0,0:0:0:0:
64,192,114934,128,0,115121:0:0:0:0:
448,192,115121,128,0,115215:0:0:0:0:
320,192,115152,128,0,115246:0:0:0:0:
320,192,115309,128,0,115402:0:0:0:0:
192,192,115340,128,0,115434:0:0:0:0:
64,192,115496,1,0,0:0:0:0:
448,192,115496,1,0,0:0:0:0:
64,192,115590,1,0,0:0:0:0:
448,192,115590,1,0,0:0:0:0:
320,192,115684,128,0,115871:0:0:0:0:
192,192,115684,128,0,115809:0:0:0:0:
192,192,115871,128,0,115965:0:0:0:0:
64,192,115902,128,0,115996:0:0:0:0:
320,192,116059,128,0,116152:0:0:0:0:
192,192,116090,128,0,116184:0:0:0:0:
448,192,116246,1,0,0:0:0:0:
64,192,116246,1,0,0:0:0:0:
192,192,116340,1,0,0:0:0:0:
320,192,116387,1,0,0:0:0:0:
64,192,116434,1,0,0:0:0:0:
448,192,116434,128,0,116621:0:0:0:0:
192,192,116621,128,0,116715:0:0:0:0:
64,192,116652,128,0,116746:0:0:0:0:
320,192,116809,128,0,117184:0:0:0:0:
192,192,117184,1,0,0:0:0:0:
64,192,117184,1,0,0:0:0:0:
64,192,117277,1,0,0:0:0:0:
320,192,117277,1,0,0:0:0:0:
448,192,117324,1,0,0:0:0:0:
320,192,117371,1,0,0:0:0:0:
192,192,117418,1,0,0:0:0:0:
64,192,117465,1,0,0:0:0:0:
448,192,117512,1,0,0:0:0:0:
192,192,117559,1,0,0:0:0:0:
64,192,117559,1,0,0:0:0:0:
192,192,117652,1,0,0:0:0:0:
448,192,117652,1,0,0:0:0:0:
64,192,117746,1,0,0:0:0:0:
320,192,117746,1,0,0:0:0:0:
64,192,117840,1,0,0:0:0:0:
448,192,117840,1,0,0:0:0:0:
192,192,117934,1,0,0:0:0:0:
448,192,117934,1,0,0:0:0:0:
320,192,117934,1,0,0:0:0:0:
192,192,118027,1,0,0:0:0:0:
320,192,118027,1,0,0:0:0:0:
448,192,118121,1,0,0:0:0:0:
64,192,118121,1,0,0:0:0:0:
320,192,118309,1,0,0:0:0:0:
448,192,118340,1,0,0:0:0:0:
64,192,118371,1,0,0:0:0:0:
192,192,118402,1,0,0:0:0:0:
192,192,118496,1,0,0:0:0:0:
64,192,118527,1,0,0:0:0:0:
448,192,118559,1,0,0:0:0:0:
320,192,118590,1,0,0:0:0:0:
64,192,118684,1,0,0:0:0:0:
448,192,118684,1,0,0:0:0:0:
320,192,118684,1,0,0:0:0:0:
192,192,118777,1,0,0:0:0:0:
64,192,118777,1,0,0:0:0:0:
192,192,118871,1,0,0:0:0:0:
448,192,118871,1,0,0:0:0:0:
320,192,118965,1,0,0:0:0:0:
448,192,118965,1,0,0:0:0:0:
320,192,119059,1,0,0:0:0:0:
448,192,119059,1,0,0:0:0:0:
320,192,119246,1,0,0:0:0:0:
64,192,119246,1,0,0:0:0:0:
64,192,119434,1,0,0:0:0:0:
320,192,119434,1,0,0:0:0:0:
192,192,119434,1,0,0:0:0:0:
192,192,119527,1,0,0:0:0:0:
320,192,119527,1,0,0:0:0:0:
64,192,119621,1,0,0:0:0:0:
448,192,119621,1,0,0:0:0:0:
64,192,119809,1,0,0:0:0:0:
448,192,119809,1,0,0:0:0:0:
320,192,119855,1,0,0:0:0:0:
192,192,119855,1,0,0:0:0:0:
64,192,119996,1,0,0:0:0:0:
320,192,119996,1,0,0:0:0:0:
192,192,120090,1,0,0:0:0:0:
448,192,120090,1,0,0:0:0:0:
320,192,120184,1,0,0:0:0:0:
64,192,120184,1,0,0:0:0:0:
448,192,120184,1,0,0:0:0:0:
192,192,120277,1,0,0:0:0:0:
64,192,120277,1,0,0:0:0:0:
320,192,120371,1,0,0:0:0:0:
192,192,120371,1,0,0:0:0:0:
320,192,120465,1,0,0:0:0:0:
448,192,120465,1,0,0:0:0:0:
64,192,120559,1,0,0:0:0:0:
448,192,120559,1,0,0:0:0:0:
320,192,120605,1,0,0:0:0:0:
192,192,120652,1,0,0:0:0:0:
320,192,120699,1,0,0:0:0:0:
64,192,120746,1,0,0:0:0:0:
192,192,120746,1,0,0:0:0:0:
64,192,120840,1,0,0:0:0:0:
448,192,120840,1,0,0:0:0:0:
320,192,120934,1,0,0:0:0:0:
448,192,120934,1,0,0:0:0:0:
192,192,120934,1,0,0:0:0:0:
192,192,121121,1,0,0:0:0:0:
320,192,121152,1,0,0:0:0:0:
64,192,121184,1,0,0:0:0:0:
448,192,121184,1,0,0:0:0:0:
192,192,121225,1,0,0:0:0:0:
448,192,121309,1,0,0:0:0:0:
320,192,121332,1,0,0:0:0:0:
192,192,121355,1,0,0:0:0:0:
64,192,121379,1,0,0:0:0:0:
192,192,121496,1,0,0:0:0:0:
320,192,121527,1,0,0:0:0:0:
64,192,121559,1,0,0:0:0:0:
448,192,121559,1,0,0:0:0:0:
192,192,121600,1,0,0:0:0:0:
320,192,121684,1,0,0:0:0:0:
448,192,121684,1,0,0:0:0:0:
64,192,121684,1,0,0:0:0:0:
448,192,121871,1,0,0:0:0:0:
192,192,121871,1,0,0:0:0:0:
192,192,121965,1,0,0:0:0:0:
64,192,121965,1,0,0:0:0:0:
64,192,122059,1,0,0:0:0:0:
448,192,122059,1,0,0:0:0:0:
192,192,122105,1,0,0:0:0:0:
320,192,122152,1,0,0:0:0:0:
192,192,122199,1,0,0:0:0:0:
320,192,122246,1,0,0:0:0:0:
448,192,122246,1,0,0:0:0:0:
64,192,122340,1,0,0:0:0:0:
448,192,122340,1,0,0:0:0:0:
64,192,122434,1,0,0:0:0:0:
320,192,122434,1,0,0:0:0:0:
192,192,122434,1,0,0:0:0:0:
320,192,122621,1,0,0:0:0:0:
192,192,122652,1,0,0:0:0:0:
64,192,122684,1,0,0:0:0:0:
448,192,122684,1,0,0:0:0:0:
320,192,122725,1,0,0:0:0:0:
64,192,122809,1,0,0:0:0:0:
192,192,122832,1,0,0:0:0:0:
320,192,122855,1,0,0:0:0:0:
448,192,122879,1,0,0:0:0:0:
320,192,122996,1,0,0:0:0:0:
192,192,123027,1,0,0:0:0:0:
64,192,123059,1,0,0:0:0:0:
448,192,123059,1,0,0:0:0:0:
320,192,123100,1,0,0:0:0:0:
192,192,123184,1,0,0:0:0:0:
64,192,123184,1,0,0:0:0:0:
64,192,123277,1,0,0:0:0:0:
192,192,123324,1,0,0:0:0:0:
320,192,123371,1,0,0:0:0:0:
448,192,123371,1,0,0:0:0:0:
448,192,123465,1,0,0:0:0:0:
64,192,123559,1,0,0:0:0:0:
320,192,123559,1,0,0:0:0:0:
64,192,123652,1,0,0:0:0:0:
320,192,123652,1,0,0:0:0:0:
192,192,123746,1,0,0:0:0:0:
192,192,123840,1,0,0:0:0:0:
64,192,123840,1,0,0:0:0:0:
320,192,123934,1,0,0:0:0:0:
448,192,123934,1,0,0:0:0:0:
64,192,123934,1,0,0:0:0:0:
448,192,124027,1,0,0:0:0:0:
320,192,124074,1,0,0:0:0:0:
192,192,124121,1,0,0:0:0:0:
64,192,124121,1,0,0:0:0:0:
64,192,124215,1,0,0:0:0:0:
192,192,124309,1,0,0:0:0:0:
448,192,124309,1,0,0:0:0:0:
448,192,124402,1,0,0:0:0:0:
192,192,124402,1,0,0:0:0:0:
320,192,124496,1,0,0:0:0:0:
320,192,124590,1,0,0:0:0:0:
448,192,124590,1,0,0:0:0:0:
192,192,124684,1,0,0:0:0:0:
64,192,124684,1,0,0:0:0:0:
64,192,124777,1,0,0:0:0:0:
192,192,124824,1,0,0:0:0:0:
320,192,124871,1,0,0:0:0:0:
448,192,124871,1,0,0:0:0:0:
448,192,124965,1,0,0:0:0:0:
64,192,125059,1,0,0:0:0:0:
320,192,125059,1,0,0:0:0:0:
320,192,125152,1,0,0:0:0:0:
64,192,125152,1,0,0:0:0:0:
192,192,125246,1,0,0:0:0:0:
192,192,125340,1,0,0:0:0:0:
448,192,125340,1,0,0:0:0:0:
448,192,125434,1,0,0:0:0:0:
320,192,125434,1,0,0:0:0:0:
64,192,125434,1,0,0:0:0:0:
64,192,125559,128,0,125621:0:0:0:0:
448,192,125559,128,0,125621:0:0:0:0:
64,192,125684,128,0,125746:0:0:0:0:
448,192,125684,128,0,125746:0:0:0:0:
192,192,125809,128,0,125902:0:0:0:0:
320,192,125809,128,0,125902:0:0:0:0:
192,192,125996,128,0,126184:0:0:0:0:
320,192,125996,128,0,126184:0:0:0:0:
64,192,126184,128,0,126309:0:0:0:0:
448,192,126184,128,0,126371:0:0:0:0:
64,192,126371,128,0,126465:0:0:0:0:
192,192,126402,128,0,126496:0:0:0:0:
192,192,126559,128,0,126652:0:0:0:0:
320,192,126590,128,0,126684:0:0:0:0:
64,192,126746,1,0,0:0:0:0:
448,192,126746,1,0,0:0:0:0:
320,192,126840,1,0,0:0:0:0:
192,192,126887,1,0,0:0:0:0:
448,192,126934,1,0,0:0:0:0:
64,192,126934,128,0,127121:0:0:0:0:
448,192,127121,128,0,127215:0:0:0:0:
320,192,127152,128,0,127246:0:0:0:0:
320,192,127309,128,0,127402:0:0:0:0:
192,192,127340,128,0,127434:0:0:0:0:
64,192,127496,1,0,0:0:0:0:
448,192,127496,1,0,0:0:0:0:
64,192,127590,1,0,0:0:0:0:
320,192,127684,128,0,127871:0:0:0:0:
192,192,127684,128,0,127809:0:0:0:0:
192,192,127871,128,0,127965:0:0:0:0:
64,192,127902,128,0,127996:0:0:0:0:
320,192,128059,128,0,128152:0:0:0:0:
192,192,128090,128,0,128184:0:0:0:0:
448,192,128246,1,0,0:0:0:0:
64,192,128246,1,0,0:0:0:0:
192,192,128340,1,0,0:0:0:0:
320,192,128387,1,0,0:0:0:0:
64,192,128434,1,0,0:0:0:0:
448,192,128434,128,0,128621:0:0:0:0:
192,192,128621,128,0,128715:0:0:0:0:
64,192,128652,128,0,128746:0:0:0:0:
320,192,128809,128,0,128996:0:0:0:0:
192,192,128996,1,0,0:0:0:0:
64,192,129184,1,0,0:0:0:0:
320,192,129184,1,0,0:0:0:0:
192,192,129184,1,0,0:0:0:0:
448,192,129230,1,0,0:0:0:0:
320,192,129277,1,0,0:0:0:0:
192,192,129324,1,0,0:0:0:0:
64,192,129371,1,0,0:0:0:0:
320,192,129434,1,0,0:0:0:0:
192,192,129496,1,0,0:0:0:0:
320,192,129559,1,0,0:0:0:0:
448,192,129559,1,0,0:0:0:0:
64,192,129605,1,0,0:0:0:0:
192,192,129652,1,0,0:0:0:0:
320,192,129699,1,0,0:0:0:0:
448,192,129746,1,0,0:0:0:0:
192,192,129793,1,0,0:0:0:0:
320,192,129840,1,0,0:0:0:0:
448,192,129887,1,0,0:0:0:0:
64,192,129934,1,0,0:0:0:0:
192,192,129934,128,0,130059:0:0:0:0:
320,192,129996,128,0,130121:0:0:0:0:
448,192,130059,128,0,130184:0:0:0:0:
64,192,130121,128,0,130246:0:0:0:0:
192,192,130184,128,0,130246:0:0:0:0:
320,192,130246,1,0,0:0:0:0:
448,192,130309,1,0,0:0:0:0:
64,192,130309,1,0,0:0:0:0:
320,192,130355,1,0,0:0:0:0:
192,192,130402,1,0,0:0:0:0:
64,192,130449,1,0,0:0:0:0:
320,192,130496,1,0,0:0:0:0:
192,192,130543,1,0,0:0:0:0:
64,192,130590,1,0,0:0:0:0:
448,192,130684,1,0,0:0:0:0:
320,192,130684,128,0,130809:0:0:0:0:
192,192,130746,128,0,130871:0:0:0:0:
64,192,130809,128,0,130934:0:0:0:0:
448,192,130871,128,0,130996:0:0:0:0:
320,192,130934,128,0,130996:0:0:0:0:
192,192,130996,1,0,0:0:0:0:
64,192,131059,1,0,0:0:0:0:
448,192,131059,1,0,0:0:0:0:
192,192,131105,1,0,0:0:0:0:
320,192,131152,1,0,0:0:0:0:
448,192,131199,1,0,0:0:0:0:
192,192,131246,1,0,0:0:0:0:
320,192,131293,1,0,0:0:0:0:
448,192,131340,1,0,0:0:0:0:
64,192,131434,1,0,0:0:0:0:
192,192,131434,128,0,131559:0:0:0:0:
320,192,131496,128,0,131621:0:0:0:0:
448,192,131559,128,0,131684:0:0:0:0:
64,192,131621,128,0,131746:0:0:0:0:
192,192,131684,128,0,131809:0:0:0:0:
320,192,131746,128,0,131809:0:0:0:0:
448,192,131809,1,0,0:0:0:0:
64,192,131809,1,0,0:0:0:0:
320,192,131996,128,0,132090:0:0:0:0:
448,192,132184,1,0,0:0:0:0:
192,192,132184,1,0,0:0:0:0:
320,192,132184,1,0,0:0:0:0:
64,192,132230,1,0,0:0:0:0:
192,192,132277,1,0,0:0:0:0:
320,192,132324,1,0,0:0:0:0:
448,192,132371,1,0,0:0:0:0:
192,192,132434,1,0,0:0:0:0:
320,192,132496,1,0,0:0:0:0:
192,192,132559,1,0,0:0:0:0:
64,192,132559,1,0,0:0:0:0:
448,192,132605,1,0,0:0:0:0:
320,192,132652,1,0,0:0:0:0:
192,192,132699,1,0,0:0:0:0:
64,192,132746,1,0,0:0:0:0:
320,192,132793,1,0,0:0:0:0:
192,192,132840,1,0,0:0:0:0:
64,192,132887,1,0,0:0:0:0:
448,192,132934,1,0,0:0:0:0:
320,192,132934,128,0,133059:0:0:0:0:
192,192,132996,128,0,133121:0:0:0:0:
64,192,133059,128,0,133184:0:0:0:0:
448,192,133121,128,0,133246:0:0:0:0:
320,192,133184,128,0,133246:0:0:0:0:
192,192,133246,1,0,0:0:0:0:
64,192,133309,1,0,0:0:0:0:
448,192,133309,1,0,0:0:0:0:
192,192,133355,1,0,0:0:0:0:
320,192,133402,1,0,0:0:0:0:
448,192,133449,1,0,0:0:0:0:
192,192,133496,1,0,0:0:0:0:
320,192,133543,1,0,0:0:0:0:
448,192,133590,1,0,0:0:0:0:
64,192,133684,1,0,0:0:0:0:
192,192,133684,128,0,133809:0:0:0:0:
320,192,133746,128,0,133871:0:0:0:0:
448,192,133809,128,0,133934:0:0:0:0:
64,192,133871,128,0,133996:0:0:0:0:
192,192,133934,128,0,133996:0:0:0:0:
320,192,133996,1,0,0:0:0:0:
448,192,134059,1,0,0:0:0:0:
64,192,134059,1,0,0:0:0:0:
320,192,134105,1,0,0:0:0:0:
192,192,134152,1,0,0:0:0:0:
64,192,134199,1,0,0:0:0:0:
320,192,134246,1,0,0:0:0:0:
192,192,134293,1,0,0:0:0:0:
64,192,134340,1,0,0:0:0:0:
448,192,134434,1,0,0:0:0:0:
320,192,134434,128,0,134559:0:0:0:0:
192,192,134496,128,0,134621:0:0:0:0:
64,192,134559,128,0,134684:0:0:0:0:
320,192,134621,128,0,134715:0:0:0:0:
448,192,134668,128,0,134762:0:0:0:0:
192,192,134715,128,0,134809:0:0:0:0:
320,192,134762,128,0,134809:0:0:0:0:
448,192,134809,1,0,0:0:0:0:
64,192,134809,1,0,0:0:0:0:
448,192,134996,128,0,135090:0:0:0:0:
320,192,135184,1,0,0:0:0:0:
192,192,135184,1,0,0:0:0:0:
64,192,135184,1,0,0:0:0:0:
64,192,135277,1,0,0:0:0:0:
320,192,135277,1,0,0:0:0:0:
192,192,135371,1,0,0:0:0:0:
320,192,135371,1,0,0:0:0:0:
192,192,135559,1,0,0:0:0:0:
448,192,135559,1,0,0:0:0:0:
320,192,135746,1,0,0:0:0:0:
192,192,135746,1,0,0:0:0:0:
64,192,135934,1,0,0:0:0:0:
320,192,135934,1,0,0:0:0:0:
448,192,135934,1,0,0:0:0:0:
192,192,136027,1,0,0:0:0:0:
448,192,136027,1,0,0:0:0:0:
448,192,136121,1,0,0:0:0:0:
320,192,136121,1,0,0:0:0:0:
320,192,136309,1,0,0:0:0:0:
64,192,136309,1,0,0:0:0:0:
192,192,136496,1,0,0:0:0:0:
320,192,136496,1,0,0:0:0:0:
192,192,136684,1,0,0:0:0:0:
64,192,136684,1,0,0:0:0:0:
448,192,136684,1,0,0:0:0:0:
320,192,136777,1,0,0:0:0:0:
64,192,136777,1,0,0:0:0:0:
64,192,136871,1,0,0:0:0:0:
192,192,136871,1,0,0:0:0:0:
192,192,137059,1,0,0:0:0:0:
448,192,137059,1,0,0:0:0:0:
320,192,137059,1,0,0:0:0:0:
320,192,137246,1,0,0:0:0:0:
192,192,137246,1,0,0:0:0:0:
320,192,137434,1,0,0:0:0:0:
448,192,137434,1,0,0:0:0:0:
64,192,137434,128,0,137621:0:0:0:0:
192,192,137527,128,0,137621:0:0:0:0:
448,192,137621,1,0,0:0:0:0:
64,192,137809,128,0,137996:0:0:0:0:
320,192,137809,1,0,0:0:0:0:
448,192,137809,1,0,0:0:0:0:
192,192,137902,128,0,137996:0:0:0:0:
448,192,137996,1,0,0:0:0:0:
192,192,138184,1,0,0:0:0:0:
64,192,138184,1,0,0:0:0:0:
320,192,138184,1,0,0:0:0:0:
64,192,138559,1,0,0:0:0:0:
64,192,138934,1,0,0:0:0:0:
64,192,139309,1,0,0:0:0:0:
64,192,139684,1,0,0:0:0:0:
64,192,140059,1,0,0:0:0:0:
64,192,140434,1,0,0:0:0:0:
64,192,140809,1,0,0:0:0:0:
448,192,141184,1,0,0:0:0:0:
448,192,141559,1,0,0:0:0:0:
448,192,141934,1,0,0:0:0:0:
448,192,142309,1,0,0:0:0:0:
448,192,142684,1,0,0:0:0:0:
448,192,143059,1,0,0:0:0:0:
448,192,143434,1,0,0:0:0:0:
448,192,143809,1,0,0:0:0:0:
64,192,143809,1,0,0:0:0:0:
192,192,143996,1,0,0:0:0:0:
320,192,144090,1,0,0:0:0:0:
448,192,144184,1,0,0:0:0:0:
64,192,144184,1,0,0:0:0:0:
320,192,144184,1,0,0:0:0:0:
192,192,144559,1,0,0:0:0:0:
192,192,144934,1,0,0:0:0:0:
192,192,145309,1,0,0:0:0:0:
192,192,145684,1,0,0:0:0:0:
192,192,146059,1,0,0:0:0:0:
192,192,146434,1,0,0:0:0:0:
192,192,146809,1,0,0:0:0:0:
320,192,147184,1,0,0:0:0:0:
320,192,147559,1,0,0:0:0:0:
320,192,147934,1,0,0:0:0:0:
320,192,148309,1,0,0:0:0:0:
320,192,148871,128,0,149152:0:0:0:0:
64,192,149059,128,0,149246:0:0:0:0:
320,192,149246,128,0,149340:0:0:0:0:
448,192,149293,128,0,149387:0:0:0:0:
64,192,149340,128,0,149434:0:0:0:0:
192,192,149387,128,0,149480:0:0:0:0:
448,192,149434,128,0,149480:0:0:0:0:
320,192,149480,128,0,149527:0:0:0:0:
192,192,149527,128,0,149574:0:0:0:0:
64,192,149574,128,0,149621:0:0:0:0:
320,192,149621,128,0,149668:0:0:0:0:
192,192,149668,128,0,149715:0:0:0:0:
448,192,149715,128,0,149762:0:0:0:0:
320,192,149762,128,0,149809:0:0:0:0:
64,192,149809,128,0,149871:0:0:0:0:
192,192,149871,128,0,149934:0:0:0:0:
320,192,149934,128,0,149996:0:0:0:0:
448,192,149996,128,0,150059:0:0:0:0:
64,192,150059,128,0,150121:0:0:0:0:
192,192,150121,128,0,150184:0:0:0:0:
320,192,150184,128,0,150371:0:0:0:0:
448,192,150184,128,0,150371:0:0:0:0:
64,192,150184,1,0,0:0:0:0:
64,192,150371,1,0,0:0:0:0:
320,192,150559,128,0,150652:0:0:0:0:
448,192,150559,128,0,150652:0:0:0:0:
192,192,150559,1,0,0:0:0:0:
320,192,150746,128,0,150840:0:0:0:0:
448,192,150746,128,0,150840:0:0:0:0:
320,192,150934,128,0,151027:0:0:0:0:
192,192,150934,128,0,151027:0:0:0:0:
64,192,150934,1,0,0:0:0:0:
64,192,151121,128,0,151215:0:0:0:0:
320,192,151121,128,0,151215:0:0:0:0:
192,192,151309,1,0,0:0:0:0:
64,192,151309,1,0,0:0:0:0:
320,192,151309,1,0,0:0:0:0:
192,192,151402,128,0,151496:0:0:0:0:
448,192,151402,128,0,151684:0:0:0:0:
64,192,151496,1,0,0:0:0:0:
64,192,151684,128,0,151777:0:0:0:0:
192,192,151684,128,0,151777:0:0:0:0:
320,192,151684,1,0,0:0:0:0:
64,192,151871,128,0,151965:0:0:0:0:
192,192,151871,128,0,151965:0:0:0:0:
192,192,152059,128,0,152152:0:0:0:0:
320,192,152059,128,0,152152:0:0:0:0:
448,192,152059,1,0,0:0:0:0:
320,192,152246,128,0,152434:0:0:0:0:
448,192,152246,128,0,152434:0:0:0:0:
64,192,152434,1,0,0:0:0:0:
192,192,152434,1,0,0:0:0:0:
320,192,152621,128,0,152715:0:0:0:0:
192,192,152621,128,0,152715:0:0:0:0:
192,192,152809,1,0,0:0:0:0:
64,192,152809,1,0,0:0:0:0:
448,192,152809,1,0,0:0:0:0:
192,192,152902,128,0,153090:0:0:0:0:
320,192,152902,128,0,152996:0:0:0:0:
448,192,152996,1,0,0:0:0:0:
320,192,153090,1,0,0:0:0:0:
64,192,153184,1,0,0:0:0:0:
320,192,153184,128,0,153371:0:0:0:0:
448,192,153184,128,0,153371:0:0:0:0:
64,192,153371,1,0,0:0:0:0:
320,192,153559,128,0,153652:0:0:0:0:
448,192,153559,128,0,153652:0:0:0:0:
192,192,153559,1,0,0:0:0:0:
320,192,153746,128,0,153840:0:0:0:0:
448,192,153746,128,0,153840:0:0:0:0:
320,192,153934,128,0,154027:0:0:0:0:
192,192,153934,128,0,154027:0:0:0:0:
64,192,153934,1,0,0:0:0:0:
64,192,154121,128,0,154215:0:0:0:0:
320,192,154121,128,0,154215:0:0:0:0:
192,192,154309,1,0,0:0:0:0:
64,192,154309,1,0,0:0:0:0:
320,192,154309,1,0,0:0:0:0:
192,192,154402,128,0,154496:0:0:0:0:
448,192,154402,128,0,154684:0:0:0:0:
64,192,154496,1,0,0:0:0:0:
64,192,154684,128,0,154777:0:0:0:0:
192,192,154684,128,0,154777:0:0:0:0:
320,192,154684,1,0,0:0:0:0:
64,192,154871,128,0,154965:0:0:0:0:
192,192,154871,128,0,154965:0:0:0:0:
192,192,155059,128,0,155152:0:0:0:0:
320,192,155059,128,0,155152:0:0:0:0:
448,192,155059,1,0,0:0:0:0:
320,192,155246,128,0,155434:0:0:0:0:
448,192,155246,128,0,155434:0:0:0:0:
64,192,155434,1,0,0:0:0:0:
192,192,155434,1,0,0:0:0:0:
320,192,155621,128,0,155715:0:0:0:0:
192,192,155621,128,0,155715:0:0:0:0:
192,192,155809,1,0,0:0:0:0:
64,192,155809,1,0,0:0:0:0:
448,192,155809,1,0,0:0:0:0:
192,192,155902,128,0,156090:0:0:0:0:
320,192,155902,128,0,155996:0:0:0:0:
448,192,155996,1,0,0:0:0:0:
320,192,156090,1,0,0:0:0:0:
64,192,156184,1,0,0:0:0:0:
320,192,156184,1,0,0:0:0:0:
448,192,156184,1,0,0:0:0:0:
192,192,156277,1,0,0:0:0:0:
64,192,156277,1,0,0:0:0:0:
320,192,156371,1,0,0:0:0:0:
448,192,156371,1,0,0:0:0:0:
192,192,156559,1,0,0:0:0:0:
64,192,156559,1,0,0:0:0:0:
448,192,156559,1,0,0:0:0:0:
320,192,156652,1,0,0:0:0:0:
448,192,156652,1,0,0:0:0:0:
192,192,156746,1,0,0:0:0:0:
64,192,156746,1,0,0:0:0:0:
320,192,156934,1,0,0:0:0:0:
448,192,156934,1,0,0:0:0:0:
192,192,156934,1,0,0:0:0:0:
192,192,157027,1,0,0:0:0:0:
64,192,157027,1,0,0:0:0:0:
320,192,157121,1,0,0:0:0:0:
448,192,157121,1,0,0:0:0:0:
192,192,157309,1,0,0:0:0:0:
64,192,157309,1,0,0:0:0:0:
320,192,157309,1,0,0:0:0:0:
320,192,157402,1,0,0:0:0:0:
448,192,157402,1,0,0:0:0:0:
192,192,157496,1,0,0:0:0:0:
64,192,157496,1,0,0:0:0:0:
64,192,157684,1,0,0:0:0:0:
320,192,157684,1,0,0:0:0:0:
448,192,157684,1,0,0:0:0:0:
64,192,157777,1,0,0:0:0:0:
320,192,157777,1,0,0:0:0:0:
192,192,157871,1,0,0:0:0:0:
448,192,157871,1,0,0:0:0:0:
192,192,158059,1,0,0:0:0:0:
64,192,158059,1,0,0:0:0:0:
448,192,158059,1,0,0:0:0:0:
192,192,158152,1,0,0:0:0:0:
448,192,158152,1,0,0:0:0:0:
320,192,158246,1,0,0:0:0:0:
64,192,158246,1,0,0:0:0:0:
192,192,158434,1,0,0:0:0:0:
320,192,158434,1,0,0:0:0:0:
64,192,158434,1,0,0:0:0:0:
64,192,158527,1,0,0:0:0:0:
320,192,158527,1,0,0:0:0:0:
448,192,158621,1,0,0:0:0:0:
192,192,158621,1,0,0:0:0:0:
320,192,158809,1,0,0:0:0:0:
192,192,158809,1,0,0:0:0:0:
448,192,158809,1,0,0:0:0:0:
448,192,158902,1,0,0:0:0:0:
192,192,158902,1,0,0:0:0:0:
64,192,158996,1,0,0:0:0:0:
320,192,158996,1,0,0:0:0:0:
192,192,159184,1,0,0:0:0:0:
64,192,159184,1,0,0:0:0:0:
448,192,159184,1,0,0:0:0:0:
320,192,159277,1,0,0:0:0:0:
448,192,159277,1,0,0:0:0:0:
192,192,159371,1,0,0:0:0:0:
64,192,159371,1,0,0:0:0:0:
64,192,159465,1,0,0:0:0:0:
192,192,159465,1,0,0:0:0:0:
448,192,159559,1,0,0:0:0:0:
320,192,159559,1,0,0:0:0:0:
320,192,159652,1,0,0:0:0:0:
448,192,159652,1,0,0:0:0:0:
192,192,159746,1,0,0:0:0:0:
64,192,159746,1,0,0:0:0:0:
64,192,159840,1,0,0:0:0:0:
192,192,159840,1,0,0:0:0:0:
320,192,159934,1,0,0:0:0:0:
448,192,159934,1,0,0:0:0:0:
64,192,160027,1,0,0:0:0:0:
320,192,160027,1,0,0:0:0:0:
192,192,160121,1,0,0:0:0:0:
64,192,160121,1,0,0:0:0:0:
192,192,160215,1,0,0:0:0:0:
448,192,160215,1,0,0:0:0:0:
320,192,160309,1,0,0:0:0:0:
448,192,160309,1,0,0:0:0:0:
320,192,160402,1,0,0:0:0:0:
64,192,160402,1,0,0:0:0:0:
192,192,160496,1,0,0:0:0:0:
64,192,160496,1,0,0:0:0:0:
192,192,160590,1,0,0:0:0:0:
448,192,160590,1,0,0:0:0:0:
320,192,160684,1,0,0:0:0:0:
448,192,160684,1,0,0:0:0:0:
64,192,160730,1,0,0:0:0:0:
192,192,160777,1,0,0:0:0:0:
320,192,160777,1,0,0:0:0:0:
448,192,160824,1,0,0:0:0:0:
192,192,160871,1,0,0:0:0:0:
64,192,160871,1,0,0:0:0:0:
320,192,160918,1,0,0:0:0:0:
448,192,160965,1,0,0:0:0:0:
64,192,160965,1,0,0:0:0:0:
192,192,161012,1,0,0:0:0:0:
320,192,161059,1,0,0:0:0:0:
448,192,161059,1,0,0:0:0:0:
64,192,161105,1,0,0:0:0:0:
192,192,161152,1,0,0:0:0:0:
320,192,161152,1,0,0:0:0:0:
448,192,161199,1,0,0:0:0:0:
192,192,161246,1,0,0:0:0:0:
64,192,161246,1,0,0:0:0:0:
320,192,161293,1,0,0:0:0:0:
448,192,161340,1,0,0:0:0:0:
64,192,161340,1,0,0:0:0:0:
192,192,161387,1,0,0:0:0:0:
320,192,161434,1,0,0:0:0:0:
448,192,161434,1,0,0:0:0:0:
64,192,161480,1,0,0:0:0:0:
192,192,161527,1,0,0:0:0:0:
320,192,161574,1,0,0:0:0:0:
448,192,161621,1,0,0:0:0:0:
192,192,161668,1,0,0:0:0:0:
320,192,161715,1,0,0:0:0:0:
448,192,161762,1,0,0:0:0:0:
192,192,161809,1,0,0:0:0:0:
64,192,161855,1,0,0:0:0:0:
320,192,161902,1,0,0:0:0:0:
192,192,161949,1,0,0:0:0:0:
64,192,161996,1,0,0:0:0:0:
448,192,162043,1,0,0:0:0:0:
320,192,162090,1,0,0:0:0:0:
192,192,162137,1,0,0:0:0:0:
64,192,162184,1,0,0:0:0:0:
448,192,162184,1,0,0:0:0:0:
64,192,162371,1,0,0:0:0:0:
448,192,162371,1,0,0:0:0:0:
64,192,162559,1,0,0:0:0:0:
448,192,162559,1,0,0:0:0:0:
64,192,162746,1,0,0:0:0:0:
448,192,162746,1,0,0:0:0:0:
192,192,162840,1,0,0:0:0:0:
448,192,162840,1,0,0:0:0:0:
64,192,163027,1,0,0:0:0:0:
448,192,163027,1,0,0:0:0:0:
64,192,163121,1,0,0:0:0:0:
320,192,163121,1,0,0:0:0:0:
64,192,163309,1,0,0:0:0:0:
448,192,163309,1,0,0:0:0:0:
448,192,163684,1,0,0:0:0:0:
64,192,163684,1,0,0:0:0:0:
64,192,163871,1,0,0:0:0:0:
448,192,163871,1,0,0:0:0:0:
192,192,164059,1,0,0:0:0:0:
448,192,164059,1,0,0:0:0:0:
320,192,164246,1,0,0:0:0:0:
192,192,164246,1,0,0:0:0:0:
192,192,164340,1,0,0:0:0:0:
320,192,164340,1,0,0:0:0:0:
64,192,164434,1,0,0:0:0:0:
448,192,164434,1,0,0:0:0:0:
192,192,164621,1,0,0:0:0:0:
448,192,164621,128,0,164715:0:0:0:0:
320,192,164621,128,0,164715:0:0:0:0:
192,192,164809,128,0,164996:0:0:0:0:
64,192,164809,128,0,165184:0:0:0:0:
448,192,164809,1,0,0:0:0:0:
448,192,165184,128,0,165277:0:0:0:0:
192,192,165184,1,0,0:0:0:0:
320,192,165184,1,0,0:0:0:0:
192,192,165277,1,0,0:0:0:0:
320,192,165371,1,0,0:0:0:0:
192,192,165465,1,0,0:0:0:0:
320,192,165559,128,0,165652:0:0:0:0:
448,192,165559,1,0,0:0:0:0:
64,192,165559,1,0,0:0:0:0:
64,192,165652,1,0,0:0:0:0:
192,192,165746,1,0,0:0:0:0:
320,192,165840,1,0,0:0:0:0:
192,192,165934,128,0,166027:0:0:0:0:
64,192,165934,1,0,0:0:0:0:
448,192,165934,1,0,0:0:0:0:
448,192,166027,1,0,0:0:0:0:
320,192,166121,1,0,0:0:0:0:
192,192,166215,1,0,0:0:0:0:
64,192,166309,128,0,166402:0:0:0:0:
320,192,166309,1,0,0:0:0:0:
448,192,166309,1,0,0:0:0:0:
320,192,166402,1,0,0:0:0:0:
192,192,166496,1,0,0:0:0:0:
320,192,166590,1,0,0:0:0:0:
448,192,166684,1,0,0:0:0:0:
64,192,166684,128,0,166996:0:0:0:0:
192,192,166715,128,0,166934:0:0:0:0:
320,192,166746,128,0,166871:0:0:0:0:
448,192,166965,128,0,167059:0:0:0:0:
192,192,167059,128,0,167152:0:0:0:0:
64,192,167105,128,0,167199:0:0:0:0:
320,192,167152,128,0,167246:0:0:0:0:
448,192,167199,128,0,167293:0:0:0:0:
64,192,167246,128,0,167340:0:0:0:0:
192,192,167293,128,0,167387:0:0:0:0:
448,192,167340,128,0,167434:0:0:0:0:
320,192,167387,128,0,167434:0:0:0:0:
64,192,167434,128,0,167621:0:0:0:0:
448,192,167809,128,0,167996:0:0:0:0:
192,192,168184,1,0,0:0:0:0:
64,192,168184,1,0,0:0:0:0:
320,192,168184,1,0,0:0:0:0:
64,192,168277,1,0,0:0:0:0:
64,192,168371,1,0,0:0:0:0:
192,192,168559,1,0,0:0:0:0:
448,192,168559,1,0,0:0:0:0:
320,192,168559,1,0,0:0:0:0:
320,192,168652,1,0,0:0:0:0:
320,192,168746,1,0,0:0:0:0:
320,192,168934,1,0,0:0:0:0:
64,192,168934,1,0,0:0:0:0:
192,192,168934,1,0,0:0:0:0:
192,192,169027,1,0,0:0:0:0:
192,192,169121,1,0,0:0:0:0:
192,192,169309,1,0,0:0:0:0:
320,192,169309,1,0,0:0:0:0:
448,192,169309,1,0,0:0:0:0:
448,192,169402,1,0,0:0:0:0:
448,192,169496,1,0,0:0:0:0:
320,192,169590,1,0,0:0:0:0:
192,192,169590,1,0,0:0:0:0:
192,192,169684,1,0,0:0:0:0:
64,192,169684,1,0,0:0:0:0:
320,192,169684,1,0,0:0:0:0:
64,192,169777,1,0,0:0:0:0:
64,192,169871,1,0,0:0:0:0:
448,192,169871,128,0,169965:0:0:0:0:
448,192,170059,1,0,0:0:0:0:
320,192,170059,1,0,0:0:0:0:
192,192,170059,1,0,0:0:0:0:
320,192,170152,1,0,0:0:0:0:
320,192,170246,1,0,0:0:0:0:
64,192,170340,1,0,0:0:0:0:
192,192,170387,1,0,0:0:0:0:
448,192,170434,128,0,170574:0:0:0:0:
320,192,170434,128,0,170527:0:0:0:0:
192,192,170621,1,0,0:0:0:0:
192,192,170715,1,0,0:0:0:0:
448,192,170809,128,0,170855:0:0:0:0:
320,192,170832,128,0,170879:0:0:0:0:
64,192,170996,1,0,0:0:0:0:
320,192,171043,1,0,0:0:0:0:
64,192,171090,1,0,0:0:0:0:
192,192,171137,1,0,0:0:0:0:
448,192,171184,1,0,0:0:0:0:
320,192,171184,1,0,0:0:0:0:
448,192,171277,1,0,0:0:0:0:
448,192,171371,1,0,0:0:0:0:
320,192,171559,1,0,0:0:0:0:
192,192,171559,1,0,0:0:0:0:
64,192,171559,1,0,0:0:0:0:
64,192,171652,1,0,0:0:0:0:
64,192,171746,1,0,0:0:0:0:
448,192,171840,1,0,0:0:0:0:
320,192,171887,1,0,0:0:0:0:
64,192,171934,128,0,172027:0:0:0:0:
192,192,171934,128,0,172027:0:0:0:0:
192,192,172121,128,0,172215:0:0:0:0:
64,192,172121,128,0,172215:0:0:0:0:
64,192,172309,128,0,172402:0:0:0:0:
448,192,172309,128,0,172496:0:0:0:0:
320,192,172309,1,0,0:0:0:0:
192,192,172496,1,0,0:0:0:0:
64,192,172496,1,0,0:0:0:0:
320,192,172559,1,0,0:0:0:0:
192,192,172621,1,0,0:0:0:0:
448,192,172684,1,0,0:0:0:0:
320,192,172684,1,0,0:0:0:0:
64,192,172715,1,0,0:0:0:0:
192,192,172746,1,0,0:0:0:0:
320,192,172777,1,0,0:0:0:0:
448,192,172809,1,0,0:0:0:0:
64,192,172840,1,0,0:0:0:0:
192,192,172871,1,0,0:0:0:0:
448,192,172902,1,0,0:0:0:0:
320,192,172934,1,0,0:0:0:0:
192,192,172965,1,0,0:0:0:0:
64,192,172996,1,0,0:0:0:0:
448,192,173027,1,0,0:0:0:0:
320,192,173059,1,0,0:0:0:0:
192,192,173090,1,0,0:0:0:0:
64,192,173121,1,0,0:0:0:0:
448,192,173152,1,0,0:0:0:0:
320,192,173184,1,0,0:0:0:0:
192,192,173215,1,0,0:0:0:0:
64,192,173246,1,0,0:0:0:0:
320,192,173277,1,0,0:0:0:0:
448,192,173309,1,0,0:0:0:0:
64,192,173340,128,0,173434:0:0:0:0:
192,192,173371,128,0,173434:0:0:0:0:
320,192,173402,128,0,173434:0:0:0:0:
448,192,173434,1,0,0:0:0:0:
192,192,173527,1,0,0:0:0:0:
192,192,173621,1,0,0:0:0:0:
448,192,173715,1,0,0:0:0:0:
320,192,173809,1,0,0:0:0:0:
64,192,173809,1,0,0:0:0:0:
320,192,173996,1,0,0:0:0:0:
320,192,174090,1,0,0:0:0:0:
448,192,174184,1,0,0:0:0:0:
64,192,174184,128,0,174465:0:0:0:0:
192,192,174371,128,0,174512:0:0:0:0:
320,192,174465,128,0,174559:0:0:0:0:
192,192,174559,1,0,0:0:0:0:
64,192,174559,1,0,0:0:0:0:
448,192,174559,1,0,0:0:0:0:
64,192,174652,1,0,0:0:0:0:
192,192,174746,1,0,0:0:0:0:
320,192,174746,1,0,0:0:0:0:
320,192,174840,1,0,0:0:0:0:
192,192,174934,1,0,0:0:0:0:
64,192,174934,1,0,0:0:0:0:
448,192,174934,1,0,0:0:0:0:
64,192,175027,1,0,0:0:0:0:
320,192,175121,1,0,0:0:0:0:
192,192,175215,1,0,0:0:0:0:
448,192,175215,1,0,0:0:0:0:
64,192,175309,1,0,0:0:0:0:
320,192,175309,1,0,0:0:0:0:
448,192,175309,1,0,0:0:0:0:
192,192,175402,1,0,0:0:0:0:
320,192,175496,1,0,0:0:0:0:
64,192,175496,1,0,0:0:0:0:
64,192,175590,1,0,0:0:0:0:
192,192,175590,1,0,0:0:0:0:
192,192,175684,1,0,0:0:0:0:
320,192,175684,1,0,0:0:0:0:
448,192,175684,1,0,0:0:0:0:
448,192,175777,1,0,0:0:0:0:
320,192,175871,1,0,0:0:0:0:
64,192,175871,1,0,0:0:0:0:
448,192,175965,1,0,0:0:0:0:
192,192,175965,1,0,0:0:0:0:
320,192,176059,1,0,0:0:0:0:
448,192,176059,1,0,0:0:0:0:
64,192,176059,1,0,0:0:0:0:
192,192,176152,1,0,0:0:0:0:
448,192,176246,1,0,0:0:0:0:
64,192,176246,1,0,0:0:0:0:
320,192,176340,1,0,0:0:0:0:
192,192,176340,1,0,0:0:0:0:
448,192,176387,1,0,0:0:0:0:
64,192,176434,128,0,176574:0:0:0:0:
192,192,176434,128,0,176527:0:0:0:0:
448,192,176527,1,0,0:0:0:0:
320,192,176621,1,0,0:0:0:0:
320,192,176715,1,0,0:0:0:0:
192,192,176809,1,0,0:0:0:0:
64,192,176809,1,0,0:0:0:0:
192,192,176902,1,0,0:0:0:0:
64,192,176902,1,0,0:0:0:0:
320,192,176996,1,0,0:0:0:0:
448,192,176996,1,0,0:0:0:0:
320,192,177090,1,0,0:0:0:0:
448,192,177090,1,0,0:0:0:0:
192,192,177184,1,0,0:0:0:0:
448,192,177184,1,0,0:0:0:0:
64,192,177184,1,0,0:0:0:0:
192,192,177371,1,0,0:0:0:0:
64,192,177465,1,0,0:0:0:0:
192,192,177465,1,0,0:0:0:0:
448,192,177465,1,0,0:0:0:0:
320,192,177652,1,0,0:0:0:0:
320,192,177746,1,0,0:0:0:0:
448,192,177746,1,0,0:0:0:0:
64,192,177746,1,0,0:0:0:0:
192,192,177934,1,0,0:0:0:0:
64,192,177934,1,0,0:0:0:0:
320,192,177934,1,0,0:0:0:0:
448,192,178121,1,0,0:0:0:0:
448,192,178215,1,0,0:0:0:0:
320,192,178215,1,0,0:0:0:0:
192,192,178215,1,0,0:0:0:0:
64,192,178402,1,0,0:0:0:0:
64,192,178496,1,0,0:0:0:0:
192,192,178496,1,0,0:0:0:0:
320,192,178496,1,0,0:0:0:0:
320,192,178684,128,0,178777:0:0:0:0:
320,192,178871,128,0,178965:0:0:0:0:
192,192,179059,128,0,179152:0:0:0:0:
192,192,179246,128,0,179340:0:0:0:0:
64,192,179434,128,0,179715:0:0:0:0:
320,192,179809,1,0,0:0:0:0:
320,192,179902,1,0,0:0:0:0:
64,192,179996,1,0,0:0:0:0:
448,192,179996,1,0,0:0:0:0:
448,192,180090,1,0,0:0:0:0:
64,192,180090,1,0,0:0:0:0:
192,192,180184,1,0,0:0:0:0:
64,192,180184,1,0,0:0:0:0:
320,192,180184,1,0,0:0:0:0:
320,192,180371,128,0,180434:0:0:0:0:
448,192,180402,128,0,180496:0:0:0:0:
192,192,180559,1,0,0:0:0:0:
64,192,180559,1,0,0:0:0:0:
320,192,180746,128,0,180809:0:0:0:0:
448,192,180777,128,0,180871:0:0:0:0:
64,192,180934,1,0,0:0:0:0:
320,192,180934,128,0,180996:0:0:0:0:
192,192,180934,1,0,0:0:0:0:
448,192,180965,128,0,181059:0:0:0:0:
192,192,181121,1,0,0:0:0:0:
320,192,181215,128,0,181277:0:0:0:0:
448,192,181246,128,0,181340:0:0:0:0:
64,192,181309,1,0,0:0:0:0:
192,192,181309,1,0,0:0:0:0:
64,192,181402,1,0,0:0:0:0:
320,192,181496,128,0,181559:0:0:0:0:
448,192,181527,128,0,181621:0:0:0:0:
64,192,181590,1,0,0:0:0:0:
192,192,181590,1,0,0:0:0:0:
320,192,181684,1,0,0:0:0:0:
192,192,181684,1,0,0:0:0:0:
64,192,181777,1,0,0:0:0:0:
320,192,181871,128,0,181934:0:0:0:0:
448,192,181902,128,0,181996:0:0:0:0:
192,192,182059,1,0,0:0:0:0:
320,192,182059,1,0,0:0:0:0:
64,192,182152,1,0,0:0:0:0:
320,192,182246,128,0,182309:0:0:0:0:
448,192,182277,128,0,182371:0:0:0:0:
64,192,182434,1,0,0:0:0:0:
192,192,182434,1,0,0:0:0:0:
64,192,182527,1,0,0:0:0:0:
320,192,182621,128,0,182684:0:0:0:0:
448,192,182652,128,0,182746:0:0:0:0:
64,192,182809,1,0,0:0:0:0:
192,192,182809,1,0,0:0:0:0:
320,192,182809,1,0,0:0:0:0:
64,192,182902,1,0,0:0:0:0:
192,192,182996,1,0,0:0:0:0:
448,192,182996,1,0,0:0:0:0:
320,192,182996,1,0,0:0:0:0:
448,192,183090,1,0,0:0:0:0:
64,192,183184,1,0,0:0:0:0:
192,192,183184,1,0,0:0:0:0:
320,192,183371,128,0,183434:0:0:0:0:
192,192,183371,1,0,0:0:0:0:
64,192,183371,1,0,0:0:0:0:
448,192,183402,128,0,183496:0:0:0:0:
192,192,183559,1,0,0:0:0:0:
320,192,183559,1,0,0:0:0:0:
64,192,183746,128,0,183809:0:0:0:0:
448,192,183746,1,0,0:0:0:0:
320,192,183746,1,0,0:0:0:0:
192,192,183777,128,0,183871:0:0:0:0:
192,192,183934,1,0,0:0:0:0:
64,192,183934,1,0,0:0:0:0:
64,192,184027,1,0,0:0:0:0:
320,192,184121,128,0,184184:0:0:0:0:
448,192,184152,128,0,184246:0:0:0:0:
320,192,184309,128,0,184371:0:0:0:0:
192,192,184309,1,0,0:0:0:0:
64,192,184309,1,0,0:0:0:0:
448,192,184340,128,0,184434:0:0:0:0:
320,192,184496,128,0,184559:0:0:0:0:
448,192,184527,128,0,184590:0:0:0:0:
192,192,184590,1,0,0:0:0:0:
64,192,184590,1,0,0:0:0:0:
64,192,184684,1,0,0:0:0:0:
320,192,184684,1,0,0:0:0:0:
448,192,184684,1,0,0:0:0:0:
64,192,184871,1,0,0:0:0:0:
448,192,184871,1,0,0:0:0:0:
320,192,184871,1,0,0:0:0:0:
192,192,185059,1,0,0:0:0:0:
320,192,185059,1,0,0:0:0:0:
192,192,185152,1,0,0:0:0:0:
320,192,185152,1,0,0:0:0:0:
64,192,185246,1,0,0:0:0:0:
448,192,185246,1,0,0:0:0:0:
192,192,185293,1,0,0:0:0:0:
320,192,185340,1,0,0:0:0:0:
448,192,185387,1,0,0:0:0:0:
64,192,185434,128,0,185480:0:0:0:0:
448,192,185527,128,0,185574:0:0:0:0:
320,192,185621,1,0,0:0:0:0:
64,192,185621,128,0,185715:0:0:0:0:
192,192,185621,128,0,185715:0:0:0:0:
64,192,185809,128,0,185902:0:0:0:0:
192,192,185809,128,0,185902:0:0:0:0:
320,192,185809,1,0,0:0:0:0:
448,192,185996,1,0,0:0:0:0:
192,192,185996,128,0,186090:0:0:0:0:
320,192,185996,128,0,186090:0:0:0:0:
320,192,186184,1,0,0:0:0:0:
448,192,186184,1,0,0:0:0:0:
64,192,186371,128,0,186434:0:0:0:0:
192,192,186402,128,0,186496:0:0:0:0:
320,192,186559,1,0,0:0:0:0:
448,192,186559,1,0,0:0:0:0:
64,192,186746,128,0,186809:0:0:0:0:
192,192,186777,128,0,186871:0:0:0:0:
320,192,186934,1,0,0:0:0:0:
448,192,186934,1,0,0:0:0:0:
64,192,186934,128,0,186996:0:0:0:0:
192,192,186965,128,0,187059:0:0:0:0:
320,192,187121,1,0,0:0:0:0:
64,192,187215,128,0,187277:0:0:0:0:
192,192,187246,128,0,187340:0:0:0:0:
448,192,187309,1,0,0:0:0:0:
320,192,187309,1,0,0:0:0:0:
448,192,187402,1,0,0:0:0:0:
64,192,187496,128,0,187559:0:0:0:0:
192,192,187527,128,0,187621:0:0:0:0:
448,192,187590,1,0,0:0:0:0:
320,192,187590,1,0,0:0:0:0:
320,192,187684,1,0,0:0:0:0:
192,192,187684,1,0,0:0:0:0:
448,192,187777,1,0,0:0:0:0:
64,192,187871,128,0,187934:0:0:0:0:
192,192,187902,128,0,187996:0:0:0:0:
320,192,188059,1,0,0:0:0:0:
192,192,188059,1,0,0:0:0:0:
448,192,188152,1,0,0:0:0:0:
64,192,188246,128,0,188309:0:0:0:0:
192,192,188277,128,0,188371:0:0:0:0:
448,192,188434,1,0,0:0:0:0:
320,192,188434,1,0,0:0:0:0:
448,192,188527,1,0,0:0:0:0:
64,192,188621,128,0,188684:0:0:0:0:
192,192,188652,128,0,188746:0:0:0:0:
320,192,188809,1,0,0:0:0:0:
448,192,188809,128,0,188902:0:0:0:0:
192,192,188996,1,0,0:0:0:0:
64,192,188996,1,0,0:0:0:0:
320,192,189043,1,0,0:0:0:0:
448,192,189043,1,0,0:0:0:0:
64,192,189090,1,0,0:0:0:0:
192,192,189090,1,0,0:0:0:0:
448,192,189137,1,0,0:0:0:0:
320,192,189137,1,0,0:0:0:0:
64,192,189184,1,0,0:0:0:0:
192,192,189184,1,0,0:0:0:0:
192,192,189371,1,0,0:0:0:0:
64,192,189371,1,0,0:0:0:0:
448,192,189371,1,0,0:0:0:0:
320,192,189559,1,0,0:0:0:0:
192,192,189559,1,0,0:0:0:0:
64,192,189559,1,0,0:0:0:0:
192,192,189746,1,0,0:0:0:0:
64,192,189793,1,0,0:0:0:0:
320,192,189840,1,0,0:0:0:0:
192,192,189887,1,0,0:0:0:0:
64,192,189934,1,0,0:0:0:0:
448,192,189934,1,0,0:0:0:0:
320,192,189934,1,0,0:0:0:0:
192,192,190121,1,0,0:0:0:0:
64,192,190121,1,0,0:0:0:0:
448,192,190121,1,0,0:0:0:0:
320,192,190215,1,0,0:0:0:0:
448,192,190215,1,0,0:0:0:0:
320,192,190309,1,0,0:0:0:0:
192,192,190309,1,0,0:0:0:0:
64,192,190309,1,0,0:0:0:0:
192,192,190496,1,0,0:0:0:0:
320,192,190496,1,0,0:0:0:0:
448,192,190496,1,0,0:0:0:0:
64,192,190684,1,0,0:0:0:0:
448,192,190684,128,0,190777:0:0:0:0:
192,192,190965,1,0,0:0:0:0:
64,192,191059,128,0,191246:0:0:0:0:
320,192,191434,128,0,191621:0:0:0:0:
192,192,191621,128,0,191809:0:0:0:0:
448,192,191809,128,0,191996:0:0:0:0:
64,192,192184,1,0,0:0:0:0:
192,192,192432,1,0,0:0:0:0:
320,192,192680,1,0,0:0:0:0:
448,192,192929,1,0,0:0:0:0:
64,192,193142,1,0,0:0:0:0:
192,192,193355,1,0,0:0:0:0:
320,192,193568,1,0,0:0:0:0:
448,192,193779,1,0,0:0:0:0:
64,192,193982,1,0,0:0:0:0:
192,192,194167,1,0,0:0:0:0:
320,192,194353,1,0,0:0:0:0:
448,192,194538,1,0,0:0:0:0:
64,192,194732,1,0,0:0:0:0:
192,192,194890,1,0,0:0:0:0:
320,192,195049,1,0,0:0:0:0:
448,192,195215,1,0,0:0:0:0:
64,192,195398,1,0,0:0:0:0:
192,192,195551,1,0,0:0:0:0:
320,192,195703,1,0,0:0:0:0:
448,192,195856,1,0,0:0:0:0:
64,192,196001,1,0,0:0:0:0:
192,192,196138,1,0,0:0:0:0:
320,192,196275,1,0,0:0:0:0:
448,192,196412,1,0,0:0:0:0:
64,192,196557,1,0,0:0:0:0:
192,192,196678,1,0,0:0:0:0:
320,192,196798,1,0,0:0:0:0:
448,192,196919,1,0,0:0:0:0:
64,192,197039,1,0,0:0:0:0:
192,192,197160,1,0,0:0:0:0:
320,192,197280,1,0,0:0:0:0:
448,192,197401,1,0,0:0:0:0:
64,192,197521,1,0,0:0:0:0:
192,192,197622,1,0,0:0:0:0:
320,192,197742,1,0,0:0:0:0:
448,192,197862,1,0,0:0:0:0:
64,192,197973,1,0,0:0:0:0:
192,192,198063,1,0,0:0:0:0:
448,192,198063,1,0,0:0:0:0:
448,192,198152,1,0,0:0:0:0:
192,192,198242,1,0,0:0:0:0:
64,192,198242,1,0,0:0:0:0:
448,192,198332,1,0,0:0:0:0:
64,192,198422,1,0,0:0:0:0:
320,192,198422,1,0,0:0:0:0:
64,192,198512,1,0,0:0:0:0:
448,192,198601,1,0,0:0:0:0:
320,192,198601,1,0,0:0:0:0:
64,192,198691,1,0,0:0:0:0:
192,192,198781,1,0,0:0:0:0:
448,192,198781,1,0,0:0:0:0:
448,192,198871,1,0,0:0:0:0:
320,192,198961,1,0,0:0:0:0:
64,192,198961,1,0,0:0:0:0:
192,192,199051,1,0,0:0:0:0:
64,192,199140,1,0,0:0:0:0:
320,192,199140,1,0,0:0:0:0:
64,192,199230,1,0,0:0:0:0:
192,192,199320,1,0,0:0:0:0:
448,192,199320,1,0,0:0:0:0:
320,192,199410,1,0,0:0:0:0:
448,192,199500,1,0,0:0:0:0:
64,192,199500,1,0,0:0:0:0:
320,192,199588,1,0,0:0:0:0:
448,192,199588,1,0,0:0:0:0:
192,192,199676,1,0,0:0:0:0:
64,192,199676,1,0,0:0:0:0:
64,192,199764,1,0,0:0:0:0:
448,192,199764,1,0,0:0:0:0:
320,192,199852,1,0,0:0:0:0:
448,192,199852,1,0,0:0:0:0:
64,192,199941,1,0,0:0:0:0:
192,192,199941,1,0,0:0:0:0:
64,192,200029,1,0,0:0:0:0:
448,192,200029,1,0,0:0:0:0:
320,192,200117,1,0,0:0:0:0:
448,192,200117,1,0,0:0:0:0:
192,192,200205,1,0,0:0:0:0:
64,192,200205,1,0,0:0:0:0:
192,192,200294,1,0,0:0:0:0:
320,192,200294,1,0,0:0:0:0:
320,192,200382,1,0,0:0:0:0:
448,192,200382,1,0,0:0:0:0:
64,192,200470,1,0,0:0:0:0:
192,192,200470,1,0,0:0:0:0:
448,192,200558,1,0,0:0:0:0:
64,192,200558,1,0,0:0:0:0:
192,192,200602,1,0,0:0:0:0:
320,192,200647,1,0,0:0:0:0:
448,192,200647,1,0,0:0:0:0:
64,192,200691,1,0,0:0:0:0:
192,192,200735,1,0,0:0:0:0:
320,192,200735,1,0,0:0:0:0:
448,192,200779,1,0,0:0:0:0:
64,192,200823,1,0,0:0:0:0:
192,192,200823,1,0,0:0:0:0:
320,192,200867,1,0,0:0:0:0:
448,192,200911,1,0,0:0:0:0:
64,192,200911,1,0,0:0:0:0:
192,192,201000,1,0,0:0:0:0:
448,192,201088,1,0,0:0:0:0:
320,192,201176,1,0,0:0:0:0:
192,192,201264,1,0,0:0:0:0:
64,192,201352,1,0,0:0:0:0:
192,192,201441,1,0,0:0:0:0:
320,192,201529,1,0,0:0:0:0:
448,192,201617,1,0,0:0:0:0:
320,192,201705,1,0,0:0:0:0:
192,192,201794,1,0,0:0:0:0:
64,192,201882,1,0,0:0:0:0:
320,192,201970,1,0,0:0:0:0:
192,192,202058,1,0,0:0:0:0:
64,192,202147,128,0,202323:0:0:0:0:
192,192,202235,128,0,202367:0:0:0:0:
320,192,202279,128,0,202411:0:0:0:0:
448,192,202323,128,0,202637:0:0:0:0:
320,192,202632,128,0,202764:0:0:0:0:
448,192,202764,128,0,202852:0:0:0:0:
320,192,202852,128,0,202941:0:0:0:0:
448,192,202941,128,0,203029:0:0:0:0:
320,192,203029,128,0,203117:0:0:0:0:
64,192,203029,1,0,0:0:0:0:
448,192,203117,128,0,203205:0:0:0:0:
64,192,203117,1,0,0:0:0:0:
320,192,203205,128,0,203294:0:0:0:0:
448,192,203294,128,0,203382:0:0:0:0:
192,192,203294,1,0,0:0:0:0:
64,192,203338,128,0,203647:0:0:0:0:
320,192,203382,128,0,203470:0:0:0:0:
448,192,203470,128,0,203558:0:0:0:0:
192,192,203558,128,0,203691:0:0:0:0:
320,192,203647,128,0,203735:0:0:0:0:
448,192,203735,1,0,0:0:0:0:
64,192,203735,1,0,0:0:0:0:
192,192,203735,1,0,0:0:0:0:
64,192,203823,1,0,0:0:0:0:
320,192,203911,1,0,0:0:0:0:
448,192,203911,1,0,0:0:0:0:
64,192,204000,1,0,0:0:0:0:
192,192,204000,1,0,0:0:0:0:
448,192,204088,1,0,0:0:0:0:
320,192,204088,1,0,0:0:0:0:
192,192,204088,1,0,0:0:0:0:
448,192,204176,1,0,0:0:0:0:
64,192,204264,1,0,0:0:0:0:
192,192,204264,1,0,0:0:0:0:
320,192,204352,1,0,0:0:0:0:
448,192,204352,1,0,0:0:0:0:
64,192,204441,1,0,0:0:0:0:
192,192,204441,1,0,0:0:0:0:
320,192,204441,1,0,0:0:0:0:
448,192,204485,1,0,0:0:0:0:
64,192,204529,1,0,0:0:0:0:
192,192,204573,1,0,0:0:0:0:
320,192,204617,1,0,0:0:0:0:
64,192,204676,1,0,0:0:0:0:
192,192,204735,1,0,0:0:0:0:
448,192,204794,1,0,0:0:0:0:
320,192,204838,1,0,0:0:0:0:
192,192,204882,1,0,0:0:0:0:
64,192,204926,1,0,0:0:0:0:
448,192,204970,1,0,0:0:0:0:
320,192,204970,1,0,0:0:0:0:
64,192,205058,1,0,0:0:0:0:
192,192,205058,1,0,0:0:0:0:
448,192,205147,1,0,0:0:0:0:
320,192,205147,1,0,0:0:0:0:
64,192,205147,1,0,0:0:0:0:
192,192,205191,1,0,0:0:0:0:
320,192,205235,1,0,0:0:0:0:
448,192,205279,1,0,0:0:0:0:
192,192,205323,1,0,0:0:0:0:
320,192,205367,1,0,0:0:0:0:
448,192,205411,1,0,0:0:0:0:
192,192,205500,1,0,0:0:0:0:
64,192,205500,1,0,0:0:0:0:
320,192,205500,1,0,0:0:0:0:
64,192,205588,1,0,0:0:0:0:
320,192,205676,1,0,0:0:0:0:
448,192,205676,1,0,0:0:0:0:
192,192,205764,1,0,0:0:0:0:
64,192,205764,1,0,0:0:0:0:
64,192,205852,1,0,0:0:0:0:
448,192,205852,1,0,0:0:0:0:
320,192,205852,1,0,0:0:0:0:
192,192,205911,1,0,0:0:0:0:
320,192,205970,1,0,0:0:0:0:
64,192,206029,1,0,0:0:0:0:
192,192,206117,1,0,0:0:0:0:
448,192,206117,1,0,0:0:0:0:
320,192,206205,1,0,0:0:0:0:
448,192,206205,1,0,0:0:0:0:
64,192,206205,1,0,0:0:0:0:
192,192,206294,1,0,0:0:0:0:
448,192,206382,1,0,0:0:0:0:
320,192,206470,1,0,0:0:0:0:
64,192,206470,1,0,0:0:0:0:
64,192,206558,1,0,0:0:0:0:
192,192,206558,1,0,0:0:0:0:
448,192,206558,1,0,0:0:0:0:
192,192,206647,1,0,0:0:0:0:
320,192,206735,1,0,0:0:0:0:
448,192,206735,1,0,0:0:0:0:
192,192,206823,1,0,0:0:0:0:
64,192,206823,1,0,0:0:0:0:
320,192,206911,1,0,0:0:0:0:
448,192,206911,1,0,0:0:0:0:
192,192,206911,1,0,0:0:0:0:
448,192,207000,1,0,0:0:0:0:
192,192,207088,1,0,0:0:0:0:
64,192,207088,1,0,0:0:0:0:
320,192,207176,1,0,0:0:0:0:
448,192,207176,1,0,0:0:0:0:
192,192,207264,1,0,0:0:0:0:
64,192,207264,1,0,0:0:0:0:
320,192,207264,1,0,0:0:0:0:
448,192,207308,1,0,0:0:0:0:
64,192,207352,1,0,0:0:0:0:
192,192,207397,1,0,0:0:0:0:
320,192,207441,1,0,0:0:0:0:
64,192,207500,1,0,0:0:0:0:
192,192,207558,1,0,0:0:0:0:
448,192,207617,128,0,207838:0:0:0:0:
320,192,207661,128,0,207794:0:0:0:0:
192,192,207705,128,0,207750:0:0:0:0:
64,192,207794,1,0,0:0:0:0:
192,192,207852,1,0,0:0:0:0:
320,192,207911,1,0,0:0:0:0:
192,192,207970,1,0,0:0:0:0:
64,192,207970,1,0,0:0:0:0:
448,192,208014,1,0,0:0:0:0:
320,192,208058,1,0,0:0:0:0:
192,192,208102,1,0,0:0:0:0:
64,192,208147,1,0,0:0:0:0:
448,192,208147,128,0,208455:0:0:0:0:
320,192,208235,1,0,0:0:0:0:
192,192,208323,1,0,0:0:0:0:
64,192,208323,1,0,0:0:0:0:
320,192,208411,128,0,208544:0:0:0:0:
192,192,208500,128,0,208632:0:0:0:0:
64,192,208588,128,0,208720:0:0:0:0:
320,192,208588,1,0,0:0:0:0:
192,192,208676,1,0,0:0:0:0:
448,192,208676,128,0,208764:0:0:0:0:
320,192,208764,128,0,208852:0:0:0:0:
192,192,208852,128,0,208941:0:0:0:0:
64,192,208941,128,0,209029:0:0:0:0:
320,192,208941,1,0,0:0:0:0:
448,192,209029,128,0,209117:0:0:0:0:
192,192,209029,1,0,0:0:0:0:
320,192,209117,128,0,209205:0:0:0:0:
192,192,209205,128,0,209294:0:0:0:0:
64,192,209294,128,0,209382:0:0:0:0:
192,192,209382,1,0,0:0:0:0:
320,192,209382,1,0,0:0:0:0:
448,192,209382,1,0,0:0:0:0:
192,192,209470,1,0,0:0:0:0:
64,192,209558,1,0,0:0:0:0:
320,192,209558,1,0,0:0:0:0:
448,192,209647,1,0,0:0:0:0:
192,192,209647,1,0,0:0:0:0:
192,192,209735,1,0,0:0:0:0:
64,192,209735,1,0,0:0:0:0:
320,192,209735,1,0,0:0:0:0:
320,192,209823,1,0,0:0:0:0:
192,192,209911,1,0,0:0:0:0:
448,192,209911,1,0,0:0:0:0:
64,192,210000,1,0,0:0:0:0:
320,192,210000,1,0,0:0:0:0:
192,192,210088,1,0,0:0:0:0:
320,192,210088,1,0,0:0:0:0:
448,192,210088,1,0,0:0:0:0:
64,192,210132,1,0,0:0:0:0:
448,192,210176,1,0,0:0:0:0:
320,192,210220,1,0,0:0:0:0:
192,192,210264,1,0,0:0:0:0:
448,192,210323,1,0,0:0:0:0:
320,192,210382,1,0,0:0:0:0:
64,192,210441,1,0,0:0:0:0:
192,192,210485,1,0,0:0:0:0:
320,192,210529,1,0,0:0:0:0:
448,192,210573,1,0,0:0:0:0:
192,192,210617,1,0,0:0:0:0:
64,192,210617,1,0,0:0:0:0:
320,192,210705,1,0,0:0:0:0:
448,192,210705,1,0,0:0:0:0:
192,192,210794,1,0,0:0:0:0:
64,192,210794,1,0,0:0:0:0:
448,192,210794,1,0,0:0:0:0:
320,192,210838,1,0,0:0:0:0:
192,192,210882,1,0,0:0:0:0:
64,192,210926,1,0,0:0:0:0:
320,192,210970,1,0,0:0:0:0:
192,192,211014,1,0,0:0:0:0:
64,192,211058,1,0,0:0:0:0:
320,192,211147,1,0,0:0:0:0:
448,192,211147,1,0,0:0:0:0:
192,192,211147,1,0,0:0:0:0:
448,192,211235,1,0,0:0:0:0:
64,192,211323,1,0,0:0:0:0:
320,192,211323,1,0,0:0:0:0:
192,192,211411,1,0,0:0:0:0:
448,192,211411,1,0,0:0:0:0:
64,192,211500,1,0,0:0:0:0:
192,192,211500,1,0,0:0:0:0:
320,192,211500,1,0,0:0:0:0:
448,192,211544,1,0,0:0:0:0:
64,192,211588,1,0,0:0:0:0:
192,192,211632,1,0,0:0:0:0:
320,192,211676,1,0,0:0:0:0:
192,192,211764,1,0,0:0:0:0:
448,192,211764,1,0,0:0:0:0:
64,192,211852,1,0,0:0:0:0:
448,192,211852,1,0,0:0:0:0:
320,192,211852,1,0,0:0:0:0:
192,192,211941,1,0,0:0:0:0:
448,192,212029,1,0,0:0:0:0:
64,192,212117,1,0,0:0:0:0:
320,192,212117,1,0,0:0:0:0:
192,192,212205,1,0,0:0:0:0:
64,192,212205,1,0,0:0:0:0:
448,192,212205,1,0,0:0:0:0:
192,192,212294,1,0,0:0:0:0:
320,192,212382,1,0,0:0:0:0:
64,192,212382,1,0,0:0:0:0:
192,192,212470,1,0,0:0:0:0:
448,192,212470,1,0,0:0:0:0:
320,192,212558,1,0,0:0:0:0:
448,192,212558,1,0,0:0:0:0:
64,192,212558,1,0,0:0:0:0:
320,192,212647,1,0,0:0:0:0:
192,192,212735,1,0,0:0:0:0:
448,192,212735,1,0,0:0:0:0:
320,192,212823,1,0,0:0:0:0:
64,192,212823,1,0,0:0:0:0:
192,192,212911,1,0,0:0:0:0:
64,192,212911,1,0,0:0:0:0:
448,192,212955,1,0,0:0:0:0:
320,192,213000,1,0,0:0:0:0:
192,192,213044,1,0,0:0:0:0:
448,192,213088,1,0,0:0:0:0:
320,192,213147,1,0,0:0:0:0:
64,192,213205,1,0,0:0:0:0:
192,192,213264,1,0,0:0:0:0:
448,192,213264,1,0,0:0:0:0:
320,192,213308,1,0,0:0:0:0:
64,192,213352,1,0,0:0:0:0:
192,192,213397,1,0,0:0:0:0:
320,192,213441,1,0,0:0:0:0:
448,192,213485,1,0,0:0:0:0:
64,192,213529,1,0,0:0:0:0:
64,192,213617,128,0,213794:0:0:0:0:
448,192,213617,128,0,213794:0:0:0:0:
320,192,213794,1,0,0:0:0:0:
320,192,213882,1,0,0:0:0:0:
64,192,213970,1,0,0:0:0:0:
192,192,214058,1,0,0:0:0:0:
192,192,214147,1,0,0:0:0:0:
320,192,214235,1,0,0:0:0:0:
64,192,214323,1,0,0:0:0:0:
192,192,214411,1,0,0:0:0:0:
448,192,214500,1,0,0:0:0:0:
64,192,214588,1,0,0:0:0:0:
192,192,214676,1,0,0:0:0:0:
448,192,214676,1,0,0:0:0:0:
320,192,214720,1,0,0:0:0:0:
192,192,214852,1,0,0:0:0:0:
448,192,214852,1,0,0:0:0:0:
320,192,214897,1,0,0:0:0:0:
192,192,215029,1,0,0:0:0:0:
64,192,215029,1,0,0:0:0:0:
448,192,215029,128,0,215205:0:0:0:0:
320,192,215117,1,0,0:0:0:0:
192,192,215205,1,0,0:0:0:0:
448,192,215294,1,0,0:0:0:0:
64,192,215294,1,0,0:0:0:0:
448,192,215382,1,0,0:0:0:0:
320,192,215382,1,0,0:0:0:0:
192,192,215470,1,0,0:0:0:0:
64,192,215558,1,0,0:0:0:0:
320,192,215558,1,0,0:0:0:0:
192,192,215647,1,0,0:0:0:0:
448,192,215647,1,0,0:0:0:0:
192,192,215735,1,0,0:0:0:0:
64,192,215735,1,0,0:0:0:0:
448,192,215823,1,0,0:0:0:0:
320,192,215911,1,0,0:0:0:0:
192,192,215911,1,0,0:0:0:0:
320,192,216000,1,0,0:0:0:0:
448,192,216000,1,0,0:0:0:0:
192,192,216088,1,0,0:0:0:0:
64,192,216088,1,0,0:0:0:0:
320,192,216176,1,0,0:0:0:0:
64,192,216264,1,0,0:0:0:0:
448,192,216264,1,0,0:0:0:0:
192,192,216352,1,0,0:0:0:0:
64,192,216352,1,0,0:0:0:0:
320,192,216441,1,0,0:0:0:0:
448,192,216441,1,0,0:0:0:0:
192,192,216529,1,0,0:0:0:0:
448,192,216529,1,0,0:0:0:0:
320,192,216617,1,0,0:0:0:0:
64,192,216617,1,0,0:0:0:0:
192,192,216705,1,0,0:0:0:0:
64,192,216705,1,0,0:0:0:0:
320,192,216794,1,0,0:0:0:0:
448,192,216794,1,0,0:0:0:0:
64,192,216882,1,0,0:0:0:0:
320,192,216882,1,0,0:0:0:0:
192,192,216970,1,0,0:0:0:0:
448,192,216970,1,0,0:0:0:0:
320,192,217058,1,0,0:0:0:0:
448,192,217058,1,0,0:0:0:0:
192,192,217147,1,0,0:0:0:0:
64,192,217147,1,0,0:0:0:0:
64,192,217235,1,0,0:0:0:0:
320,192,217235,1,0,0:0:0:0:
192,192,217323,1,0,0:0:0:0:
448,192,217323,1,0,0:0:0:0:
320,192,217411,1,0,0:0:0:0:
448,192,217411,1,0,0:0:0:0:
192,192,217500,1,0,0:0:0:0:
64,192,217500,1,0,0:0:0:0:
192,192,217588,1,0,0:0:0:0:
448,192,217588,1,0,0:0:0:0:
320,192,217676,1,0,0:0:0:0:
64,192,217676,1,0,0:0:0:0:
192,192,217764,1,0,0:0:0:0:
64,192,217764,1,0,0:0:0:0:
320,192,217852,1,0,0:0:0:0:
448,192,217852,1,0,0:0:0:0:
64,192,217941,1,0,0:0:0:0:
192,192,218029,1,0,0:0:0:0:
448,192,218029,1,0,0:0:0:0:
448,192,218117,1,0,0:0:0:0:
320,192,218117,1,0,0:0:0:0:
192,192,218205,1,0,0:0:0:0:
64,192,218205,1,0,0:0:0:0:
448,192,218294,1,0,0:0:0:0:
192,192,218382,1,0,0:0:0:0:
320,192,218382,1,0,0:0:0:0:
320,192,218470,1,0,0:0:0:0:
448,192,218470,1,0,0:0:0:0:
64,192,218558,1,0,0:0:0:0:
192,192,218558,1,0,0:0:0:0:
320,192,218647,1,0,0:0:0:0:
448,192,218647,1,0,0:0:0:0:
192,192,218735,1,0,0:0:0:0:
448,192,218735,1,0,0:0:0:0:
320,192,218823,1,0,0:0:0:0:
64,192,218823,1,0,0:0:0:0:
192,192,218911,1,0,0:0:0:0:
64,192,218911,1,0,0:0:0:0:
448,192,219000,1,0,0:0:0:0:
64,192,219088,1,0,0:0:0:0:
320,192,219088,1,0,0:0:0:0:
192,192,219176,1,0,0:0:0:0:
448,192,219176,1,0,0:0:0:0:
192,192,219264,1,0,0:0:0:0:
64,192,219264,128,0,219617:0:0:0:0:
448,192,219352,1,0,0:0:0:0:
320,192,219441,1,0,0:0:0:0:
320,192,219529,1,0,0:0:0:0:
448,192,219617,128,0,219970:0:0:0:0:
192,192,219617,1,0,0:0:0:0:
64,192,219705,1,0,0:0:0:0:
192,192,219794,1,0,0:0:0:0:
192,192,219882,1,0,0:0:0:0:
64,192,219970,128,0,220058:0:0:0:0:
320,192,219970,128,0,220058:0:0:0:0:
448,192,220147,1,0,0:0:0:0:
448,192,220235,1,0,0:0:0:0:
64,192,220323,1,0,0:0:0:0:
320,192,220323,128,0,220500:0:0:0:0:
64,192,220411,1,0,0:0:0:0:
192,192,220500,128,0,220676:0:0:0:0:
448,192,220500,1,0,0:0:0:0:
64,192,220676,1,0,0:0:0:0:
448,192,220676,1,0,0:0:0:0:
320,192,220676,1,0,0:0:0:0:
192,192,220852,1,0,0:0:0:0:
192,192,220941,1,0,0:0:0:0:
64,192,220941,1,0,0:0:0:0:
448,192,220941,1,0,0:0:0:0:
64,192,221205,1,0,0:0:0:0:
320,192,221205,1,0,0:0:0:0:
448,192,221205,1,0,0:0:0:0:
448,192,221382,1,0,0:0:0:0:
320,192,221470,1,0,0:0:0:0:
448,192,221470,1,0,0:0:0:0:
64,192,221470,1,0,0:0:0:0:
192,192,221558,1,0,0:0:0:0:
64,192,221647,1,0,0:0:0:0:
192,192,221735,1,0,0:0:0:0:
64,192,221735,1,0,0:0:0:0:
448,192,221735,1,0,0:0:0:0:
448,192,221911,1,0,0:0:0:0:
320,192,222000,1,0,0:0:0:0:
448,192,222000,1,0,0:0:0:0:
192,192,222000,1,0,0:0:0:0:
64,192,222088,1,0,0:0:0:0:
192,192,222176,1,0,0:0:0:0:
192,192,222264,1,0,0:0:0:0:
64,192,222264,1,0,0:0:0:0:
320,192,222264,1,0,0:0:0:0:
448,192,222352,1,0,0:0:0:0:
64,192,222441,1,0,0:0:0:0:
448,192,222441,1,0,0:0:0:0:
320,192,222441,1,0,0:0:0:0:
192,192,222529,1,0,0:0:0:0:
320,192,222617,1,0,0:0:0:0:
64,192,222705,1,0,0:0:0:0:
320,192,222705,1,0,0:0:0:0:
448,192,222705,1,0,0:0:0:0:
192,192,222794,1,0,0:0:0:0:
64,192,222882,1,0,0:0:0:0:
192,192,222970,1,0,0:0:0:0:
64,192,222970,1,0,0:0:0:0:
448,192,222970,1,0,0:0:0:0:
320,192,223058,1,0,0:0:0:0:
192,192,223147,1,0,0:0:0:0:
192,192,223235,1,0,0:0:0:0:
64,192,223235,1,0,0:0:0:0:
448,192,223235,1,0,0:0:0:0:
320,192,223323,1,0,0:0:0:0:
320,192,223411,1,0,0:0:0:0:
448,192,223500,1,0,0:0:0:0:
64,192,223500,1,0,0:0:0:0:
192,192,223500,1,0,0:0:0:0:
64,192,223632,1,0,0:0:0:0:
192,192,223632,1,0,0:0:0:0:
320,192,223632,1,0,0:0:0:0:
320,192,223764,1,0,0:0:0:0:
448,192,223764,1,0,0:0:0:0:
192,192,223764,1,0,0:0:0:0:
64,192,223897,1,0,0:0:0:0:
320,192,223897,1,0,0:0:0:0:
448,192,223897,1,0,0:0:0:0:
192,192,224029,1,0,0:0:0:0:
64,192,224029,1,0,0:0:0:0:
448,192,224029,1,0,0:0:0:0:
192,192,224161,1,0,0:0:0:0:
64,192,224161,1,0,0:0:0:0:
320,192,224161,1,0,0:0:0:0:
192,192,224294,1,0,0:0:0:0:
320,192,224294,1,0,0:0:0:0:
448,192,224294,1,0,0:0:0:0:
64,192,224426,1,0,0:0:0:0:
320,192,224426,1,0,0:0:0:0:
448,192,224426,1,0,0:0:0:0:
64,192,224558,1,0,0:0:0:0:
192,192,224558,1,0,0:0:0:0:
448,192,224558,1,0,0:0:0:0:
192,192,224691,1,0,0:0:0:0:
64,192,224691,1,0,0:0:0:0:
320,192,224691,1,0,0:0:0:0:
192,192,224823,1,0,0:0:0:0:
320,192,224823,1,0,0:0:0:0:
448,192,224823,1,0,0:0:0:0:
64,192,224911,1,0,0:0:0:0:
192,192,224911,1,0,0:0:0:0:
448,192,224970,1,0,0:0:0:0:
320,192,224999,1,0,0:0:0:0:
192,192,225029,1,0,0:0:0:0:
64,192,225058,1,0,0:0:0:0:
448,192,225088,1,0,0:0:0:0:
320,192,225132,1,0,0:0:0:0:
192,192,225176,1,0,0:0:0:0:
64,192,225220,1,0,0:0:0:0:
448,192,225308,128,0,225882:0:0:0:0:
320,192,225411,128,0,225794:0:0:0:0:
192,192,225529,128,0,225705:0:0:0:0:
64,192,225617,1,0,0:0:0:0:
64,192,225794,1,0,0:0:0:0:
192,192,225852,1,0,0:0:0:0:
320,192,225911,1,0,0:0:0:0:
448,192,225970,1,0,0:0:0:0:
64,192,226147,1,0,0:0:0:0:
64,192,226323,1,0,0:0:0:0:
192,192,226323,1,0,0:0:0:0:
448,192,226323,1,0,0:0:0:0:
320,192,226323,128,0,226367:0:0:0:0:
192,192,226851,128,0,226895:0:0:0:0:
448,192,227379,128,0,227422:0:0:0:0:
320,192,228256,128,0,228300:0:0:0:0:
448,192,228431,128,0,228478:0:0:0:0:
320,192,228610,128,0,228653:0:0:0:0:
192,192,228782,128,0,228825:0:0:0:0:
64,192,228956,128,0,229000:0:0:0:0:
320,192,229132,128,0,229175:0:0:0:0:
64,192,230006,128,0,230049:0:0:0:0:
192,192,230180,128,0,230224:0:0:0:0:
320,192,230355,128,0,230398:0:0:0:0:
448,192,230530,128,0,230573:0:0:0:0:
320,192,230878,128,0,230921:0:0:0:0:
192,192,231225,128,0,231269:0:0:0:0:
64,192,231572,128,0,231616:0:0:0:0:
320,192,231920,128,0,231963:0:0:0:0:
192,192,232439,128,0,232483:0:0:0:0:
448,192,232959,128,0,233002:0:0:0:0:
320,192,233821,128,0,233864:0:0:0:0:
448,192,233994,128,0,234036:0:0:0:0:
320,192,234165,128,0,234208:0:0:0:0:
64,192,234337,128,0,234380:0:0:0:0:
192,192,234509,128,0,234552:0:0:0:0:
320,192,234683,128,0,234725:0:0:0:0:
448,192,235197,128,0,235240:0:0:0:0:
192,192,235708,128,0,235750:0:0:0:0:
64,192,236220,128,0,236263:0:0:0:0:
320,192,236566,128,0,236609:0:0:0:0:
64,192,236737,128,0,236779:0:0:0:0:
192,192,236907,128,0,236949:0:0:0:0:
320,192,237077,128,0,237120:0:0:0:0:
192,192,237248,128,0,237290:0:0:0:0:
448,192,237409,128,0,237451:0:0:0:0:
64,192,237409,128,0,237451:0:0:0:0:
192,192,237578,1,0,0:0:0:0:
192,192,237741,1,0,0:0:0:0:
448,192,237910,128,0,237953:0:0:0:0:
64,192,237910,128,0,237953:0:0:0:0:
320,192,238080,1,0,0:0:0:0:
320,192,238250,1,0,0:0:0:0:
192,192,238419,128,0,238462:0:0:0:0:
448,192,238420,128,0,238462:0:0:0:0:
320,192,238589,1,0,0:0:0:0:
448,192,238758,1,0,0:0:0:0:
192,192,238928,1,0,0:0:0:0:
448,192,239012,1,0,0:0:0:0:
192,192,239182,1,0,0:0:0:0:
64,192,239351,1,0,0:0:0:0:
448,192,239436,1,0,0:0:0:0:
192,192,239604,1,0,0:0:0:0:
448,192,239774,1,0,0:0:0:0:
64,192,239942,1,0,0:0:0:0:
192,192,240103,128,0,240145:0:0:0:0:
448,192,240103,128,0,240145:0:0:0:0:
320,192,240271,1,0,0:0:0:0:
320,192,240439,1,0,0:0:0:0:
448,192,240608,1,0,0:0:0:0:
192,192,240767,1,0,0:0:0:0:
64,192,240934,128,0,240976:0:0:0:0:
192,192,241103,128,0,241144:0:0:0:0:
448,192,241103,1,0,0:0:0:0:
320,192,241270,128,0,241312:0:0:0:0:
448,192,241438,128,0,241480:0:0:0:0:
64,192,241690,1,0,0:0:0:0:
320,192,241773,128,0,241815:0:0:0:0:
192,192,241857,1,0,0:0:0:0:
64,192,241941,1,0,0:0:0:0:
448,192,242024,1,0,0:0:0:0:
192,192,242108,128,0,242150:0:0:0:0:
448,192,242276,1,0,0:0:0:0:
320,192,242443,1,0,0:0:0:0:
64,192,242444,128,0,242485:0:0:0:0:
192,192,242610,1,0,0:0:0:0:
448,192,242773,128,0,242814:0:0:0:0:
64,192,242773,128,0,242814:0:0:0:0:
320,192,242939,1,0,0:0:0:0:
320,192,243106,1,0,0:0:0:0:
448,192,243273,128,0,243315:0:0:0:0:
64,192,243273,128,0,243315:0:0:0:0:
192,192,243444,1,0,0:0:0:0:
192,192,243610,1,0,0:0:0:0:
448,192,243777,128,0,243818:0:0:0:0:
64,192,243777,128,0,243818:0:0:0:0:
192,192,243943,1,0,0:0:0:0:
448,192,244110,1,0,0:0:0:0:
192,192,244275,1,0,0:0:0:0:
448,192,244358,1,0,0:0:0:0:
192,192,244524,1,0,0:0:0:0:
64,192,244690,1,0,0:0:0:0:
448,192,244773,1,0,0:0:0:0:
192,192,244939,1,0,0:0:0:0:
448,192,245105,1,0,0:0:0:0:
64,192,245271,1,0,0:0:0:0:
192,192,245437,128,0,245478:0:0:0:0:
448,192,245437,128,0,245478:0:0:0:0:
320,192,245602,1,0,0:0:0:0:
320,192,245768,1,0,0:0:0:0:
448,192,245932,128,0,245974:0:0:0:0:
64,192,245932,128,0,245974:0:0:0:0:
192,192,246098,1,0,0:0:0:0:
192,192,246262,1,0,0:0:0:0:
320,192,246433,128,0,246474:0:0:0:0:
448,192,246433,128,0,246474:0:0:0:0:
64,192,246597,1,0,0:0:0:0:
192,192,246762,1,0,0:0:0:0:
64,192,247009,1,0,0:0:0:0:
192,192,247178,1,0,0:0:0:0:
64,192,247260,1,0,0:0:0:0:
320,192,247417,128,0,247458:0:0:0:0:
192,192,247581,1,0,0:0:0:0:
64,192,247745,1,0,0:0:0:0:
320,192,247912,1,0,0:0:0:0:
64,192,248082,1,0,0:0:0:0:
448,192,248082,1,0,0:0:0:0:
320,192,248163,1,0,0:0:0:0:
192,192,248245,1,0,0:0:0:0:
320,192,248327,128,0,248491:0:0:0:0:
64,192,248491,1,0,0:0:0:0:
192,192,248573,1,0,0:0:0:0:
320,192,248573,1,0,0:0:0:0:
448,192,248655,128,0,248818:0:0:0:0:
192,192,248818,1,0,0:0:0:0:
64,192,248900,1,0,0:0:0:0:
64,192,249063,1,0,0:0:0:0:
320,192,249063,1,0,0:0:0:0:
448,192,249144,1,0,0:0:0:0:
192,192,249226,1,0,0:0:0:0:
448,192,249307,128,0,249470:0:0:0:0:
192,192,249470,1,0,0:0:0:0:
64,192,249551,1,0,0:0:0:0:
192,192,249714,1,0,0:0:0:0:
320,192,249795,1,0,0:0:0:0:
448,192,249876,1,0,0:0:0:0:
320,192,249958,1,0,0:0:0:0:
192,192,250039,1,0,0:0:0:0:
320,192,250120,1,0,0:0:0:0:
448,192,250201,1,0,0:0:0:0:
192,192,250282,1,0,0:0:0:0:
64,192,250364,1,0,0:0:0:0:
192,192,250445,1,0,0:0:0:0:
320,192,250526,1,0,0:0:0:0:
448,192,250607,1,0,0:0:0:0:
64,192,250688,1,0,0:0:0:0:
192,192,250688,1,0,0:0:0:0:
320,192,250769,1,0,0:0:0:0:
192,192,250850,1,0,0:0:0:0:
64,192,250931,128,0,251088:0:0:0:0:
192,192,251088,1,0,0:0:0:0:
320,192,251169,1,0,0:0:0:0:
448,192,251250,128,0,251413:0:0:0:0:
320,192,251413,1,0,0:0:0:0:
192,192,251494,1,0,0:0:0:0:
320,192,251656,1,0,0:0:0:0:
64,192,251737,1,0,0:0:0:0:
192,192,251818,1,0,0:0:0:0:
320,192,251899,1,0,0:0:0:0:
64,192,251981,1,0,0:0:0:0:
192,192,252061,1,0,0:0:0:0:
448,192,252142,128,0,252298:0:0:0:0:
192,192,252298,1,0,0:0:0:0:
320,192,252378,128,0,252539:0:0:0:0:
64,192,252539,1,0,0:0:0:0:
448,192,252620,128,0,252782:0:0:0:0:
320,192,252782,128,0,252943:0:0:0:0:
192,192,252943,128,0,253104:0:0:0:0:
320,192,253104,1,0,0:0:0:0:
448,192,253185,1,0,0:0:0:0:
64,192,253266,1,0,0:0:0:0:
192,192,253266,1,0,0:0:0:0:
320,192,253346,1,0,0:0:0:0:
64,192,253426,1,0,0:0:0:0:
64,192,253507,1,0,0:0:0:0:
320,192,253588,1,0,0:0:0:0:
448,192,253588,1,0,0:0:0:0:
64,192,253668,1,0,0:0:0:0:
448,192,253748,1,0,0:0:0:0:
192,192,253748,1,0,0:0:0:0:
448,192,253828,1,0,0:0:0:0:
192,192,253909,1,0,0:0:0:0:
64,192,253909,1,0,0:0:0:0:
320,192,253995,1,0,0:0:0:0:
192,192,254075,1,0,0:0:0:0:
192,192,254155,1,0,0:0:0:0:
448,192,254235,1,0,0:0:0:0:
320,192,254235,1,0,0:0:0:0:
64,192,254315,1,0,0:0:0:0:
320,192,254395,1,0,0:0:0:0:
320,192,254475,1,0,0:0:0:0:
192,192,254554,1,0,0:0:0:0:
64,192,254554,1,0,0:0:0:0:
448,192,254634,1,0,0:0:0:0:
64,192,254714,1,0,0:0:0:0:
64,192,254794,1,0,0:0:0:0:
320,192,254874,1,0,0:0:0:0:
448,192,254874,1,0,0:0:0:0:
192,192,254953,1,0,0:0:0:0:
320,192,255033,1,0,0:0:0:0:
320,192,255113,1,0,0:0:0:0:
64,192,255193,1,0,0:0:0:0:
448,192,255193,1,0,0:0:0:0:
192,192,255272,1,0,0:0:0:0:
448,192,255352,1,0,0:0:0:0:
448,192,255432,1,0,0:0:0:0:
64,192,255512,1,0,0:0:0:0:
320,192,255512,1,0,0:0:0:0:
192,192,255591,1,0,0:0:0:0:
64,192,255671,1,0,0:0:0:0:
64,192,255751,1,0,0:0:0:0:
448,192,255830,1,0,0:0:0:0:
320,192,255830,1,0,0:0:0:0:
192,192,255915,1,0,0:0:0:0:
64,192,255995,1,0,0:0:0:0:
64,192,256074,128,0,256239:0:0:0:0:
192,192,256160,1,0,0:0:0:0:
448,192,256160,1,0,0:0:0:0:
320,192,256239,1,0,0:0:0:0:
448,192,256319,1,0,0:0:0:0:
64,192,256319,1,0,0:0:0:0:
448,192,256398,1,0,0:0:0:0:
192,192,256478,1,0,0:0:0:0:
64,192,256478,1,0,0:0:0:0:
320,192,256557,1,0,0:0:0:0:
448,192,256636,1,0,0:0:0:0:
448,192,256716,128,0,256871:0:0:0:0:
64,192,256792,1,0,0:0:0:0:
320,192,256792,1,0,0:0:0:0:
192,192,256871,1,0,0:0:0:0:
64,192,256950,1,0,0:0:0:0:
64,192,257030,1,0,0:0:0:0:
320,192,257106,1,0,0:0:0:0:
192,192,257106,1,0,0:0:0:0:
64,192,257185,1,0,0:0:0:0:
448,192,257185,1,0,0:0:0:0:
192,192,257264,1,0,0:0:0:0:
320,192,257264,1,0,0:0:0:0:
448,192,257343,128,0,257735:0:0:0:0:
64,192,257343,128,0,257419:0:0:0:0:
320,192,257419,1,0,0:0:0:0:
192,192,257419,1,0,0:0:0:0:
64,192,257498,128,0,257577:0:0:0:0:
192,192,257577,128,0,257656:0:0:0:0:
320,192,257656,128,0,257735:0:0:0:0:
192,192,257735,1,0,0:0:0:0:
64,192,257735,1,0,0:0:0:0:
192,192,257897,1,0,0:0:0:0:
64,192,257897,1,0,0:0:0:0:
64,192,257976,1,0,0:0:0:0:
192,192,257976,1,0,0:0:0:0:
320,192,258048,1,0,0:0:0:0:
448,192,258048,1,0,0:0:0:0:
320,192,258127,1,0,0:0:0:0:
448,192,258127,1,0,0:0:0:0:
192,192,258206,1,0,0:0:0:0:
64,192,258206,1,0,0:0:0:0:
64,192,258285,1,0,0:0:0:0:
192,192,258285,1,0,0:0:0:0:
320,192,258361,128,0,258676:0:0:0:0:
448,192,258361,1,0,0:0:0:0:
64,192,258676,1,0,0:0:0:0:
64,192,258834,1,0,0:0:0:0:
64,192,258992,1,0,0:0:0:0:
448,192,259150,128,0,259308:0:0:0:0:
64,192,259308,1,0,0:0:0:0:
320,192,259466,128,0,259782:0:0:0:0:
64,192,259782,1,0,0:0:0:0:
64,192,259939,1,0,0:0:0:0:
192,192,260097,128,0,260413:0:0:0:0:
64,192,260413,1,0,0:0:0:0:
64,192,260571,1,0,0:0:0:0:
64,192,260729,1,0,0:0:0:0:
320,192,260887,128,0,261203:0:0:0:0:
64,192,261203,1,0,0:0:0:0:
64,192,261361,1,0,0:0:0:0:
64,192,261518,1,0,0:0:0:0:
448,192,261676,128,0,261834:0:0:0:0:
64,192,261834,1,0,0:0:0:0:
320,192,261992,128,0,262308:0:0:0:0:
192,192,262150,1,0,0:0:0:0:
448,192,262150,1,0,0:0:0:0:
64,192,262308,1,0,0:0:0:0:
64,192,262466,1,0,0:0:0:0:
448,192,262466,1,0,0:0:0:0:
192,192,262624,128,0,262939:0:0:0:0:
448,192,262782,1,0,0:0:0:0:
320,192,262782,1,0,0:0:0:0:
64,192,262939,1,0,0:0:0:0:
448,192,263097,128,0,263176:0:0:0:0:
192,192,263097,1,0,0:0:0:0:
448,192,263255,128,0,263334:0:0:0:0:
64,192,263413,1,0,0:0:0:0:
192,192,263413,1,0,0:0:0:0:
320,192,263413,128,0,263650:0:0:0:0:
64,192,263650,1,0,0:0:0:0:
192,192,263729,1,0,0:0:0:0:
448,192,263729,1,0,0:0:0:0:
64,192,263887,1,0,0:0:0:0:
320,192,263887,1,0,0:0:0:0:
192,192,264045,1,0,0:0:0:0:
448,192,264045,1,0,0:0:0:0:
192,192,264124,1,0,0:0:0:0:
448,192,264203,128,0,264361:0:0:0:0:
64,192,264203,1,0,0:0:0:0:
192,192,264361,1,0,0:0:0:0:
320,192,264361,1,0,0:0:0:0:
320,192,264518,128,0,264834:0:0:0:0:
64,192,264518,1,0,0:0:0:0:
448,192,264597,1,0,0:0:0:0:
192,192,264676,1,0,0:0:0:0:
64,192,264676,1,0,0:0:0:0:
192,192,264834,1,0,0:0:0:0:
64,192,264913,1,0,0:0:0:0:
448,192,264992,1,0,0:0:0:0:
320,192,264992,1,0,0:0:0:0:
192,192,265150,128,0,265466:0:0:0:0:
64,192,265150,1,0,0:0:0:0:
320,192,265308,1,0,0:0:0:0:
320,192,265387,1,0,0:0:0:0:
64,192,265466,1,0,0:0:0:0:
448,192,265466,1,0,0:0:0:0:
320,192,265545,1,0,0:0:0:0:
64,192,265624,1,0,0:0:0:0:
192,192,265624,1,0,0:0:0:0:
320,192,265782,1,0,0:0:0:0:
192,192,265782,1,0,0:0:0:0:
448,192,265939,1,0,0:0:0:0:
320,192,265939,128,0,266176:0:0:0:0:
64,192,266176,1,0,0:0:0:0:
192,192,266255,1,0,0:0:0:0:
448,192,266255,1,0,0:0:0:0:
64,192,266413,1,0,0:0:0:0:
320,192,266413,1,0,0:0:0:0:
192,192,266571,1,0,0:0:0:0:
448,192,266571,1,0,0:0:0:0:
192,192,266650,1,0,0:0:0:0:
448,192,266729,128,0,266887:0:0:0:0:
64,192,266729,1,0,0:0:0:0:
192,192,266887,1,0,0:0:0:0:
320,192,266887,1,0,0:0:0:0:
320,192,267045,128,0,267361:0:0:0:0:
64,192,267045,1,0,0:0:0:0:
448,192,267124,1,0,0:0:0:0:
192,192,267203,1,0,0:0:0:0:
64,192,267203,1,0,0:0:0:0:
192,192,267361,1,0,0:0:0:0:
64,192,267439,1,0,0:0:0:0:
448,192,267518,1,0,0:0:0:0:
320,192,267518,1,0,0:0:0:0:
192,192,267676,128,0,267992:0:0:0:0:
64,192,267676,1,0,0:0:0:0:
320,192,267834,1,0,0:0:0:0:
320,192,267913,1,0,0:0:0:0:
64,192,267992,1,0,0:0:0:0:
448,192,267992,1,0,0:0:0:0:
192,192,268071,1,0,0:0:0:0:
448,192,268150,128,0,268229:0:0:0:0:
320,192,268150,128,0,268229:0:0:0:0:
320,192,268308,128,0,268387:0:0:0:0:
448,192,268308,128,0,268387:0:0:0:0:
64,192,268466,128,0,268861:0:0:0:0:
192,192,268466,128,0,268861:0:0:0:0:
320,192,268466,1,0,0:0:0:0:
192,192,268939,128,0,269334:0:0:0:0:
320,192,268939,128,0,269334:0:0:0:0:
320,192,269413,128,0,270992:0:0:0:0:
448,192,269413,128,0,270992:0:0:0:0:
64,192,269729,1,0,0:0:0:0:
64,192,270045,1,0,0:0:0:0:
64,192,270361,1,0,0:0:0:0:
64,192,270676,1,0,0:0:0:0:
64,192,270992,128,0,271387:0:0:0:0:
192,192,270992,128,0,271387:0:0:0:0:
192,192,271466,128,0,271861:0:0:0:0:
320,192,271466,128,0,271861:0:0:0:0:
320,192,271939,128,0,273045:0:0:0:0:
448,192,271939,128,0,273045:0:0:0:0:
64,192,272255,1,0,0:0:0:0:
64,192,272571,1,0,0:0:0:0:
64,192,272887,1,0,0:0:0:0:
192,192,273045,1,0,0:0:0:0:
320,192,273124,1,0,0:0:0:0:
192,192,273203,1,0,0:0:0:0:
64,192,273203,1,0,0:0:0:0:
192,192,273282,1,0,0:0:0:0:
64,192,273282,1,0,0:0:0:0:
320,192,273361,1,0,0:0:0:0:
448,192,273361,1,0,0:0:0:0:
320,192,273439,1,0,0:0:0:0:
448,192,273439,1,0,0:0:0:0:
64,192,273518,128,0,273913:0:0:0:0:
192,192,273518,128,0,273913:0:0:0:0:
192,192,273992,128,0,274387:0:0:0:0:
320,192,273992,128,0,274387:0:0:0:0:
320,192,274466,128,0,276045:0:0:0:0:
448,192,274466,128,0,276045:0:0:0:0:
64,192,274782,1,0,0:0:0:0:
64,192,275097,1,0,0:0:0:0:
64,192,275413,1,0,0:0:0:0:
64,192,275729,1,0,0:0:0:0:
64,192,276045,128,0,276439:0:0:0:0:
192,192,276045,128,0,276439:0:0:0:0:
192,192,276518,128,0,276913:0:0:0:0:
320,192,276518,128,0,276913:0:0:0:0:
320,192,276992,128,0,277308:0:0:0:0:
448,192,276992,128,0,277545:0:0:0:0:
192,192,277308,1,0,0:0:0:0:
64,192,277308,1,0,0:0:0:0:
320,192,277387,1,0,0:0:0:0:
64,192,277466,1,0,0:0:0:0:
192,192,277545,1,0,0:0:0:0:
64,192,277624,1,0,0:0:0:0:
448,192,277624,1,0,0:0:0:0:
320,192,277703,1,0,0:0:0:0:
192,192,277782,1,0,0:0:0:0:
448,192,277861,1,0,0:0:0:0:
192,192,277939,1,0,0:0:0:0:
64,192,277939,1,0,0:0:0:0:
320,192,278018,1,0,0:0:0:0:
192,192,278097,1,0,0:0:0:0:
320,192,278176,1,0,0:0:0:0:
192,192,278255,1,0,0:0:0:0:
64,192,278255,1,0,0:0:0:0:
320,192,278334,1,0,0:0:0:0:
448,192,278334,1,0,0:0:0:0:
192,192,278413,1,0,0:0:0:0:
64,192,278413,1,0,0:0:0:0:
320,192,278492,1,0,0:0:0:0:
448,192,278492,1,0,0:0:0:0:
192,192,278571,1,0,0:0:0:0:
64,192,278571,1,0,0:0:0:0:
64,192,278650,1,0,0:0:0:0:
320,192,278729,1,0,0:0:0:0:
192,192,278808,1,0,0:0:0:0:
320,192,278887,1,0,0:0:0:0:
448,192,278887,1,0,0:0:0:0:
448,192,278965,1,0,0:0:0:0:
192,192,279044,1,0,0:0:0:0:
320,192,279122,1,0,0:0:0:0:
192,192,279201,1,0,0:0:0:0:
64,192,279201,1,0,0:0:0:0:
64,192,279279,1,0,0:0:0:0:
320,192,279357,1,0,0:0:0:0:
192,192,279435,1,0,0:0:0:0:
320,192,279513,1,0,0:0:0:0:
448,192,279513,1,0,0:0:0:0:
448,192,279590,1,0,0:0:0:0:
192,192,279668,1,0,0:0:0:0:
320,192,279746,1,0,0:0:0:0:
192,192,279824,1,0,0:0:0:0:
64,192,279824,1,0,0:0:0:0:
192,192,279901,1,0,0:0:0:0:
320,192,279978,1,0,0:0:0:0:
64,192,280056,1,0,0:0:0:0:
320,192,280133,1,0,0:0:0:0:
448,192,280133,1,0,0:0:0:0:
320,192,280209,1,0,0:0:0:0:
192,192,280286,1,0,0:0:0:0:
448,192,280363,1,0,0:0:0:0:
192,192,280440,1,0,0:0:0:0:
64,192,280440,1,0,0:0:0:0:
192,192,280516,1,0,0:0:0:0:
320,192,280593,1,0,0:0:0:0:
64,192,280669,1,0,0:0:0:0:
320,192,280746,1,0,0:0:0:0:
448,192,280746,1,0,0:0:0:0:
320,192,280822,1,0,0:0:0:0:
192,192,280898,1,0,0:0:0:0:
448,192,280974,1,0,0:0:0:0:
192,192,281050,1,0,0:0:0:0:
64,192,281050,1,0,0:0:0:0:
64,192,281125,1,0,0:0:0:0:
448,192,281201,1,0,0:0:0:0:
192,192,281277,1,0,0:0:0:0:
320,192,281353,1,0,0:0:0:0:
448,192,281353,1,0,0:0:0:0:
448,192,281428,1,0,0:0:0:0:
64,192,281503,1,0,0:0:0:0:
320,192,281579,1,0,0:0:0:0:
192,192,281654,1,0,0:0:0:0:
64,192,281654,1,0,0:0:0:0:
64,192,281729,1,0,0:0:0:0:
448,192,281804,1,0,0:0:0:0:
192,192,281879,1,0,0:0:0:0:
320,192,281954,1,0,0:0:0:0:
448,192,281954,1,0,0:0:0:0:
448,192,282028,1,0,0:0:0:0:
64,192,282103,1,0,0:0:0:0:
320,192,282178,1,0,0:0:0:0:
192,192,282253,1,0,0:0:0:0:
64,192,282253,1,0,0:0:0:0:
192,192,282327,1,0,0:0:0:0:
448,192,282401,1,0,0:0:0:0:
192,192,282476,1,0,0:0:0:0:
320,192,282550,1,0,0:0:0:0:
448,192,282550,1,0,0:0:0:0:
320,192,282624,1,0,0:0:0:0:
64,192,282698,1,0,0:0:0:0:
320,192,282772,1,0,0:0:0:0:
192,192,282846,1,0,0:0:0:0:
64,192,282846,1,0,0:0:0:0:
192,192,282919,1,0,0:0:0:0:
448,192,282993,1,0,0:0:0:0:
192,192,283067,1,0,0:0:0:0:
320,192,283140,1,0,0:0:0:0:
448,192,283140,1,0,0:0:0:0:
320,192,283213,1,0,0:0:0:0:
64,192,283286,1,0,0:0:0:0:
320,192,283360,1,0,0:0:0:0:
64,192,283433,1,0,0:0:0:0:
192,192,283433,1,0,0:0:0:0:
448,192,283469,1,0,0:0:0:0:
320,192,283506,1,0,0:0:0:0:
192,192,283542,1,0,0:0:0:0:
64,192,283579,1,0,0:0:0:0:
320,192,283615,1,0,0:0:0:0:
448,192,283652,1,0,0:0:0:0:
64,192,283688,1,0,0:0:0:0:
192,192,283725,1,0,0:0:0:0:
320,192,283725,1,0,0:0:0:0:
448,192,283761,1,0,0:0:0:0:
64,192,283797,1,0,0:0:0:0:
192,192,283834,1,0,0:0:0:0:
448,192,283870,1,0,0:0:0:0:
320,192,283906,1,0,0:0:0:0:
192,192,283943,1,0,0:0:0:0:
64,192,283979,1,0,0:0:0:0:
320,192,284015,1,0,0:0:0:0:
448,192,284015,1,0,0:0:0:0:
192,192,284051,1,0,0:0:0:0:
64,192,284087,1,0,0:0:0:0:
448,192,284123,1,0,0:0:0:0:
320,192,284159,1,0,0:0:0:0:
64,192,284195,1,0,0:0:0:0:
192,192,284232,1,0,0:0:0:0:
320,192,284268,1,0,0:0:0:0:
64,192,284304,1,0,0:0:0:0:
448,192,284304,1,0,0:0:0:0:
192,192,284340,1,0,0:0:0:0:
320,192,284376,1,0,0:0:0:0:
448,192,284412,1,0,0:0:0:0:
192,192,284448,1,0,0:0:0:0:
64,192,284484,1,0,0:0:0:0:
448,192,284520,1,0,0:0:0:0:
320,192,284556,1,0,0:0:0:0:
192,192,284592,1,0,0:0:0:0:
64,192,284592,1,0,0:0:0:0:
448,192,284627,1,0,0:0:0:0:
320,192,284663,1,0,0:0:0:0:
192,192,284699,1,0,0:0:0:0:
64,192,284735,1,0,0:0:0:0:
448,192,284735,1,0,0:0:0:0:
320,192,284771,1,0,0:0:0:0:
192,192,284807,1,0,0:0:0:0:
64,192,284842,1,0,0:0:0:0:
320,192,284878,1,0,0:0:0:0:
448,192,284878,1,0,0:0:0:0:
64,192,284913,1,0,0:0:0:0:
192,192,284949,1,0,0:0:0:0:
320,192,284985,1,0,0:0:0:0:
448,192,285020,1,0,0:0:0:0:
64,192,285020,1,0,0:0:0:0:
192,192,285056,1,0,0:0:0:0:
320,192,285092,1,0,0:0:0:0:
448,192,285127,1,0,0:0:0:0:
192,192,285163,1,0,0:0:0:0:
64,192,285163,1,0,0:0:0:0:
448,192,285198,1,0,0:0:0:0:
320,192,285234,1,0,0:0:0:0:
192,192,285269,1,0,0:0:0:0:
64,192,285305,1,0,0:0:0:0:
448,192,285305,1,0,0:0:0:0:
320,192,285340,1,0,0:0:0:0:
192,192,285376,1,0,0:0:0:0:
64,192,285411,1,0,0:0:0:0:
320,192,285447,1,0,0:0:0:0:
448,192,285447,1,0,0:0:0:0:
64,192,285482,1,0,0:0:0:0:
192,192,285517,1,0,0:0:0:0:
320,192,285553,1,0,0:0:0:0:
448,192,285588,1,0,0:0:0:0:
64,192,285588,1,0,0:0:0:0:
192,192,285623,1,0,0:0:0:0:
320,192,285659,1,0,0:0:0:0:
448,192,285694,1,0,0:0:0:0:
64,192,285729,128,0,285799:0:0:0:0:
192,192,285729,128,0,285869:0:0:0:0:
320,192,285799,128,0,285940:0:0:0:0:
64,192,285869,1,0,0:0:0:0:
448,192,285869,128,0,285940:0:0:0:0:
192,192,285940,1,0,0:0:0:0:
320,192,286010,128,0,286150:0:0:0:0:
448,192,286010,128,0,286080:0:0:0:0:
192,192,286080,128,0,286220:0:0:0:0:
448,192,286150,1,0,0:0:0:0:
64,192,286150,128,0,286220:0:0:0:0:
320,192,286220,1,0,0:0:0:0:
64,192,286290,128,0,286359:0:0:0:0:
192,192,286290,128,0,286429:0:0:0:0:
320,192,286359,128,0,286499:0:0:0:0:
64,192,286429,1,0,0:0:0:0:
448,192,286429,128,0,286499:0:0:0:0:
192,192,286499,1,0,0:0:0:0:
448,192,286568,128,0,286637:0:0:0:0:
320,192,286568,128,0,286706:0:0:0:0:
192,192,286637,128,0,286776:0:0:0:0:
448,192,286706,1,0,0:0:0:0:
64,192,286706,128,0,286776:0:0:0:0:
320,192,286776,1,0,0:0:0:0:
192,192,286845,1,0,0:0:0:0:
64,192,286845,1,0,0:0:0:0:
64,192,286991,128,0,287060:0:0:0:0:
192,192,287129,128,0,287198:0:0:0:0:
320,192,287267,128,0,287336:0:0:0:0:
448,192,287405,128,0,287475:0:0:0:0:
64,192,287405,1,0,0:0:0:0:
320,192,287475,1,0,0:0:0:0:
192,192,287544,128,0,287613:0:0:0:0:
448,192,287613,1,0,0:0:0:0:
320,192,287682,128,0,287751:0:0:0:0:
64,192,287682,1,0,0:0:0:0:
192,192,287751,1,0,0:0:0:0:
448,192,287820,128,0,287889:0:0:0:0:
64,192,287889,1,0,0:0:0:0:
448,192,287958,1,0,0:0:0:0:
192,192,287958,1,0,0:0:0:0:
320,192,287958,1,0,0:0:0:0:
192,192,288028,1,0,0:0:0:0:
64,192,288028,1,0,0:0:0:0:
448,192,288097,1,0,0:0:0:0:
320,192,288097,1,0,0:0:0:0:
192,192,288166,1,0,0:0:0:0:
64,192,288166,1,0,0:0:0:0:
448,192,288235,1,0,0:0:0:0:
320,192,288304,1,0,0:0:0:0:
192,192,288304,1,0,0:0:0:0:
64,192,288373,1,0,0:0:0:0:
448,192,288373,1,0,0:0:0:0:
192,192,288442,1,0,0:0:0:0:
320,192,288442,1,0,0:0:0:0:
64,192,288511,1,0,0:0:0:0:
320,192,288581,1,0,0:0:0:0:
448,192,288581,1,0,0:0:0:0:
192,192,288650,1,0,0:0:0:0:
64,192,288650,1,0,0:0:0:0:
448,192,288719,1,0,0:0:0:0:
192,192,288788,1,0,0:0:0:0:
320,192,288788,1,0,0:0:0:0:
64,192,288857,1,0,0:0:0:0:
448,192,288857,1,0,0:0:0:0:
320,192,288926,1,0,0:0:0:0:
192,192,288926,1,0,0:0:0:0:
64,192,288995,1,0,0:0:0:0:
448,192,288995,1,0,0:0:0:0:
320,192,289064,1,0,0:0:0:0:
192,192,289134,1,0,0:0:0:0:
64,192,289134,1,0,0:0:0:0:
448,192,289203,1,0,0:0:0:0:
320,192,289203,1,0,0:0:0:0:
192,192,289272,1,0,0:0:0:0:
64,192,289341,1,0,0:0:0:0:
448,192,289341,1,0,0:0:0:0:
320,192,289410,1,0,0:0:0:0:
192,192,289410,1,0,0:0:0:0:
64,192,289479,1,0,0:0:0:0:
448,192,289479,1,0,0:0:0:0:
320,192,289548,1,0,0:0:0:0:
192,192,289617,1,0,0:0:0:0:
64,192,289617,1,0,0:0:0:0:
448,192,289687,1,0,0:0:0:0:
320,192,289687,1,0,0:0:0:0:
192,192,289756,1,0,0:0:0:0:
64,192,289756,1,0,0:0:0:0:
448,192,289825,1,0,0:0:0:0:
192,192,289894,1,0,0:0:0:0:
320,192,289894,1,0,0:0:0:0:
64,192,289963,1,0,0:0:0:0:
448,192,289963,1,0,0:0:0:0:
192,192,290032,1,0,0:0:0:0:
320,192,290032,1,0,0:0:0:0:
64,192,290101,1,0,0:0:0:0:
448,192,290170,1,0,0:0:0:0:
320,192,290170,1,0,0:0:0:0:
64,192,290240,1,0,0:0:0:0:
320,192,290240,1,0,0:0:0:0:
192,192,290309,1,0,0:0:0:0:
448,192,290309,1,0,0:0:0:0:
64,192,290378,1,0,0:0:0:0:
320,192,290378,1,0,0:0:0:0:
192,192,290447,1,0,0:0:0:0:
448,192,290516,1,0,0:0:0:0:
320,192,290516,1,0,0:0:0:0:
192,192,290585,1,0,0:0:0:0:
64,192,290585,1,0,0:0:0:0:
320,192,290654,1,0,0:0:0:0:
448,192,290654,1,0,0:0:0:0:
64,192,290723,1,0,0:0:0:0:
192,192,290793,1,0,0:0:0:0:
448,192,290793,1,0,0:0:0:0:
320,192,290862,1,0,0:0:0:0:
64,192,290862,1,0,0:0:0:0:
448,192,290931,1,0,0:0:0:0:
192,192,291000,1,0,0:0:0:0:
64,192,291000,1,0,0:0:0:0:
448,192,291069,1,0,0:0:0:0:
320,192,291069,1,0,0:0:0:0:
64,192,291138,1,0,0:0:0:0:
192,192,291138,1,0,0:0:0:0:
320,192,291207,1,0,0:0:0:0:
448,192,291207,1,0,0:0:0:0:
64,192,291276,1,0,0:0:0:0:
192,192,291346,1,0,0:0:0:0:
320,192,291346,1,0,0:0:0:0:
320,192,291415,1,0,0:0:0:0:
448,192,291415,1,0,0:0:0:0:
64,192,291553,1,0,0:0:0:0:
192,192,291553,1,0,0:0:0:0:
192,192,291622,1,0,0:0:0:0:
320,192,291622,1,0,0:0:0:0:
448,192,291691,1,0,0:0:0:0:
64,192,291760,1,0,0:0:0:0:
192,192,291760,1,0,0:0:0:0:
320,192,291829,1,0,0:0:0:0:
448,192,291829,1,0,0:0:0:0:
192,192,291899,1,0,0:0:0:0:
448,192,291968,1,0,0:0:0:0:
320,192,291968,1,0,0:0:0:0:
64,192,292037,1,0,0:0:0:0:
320,192,292106,1,0,0:0:0:0:
192,192,292106,1,0,0:0:0:0:
64,192,292175,1,0,0:0:0:0:
320,192,292244,1,0,0:0:0:0:
448,192,292244,1,0,0:0:0:0:
192,192,292313,1,0,0:0:0:0:
64,192,292382,1,0,0:0:0:0:
448,192,292382,1,0,0:0:0:0:
320,192,292452,1,0,0:0:0:0:
448,192,292452,1,0,0:0:0:0:
64,192,292521,1,0,0:0:0:0:
192,192,292521,1,0,0:0:0:0:
320,192,292590,1,0,0:0:0:0:
448,192,292590,1,0,0:0:0:0:
64,192,292659,1,0,0:0:0:0:
192,192,292728,1,0,0:0:0:0:
320,192,292728,1,0,0:0:0:0:
448,192,292797,1,0,0:0:0:0:
64,192,292797,1,0,0:0:0:0:
320,192,292866,1,0,0:0:0:0:
192,192,292866,1,0,0:0:0:0:
448,192,292935,1,0,0:0:0:0:
192,192,293005,1,0,0:0:0:0:
64,192,293005,1,0,0:0:0:0:
320,192,293074,1,0,0:0:0:0:
448,192,293074,1,0,0:0:0:0:
64,192,293143,1,0,0:0:0:0:
320,192,293212,1,0,0:0:0:0:
192,192,293212,1,0,0:0:0:0:
448,192,293281,1,0,0:0:0:0:
64,192,293281,1,0,0:0:0:0:
192,192,293350,1,0,0:0:0:0:
320,192,293350,1,0,0:0:0:0:
448,192,293419,1,0,0:0:0:0:
64,192,293419,1,0,0:0:0:0:
192,192,293488,1,0,0:0:0:0:
320,192,293558,1,0,0:0:0:0:
448,192,293558,1,0,0:0:0:0:
64,192,293627,1,0,0:0:0:0:
192,192,293627,1,0,0:0:0:0:
320,192,293696,1,0,0:0:0:0:
448,192,293765,1,0,0:0:0:0:
64,192,293765,1,0,0:0:0:0:
192,192,293834,1,0,0:0:0:0:
320,192,293834,1,0,0:0:0:0:
448,192,293903,1,0,0:0:0:0:
64,192,293903,1,0,0:0:0:0:
192,192,293972,1,0,0:0:0:0:
320,192,294041,1,0,0:0:0:0:
448,192,294041,1,0,0:0:0:0:
64,192,294111,1,0,0:0:0:0:
192,192,294111,1,0,0:0:0:0:
320,192,294180,1,0,0:0:0:0:
448,192,294180,1,0,0:0:0:0:
64,192,294249,1,0,0:0:0:0:
320,192,294318,1,0,0:0:0:0:
192,192,294318,1,0,0:0:0:0:
448,192,294387,1,0,0:0:0:0:
64,192,294387,1,0,0:0:0:0:
320,192,294456,1,0,0:0:0:0:
192,192,294456,1,0,0:0:0:0:
448,192,294525,1,0,0:0:0:0:
64,192,294594,1,0,0:0:0:0:
192,192,294594,1,0,0:0:0:0:
192,192,294664,1,0,0:0:0:0:
320,192,294664,1,0,0:0:0:0:
64,192,294733,1,0,0:0:0:0:
448,192,294733,1,0,0:0:0:0:
192,192,294802,1,0,0:0:0:0:
320,192,294802,1,0,0:0:0:0:
448,192,294871,1,0,0:0:0:0:
64,192,294940,1,0,0:0:0:0:
192,192,295009,1,0,0:0:0:0:
64,192,295078,1,0,0:0:0:0:
448,192,295147,1,0,0:0:0:0:
320,192,295147,1,0,0:0:0:0:
320,192,295217,1,0,0:0:0:0:
192,192,295217,1,0,0:0:0:0:
448,192,295286,1,0,0:0:0:0:
64,192,295286,1,0,0:0:0:0:
320,192,295355,1,0,0:0:0:0:
192,192,295355,1,0,0:0:0:0:
64,192,295424,1,0,0:0:0:0:
448,192,295493,1,0,0:0:0:0:
320,192,295562,1,0,0:0:0:0:
448,192,295631,1,0,0:0:0:0:
192,192,295700,1,0,0:0:0:0:
64,192,295700,1,0,0:0:0:0:
320,192,295700,1,0,0:0:0:0:
320,192,295770,1,0,0:0:0:0:
448,192,295770,1,0,0:0:0:0:
64,192,295839,1,0,0:0:0:0:
192,192,295839,1,0,0:0:0:0:
320,192,295908,1,0,0:0:0:0:
448,192,295908,1,0,0:0:0:0:
64,192,295977,1,0,0:0:0:0:
192,192,296046,1,0,0:0:0:0:
320,192,296046,1,0,0:0:0:0:
448,192,296115,1,0,0:0:0:0:
64,192,296115,1,0,0:0:0:0:
192,192,296184,1,0,0:0:0:0:
448,192,296253,1,0,0:0:0:0:
320,192,296253,1,0,0:0:0:0:
192,192,296323,1,0,0:0:0:0:
448,192,296392,1,0,0:0:0:0:
320,192,296392,1,0,0:0:0:0:
64,192,296461,1,0,0:0:0:0:
320,192,296530,1,0,0:0:0:0:
192,192,296530,1,0,0:0:0:0:
448,192,296599,1,0,0:0:0:0:
64,192,296599,1,0,0:0:0:0:
192,192,296668,1,0,0:0:0:0:
320,192,296668,1,0,0:0:0:0:
64,192,296737,1,0,0:0:0:0:
320,192,296806,1,0,0:0:0:0:
448,192,296806,1,0,0:0:0:0:
192,192,296806,1,0,0:0:0:0:
64,192,296876,1,0,0:0:0:0:
192,192,296876,1,0,0:0:0:0:
448,192,296945,1,0,0:0:0:0:
320,192,296945,1,0,0:0:0:0:
192,192,297014,1,0,0:0:0:0:
64,192,297014,1,0,0:0:0:0:
448,192,297083,1,0,0:0:0:0:
320,192,297152,1,0,0:0:0:0:
192,192,297152,1,0,0:0:0:0:
64,192,297221,1,0,0:0:0:0:
448,192,297221,1,0,0:0:0:0:
192,192,297290,1,0,0:0:0:0:
320,192,297290,1,0,0:0:0:0:
64,192,297359,1,0,0:0:0:0:
320,192,297429,1,0,0:0:0:0:
448,192,297429,1,0,0:0:0:0:
192,192,297498,1,0,0:0:0:0:
64,192,297498,1,0,0:0:0:0:
448,192,297567,1,0,0:0:0:0:
192,192,297636,1,0,0:0:0:0:
320,192,297636,1,0,0:0:0:0:
64,192,297705,1,0,0:0:0:0:
448,192,297705,1,0,0:0:0:0:
320,192,297774,1,0,0:0:0:0:
192,192,297774,1,0,0:0:0:0:
64,192,297843,1,0,0:0:0:0:
448,192,297843,1,0,0:0:0:0:
320,192,297912,1,0,0:0:0:0:
192,192,297982,1,0,0:0:0:0:
64,192,297982,1,0,0:0:0:0:
448,192,298051,1,0,0:0:0:0:
320,192,298051,1,0,0:0:0:0:
192,192,298120,1,0,0:0:0:0:
64,192,298189,1,0,0:0:0:0:
448,192,298189,1,0,0:0:0:0:
320,192,298258,1,0,0:0:0:0:
192,192,298258,1,0,0:0:0:0:
64,192,298327,1,0,0:0:0:0:
448,192,298327,1,0,0:0:0:0:
320,192,298396,1,0,0:0:0:0:
192,192,298465,1,0,0:0:0:0:
64,192,298465,1,0,0:0:0:0:
448,192,298535,1,0,0:0:0:0:
320,192,298535,1,0,0:0:0:0:
192,192,298604,1,0,0:0:0:0:
64,192,298604,1,0,0:0:0:0:
448,192,298673,1,0,0:0:0:0:
192,192,298742,1,0,0:0:0:0:
320,192,298742,1,0,0:0:0:0:
64,192,298811,1,0,0:0:0:0:
448,192,298811,1,0,0:0:0:0:
192,192,298880,1,0,0:0:0:0:
320,192,298880,1,0,0:0:0:0:
64,192,298949,1,0,0:0:0:0:
448,192,299018,1,0,0:0:0:0:
320,192,299018,1,0,0:0:0:0:
192,192,299018,1,0,0:0:0:0:
320,192,299157,1,0,0:0:0:0:
448,192,299226,1,0,0:0:0:0:
64,192,299226,1,0,0:0:0:0:
192,192,299226,1,0,0:0:0:0:
448,192,299364,1,0,0:0:0:0:
192,192,299433,1,0,0:0:0:0:
64,192,299433,1,0,0:0:0:0:
320,192,299433,1,0,0:0:0:0:
320,192,299571,1,0,0:0:0:0:
64,192,299641,1,0,0:0:0:0:
192,192,299641,1,0,0:0:0:0:
448,192,299641,1,0,0:0:0:0:
448,192,299779,1,0,0:0:0:0:
64,192,299848,1,0,0:0:0:0:
192,192,299848,1,0,0:0:0:0:
320,192,299848,1,0,0:0:0:0:
320,192,299986,1,0,0:0:0:0:
448,192,299986,1,0,0:0:0:0:
192,192,300055,1,0,0:0:0:0:
64,192,300055,1,0,0:0:0:0:
320,192,300124,1,0,0:0:0:0:
448,192,300124,1,0,0:0:0:0:
192,192,300124,1,0,0:0:0:0:
192,192,300263,1,0,0:0:0:0:
448,192,300332,1,0,0:0:0:0:
320,192,300332,1,0,0:0:0:0:
64,192,300332,1,0,0:0:0:0:
64,192,300470,1,0,0:0:0:0:
192,192,300539,1,0,0:0:0:0:
448,192,300539,1,0,0:0:0:0:
320,192,300539,1,0,0:0:0:0:
192,192,300677,1,0,0:0:0:0:
64,192,300747,1,0,0:0:0:0:
320,192,300747,1,0,0:0:0:0:
448,192,300747,1,0,0:0:0:0:
64,192,300885,1,0,0:0:0:0:
320,192,300954,1,0,0:0:0:0:
448,192,300954,1,0,0:0:0:0:
192,192,300954,1,0,0:0:0:0:
320,192,301023,1,0,0:0:0:0:
448,192,301023,1,0,0:0:0:0:
64,192,301092,1,0,0:0:0:0:
192,192,301092,1,0,0:0:0:0:
192,192,301161,1,0,0:0:0:0:
64,192,301161,1,0,0:0:0:0:
320,192,301230,1,0,0:0:0:0:
448,192,301230,1,0,0:0:0:0:
64,192,301300,1,0,0:0:0:0:
192,192,301369,1,0,0:0:0:0:
320,192,301369,1,0,0:0:0:0:
64,192,301438,1,0,0:0:0:0:
448,192,301438,1,0,0:0:0:0:
192,192,301507,1,0,0:0:0:0:
320,192,301507,1,0,0:0:0:0:
448,192,301576,1,0,0:0:0:0:
64,192,301645,1,0,0:0:0:0:
320,192,301645,1,0,0:0:0:0:
192,192,301714,1,0,0:0:0:0:
448,192,301714,1,0,0:0:0:0:
320,192,301783,1,0,0:0:0:0:
64,192,301783,1,0,0:0:0:0:
192,192,301853,1,0,0:0:0:0:
64,192,301922,1,0,0:0:0:0:
448,192,301922,1,0,0:0:0:0:
320,192,301991,1,0,0:0:0:0:
192,192,301991,1,0,0:0:0:0:
448,192,302060,1,0,0:0:0:0:
64,192,302060,1,0,0:0:0:0:
320,192,302129,1,0,0:0:0:0:
192,192,302198,1,0,0:0:0:0:
448,192,302198,1,0,0:0:0:0:
320,192,302267,1,0,0:0:0:0:
64,192,302267,1,0,0:0:0:0:
192,192,302336,1,0,0:0:0:0:
448,192,302336,1,0,0:0:0:0:
64,192,302405,1,0,0:0:0:0:
192,192,302475,1,0,0:0:0:0:
320,192,302475,1,0,0:0:0:0:
64,192,302544,1,0,0:0:0:0:
448,192,302544,1,0,0:0:0:0:
320,192,302613,1,0,0:0:0:0:
192,192,302613,1,0,0:0:0:0:
448,192,302682,1,0,0:0:0:0:
64,192,302751,1,0,0:0:0:0:
320,192,302751,1,0,0:0:0:0:
192,192,302820,1,0,0:0:0:0:
448,192,302820,1,0,0:0:0:0:
320,192,302889,1,0,0:0:0:0:
64,192,302889,1,0,0:0:0:0:
192,192,302958,1,0,0:0:0:0:
64,192,303028,1,0,0:0:0:0:
448,192,303028,1,0,0:0:0:0:
320,192,303097,1,0,0:0:0:0:
192,192,303097,1,0,0:0:0:0:
64,192,303166,1,0,0:0:0:0:
448,192,303166,1,0,0:0:0:0:
320,192,303235,1,0,0:0:0:0:
192,192,303304,1,0,0:0:0:0:
448,192,303304,1,0,0:0:0:0:
320,192,303373,1,0,0:0:0:0:
64,192,303373,1,0,0:0:0:0:
192,192,303442,1,0,0:0:0:0:
64,192,303442,1,0,0:0:0:0:
448,192,303488,1,0,0:0:0:0:
320,192,303535,1,0,0:0:0:0:
192,192,303581,1,0,0:0:0:0:
448,192,303627,1,0,0:0:0:0:
320,192,303673,1,0,0:0:0:0:
192,192,303719,1,0,0:0:0:0:
64,192,303765,1,0,0:0:0:0:
320,192,303857,1,0,0:0:0:0:
448,192,303857,1,0,0:0:0:0:
64,192,303903,1,0,0:0:0:0:
448,192,303949,1,0,0:0:0:0:
192,192,303995,1,0,0:0:0:0:
320,192,304041,1,0,0:0:0:0:
448,192,304088,1,0,0:0:0:0:
64,192,304134,1,0,0:0:0:0:
192,192,304180,1,0,0:0:0:0:
320,192,304226,1,0,0:0:0:0:
64,192,304272,1,0,0:0:0:0:
448,192,304272,1,0,0:0:0:0:
192,192,304410,1,0,0:0:0:0:
320,192,304456,1,0,0:0:0:0:
192,192,304502,1,0,0:0:0:0:
64,192,304548,1,0,0:0:0:0:
320,192,304594,1,0,0:0:0:0:
448,192,304641,1,0,0:0:0:0:
192,192,304687,1,0,0:0:0:0:
320,192,304733,1,0,0:0:0:0:
448,192,304779,1,0,0:0:0:0:
192,192,304825,1,0,0:0:0:0:
320,192,304871,1,0,0:0:0:0:
448,192,304917,1,0,0:0:0:0:
192,192,304963,1,0,0:0:0:0:
320,192,305009,1,0,0:0:0:0:
448,192,305055,1,0,0:0:0:0:
64,192,305101,1,0,0:0:0:0:
192,192,305170,1,0,0:0:0:0:
320,192,305240,1,0,0:0:0:0:
192,192,305309,1,0,0:0:0:0:
64,192,305378,1,0,0:0:0:0:
448,192,305378,1,0,0:0:0:0:
192,192,305447,1,0,0:0:0:0:
320,192,305516,1,0,0:0:0:0:
448,192,305585,1,0,0:0:0:0:
192,192,305654,1,0,0:0:0:0:
64,192,305654,1,0,0:0:0:0:
64,192,305793,1,0,0:0:0:0:
64,192,305931,1,0,0:0:0:0:
320,192,305931,1,0,0:0:0:0:
448,192,305931,1,0,0:0:0:0:
320,192,306069,1,0,0:0:0:0:
192,192,306069,1,0,0:0:0:0:
320,192,306207,1,0,0:0:0:0:
64,192,306346,1,0,0:0:0:0:
192,192,306346,1,0,0:0:0:0:
448,192,306484,1,0,0:0:0:0:
192,192,306484,1,0,0:0:0:0:
320,192,306484,1,0,0:0:0:0:
192,192,306622,1,0,0:0:0:0:
320,192,306760,1,0,0:0:0:0:
448,192,306760,1,0,0:0:0:0:
448,192,306899,1,0,0:0:0:0:
448,192,307037,1,0,0:0:0:0:
192,192,307037,1,0,0:0:0:0:
64,192,307037,1,0,0:0:0:0:
320,192,307175,1,0,0:0:0:0:
64,192,307175,1,0,0:0:0:0:
192,192,307244,1,0,0:0:0:0:
64,192,307313,1,0,0:0:0:0:
448,192,307382,1,0,0:0:0:0:
320,192,307452,1,0,0:0:0:0:
192,192,307452,1,0,0:0:0:0:
64,192,307521,1,0,0:0:0:0:
320,192,307590,1,0,0:0:0:0:
448,192,307590,1,0,0:0:0:0:
192,192,307590,1,0,0:0:0:0:
64,192,307659,1,0,0:0:0:0:
320,192,307728,1,0,0:0:0:0:
448,192,307797,1,0,0:0:0:0:
192,192,307866,1,0,0:0:0:0:
64,192,307866,1,0,0:0:0:0:
192,192,308005,1,0,0:0:0:0:
320,192,308074,1,0,0:0:0:0:
192,192,308143,1,0,0:0:0:0:
448,192,308143,1,0,0:0:0:0:
64,192,308143,1,0,0:0:0:0:
320,192,308281,1,0,0:0:0:0:
448,192,308281,1,0,0:0:0:0:
448,192,308419,1,0,0:0:0:0:
64,192,308488,1,0,0:0:0:0:
192,192,308558,1,0,0:0:0:0:
320,192,308558,1,0,0:0:0:0:
448,192,308627,1,0,0:0:0:0:
192,192,308696,1,0,0:0:0:0:
64,192,308696,1,0,0:0:0:0:
320,192,308696,1,0,0:0:0:0:
448,192,308765,1,0,0:0:0:0:
192,192,308834,1,0,0:0:0:0:
64,192,308903,1,0,0:0:0:0:
320,192,308972,1,0,0:0:0:0:
448,192,308972,1,0,0:0:0:0:
320,192,309111,1,0,0:0:0:0:
64,192,309249,1,0,0:0:0:0:
320,192,309249,1,0,0:0:0:0:
448,192,309249,1,0,0:0:0:0:
192,192,309387,1,0,0:0:0:0:
64,192,309387,1,0,0:0:0:0:
64,192,309525,1,0,0:0:0:0:
448,192,309594,1,0,0:0:0:0:
192,192,309594,1,0,0:0:0:0:
320,192,309664,1,0,0:0:0:0:
320,192,309802,1,0,0:0:0:0:
448,192,309802,1,0,0:0:0:0:
192,192,309802,1,0,0:0:0:0:
448,192,309940,1,0,0:0:0:0:
64,192,309940,1,0,0:0:0:0:
320,192,310009,1,0,0:0:0:0:
192,192,310078,1,0,0:0:0:0:
64,192,310078,1,0,0:0:0:0:
192,192,310217,1,0,0:0:0:0:
64,192,310355,1,0,0:0:0:0:
192,192,310355,1,0,0:0:0:0:
448,192,310355,1,0,0:0:0:0:
320,192,310493,1,0,0:0:0:0:
448,192,310493,1,0,0:0:0:0:
448,192,310631,1,0,0:0:0:0:
192,192,310770,1,0,0:0:0:0:
64,192,310770,1,0,0:0:0:0:
320,192,310839,1,0,0:0:0:0:
64,192,310908,1,0,0:0:0:0:
192,192,310908,1,0,0:0:0:0:
448,192,310908,1,0,0:0:0:0:
320,192,310977,1,0,0:0:0:0:
64,192,311046,1,0,0:0:0:0:
192,192,311115,1,0,0:0:0:0:
320,192,311184,1,0,0:0:0:0:
448,192,311184,1,0,0:0:0:0:
64,192,311253,1,0,0:0:0:0:
320,192,311323,1,0,0:0:0:0:
192,192,311392,1,0,0:0:0:0:
320,192,311461,1,0,0:0:0:0:
448,192,311461,1,0,0:0:0:0:
64,192,311461,1,0,0:0:0:0:
192,192,311530,1,0,0:0:0:0:
64,192,311599,1,0,0:0:0:0:
448,192,311599,1,0,0:0:0:0:
320,192,311668,1,0,0:0:0:0:
192,192,311737,1,0,0:0:0:0:
64,192,311806,1,0,0:0:0:0:
192,192,311876,1,0,0:0:0:0:
448,192,311876,1,0,0:0:0:0:
320,192,311945,1,0,0:0:0:0:
64,192,312014,1,0,0:0:0:0:
192,192,312014,1,0,0:0:0:0:
448,192,312014,1,0,0:0:0:0:
320,192,312083,1,0,0:0:0:0:
192,192,312152,1,0,0:0:0:0:
64,192,312221,1,0,0:0:0:0:
320,192,312290,1,0,0:0:0:0:
448,192,312290,1,0,0:0:0:0:
64,192,312359,1,0,0:0:0:0:
192,192,312429,1,0,0:0:0:0:
320,192,312498,1,0,0:0:0:0:
64,192,312567,1,0,0:0:0:0:
448,192,312567,1,0,0:0:0:0:
192,192,312567,1,0,0:0:0:0:
320,192,312636,1,0,0:0:0:0:
192,192,312705,1,0,0:0:0:0:
64,192,312774,1,0,0:0:0:0:
320,192,312843,1,0,0:0:0:0:
64,192,312912,1,0,0:0:0:0:
192,192,312982,1,0,0:0:0:0:
448,192,312982,1,0,0:0:0:0:
320,192,313051,1,0,0:0:0:0:
448,192,313120,1,0,0:0:0:0:
192,192,313120,1,0,0:0:0:0:
64,192,313120,1,0,0:0:0:0:
320,192,313189,1,0,0:0:0:0:
192,192,313258,1,0,0:0:0:0:
64,192,313327,1,0,0:0:0:0:
448,192,313396,1,0,0:0:0:0:
320,192,313396,1,0,0:0:0:0:
320,192,313535,1,0,0:0:0:0:
192,192,313604,1,0,0:0:0:0:
320,192,313673,1,0,0:0:0:0:
448,192,313673,1,0,0:0:0:0:
64,192,313673,1,0,0:0:0:0:
192,192,313811,1,0,0:0:0:0:
64,192,313811,1,0,0:0:0:0:
64,192,313949,1,0,0:0:0:0:
320,192,314018,1,0,0:0:0:0:
448,192,314018,1,0,0:0:0:0:
192,192,314088,1,0,0:0:0:0:
448,192,314157,1,0,0:0:0:0:
320,192,314226,1,0,0:0:0:0:
192,192,314226,1,0,0:0:0:0:
64,192,314226,1,0,0:0:0:0:
448,192,314295,1,0,0:0:0:0:
64,192,314364,1,0,0:0:0:0:
192,192,314364,1,0,0:0:0:0:
320,192,314433,1,0,0:0:0:0:
448,192,314502,1,0,0:0:0:0:
192,192,314502,1,0,0:0:0:0:
64,192,314502,1,0,0:0:0:0:
64,192,314641,1,0,0:0:0:0:
320,192,314641,1,0,0:0:0:0:
448,192,314641,1,0,0:0:0:0:
192,192,314710,1,0,0:0:0:0:
320,192,314779,1,0,0:0:0:0:
448,192,314779,1,0,0:0:0:0:
64,192,314848,1,0,0:0:0:0:
192,192,314917,1,0,0:0:0:0:
320,192,314917,1,0,0:0:0:0:
448,192,314917,1,0,0:0:0:0:
64,192,314986,1,0,0:0:0:0:
320,192,315055,1,0,0:0:0:0:
192,192,315055,1,0,0:0:0:0:
192,192,315194,1,0,0:0:0:0:
64,192,315194,1,0,0:0:0:0:
448,192,315194,1,0,0:0:0:0:
320,192,315263,1,0,0:0:0:0:
192,192,315332,1,0,0:0:0:0:
64,192,315332,1,0,0:0:0:0:
448,192,315401,1,0,0:0:0:0:
192,192,315470,1,0,0:0:0:0:
64,192,315470,1,0,0:0:0:0:
320,192,315470,1,0,0:0:0:0:
448,192,315539,1,0,0:0:0:0:
192,192,315608,1,0,0:0:0:0:
320,192,315608,1,0,0:0:0:0:
64,192,315747,1,0,0:0:0:0:
320,192,315747,1,0,0:0:0:0:
448,192,315747,1,0,0:0:0:0:
192,192,315816,1,0,0:0:0:0:
320,192,315885,1,0,0:0:0:0:
448,192,315885,1,0,0:0:0:0:
64,192,315954,1,0,0:0:0:0:
192,192,316023,1,0,0:0:0:0:
320,192,316023,1,0,0:0:0:0:
448,192,316023,1,0,0:0:0:0:
64,192,316092,1,0,0:0:0:0:
192,192,316161,1,0,0:0:0:0:
320,192,316161,1,0,0:0:0:0:
192,192,316300,1,0,0:0:0:0:
64,192,316300,1,0,0:0:0:0:
448,192,316300,1,0,0:0:0:0:
320,192,316369,1,0,0:0:0:0:
192,192,316438,1,0,0:0:0:0:
64,192,316438,1,0,0:0:0:0:
448,192,316507,1,0,0:0:0:0:
320,192,316576,1,0,0:0:0:0:
192,192,316576,1,0,0:0:0:0:
64,192,316576,1,0,0:0:0:0:
448,192,316645,1,0,0:0:0:0:
320,192,316714,1,0,0:0:0:0:
192,192,316714,1,0,0:0:0:0:
64,192,316714,1,0,0:0:0:0:
320,192,316853,1,0,0:0:0:0:
448,192,316853,1,0,0:0:0:0:
192,192,316853,1,0,0:0:0:0:
64,192,316922,1,0,0:0:0:0:
320,192,316991,1,0,0:0:0:0:
448,192,316991,1,0,0:0:0:0:
192,192,317060,1,0,0:0:0:0:
64,192,317129,1,0,0:0:0:0:
320,192,317129,1,0,0:0:0:0:
448,192,317129,1,0,0:0:0:0:
192,192,317198,1,0,0:0:0:0:
448,192,317267,1,0,0:0:0:0:
64,192,317267,1,0,0:0:0:0:
64,192,317405,1,0,0:0:0:0:
320,192,317405,1,0,0:0:0:0:
192,192,317405,1,0,0:0:0:0:
448,192,317475,1,0,0:0:0:0:
192,192,317544,1,0,0:0:0:0:
64,192,317544,1,0,0:0:0:0:
320,192,317613,1,0,0:0:0:0:
448,192,317682,1,0,0:0:0:0:
192,192,317682,1,0,0:0:0:0:
64,192,317682,1,0,0:0:0:0:
320,192,317751,1,0,0:0:0:0:
448,192,317820,1,0,0:0:0:0:
64,192,317820,1,0,0:0:0:0:
192,192,317958,1,0,0:0:0:0:
320,192,317958,1,0,0:0:0:0:
448,192,317958,1,0,0:0:0:0:
64,192,318097,1,0,0:0:0:0:
320,192,318097,1,0,0:0:0:0:
192,192,318235,1,0,0:0:0:0:
64,192,318235,1,0,0:0:0:0:
448,192,318235,1,0,0:0:0:0:
320,192,318373,1,0,0:0:0:0:
448,192,318373,1,0,0:0:0:0:
320,192,318511,1,0,0:0:0:0:
192,192,318511,1,0,0:0:0:0:
64,192,318511,1,0,0:0:0:0:
64,192,318650,1,0,0:0:0:0:
448,192,318650,1,0,0:0:0:0:
192,192,318788,1,0,0:0:0:0:
320,192,318788,1,0,0:0:0:0:
448,192,318788,1,0,0:0:0:0:
192,192,318926,1,0,0:0:0:0:
64,192,318926,1,0,0:0:0:0:
320,192,318926,1,0,0:0:0:0:
64,192,319064,1,0,0:0:0:0:
192,192,319064,1,0,0:0:0:0:
448,192,319064,1,0,0:0:0:0:
320,192,319134,1,0,0:0:0:0:
192,192,319203,1,0,0:0:0:0:
64,192,319203,1,0,0:0:0:0:
320,192,319341,1,0,0:0:0:0:
448,192,319341,1,0,0:0:0:0:
192,192,319341,1,0,0:0:0:0:
64,192,319410,1,0,0:0:0:0:
320,192,319479,1,0,0:0:0:0:
448,192,319479,1,0,0:0:0:0:
192,192,319617,1,0,0:0:0:0:
64,192,319617,1,0,0:0:0:0:
448,192,319617,1,0,0:0:0:0:
320,192,319687,1,0,0:0:0:0:
192,192,319756,1,0,0:0:0:0:
64,192,319756,1,0,0:0:0:0:
192,192,319894,1,0,0:0:0:0:
320,192,319894,1,0,0:0:0:0:
448,192,319894,1,0,0:0:0:0:
64,192,319963,1,0,0:0:0:0:
320,192,320032,1,0,0:0:0:0:
448,192,320032,1,0,0:0:0:0:
192,192,320032,1,0,0:0:0:0:
320,192,320170,1,0,0:0:0:0:
448,192,320170,1,0,0:0:0:0:
64,192,320170,1,0,0:0:0:0:
192,192,320240,1,0,0:0:0:0:
320,192,320309,1,0,0:0:0:0:
448,192,320309,1,0,0:0:0:0:
192,192,320447,1,0,0:0:0:0:
64,192,320447,1,0,0:0:0:0:
320,192,320447,1,0,0:0:0:0:
448,192,320516,1,0,0:0:0:0:
192,192,320585,1,0,0:0:0:0:
64,192,320585,1,0,0:0:0:0:
64,192,320723,1,0,0:0:0:0:
320,192,320723,1,0,0:0:0:0:
448,192,320723,1,0,0:0:0:0:
192,192,320793,1,0,0:0:0:0:
320,192,320862,1,0,0:0:0:0:
448,192,320862,1,0,0:0:0:0:
64,192,320931,1,0,0:0:0:0:
320,192,321000,1,0,0:0:0:0:
448,192,321000,1,0,0:0:0:0:
192,192,321000,1,0,0:0:0:0:
192,192,321138,1,0,0:0:0:0:
64,192,321138,1,0,0:0:0:0:
448,192,321207,1,0,0:0:0:0:
64,192,321276,1,0,0:0:0:0:
192,192,321276,1,0,0:0:0:0:
320,192,321346,1,0,0:0:0:0:
448,192,321346,1,0,0:0:0:0:
192,192,321415,1,0,0:0:0:0:
448,192,321484,1,0,0:0:0:0:
64,192,321484,1,0,0:0:0:0:
320,192,321553,1,0,0:0:0:0:
192,192,321622,1,0,0:0:0:0:
64,192,321622,1,0,0:0:0:0:
320,192,321691,1,0,0:0:0:0:
448,192,321691,1,0,0:0:0:0:
192,192,321760,1,0,0:0:0:0:
64,192,321760,1,0,0:0:0:0:
448,192,321829,1,0,0:0:0:0:
192,192,321899,1,0,0:0:0:0:
64,192,321899,1,0,0:0:0:0:
320,192,321968,1,0,0:0:0:0:
192,192,322037,1,0,0:0:0:0:
64,192,322037,1,0,0:0:0:0:
448,192,322106,1,0,0:0:0:0:
192,192,322175,1,0,0:0:0:0:
64,192,322175,1,0,0:0:0:0:
320,192,322244,1,0,0:0:0:0:
448,192,322244,1,0,0:0:0:0:
192,192,322290,1,0,0:0:0:0:
64,192,322336,1,0,0:0:0:0:
448,192,322382,1,0,0:0:0:0:
320,192,322452,1,0,0:0:0:0:
192,192,322521,1,0,0:0:0:0:
448,192,322590,1,0,0:0:0:0:
320,192,322659,1,0,0:0:0:0:
192,192,322728,1,0,0:0:0:0:
64,192,322797,1,0,0:0:0:0:
320,192,322843,1,0,0:0:0:0:
192,192,322958,1,0,0:0:0:0:
64,192,323074,1,0,0:0:0:0:
320,192,323153,1,0,0:0:0:0:
448,192,323192,1,0,0:0:0:0:
64,192,323232,1,0,0:0:0:0:
192,192,323271,1,0,0:0:0:0:
320,192,323311,1,0,0:0:0:0:
64,192,323350,1,0,0:0:0:0:
448,192,323350,128,0,323902:0:0:0:0:
320,192,323902,1,0,0:0:0:0:
64,192,323902,1,0,0:0:0:0:
320,192,324317,1,0,0:0:0:0:
192,192,324732,1,0,0:0:0:0:
448,192,324732,1,0,0:0:0:0:
64,192,325008,1,0,0:0:0:0:
192,192,325008,1,0,0:0:0:0:
320,192,325285,1,0,0:0:0:0:
192,192,325423,1,0,0:0:0:0:
448,192,325561,1,0,0:0:0:0:
64,192,325561,1,0,0:0:0:0:
192,192,325838,1,0,0:0:0:0:
448,192,325976,1,0,0:0:0:0:
64,192,326114,1,0,0:0:0:0:
320,192,326114,1,0,0:0:0:0:
448,192,326529,1,0,0:0:0:0:
448,192,326806,1,0,0:0:0:0:
64,192,326944,1,0,0:0:0:0:
320,192,326944,1,0,0:0:0:0:
64,192,327082,1,0,0:0:0:0:
320,192,327220,1,0,0:0:0:0:
448,192,327220,1,0,0:0:0:0:
192,192,327497,1,0,0:0:0:0:
320,192,327497,1,0,0:0:0:0:
320,192,327635,1,0,0:0:0:0:
192,192,327635,1,0,0:0:0:0:
64,192,327773,1,0,0:0:0:0:
448,192,327773,128,0,328326:0:0:0:0:
192,192,328188,1,0,0:0:0:0:
320,192,328326,1,0,0:0:0:0:
64,192,328326,1,0,0:0:0:0:
448,192,328741,1,0,0:0:0:0:
448,192,329018,1,0,0:0:0:0:
64,192,329156,1,0,0:0:0:0:
320,192,329156,1,0,0:0:0:0:
64,192,329432,1,0,0:0:0:0:
192,192,329432,1,0,0:0:0:0:
192,192,329709,1,0,0:0:0:0:
64,192,329847,1,0,0:0:0:0:
320,192,329985,1,0,0:0:0:0:
448,192,329985,1,0,0:0:0:0:
320,192,330262,1,0,0:0:0:0:
64,192,330400,1,0,0:0:0:0:
320,192,330538,1,0,0:0:0:0:
448,192,330538,1,0,0:0:0:0:
320,192,330815,1,0,0:0:0:0:
320,192,330953,1,0,0:0:0:0:
64,192,331091,1,0,0:0:0:0:
192,192,331230,1,0,0:0:0:0:
448,192,331368,1,0,0:0:0:0:
64,192,331368,1,0,0:0:0:0:
320,192,331644,1,0,0:0:0:0:
64,192,331921,1,0,0:0:0:0:
192,192,331921,1,0,0:0:0:0:
192,192,332059,1,0,0:0:0:0:
64,192,332197,1,0,0:0:0:0:
448,192,332197,128,0,332742:0:0:0:0:
192,192,332742,1,0,0:0:0:0:
64,192,332742,1,0,0:0:0:0:
192,192,333008,1,0,0:0:0:0:
192,192,333270,1,0,0:0:0:0:
448,192,333527,128,0,333780:0:0:0:0:
64,192,333780,1,0,0:0:0:0:
320,192,334029,128,0,334515:0:0:0:0:
192,192,334029,1,0,0:0:0:0:
448,192,334151,1,0,0:0:0:0:
192,192,334274,1,0,0:0:0:0:
64,192,334274,1,0,0:0:0:0:
64,192,334515,1,0,0:0:0:0:
64,192,334752,1,0,0:0:0:0:
192,192,334985,128,0,335441:0:0:0:0:
448,192,335100,1,0,0:0:0:0:
448,192,335328,1,0,0:0:0:0:
64,192,335441,1,0,0:0:0:0:
64,192,335664,1,0,0:0:0:0:
192,192,335664,1,0,0:0:0:0:
192,192,335883,1,0,0:0:0:0:
64,192,335883,1,0,0:0:0:0:
64,192,336099,1,0,0:0:0:0:
448,192,336099,128,0,336522:0:0:0:0:
192,192,336522,1,0,0:0:0:0:
64,192,336522,1,0,0:0:0:0:
192,192,336729,1,0,0:0:0:0:
320,192,336831,1,0,0:0:0:0:
192,192,336933,1,0,0:0:0:0:
448,192,337135,128,0,337334:0:0:0:0:
320,192,337135,1,0,0:0:0:0:
64,192,337334,1,0,0:0:0:0:
192,192,337432,1,0,0:0:0:0:
320,192,337530,128,0,337915:0:0:0:0:
64,192,337627,1,0,0:0:0:0:
192,192,337724,1,0,0:0:0:0:
448,192,337724,1,0,0:0:0:0:
64,192,337915,1,0,0:0:0:0:
64,192,338104,1,0,0:0:0:0:
192,192,338291,128,0,338657:0:0:0:0:
64,192,338657,1,0,0:0:0:0:
448,192,338657,1,0,0:0:0:0:
64,192,338837,1,0,0:0:0:0:
320,192,338837,1,0,0:0:0:0:
192,192,339015,1,0,0:0:0:0:
320,192,339103,1,0,0:0:0:0:
192,192,339191,1,0,0:0:0:0:
64,192,339191,1,0,0:0:0:0:
448,192,339191,128,0,339537:0:0:0:0:
64,192,339537,1,0,0:0:0:0:
320,192,339537,1,0,0:0:0:0:
192,192,339707,1,0,0:0:0:0:
448,192,339791,1,0,0:0:0:0:
64,192,339875,1,0,0:0:0:0:
320,192,339875,1,0,0:0:0:0:
448,192,340041,128,0,340205:0:0:0:0:
64,192,340205,1,0,0:0:0:0:
320,192,340205,1,0,0:0:0:0:
192,192,340367,128,0,340687:0:0:0:0:
64,192,340528,1,0,0:0:0:0:
320,192,340528,1,0,0:0:0:0:
448,192,340528,1,0,0:0:0:0:
448,192,340844,1,0,0:0:0:0:
192,192,340844,1,0,0:0:0:0:
64,192,341000,128,0,341306:0:0:0:0:
192,192,341154,1,0,0:0:0:0:
448,192,341154,1,0,0:0:0:0:
192,192,341457,1,0,0:0:0:0:
448,192,341457,1,0,0:0:0:0:
320,192,341606,1,0,0:0:0:0:
64,192,341754,1,0,0:0:0:0:
320,192,341754,1,0,0:0:0:0:
448,192,341754,128,0,342045:0:0:0:0:
64,192,342045,1,0,0:0:0:0:
320,192,342045,1,0,0:0:0:0:
192,192,342189,1,0,0:0:0:0:
448,192,342260,1,0,0:0:0:0:
64,192,342331,1,0,0:0:0:0:
320,192,342331,1,0,0:0:0:0:
448,192,342472,128,0,342612:0:0:0:0:
64,192,342612,1,0,0:0:0:0:
320,192,342612,1,0,0:0:0:0:
192,192,342750,128,0,343023:0:0:0:0:
64,192,342887,1,0,0:0:0:0:
448,192,342887,1,0,0:0:0:0:
320,192,342887,1,0,0:0:0:0:
192,192,343158,1,0,0:0:0:0:
448,192,343158,1,0,0:0:0:0:
64,192,343291,128,0,343554:0:0:0:0:
448,192,343423,1,0,0:0:0:0:
192,192,343423,1,0,0:0:0:0:
192,192,343684,1,0,0:0:0:0:
448,192,343684,1,0,0:0:0:0:
320,192,343813,1,0,0:0:0:0:
64,192,343941,1,0,0:0:0:0:
320,192,343941,1,0,0:0:0:0:
448,192,343941,1,0,0:0:0:0:
64,192,344194,1,0,0:0:0:0:
320,192,344194,1,0,0:0:0:0:
192,192,344319,1,0,0:0:0:0:
448,192,344380,1,0,0:0:0:0:
64,192,344442,1,0,0:0:0:0:
320,192,344442,1,0,0:0:0:0:
448,192,344564,1,0,0:0:0:0:
64,192,344685,1,0,0:0:0:0:
320,192,344685,1,0,0:0:0:0:
192,192,344805,1,0,0:0:0:0:
192,192,344925,1,0,0:0:0:0:
64,192,344925,1,0,0:0:0:0:
448,192,344925,1,0,0:0:0:0:
192,192,345162,1,0,0:0:0:0:
448,192,345162,1,0,0:0:0:0:
64,192,345279,1,0,0:0:0:0:
192,192,345395,1,0,0:0:0:0:
448,192,345395,1,0,0:0:0:0:
192,192,345624,1,0,0:0:0:0:
448,192,345624,1,0,0:0:0:0:
320,192,345849,1,0,0:0:0:0:
448,192,345849,1,0,0:0:0:0:
64,192,345849,1,0,0:0:0:0:
64,192,346071,1,0,0:0:0:0:
320,192,346071,1,0,0:0:0:0:
192,192,346181,1,0,0:0:0:0:
448,192,346235,1,0,0:0:0:0:
64,192,346290,1,0,0:0:0:0:
320,192,346290,1,0,0:0:0:0:
448,192,346398,1,0,0:0:0:0:
64,192,346505,1,0,0:0:0:0:
320,192,346505,1,0,0:0:0:0:
192,192,346612,1,0,0:0:0:0:
192,192,346718,1,0,0:0:0:0:
64,192,346718,1,0,0:0:0:0:
448,192,346718,1,0,0:0:0:0:
192,192,346927,1,0,0:0:0:0:
448,192,346927,1,0,0:0:0:0:
64,192,347031,1,0,0:0:0:0:
192,192,347134,1,0,0:0:0:0:
448,192,347134,1,0,0:0:0:0:
192,192,347338,1,0,0:0:0:0:
448,192,347338,1,0,0:0:0:0:
320,192,347539,1,0,0:0:0:0:
448,192,347539,1,0,0:0:0:0:
64,192,347539,1,0,0:0:0:0:
192,192,347639,1,0,0:0:0:0:
320,192,347738,1,0,0:0:0:0:
64,192,347836,1,0,0:0:0:0:
192,192,347934,1,0,0:0:0:0:
448,192,347934,1,0,0:0:0:0:
320,192,347934,1,0,0:0:0:0:
192,192,348031,1,0,0:0:0:0:
320,192,348079,1,0,0:0:0:0:
64,192,348127,1,0,0:0:0:0:
448,192,348127,1,0,0:0:0:0:
192,192,348223,1,0,0:0:0:0:
320,192,348223,1,0,0:0:0:0:
64,192,348318,1,0,0:0:0:0:
448,192,348318,1,0,0:0:0:0:
192,192,348318,1,0,0:0:0:0:
320,192,348413,1,0,0:0:0:0:
192,192,348507,1,0,0:0:0:0:
448,192,348600,1,0,0:0:0:0:
320,192,348693,1,0,0:0:0:0:
192,192,348693,1,0,0:0:0:0:
64,192,348693,1,0,0:0:0:0:
320,192,348785,1,0,0:0:0:0:
192,192,348831,1,0,0:0:0:0:
448,192,348877,1,0,0:0:0:0:
64,192,348877,1,0,0:0:0:0:
320,192,348968,1,0,0:0:0:0:
192,192,348968,1,0,0:0:0:0:
320,192,349059,1,0,0:0:0:0:
448,192,349059,1,0,0:0:0:0:
64,192,349059,1,0,0:0:0:0:
192,192,349149,1,0,0:0:0:0:
320,192,349238,1,0,0:0:0:0:
64,192,349327,1,0,0:0:0:0:
448,192,349415,1,0,0:0:0:0:
192,192,349415,1,0,0:0:0:0:
320,192,349415,1,0,0:0:0:0:
320,192,349503,1,0,0:0:0:0:
192,192,349546,1,0,0:0:0:0:
448,192,349590,1,0,0:0:0:0:
64,192,349590,1,0,0:0:0:0:
192,192,349677,1,0,0:0:0:0:
320,192,349677,1,0,0:0:0:0:
64,192,349763,1,0,0:0:0:0:
192,192,349763,1,0,0:0:0:0:
448,192,349763,1,0,0:0:0:0:
320,192,349849,1,0,0:0:0:0:
192,192,349934,1,0,0:0:0:0:
448,192,350019,1,0,0:0:0:0:
192,192,350103,1,0,0:0:0:0:
64,192,350103,1,0,0:0:0:0:
320,192,350103,1,0,0:0:0:0:
192,192,350187,1,0,0:0:0:0:
320,192,350228,1,0,0:0:0:0:
448,192,350270,1,0,0:0:0:0:
64,192,350270,1,0,0:0:0:0:
320,192,350353,1,0,0:0:0:0:
192,192,350353,1,0,0:0:0:0:
448,192,350435,1,0,0:0:0:0:
64,192,350435,1,0,0:0:0:0:
320,192,350476,1,0,0:0:0:0:
192,192,350517,1,0,0:0:0:0:
64,192,350517,1,0,0:0:0:0:
448,192,350600,1,0,0:0:0:0:
320,192,350600,1,0,0:0:0:0:
64,192,350682,1,0,0:0:0:0:
320,192,350682,1,0,0:0:0:0:
448,192,350765,1,0,0:0:0:0:
64,192,350765,1,0,0:0:0:0:
192,192,350806,1,0,0:0:0:0:
320,192,350847,1,0,0:0:0:0:
448,192,350847,1,0,0:0:0:0:
64,192,350930,1,0,0:0:0:0:
192,192,350930,1,0,0:0:0:0:
448,192,351012,1,0,0:0:0:0:
192,192,351012,1,0,0:0:0:0:
64,192,351095,1,0,0:0:0:0:
448,192,351095,1,0,0:0:0:0:
320,192,351136,1,0,0:0:0:0:
64,192,351177,1,0,0:0:0:0:
192,192,351177,1,0,0:0:0:0:
448,192,351260,1,0,0:0:0:0:
320,192,351260,1,0,0:0:0:0:
64,192,351342,1,0,0:0:0:0:
320,192,351342,1,0,0:0:0:0:
448,192,351425,1,0,0:0:0:0:
64,192,351425,1,0,0:0:0:0:
192,192,351466,1,0,0:0:0:0:
320,192,351507,1,0,0:0:0:0:
448,192,351507,1,0,0:0:0:0:
192,192,351590,1,0,0:0:0:0:
320,192,351590,1,0,0:0:0:0:
448,192,351672,1,0,0:0:0:0:
64,192,351672,1,0,0:0:0:0:
192,192,351755,1,0,0:0:0:0:
64,192,351755,1,0,0:0:0:0:
320,192,351796,1,0,0:0:0:0:
448,192,351838,1,0,0:0:0:0:
64,192,351879,1,0,0:0:0:0:
192,192,351920,1,0,0:0:0:0:
320,192,351920,1,0,0:0:0:0:
448,192,351961,1,0,0:0:0:0:
64,192,352003,1,0,0:0:0:0:
192,192,352044,1,0,0:0:0:0:
320,192,352085,1,0,0:0:0:0:
448,192,352085,1,0,0:0:0:0:
64,192,352126,1,0,0:0:0:0:
192,192,352168,1,0,0:0:0:0:
320,192,352209,1,0,0:0:0:0:
448,192,352250,1,0,0:0:0:0:
64,192,352250,1,0,0:0:0:0:
192,192,352291,1,0,0:0:0:0:
320,192,352333,1,0,0:0:0:0:
448,192,352374,1,0,0:0:0:0:
64,192,352415,128,0,352457:0:0:0:0:
192,192,352415,128,0,352457:0:0:0:0:
320,192,352457,128,0,352498:0:0:0:0:
448,192,352498,128,0,352539:0:0:0:0:
64,192,352539,128,0,352580:0:0:0:0:
192,192,352580,128,0,352622:0:0:0:0:
320,192,352580,128,0,352622:0:0:0:0:
448,192,352622,128,0,352663:0:0:0:0:
64,192,352663,128,0,352704:0:0:0:0:
192,192,352704,128,0,352745:0:0:0:0:
320,192,352745,128,0,352787:0:0:0:0:
448,192,352745,128,0,352787:0:0:0:0:
64,192,352787,128,0,352828:0:0:0:0:
192,192,352828,128,0,352869:0:0:0:0:
320,192,352869,128,0,352910:0:0:0:0:
448,192,352910,128,0,352952:0:0:0:0:
64,192,352910,128,0,352952:0:0:0:0:
192,192,352952,128,0,352993:0:0:0:0:
320,192,352993,128,0,353034:0:0:0:0:
448,192,352993,128,0,353034:0:0:0:0:
64,192,353034,128,0,353075:0:0:0:0:
448,192,353075,1,0,0:0:0:0:
320,192,353075,1,0,0:0:0:0:
192,192,353075,1,0,0:0:0:0:
320,192,356129,128,0,356294:0:0:0:0:
64,192,356294,1,0,0:0:0:0:
192,192,356294,1,0,0:0:0:0:
320,192,356459,1,0,0:0:0:0:
192,192,356459,1,0,0:0:0:0:
64,192,356459,128,0,356542:0:0:0:0:
320,192,356542,128,0,356624:0:0:0:0:
192,192,356542,1,0,0:0:0:0:
64,192,356624,1,0,0:0:0:0:
192,192,356624,1,0,0:0:0:0:
320,192,356789,128,0,356954:0:0:0:0:
64,192,356954,1,0,0:0:0:0:
192,192,356954,1,0,0:0:0:0:
64,192,357697,128,0,358357:0:0:0:0:
320,192,358357,128,0,358468:0:0:0:0:
192,192,358412,128,0,358523:0:0:0:0:
64,192,358468,128,0,358578:0:0:0:0:
448,192,358523,1,0,0:0:0:0:
320,192,358578,1,0,0:0:0:0:
192,192,358633,1,0,0:0:0:0:
64,192,358688,1,0,0:0:0:0:
192,192,358853,1,0,0:0:0:0:
320,192,358935,1,0,0:0:0:0:
448,192,359018,1,0,0:0:0:0:
64,192,359018,1,0,0:0:0:0:
448,192,359100,1,0,0:0:0:0:
192,192,359183,1,0,0:0:0:0:
192,192,359265,1,0,0:0:0:0:
320,192,359348,1,0,0:0:0:0:
320,192,359430,1,0,0:0:0:0:
64,192,359513,1,0,0:0:0:0:
64,192,359595,1,0,0:0:0:0:
448,192,359678,1,0,0:0:0:0:
448,192,359760,1,0,0:0:0:0:
192,192,359843,1,0,0:0:0:0:
192,192,359926,1,0,0:0:0:0:
320,192,360008,1,0,0:0:0:0:
448,192,360008,1,0,0:0:0:0:
320,192,360091,1,0,0:0:0:0:
448,192,360091,1,0,0:0:0:0:
192,192,360173,1,0,0:0:0:0:
64,192,360173,1,0,0:0:0:0:
64,192,360256,1,0,0:0:0:0:
192,192,360256,1,0,0:0:0:0:
192,192,361329,1,0,0:0:0:0:
320,192,361329,1,0,0:0:0:0:
192,192,361494,1,0,0:0:0:0:
320,192,361494,1,0,0:0:0:0:
64,192,361659,1,0,0:0:0:0:
192,192,361659,1,0,0:0:0:0:
448,192,361700,1,0,0:0:0:0:
320,192,361741,1,0,0:0:0:0:
192,192,361783,1,0,0:0:0:0:
448,192,361824,1,0,0:0:0:0:
64,192,361865,1,0,0:0:0:0:
192,192,361906,1,0,0:0:0:0:
320,192,361948,1,0,0:0:0:0:
448,192,361989,1,0,0:0:0:0:
64,192,361989,1,0,0:0:0:0:
320,192,362071,1,0,0:0:0:0:
64,192,362154,1,0,0:0:0:0:
192,192,362154,1,0,0:0:0:0:
448,192,362236,1,0,0:0:0:0:
192,192,362236,1,0,0:0:0:0:
64,192,362319,1,0,0:0:0:0:
320,192,362319,1,0,0:0:0:0:
192,192,362401,1,0,0:0:0:0:
320,192,362484,1,0,0:0:0:0:
448,192,362484,1,0,0:0:0:0:
64,192,362567,1,0,0:0:0:0:
320,192,362567,1,0,0:0:0:0:
192,192,362649,1,0,0:0:0:0:
448,192,362649,1,0,0:0:0:0:
192,192,362732,1,0,0:0:0:0:
320,192,362814,1,0,0:0:0:0:
64,192,362814,1,0,0:0:0:0:
448,192,362855,1,0,0:0:0:0:
192,192,362897,1,0,0:0:0:0:
320,192,362938,1,0,0:0:0:0:
448,192,362979,1,0,0:0:0:0:
64,192,362979,1,0,0:0:0:0:
192,192,363062,1,0,0:0:0:0:
64,192,363062,1,0,0:0:0:0:
320,192,363144,1,0,0:0:0:0:
448,192,363144,1,0,0:0:0:0:
192,192,363227,1,0,0:0:0:0:
64,192,363309,1,0,0:0:0:0:
448,192,363309,1,0,0:0:0:0:
320,192,363392,1,0,0:0:0:0:
64,192,363474,1,0,0:0:0:0:
192,192,363474,1,0,0:0:0:0:
192,192,363557,1,0,0:0:0:0:
448,192,363557,1,0,0:0:0:0:
320,192,363639,1,0,0:0:0:0:
64,192,363639,1,0,0:0:0:0:
192,192,363722,1,0,0:0:0:0:
320,192,363805,1,0,0:0:0:0:
448,192,363805,1,0,0:0:0:0:
320,192,363887,1,0,0:0:0:0:
192,192,363887,1,0,0:0:0:0:
448,192,363970,1,0,0:0:0:0:
64,192,363970,1,0,0:0:0:0:
320,192,364052,1,0,0:0:0:0:
192,192,364135,1,0,0:0:0:0:
64,192,364135,1,0,0:0:0:0:
192,192,364217,1,0,0:0:0:0:
320,192,364217,1,0,0:0:0:0:
64,192,364300,1,0,0:0:0:0:
448,192,364300,1,0,0:0:0:0:
320,192,364382,1,0,0:0:0:0:
448,192,364382,1,0,0:0:0:0:
192,192,364465,1,0,0:0:0:0:
64,192,364465,1,0,0:0:0:0:
192,192,364547,1,0,0:0:0:0:
320,192,364589,1,0,0:0:0:0:
64,192,364630,1,0,0:0:0:0:
448,192,364630,1,0,0:0:0:0:
192,192,364712,1,0,0:0:0:0:
448,192,364795,1,0,0:0:0:0:
320,192,364795,1,0,0:0:0:0:
64,192,364877,1,0,0:0:0:0:
320,192,364877,1,0,0:0:0:0:
192,192,364960,1,0,0:0:0:0:
448,192,364960,1,0,0:0:0:0:
320,192,365042,1,0,0:0:0:0:
192,192,365125,1,0,0:0:0:0:
64,192,365125,1,0,0:0:0:0:
192,192,365208,1,0,0:0:0:0:
448,192,365208,1,0,0:0:0:0:
64,192,365290,1,0,0:0:0:0:
320,192,365290,1,0,0:0:0:0:
320,192,365373,1,0,0:0:0:0:
448,192,365455,1,0,0:0:0:0:
192,192,365455,1,0,0:0:0:0:
64,192,365496,1,0,0:0:0:0:
320,192,365538,1,0,0:0:0:0:
192,192,365579,1,0,0:0:0:0:
448,192,365620,1,0,0:0:0:0:
64,192,365620,1,0,0:0:0:0:
320,192,365703,1,0,0:0:0:0:
448,192,365703,1,0,0:0:0:0:
192,192,365785,1,0,0:0:0:0:
64,192,365785,1,0,0:0:0:0:
320,192,365868,1,0,0:0:0:0:
448,192,365950,1,0,0:0:0:0:
64,192,365950,1,0,0:0:0:0:
192,192,366033,1,0,0:0:0:0:
320,192,366115,1,0,0:0:0:0:
448,192,366115,1,0,0:0:0:0:
64,192,366198,1,0,0:0:0:0:
448,192,366198,1,0,0:0:0:0:
192,192,366280,1,0,0:0:0:0:
64,192,366280,1,0,0:0:0:0:
320,192,366280,1,0,0:0:0:0:
192,192,366404,1,0,0:0:0:0:
64,192,366404,1,0,0:0:0:0:
448,192,366404,1,0,0:0:0:0:
192,192,366528,1,0,0:0:0:0:
320,192,366528,1,0,0:0:0:0:
448,192,366528,1,0,0:0:0:0:
320,192,366652,1,0,0:0:0:0:
448,192,366652,1,0,0:0:0:0:
64,192,366652,1,0,0:0:0:0:
192,192,366776,1,0,0:0:0:0:
192,192,366858,1,0,0:0:0:0:
64,192,366941,128,0,367106:0:0:0:0:
320,192,367106,1,0,0:0:0:0:
448,192,367106,1,0,0:0:0:0:
448,192,367188,1,0,0:0:0:0:
64,192,367188,1,0,0:0:0:0:
192,192,367271,1,0,0:0:0:0:
320,192,367312,1,0,0:0:0:0:
64,192,367353,1,0,0:0:0:0:
320,192,367395,1,0,0:0:0:0:
448,192,367436,1,0,0:0:0:0:
192,192,367436,1,0,0:0:0:0:
64,192,367518,1,0,0:0:0:0:
192,192,367518,1,0,0:0:0:0:
320,192,367601,1,0,0:0:0:0:
448,192,367601,1,0,0:0:0:0:
64,192,367683,1,0,0:0:0:0:
192,192,367766,1,0,0:0:0:0:
320,192,367766,1,0,0:0:0:0:
448,192,367849,1,0,0:0:0:0:
320,192,367849,1,0,0:0:0:0:
64,192,367931,1,0,0:0:0:0:
448,192,368014,1,0,0:0:0:0:
192,192,368014,1,0,0:0:0:0:
320,192,368096,1,0,0:0:0:0:
64,192,368096,1,0,0:0:0:0:
448,192,368137,1,0,0:0:0:0:
192,192,368179,1,0,0:0:0:0:
320,192,368220,1,0,0:0:0:0:
448,192,368261,1,0,0:0:0:0:
64,192,368261,1,0,0:0:0:0:
192,192,368344,1,0,0:0:0:0:
64,192,368344,1,0,0:0:0:0:
320,192,368426,1,0,0:0:0:0:
448,192,368426,1,0,0:0:0:0:
64,192,368509,1,0,0:0:0:0:
448,192,368591,1,0,0:0:0:0:
192,192,368591,1,0,0:0:0:0:
320,192,368674,1,0,0:0:0:0:
192,192,368756,1,0,0:0:0:0:
64,192,368756,1,0,0:0:0:0:
64,192,368839,1,0,0:0:0:0:
320,192,368839,1,0,0:0:0:0:
448,192,368921,1,0,0:0:0:0:
192,192,368921,1,0,0:0:0:0:
64,192,369004,1,0,0:0:0:0:
320,192,369086,1,0,0:0:0:0:
448,192,369086,1,0,0:0:0:0:
192,192,369169,1,0,0:0:0:0:
448,192,369169,1,0,0:0:0:0:
64,192,369252,1,0,0:0:0:0:
192,192,369334,1,0,0:0:0:0:
320,192,369334,1,0,0:0:0:0:
192,192,369417,1,0,0:0:0:0:
64,192,369417,1,0,0:0:0:0:
320,192,369499,1,0,0:0:0:0:
448,192,369499,1,0,0:0:0:0:
64,192,369582,1,0,0:0:0:0:
448,192,369582,1,0,0:0:0:0:
192,192,369623,1,0,0:0:0:0:
320,192,369664,1,0,0:0:0:0:
448,192,369747,1,0,0:0:0:0:
320,192,369767,1,0,0:0:0:0:
192,192,369788,1,0,0:0:0:0:
64,192,369809,1,0,0:0:0:0:
448,192,369829,1,0,0:0:0:0:
320,192,369871,1,0,0:0:0:0:
192,192,369912,1,0,0:0:0:0:
64,192,369912,1,0,0:0:0:0:
448,192,369974,1,0,0:0:0:0:
64,192,370036,1,0,0:0:0:0:
192,192,370097,1,0,0:0:0:0:
64,192,370159,1,0,0:0:0:0:
192,192,370201,1,0,0:0:0:0:
320,192,370242,1,0,0:0:0:0:
448,192,370242,1,0,0:0:0:0:
64,192,370324,1,0,0:0:0:0:
192,192,370407,1,0,0:0:0:0:
448,192,370407,1,0,0:0:0:0:
320,192,370490,1,0,0:0:0:0:
64,192,370490,1,0,0:0:0:0:
192,192,370531,1,0,0:0:0:0:
320,192,370572,1,0,0:0:0:0:
448,192,370572,1,0,0:0:0:0:
64,192,370634,1,0,0:0:0:0:
192,192,370696,1,0,0:0:0:0:
448,192,370737,1,0,0:0:0:0:
320,192,370765,1,0,0:0:0:0:
192,192,370792,1,0,0:0:0:0:
64,192,370820,1,0,0:0:0:0:
448,192,370847,1,0,0:0:0:0:
320,192,370875,1,0,0:0:0:0:
64,192,370902,1,0,0:0:0:0:
192,192,370943,1,0,0:0:0:0:
320,192,370985,1,0,0:0:0:0:
448,192,371026,1,0,0:0:0:0:
192,192,371067,1,0,0:0:0:0:
64,192,371067,1,0,0:0:0:0:
320,192,371150,1,0,0:0:0:0:
448,192,371150,1,0,0:0:0:0:
192,192,371232,128,0,371274:0:0:0:0:
64,192,371315,128,0,371356:0:0:0:0:
320,192,371397,1,0,0:0:0:0:
448,192,371397,1,0,0:0:0:0:
64,192,371439,1,0,0:0:0:0:
192,192,371480,1,0,0:0:0:0:
320,192,371521,1,0,0:0:0:0:
64,192,371562,1,0,0:0:0:0:
448,192,371562,1,0,0:0:0:0:
192,192,371645,1,0,0:0:0:0:
64,192,371645,1,0,0:0:0:0:
448,192,371727,1,0,0:0:0:0:
448,192,371810,1,0,0:0:0:0:
64,192,371975,1,0,0:0:0:0:
64,192,372058,1,0,0:0:0:0:
320,192,372223,1,0,0:0:0:0:
448,192,372223,1,0,0:0:0:0:
64,192,372223,128,0,372305:0:0:0:0:
192,192,372305,128,0,372388:0:0:0:0:
320,192,372388,128,0,372470:0:0:0:0:
448,192,372388,1,0,0:0:0:0:
192,192,372470,128,0,372553:0:0:0:0:
448,192,372553,128,0,372635:0:0:0:0:
64,192,372553,1,0,0:0:0:0:
64,192,372635,1,0,0:0:0:0:
320,192,372635,128,0,372718:0:0:0:0:
192,192,372718,128,0,372800:0:0:0:0:
448,192,372800,1,0,0:0:0:0:
64,192,372800,128,0,372883:0:0:0:0:
192,192,372883,128,0,372965:0:0:0:0:
448,192,372883,1,0,0:0:0:0:
320,192,372965,128,0,373048:0:0:0:0:
64,192,373048,128,0,373131:0:0:0:0:
192,192,373048,1,0,0:0:0:0:
448,192,373131,128,0,373213:0:0:0:0:
192,192,373213,128,0,373378:0:0:0:0:
320,192,373213,1,0,0:0:0:0:
448,192,373378,1,0,0:0:0:0:
64,192,373378,128,0,373461:0:0:0:0:
192,192,373461,128,0,373543:0:0:0:0:
320,192,373461,1,0,0:0:0:0:
320,192,373543,128,0,373626:0:0:0:0:
448,192,373543,1,0,0:0:0:0:
64,192,373626,128,0,373708:0:0:0:0:
192,192,373708,1,0,0:0:0:0:
448,192,373708,128,0,373791:0:0:0:0:
192,192,373791,1,0,0:0:0:0:
320,192,373791,128,0,373873:0:0:0:0:
448,192,373873,128,0,373956:0:0:0:0:
64,192,373956,128,0,374038:0:0:0:0:
192,192,373956,1,0,0:0:0:0:
448,192,374038,1,0,0:0:0:0:
320,192,374038,128,0,374121:0:0:0:0:
192,192,374121,128,0,374203:0:0:0:0:
64,192,374121,1,0,0:0:0:0:
448,192,374203,128,0,374258:0:0:0:0:
320,192,374203,1,0,0:0:0:0:
64,192,374258,128,0,374313:0:0:0:0:
192,192,374258,1,0,0:0:0:0:
448,192,374313,128,0,374368:0:0:0:0:
320,192,374313,1,0,0:0:0:0:
64,192,374368,128,0,374451:0:0:0:0:
192,192,374368,1,0,0:0:0:0:
320,192,374451,128,0,374534:0:0:0:0:
64,192,374534,1,0,0:0:0:0:
192,192,374534,1,0,0:0:0:0:
192,192,374616,1,0,0:0:0:0:
64,192,374616,1,0,0:0:0:0:
320,192,374699,1,0,0:0:0:0:
448,192,374699,1,0,0:0:0:0:
320,192,374781,1,0,0:0:0:0:
448,192,374781,1,0,0:0:0:0:
192,192,374864,1,0,0:0:0:0:
64,192,374864,128,0,374946:0:0:0:0:
320,192,374946,128,0,375029:0:0:0:0:
192,192,375029,128,0,375111:0:0:0:0:
64,192,375029,1,0,0:0:0:0:
320,192,375111,128,0,375194:0:0:0:0:
64,192,375194,128,0,375276:0:0:0:0:
448,192,375194,1,0,0:0:0:0:
448,192,375276,1,0,0:0:0:0:
192,192,375276,128,0,375359:0:0:0:0:
320,192,375359,128,0,375441:0:0:0:0:
64,192,375441,1,0,0:0:0:0:
448,192,375441,128,0,375524:0:0:0:0:
320,192,375524,128,0,375606:0:0:0:0:
64,192,375524,1,0,0:0:0:0:
192,192,375606,128,0,375689:0:0:0:0:
448,192,375689,128,0,375772:0:0:0:0:
320,192,375689,1,0,0:0:0:0:
64,192,375772,128,0,375854:0:0:0:0:
320,192,375854,128,0,376019:0:0:0:0:
192,192,375854,1,0,0:0:0:0:
64,192,376019,1,0,0:0:0:0:
448,192,376019,128,0,376102:0:0:0:0:
320,192,376102,128,0,376184:0:0:0:0:
192,192,376102,1,0,0:0:0:0:
192,192,376184,128,0,376267:0:0:0:0:
64,192,376184,1,0,0:0:0:0:
448,192,376267,128,0,376349:0:0:0:0:
320,192,376349,1,0,0:0:0:0:
64,192,376349,128,0,376432:0:0:0:0:
320,192,376432,1,0,0:0:0:0:
192,192,376432,128,0,376514:0:0:0:0:
448,192,376514,128,0,376597:0:0:0:0:
64,192,376556,1,0,0:0:0:0:
320,192,376597,1,0,0:0:0:0:
192,192,376638,1,0,0:0:0:0:
64,192,376679,1,0,0:0:0:0:
448,192,376679,128,0,376762:0:0:0:0:
64,192,376762,128,0,376844:0:0:0:0:
320,192,376762,1,0,0:0:0:0:
192,192,376844,1,0,0:0:0:0:
448,192,376927,1,0,0:0:0:0:
192,192,377009,1,0,0:0:0:0:
64,192,377051,1,0,0:0:0:0:
448,192,377092,1,0,0:0:0:0:
320,192,377133,1,0,0:0:0:0:
64,192,377257,1,0,0:0:0:0:
192,192,377340,128,0,377505:0:0:0:0:
448,192,377422,1,0,0:0:0:0:
320,192,377505,1,0,0:0:0:0:
448,192,377505,1,0,0:0:0:0:
64,192,377560,1,0,0:0:0:0:
192,192,377615,1,0,0:0:0:0:
320,192,377670,1,0,0:0:0:0:
448,192,377725,1,0,0:0:0:0:
192,192,377752,1,0,0:0:0:0:
64,192,377752,1,0,0:0:0:0:
448,192,377807,1,0,0:0:0:0:
320,192,377862,1,0,0:0:0:0:
192,192,377917,1,0,0:0:0:0:
64,192,377972,1,0,0:0:0:0:
320,192,378000,1,0,0:0:0:0:
448,192,378000,1,0,0:0:0:0:
64,192,378055,1,0,0:0:0:0:
192,192,378110,1,0,0:0:0:0:
448,192,378165,1,0,0:0:0:0:
320,192,378165,1,0,0:0:0:0:
64,192,378220,1,0,0:0:0:0:
192,192,378275,1,0,0:0:0:0:
320,192,378330,1,0,0:0:0:0:
448,192,378385,1,0,0:0:0:0:
192,192,378412,1,0,0:0:0:0:
64,192,378412,1,0,0:0:0:0:
448,192,378468,1,0,0:0:0:0:
320,192,378523,1,0,0:0:0:0:
192,192,378578,1,0,0:0:0:0:
64,192,378633,1,0,0:0:0:0:
320,192,378660,1,0,0:0:0:0:
448,192,378660,1,0,0:0:0:0:
64,192,378715,1,0,0:0:0:0:
192,192,378770,1,0,0:0:0:0:
320,192,378825,1,0,0:0:0:0:
448,192,378825,1,0,0:0:0:0:
64,192,378880,1,0,0:0:0:0:
192,192,378935,1,0,0:0:0:0:
320,192,378990,1,0,0:0:0:0:
448,192,379045,1,0,0:0:0:0:
192,192,379073,1,0,0:0:0:0:
64,192,379073,1,0,0:0:0:0:
448,192,379128,1,0,0:0:0:0:
320,192,379183,1,0,0:0:0:0:
192,192,379238,1,0,0:0:0:0:
64,192,379293,1,0,0:0:0:0:
320,192,379320,1,0,0:0:0:0:
448,192,379320,1,0,0:0:0:0:
192,192,379375,1,0,0:0:0:0:
64,192,379430,1,0,0:0:0:0:
448,192,379485,1,0,0:0:0:0:
448,192,379568,1,0,0:0:0:0:
64,192,379650,1,0,0:0:0:0:
64,192,379733,1,0,0:0:0:0:
448,192,379816,1,0,0:0:0:0:
448,192,379898,1,0,0:0:0:0:
64,192,379981,1,0,0:0:0:0:
64,192,380063,1,0,0:0:0:0:
320,192,380146,1,0,0:0:0:0:
448,192,380146,1,0,0:0:0:0:
192,192,380201,1,0,0:0:0:0:
64,192,380256,1,0,0:0:0:0:
320,192,380311,1,0,0:0:0:0:
448,192,380366,1,0,0:0:0:0:
192,192,380393,1,0,0:0:0:0:
64,192,380393,1,0,0:0:0:0:
448,192,380448,1,0,0:0:0:0:
320,192,380503,1,0,0:0:0:0:
192,192,380558,1,0,0:0:0:0:
64,192,380613,1,0,0:0:0:0:
320,192,380641,1,0,0:0:0:0:
448,192,380641,1,0,0:0:0:0:
64,192,380696,1,0,0:0:0:0:
192,192,380751,1,0,0:0:0:0:
320,192,380806,1,0,0:0:0:0:
448,192,380806,1,0,0:0:0:0:
192,192,380861,1,0,0:0:0:0:
64,192,380916,1,0,0:0:0:0:
320,192,380971,1,0,0:0:0:0:
448,192,381026,1,0,0:0:0:0:
192,192,381053,1,0,0:0:0:0:
64,192,381053,1,0,0:0:0:0:
448,192,381109,1,0,0:0:0:0:
320,192,381164,1,0,0:0:0:0:
192,192,381219,1,0,0:0:0:0:
64,192,381274,1,0,0:0:0:0:
320,192,381301,1,0,0:0:0:0:
448,192,381301,1,0,0:0:0:0:
64,192,381356,1,0,0:0:0:0:
192,192,381411,1,0,0:0:0:0:
320,192,381466,1,0,0:0:0:0:
448,192,381466,1,0,0:0:0:0:
192,192,381521,1,0,0:0:0:0:
64,192,381576,1,0,0:0:0:0:
320,192,381631,1,0,0:0:0:0:
448,192,381686,1,0,0:0:0:0:
192,192,381714,1,0,0:0:0:0:
64,192,381714,1,0,0:0:0:0:
448,192,381769,1,0,0:0:0:0:
320,192,381824,1,0,0:0:0:0:
192,192,381879,1,0,0:0:0:0:
64,192,381934,1,0,0:0:0:0:
320,192,381961,1,0,0:0:0:0:
448,192,381961,1,0,0:0:0:0:
64,192,382016,1,0,0:0:0:0:
192,192,382071,1,0,0:0:0:0:
448,192,382126,1,0,0:0:0:0:
320,192,382126,128,0,382787:0:0:0:0:
64,192,382291,1,0,0:0:0:0:
448,192,382457,1,0,0:0:0:0:
192,192,382457,1,0,0:0:0:0:
64,192,382622,1,0,0:0:0:0:
192,192,382704,1,0,0:0:0:0:
64,192,382787,1,0,0:0:0:0:
448,192,382787,1,0,0:0:0:0:
320,192,382828,1,0,0:0:0:0:
192,192,382869,1,0,0:0:0:0:
448,192,382910,1,0,0:0:0:0:
64,192,382952,1,0,0:0:0:0:
192,192,382993,1,0,0:0:0:0:
320,192,383034,1,0,0:0:0:0:
64,192,383075,1,0,0:0:0:0:
448,192,383117,1,0,0:0:0:0:
320,192,383158,1,0,0:0:0:0:
192,192,383199,1,0,0:0:0:0:
448,192,383241,1,0,0:0:0:0:
64,192,383282,1,0,0:0:0:0:
192,192,383323,1,0,0:0:0:0:
320,192,383364,1,0,0:0:0:0:
64,192,383406,1,0,0:0:0:0:
448,192,383447,1,0,0:0:0:0:
320,192,383488,1,0,0:0:0:0:
192,192,383529,1,0,0:0:0:0:
448,192,383571,1,0,0:0:0:0:
64,192,383612,1,0,0:0:0:0:
192,192,383653,1,0,0:0:0:0:
320,192,383694,1,0,0:0:0:0:
64,192,383736,1,0,0:0:0:0:
448,192,383777,1,0,0:0:0:0:
320,192,383818,1,0,0:0:0:0:
192,192,383860,1,0,0:0:0:0:
448,192,383901,5,0,0:0:0:0:
64,192,383942,1,0,0:0:0:0:
192,192,383983,1,0,0:0:0:0:
320,192,384025,1,0,0:0:0:0:
448,192,384066,1,0,0:0:0:0:
192,192,384107,1,0,0:0:0:0:
64,192,384107,1,0,0:0:0:0:
320,192,384148,1,0,0:0:0:0:
448,192,384190,1,0,0:0:0:0:
64,192,384231,1,0,0:0:0:0:
320,192,384272,1,0,0:0:0:0:
192,192,384272,1,0,0:0:0:0:
448,192,384313,1,0,0:0:0:0:
64,192,384355,1,0,0:0:0:0:
192,192,384396,1,0,0:0:0:0:
448,192,384437,1,0,0:0:0:0:
320,192,384437,1,0,0:0:0:0:
64,192,384479,1,0,0:0:0:0:
192,192,384520,1,0,0:0:0:0:
320,192,384561,1,0,0:0:0:0:
448,192,384602,1,0,0:0:0:0:
64,192,384602,1,0,0:0:0:0:
192,192,384644,1,0,0:0:0:0:
320,192,384685,1,0,0:0:0:0:
448,192,384726,1,0,0:0:0:0:
64,192,384767,1,0,0:0:0:0:
192,192,384767,1,0,0:0:0:0:
64,192,385097,5,0,0:0:0:0:
448,192,385097,1,0,0:0:0:0:
320,192,385428,1,0,0:0:0:0:
448,192,385428,1,0,0:0:0:0:
320,192,385510,1,0,0:0:0:0:
448,192,385510,1,0,0:0:0:0:
192,192,385593,1,0,0:0:0:0:
64,192,385593,1,0,0:0:0:0:
64,192,385675,1,0,0:0:0:0:
192,192,385675,1,0,0:0:0:0:
320,192,385758,1,0,0:0:0:0:
448,192,385758,1,0,0:0:0:0:
320,192,385840,1,0,0:0:0:0:
448,192,385840,1,0,0:0:0:0:
192,192,385923,1,0,0:0:0:0:
64,192,385923,1,0,0:0:0:0:
192,192,386005,1,0,0:0:0:0:
64,192,386005,1,0,0:0:0:0:
320,192,386088,1,0,0:0:0:0:
448,192,386088,1,0,0:0:0:0:
448,192,386170,1,0,0:0:0:0:
192,192,386170,1,0,0:0:0:0:
320,192,386253,1,0,0:0:0:0:
64,192,386253,1,0,0:0:0:0:
192,192,386335,1,0,0:0:0:0:
64,192,386335,1,0,0:0:0:0:
320,192,386418,1,0,0:0:0:0:
448,192,386418,1,0,0:0:0:0:
448,192,386501,1,0,0:0:0:0:
192,192,386501,1,0,0:0:0:0:
320,192,386583,1,0,0:0:0:0:
64,192,386583,1,0,0:0:0:0:
192,192,386666,1,0,0:0:0:0:
64,192,386666,1,0,0:0:0:0:
320,192,386748,1,0,0:0:0:0:
448,192,386748,1,0,0:0:0:0:
192,192,388068,1,0,0:0:0:0:
64,192,388068,1,0,0:0:0:0:
320,192,388151,1,0,0:0:0:0:
64,192,388233,1,0,0:0:0:0:
192,192,388316,1,0,0:0:0:0:
320,192,388398,1,0,0:0:0:0:
448,192,388398,1,0,0:0:0:0:
64,192,388481,1,0,0:0:0:0:
448,192,388563,1,0,0:0:0:0:
320,192,388646,1,0,0:0:0:0:
192,192,388728,1,0,0:0:0:0:
320,192,388852,1,0,0:0:0:0:
192,192,388996,1,0,0:0:0:0:
64,192,389141,1,0,0:0:0:0:
448,192,389141,128,0,389223:0:0:0:0:
192,192,389223,1,0,0:0:0:0:
448,192,389388,128,0,389512:0:0:0:0:
192,192,389512,1,0,0:0:0:0:
448,192,389719,128,0,389966:0:0:0:0:
448,192,390049,128,0,390131:0:0:0:0:
64,192,390131,128,0,393350:0:0:0:0:
