osu file format v14

[General]
AudioFilename: audio.mp3
AudioLeadIn: 0
PreviewTime: 28714
Countdown: 0
SampleSet: Soft
StackLeniency: 0.7
Mode: 2
LetterboxInBreaks: 0
WidescreenStoryboard: 0

[Editor]
Bookmarks: 16789,57589,86389,113357,138957,173684,195284,195359,195509,195584,195659,195734,195809,195959,196109,196184,196334,196484,196559,196709,196784,196859,196934,197009,197084,197159,197234,197309,197384,197459,197534,197609,197684,197759,197834,197909,197984,198059,198134,198209,198284,198359,198434,198509,198584,198659,198734,198809,198884,199034,199109,199184,199259,199334,199409,199484,199559,199634,199709,199784,199859,199934,200009,200084,200159,200234,200309,200384,200459,200609,200684,200759,200834,200909,200984,201059,201134,201209,201284,201359,201434,201509,201659,201809,201884,202034,202109,202259,202409,202559,202634,202784,202859,202934,203009,203084,203159,203234,203309,203384,203459,203534,203609,203684,203759,203834,203909,204059,204209,204284,204434,204584,204659,204734,204809,204884,233684,252884,269684,288884,336284
DistanceSpacing: 1.2
BeatDivisor: 4
GridSize: 32
TimelineZoom: 4.699997

[Metadata]
Title:Galaxy Collision
TitleUnicode:Galaxy Collision
Artist:ReeK
ArtistUnicode:ReeK
Creator:Jemzuu
Version:Jemzuu vs. Unlucky's Dyscontrolled Galaxy
Source:
Tags:canada catch cup 2022 gf tb grandfinals tiebreaker ajamez unlucky_w THX for XX Years DACHiTRAX Machinegun Psystyle Basscore 200step Abyssmal neurohop Techdance Neurofunk Minimal Glitch Hop Metal Breaks Hardstyle Terrorcore Dubstep Hitech Psytrance Artcore Camellia Tribute cametek kamelcamellia masaya oya 大箭将也 instrumental electronic
BeatmapID:3513526
BeatmapSetID:1719293

[Difficulty]
HPDrainRate:5
CircleSize:4.2
OverallDifficulty:9.8
ApproachRate:9.8
SliderMultiplier:2.12
SliderTickRate:2

[Events]
//Background and Video events
0,0,"bg.jpg",0,0
//Break Periods
2,151957,154416
2,195484,204405
//Storyboard Layer 0 (Background)
//Storyboard Layer 1 (Fail)
//Storyboard Layer 2 (Pass)
//Storyboard Layer 3 (Foreground)
//Storyboard Layer 4 (Overlay)
//Storyboard Sound Samples

[TimingPoints]
-11,300,4,2,1,60,1,0
16789,-100,4,2,1,30,0,0
17089,-100,4,2,1,45,0,0
17389,-100,4,2,1,55,0,0
17689,-100,4,2,1,65,0,0
17989,-100,4,2,1,75,0,0
18289,-100,4,2,1,85,0,0
18589,-100,4,2,1,95,0,0
18664,-100,4,2,1,55,0,0
19189,-100,4,2,1,80,0,0
19339,-100,4,2,1,60,0,0
26389,-100,4,2,1,75,0,0
26989,-36.101083032491,4,2,2,85,0,0
27064,-36.101083032491,4,2,2,60,0,0
27289,-100,4,2,1,85,0,0
28789,-35.2112676056338,4,2,1,90,0,1
29389,-100,4,2,1,60,0,0
29839,-76.9230769230769,4,2,1,85,0,1
30289,-100,4,2,1,60,0,0
31039,-83.3333333333333,4,2,1,85,0,1
31339,-100,4,1,3,60,0,0
31639,-100,4,2,1,85,0,1
31939,-100,4,2,1,60,0,0
32239,-83.3333333333333,4,2,1,85,0,1
32539,-100,4,2,1,60,0,0
32839,-100,4,2,1,85,0,1
33139,-100,4,2,1,75,0,0
33439,-83.3333333333333,4,2,1,85,0,1
34189,-100,4,2,1,60,0,0
34639,-100,4,2,1,85,0,1
35239,-100,4,2,3,70,0,0
35389,-100,4,2,1,60,0,0
35689,-100,4,2,3,75,0,0
35839,-100,4,2,1,85,0,1
36289,-100,4,2,1,60,0,0
36589,-100,4,2,3,60,0,0
36814,-100,4,2,1,60,0,0
37039,-36.3636363636364,4,2,1,85,0,1
38089,-100,4,2,3,70,0,0
38389,-80,4,2,1,85,0,1
38989,-100,4,2,1,60,0,0
39439,-100,4,2,1,85,0,1
39889,-100,4,2,1,60,0,0
40489,-100,4,2,3,60,0,0
40639,-35.9712230215827,4,2,1,85,0,1
41164,-87.719298245614,4,2,1,85,0,1
41239,-100,4,2,1,60,0,0
41839,-35.9712230215827,4,2,1,85,0,1
42139,-100,4,2,1,60,0,0
42439,-100,4,2,1,85,0,1
42739,-100,4,2,1,70,0,0
43039,-83.3333333333333,4,2,1,85,0,1
43339,-100,4,2,1,60,0,0
43939,-100,4,2,1,85,0,1
44239,-83.3333333333333,4,2,1,85,0,1
44689,-100,4,2,3,60,0,0
44989,-100,4,2,1,60,0,0
45439,-83.3333333333333,4,2,1,85,0,1
45739,-87.719298245614,4,2,1,85,0,1
47389,-25,4,2,1,60,0,0
47989,-86.9565217391304,4,2,1,90,0,0
48139,-86.9565217391304,4,2,1,60,0,0
52189,-86.9565217391304,4,2,1,67,0,0
52789,-86.9565217391304,4,2,1,74,0,0
53989,-86.9565217391304,4,2,1,80,0,0
55189,-86.9565217391304,4,2,1,84,0,0
56539,-86.9565217391304,4,2,1,65,0,0
57289,-86.9565217391304,4,2,1,80,0,0
57589,-83.3333333333333,4,2,1,70,0,0
62389,-90.9090909090909,4,2,1,70,0,0
64489,-76.9230769230769,4,2,1,70,0,0
64939,-100,4,2,1,70,0,0
66139,-76.9230769230769,4,2,1,70,0,0
66439,-100,4,2,1,70,0,0
66664,-100,4,2,2,80,0,0
67189,-50,4,2,1,70,0,0
67489,-83.3333333333333,4,2,1,70,0,0
68689,-88.4955752212389,4,2,1,70,0,0
69589,-50,4,2,1,70,0,0
69739,-100,4,2,1,70,0,0
71689,-66.6666666666667,4,2,2,70,0,0
71764,-66.6666666666667,4,2,1,70,0,0
71989,-100,4,2,1,70,0,0
74389,-90.9090909090909,4,2,1,70,0,0
76189,-90.9090909090909,4,2,2,70,0,0
76789,-100,4,2,1,60,0,0
83989,-100,4,2,1,50,0,0
86389,-90.9090909090909,4,2,1,60,0,0
89389,-40,4,2,1,70,0,0
89614,-90.9090909090909,4,2,1,70,0,0
91189,300,3,2,1,70,1,0
94789,300,4,2,1,70,1,0
94789,-90.9090909090909,4,2,1,70,0,0
97189,-83.3333333333333,4,2,1,70,0,0
97639,-83.3333333333333,4,2,1,70,0,0
100789,-100,4,2,1,70,0,0
101989,-90.9090909090909,4,2,1,70,0,0
102589,306.122448979592,4,2,1,70,1,8
103201,312.5,4,2,1,70,1,0
103826,322.58064516129,4,2,1,70,1,8
104471,324.324324324324,4,2,1,70,1,0
105119,333.333333333333,4,2,1,70,1,8
105785,340.909090909091,4,2,1,70,1,0
106466,348.837209302326,4,2,1,70,1,8
107163,357.142857142857,4,2,1,70,1,0
107877,372.670807453416,4,2,1,70,1,8
108622,379.746835443038,4,2,1,70,1,0
109383,387.096774193548,4,2,1,70,1,8
110157,400,4,2,1,70,1,0
111757,-71.4285714285714,4,2,1,70,0,0
113357,-62.5,4,2,1,70,0,0
115357,-50,4,2,1,70,0,0
115557,-62.5,4,2,1,70,0,0
119557,-50,4,2,1,70,0,0
119757,-38.4615384615385,4,2,1,70,0,0
119957,-38.4615384615385,4,2,2,70,0,0
120957,-50,4,2,2,70,0,0
121357,-38.4615384615385,4,2,2,70,0,0
121757,-50,4,2,2,70,0,0
122357,-50,4,2,1,70,0,0
122957,-62.5,4,2,1,70,0,0
125757,-100,4,2,2,70,0,0
125823,-100,4,2,1,70,0,0
126257,-100,4,2,2,70,0,0
126557,-62.5,4,2,1,70,0,0
132057,-62.5,4,2,1,70,0,0
132357,-62.5,4,2,1,70,0,0
132557,-31.25,4,2,1,85,0,0
132957,-62.5,4,2,1,85,0,0
134757,-33.3333333333333,4,2,1,85,0,0
134957,-62.5,4,2,1,85,0,0
136557,-40,4,2,1,85,0,0
136757,-62.5,4,2,1,70,0,0
137357,-100,4,2,1,70,0,0
138957,-71.4285714285714,4,2,1,70,0,0
145057,-71.4285714285714,4,2,1,70,0,0
145357,-66.6666666666667,4,2,1,70,0,0
145657,-71.4285714285714,4,2,1,70,0,0
146957,-62.5,4,2,1,70,0,0
147157,-71.4285714285714,4,2,1,70,0,0
147557,-37.4531835205993,4,2,1,70,0,0
147757,-71.4285714285714,4,2,1,70,0,0
148557,-61.3496932515337,4,2,1,70,0,0
148857,-69.9300699300699,4,2,1,70,0,0
150357,-69.9300699300699,4,2,1,70,0,0
151657,-69.9300699300699,4,2,1,70,0,0
151757,-100,4,2,1,60,0,0
153357,384.615384615385,4,2,1,60,1,0
154895,379.746835443038,4,2,1,60,1,0
156413,372.670807453416,4,2,1,60,1,0
157903,365.853658536585,4,2,1,60,1,0
159366,352.941176470588,4,2,1,60,1,0
160777,350.877192982456,4,2,1,60,1,0
162180,342.857142857143,4,2,1,60,1,0
163551,338.983050847458,4,2,1,60,1,0
164906,331.491712707182,4,2,1,60,1,0
166231,324.324324324324,4,2,1,60,1,0
167528,315.789473684211,4,2,1,60,1,0
170054,307.692307692308,4,2,1,60,1,0
171284,300,4,2,1,60,1,0
173384,-83.3333333333333,4,2,1,85,0,0
173684,-66.6666666666667,4,2,1,85,0,0
173984,-66.6666666666667,4,2,99,85,0,0
174059,-66.6666666666667,4,2,1,85,0,0
174284,-66.6666666666667,4,2,99,85,0,0
174359,-66.6666666666667,4,2,1,85,0,0
174584,-66.6666666666667,4,2,99,85,0,0
174659,-66.6666666666667,4,2,1,85,0,0
174734,-66.6666666666667,4,2,99,85,0,0
174809,-66.6666666666667,4,2,1,85,0,0
175184,-66.6666666666667,4,2,99,85,0,0
175259,-66.6666666666667,4,2,1,85,0,0
175484,-66.6666666666667,4,2,99,85,0,0
175559,-66.6666666666667,4,2,1,85,0,0
175784,-66.6666666666667,4,2,99,85,0,0
175859,-66.6666666666667,4,2,1,85,0,0
175934,-66.6666666666667,4,2,99,85,0,0
176009,-66.6666666666667,4,2,1,85,0,0
176684,-50,4,2,3,85,0,1
177884,-66.6666666666667,4,2,1,85,0,0
178784,-66.6666666666667,4,2,99,85,0,0
178859,-66.6666666666667,4,2,1,85,0,0
179084,-66.6666666666667,4,2,99,85,0,0
179159,-66.6666666666667,4,2,1,85,0,0
179384,-66.6666666666667,4,2,99,85,0,0
179459,-66.6666666666667,4,2,1,85,0,0
179534,-66.6666666666667,4,2,99,85,0,0
179609,-66.6666666666667,4,2,1,85,0,0
179984,-66.6666666666667,4,2,99,85,0,0
180059,-66.6666666666667,4,2,1,85,0,0
180284,-66.6666666666667,4,2,99,85,0,0
180359,-66.6666666666667,4,2,1,85,0,0
180584,-66.6666666666667,4,2,99,85,0,0
180659,-66.6666666666667,4,2,1,85,0,0
181334,-66.6666666666667,4,2,99,85,0,0
181409,-66.6666666666667,4,2,1,85,0,0
181784,-76.9230769230769,4,2,1,85,0,0
182384,-66.6666666666667,4,2,3,85,0,0
182684,-66.6666666666667,4,2,3,85,0,0
182984,-66.6666666666667,4,2,1,85,0,0
183134,-66.6666666666667,4,2,1,85,0,0
183209,-66.6666666666667,4,2,1,85,0,0
183884,-66.6666666666667,4,2,99,60,0,0
183959,-66.6666666666667,4,2,1,60,0,0
184184,-66.6666666666667,4,2,99,60,0,0
184259,-66.6666666666667,4,2,1,60,0,0
184334,-66.6666666666667,4,2,99,60,0,0
184409,-66.6666666666667,4,2,1,60,0,0
184784,-66.6666666666667,4,2,99,60,0,0
184859,-66.6666666666667,4,2,1,60,0,0
185084,-66.6666666666667,4,2,99,60,0,0
185159,-66.6666666666667,4,2,1,60,0,0
185234,-66.6666666666667,4,2,99,60,0,0
185309,-66.6666666666667,4,2,1,60,0,0
185534,-66.6666666666667,4,2,99,60,0,0
185609,-66.6666666666667,4,2,1,60,0,0
185684,-58.8235294117647,4,2,1,85,0,0
185984,-66.6666666666667,4,2,99,60,0,0
186059,-66.6666666666667,4,2,1,60,0,0
186284,-100,4,2,1,85,0,1
187184,-100,4,2,3,85,0,1
187484,-90.9090909090909,4,2,3,85,0,9
188084,-100,4,2,1,85,0,0
188984,-66.6666666666667,4,2,99,60,0,0
189059,-66.6666666666667,4,2,1,60,0,0
189284,-76.9230769230769,4,2,1,85,0,0
189584,-66.6666666666667,4,2,99,60,0,0
189659,-66.6666666666667,4,2,1,60,0,0
190034,-66.6666666666667,4,2,99,60,0,0
190109,-66.6666666666667,4,2,1,60,0,0
190184,-66.6666666666667,4,2,99,60,0,0
190259,-66.6666666666667,4,2,1,60,0,0
190484,-90.9090909090909,4,2,1,85,0,0
191984,-100,4,2,1,40,0,0
192284,-100,4,2,1,45,0,0
192584,-100,4,2,1,50,0,0
192884,-100,4,2,1,55,0,0
193034,-100,4,2,1,60,0,0
193184,-100,4,2,1,65,0,0
193334,-100,4,2,1,67,0,0
193484,-100,4,2,1,70,0,0
193634,-100,4,2,1,74,0,0
193784,-100,4,2,1,78,0,0
193934,-100,4,2,1,82,0,0
194084,-100,4,2,1,85,0,0
194159,-100,4,2,1,60,0,0
194684,-100,4,2,1,70,0,0
194909,-100,4,2,1,80,0,0
195134,-100,4,2,1,85,0,0
195284,-100,4,2,1,90,0,0
204884,-100,4,2,1,50,0,0
205034,-100,4,2,1,70,0,0
205184,-100,4,2,1,50,0,0
207284,-100,4,2,1,55,0,0
208484,-100,4,2,1,60,0,0
209684,-88.4955752212389,4,2,1,65,0,0
210584,-88.4955752212389,4,2,1,70,0,0
210884,-88.4955752212389,4,2,1,75,0,0
211334,-88.4955752212389,4,2,1,78,0,0
211784,-88.4955752212389,4,2,1,82,0,0
212084,-88.4955752212389,4,2,1,50,0,0
212234,-88.4955752212389,4,2,1,58,0,0
212384,-88.4955752212389,4,2,1,64,0,0
212534,-88.4955752212389,4,2,1,68,0,0
212684,-88.4955752212389,4,2,1,73,0,0
212834,-88.4955752212389,4,2,1,77,0,0
212984,-88.4955752212389,4,2,1,81,0,0
213134,-88.4955752212389,4,2,1,85,0,0
213284,-88.4955752212389,4,2,1,90,0,0
213359,-88.4955752212389,4,2,1,65,0,0
214484,-86.9565217391304,4,2,1,60,0,1
214784,-86.9565217391304,4,2,4,85,0,1
214934,-40,4,2,4,85,0,1
215009,-66.6666666666667,4,2,4,85,0,1
215384,-40,4,2,4,85,0,1
215459,-86.9565217391304,4,2,4,85,0,1
216134,-40,4,2,4,85,0,1
216209,-86.9565217391304,4,2,4,85,0,1
216584,-40,4,2,4,85,0,1
216659,-86.9565217391304,4,2,4,85,0,1
218534,-40,4,2,4,85,0,1
218609,-86.9565217391304,4,2,4,85,0,1
223934,-86.9565217391304,4,2,4,85,0,0
224084,-86.9565217391304,4,2,1,85,0,1
224159,-86.9565217391304,4,2,4,85,0,1
224534,-40,4,2,4,85,0,1
224609,-86.9565217391304,4,2,4,85,0,1
224984,-40,4,2,4,85,0,1
225059,-86.9565217391304,4,2,4,85,0,1
225734,-40,4,2,4,85,0,1
225809,-86.9565217391304,4,2,4,85,0,1
226184,-40,4,2,4,85,0,1
226259,-86.9565217391304,4,2,4,85,0,1
228884,-100,4,2,1,75,0,0
231284,-88.4955752212389,4,2,1,80,0,0
233684,-86.9565217391304,4,2,2,85,0,1
233759,-86.9565217391304,4,2,1,75,0,0
240884,-62.5,4,2,1,75,0,0
241184,-83.3333333333333,4,2,1,75,0,0
241934,-83.3333333333333,4,2,4,75,0,0
242009,-83.3333333333333,4,2,1,75,0,0
242084,-41.6666666666667,4,2,1,75,0,1
243284,-86.9565217391304,4,2,2,75,0,0
243359,-86.9565217391304,4,2,1,75,0,0
246584,-86.9565217391304,4,2,3,75,0,0
246884,-86.9565217391304,4,2,1,75,0,0
247184,-76.9230769230769,4,2,1,75,0,0
247484,-86.9565217391304,4,2,1,75,0,0
248084,-66.6666666666667,4,2,1,75,0,0
248684,-83.3333333333333,4,2,1,80,0,0
249284,-71.4285714285714,4,2,1,80,0,0
249584,-76.9230769230769,4,2,1,80,0,0
250484,-86.9565217391304,4,2,1,80,0,1
251084,-66.6666666666667,4,2,1,80,0,0
251384,-86.9565217391304,4,2,1,80,0,1
251984,-66.6666666666667,4,2,1,80,0,0
252284,-100,4,2,1,80,0,1
252584,-83.3333333333333,4,2,1,80,0,0
252884,-100,4,2,1,60,0,1
252959,-100,4,2,4,60,0,0
255284,-100,4,2,1,70,0,0
262484,-88.4955752212389,4,2,1,45,0,0
262634,-88.4955752212389,4,2,1,47,0,0
262784,-88.4955752212389,4,2,1,50,0,0
262934,-88.4955752212389,4,2,1,53,0,0
263084,-88.4955752212389,4,2,1,56,0,0
263234,-88.4955752212389,4,2,1,60,0,0
263384,-88.4955752212389,4,2,1,62,0,0
263534,-88.4955752212389,4,2,1,65,0,0
263684,-88.4955752212389,4,2,1,68,0,0
263834,-88.4955752212389,4,2,1,70,0,0
263984,-88.4955752212389,4,2,1,72,0,0
264134,-88.4955752212389,4,2,1,74,0,0
264284,-88.4955752212389,4,2,1,76,0,0
264434,-88.4955752212389,4,2,1,78,0,0
264584,-88.4955752212389,4,2,1,80,0,0
264734,-88.4955752212389,4,2,1,82,0,0
264884,-88.4955752212389,4,2,1,84,0,0
265034,-88.4955752212389,4,2,1,86,0,0
265184,-88.4955752212389,4,2,1,88,0,0
265334,-88.4955752212389,4,2,1,90,0,0
265484,-88.4955752212389,4,2,1,90,0,0
266984,-88.4955752212389,4,2,1,80,0,0
267134,-88.4955752212389,4,2,1,70,0,0
267284,-88.4955752212389,4,2,1,60,0,0
267434,-88.4955752212389,4,2,1,50,0,0
267584,-88.4955752212389,4,2,1,40,0,0
267734,-88.4955752212389,4,2,1,30,0,0
267884,-88.4955752212389,4,2,1,20,0,0
268034,-88.4955752212389,4,2,1,15,0,0
268184,-88.4955752212389,4,2,1,10,0,0
268334,-88.4955752212389,4,2,1,5,0,0
268484,-88.4955752212389,4,2,1,65,0,0
269684,-35.7142857142857,4,2,1,80,0,0
269984,-76.9230769230769,4,2,1,80,0,0
270284,-40,4,2,1,80,0,0
271784,-100,4,2,1,80,0,0
272084,-33.3333333333333,4,2,1,80,0,0
272384,-58.8235294117647,4,2,1,80,0,0
272684,-88.4955752212389,4,2,1,80,0,0
273284,-40,4,2,1,80,0,0
273584,-83.3333333333333,4,2,1,80,0,0
273884,-83.3333333333333,4,2,4,80,0,0
273959,-83.3333333333333,4,2,1,80,0,0
274184,-83.3333333333333,4,2,4,80,0,0
274259,-83.3333333333333,4,2,1,80,0,0
274484,-45.4545454545455,4,2,1,80,0,0
274784,-76.9230769230769,4,2,1,80,0,0
275084,-40,4,2,1,80,0,0
276584,-66.6666666666667,4,2,3,80,0,0
276884,-88.4955752212389,4,2,1,80,0,0
279284,-33.3333333333333,4,2,1,80,0,1
279584,-83.3333333333333,4,2,1,80,0,0
280484,-40,4,2,1,80,0,1
280784,-83.3333333333333,4,2,1,80,0,0
281684,-41.6666666666667,4,2,1,80,0,1
281984,-83.3333333333333,4,2,1,80,0,0
283784,-76.9230769230769,4,2,4,80,0,0
283859,-76.9230769230769,4,2,1,80,0,0
284084,-100,4,2,1,80,0,1
284684,-83.3333333333333,4,2,1,80,0,0
285284,-100,4,2,1,80,0,1
285884,-83.3333333333333,4,2,1,80,0,0
286484,-83.3333333333333,4,2,1,80,0,1
286784,-66.6666666666667,4,2,1,80,0,0
287084,-83.3333333333333,4,2,1,80,0,1
287384,-83.3333333333333,4,2,1,80,0,0
287684,-83.3333333333333,4,2,1,80,0,1
287759,-100,4,2,1,80,0,0
288884,-100,4,2,1,80,0,1
288959,-100,4,2,1,50,0,0
326984,-100,4,2,1,55,0,0
327884,-100,4,2,1,50,0,0
328484,-100,4,2,1,40,0,0
329384,-100,4,2,1,30,0,0
330284,-100,4,2,1,20,0,0
331184,-100,4,2,1,15,0,0
332084,-100,4,2,1,10,0,0
333284,-100,4,2,1,15,0,0
333884,-100,4,2,1,25,0,0
334484,-100,4,2,1,35,0,0
335084,-100,4,2,1,45,0,0
335534,-100,4,2,1,55,0,0
335909,-100,4,2,1,65,0,0
336134,-100,4,2,1,75,0,0
336284,-100,4,2,1,5,0,0

[Colours]
Combo1 : 255,179,255
Combo2 : 255,147,147
Combo3 : 176,176,255
Combo4 : 128,255,255

[HitObjects]
210,284,16789,5,0,3:0:0:0:
203,175,16939,1,0,3:0:0:0:
334,163,17089,1,0,3:0:0:0:
337,65,17239,1,0,3:0:0:0:
475,53,17389,1,0,3:0:0:0:
346,28,17539,1,0,3:0:0:0:
197,37,17689,1,0,3:0:0:0:
334,19,17839,1,0,3:0:0:0:
84,135,17989,6,0,L|21:131,1,53,0|0,3:0|3:0,3:0:0:0:
228,221,18139,2,0,L|319:214,1,53,0|0,3:0|3:0,3:0:0:0:
75,304,18289,2,0,L|46:266,2,26.5,0|0|0,3:0|3:0|3:0,3:0:0:0:
296,335,18439,2,0,L|325:297,2,26.5,0|0|0,3:0|3:0|3:0,3:0:0:0:
55,372,18589,6,0,L|50:258,1,106,0|2,3:0|0:0,0:0:0:0:
50,266,18776,1,2,0:0:0:0:
50,266,18889,1,2,0:0:0:0:
50,266,19001,1,2,0:0:0:0:
50,266,19114,1,2,0:0:0:0:
283,39,19189,5,6,3:2:0:0:
383,54,19339,1,2,0:2:0:0:
429,145,19489,1,2,0:2:0:0:
382,235,19639,1,2,0:3:0:0:
276,254,19789,1,2,0:2:0:0:
326,278,19864,1,2,0:2:0:0:
383,287,19939,1,2,0:2:0:0:
247,351,20089,5,2,0:3:0:0:
372,357,20239,1,2,0:2:0:0:
423,252,20389,1,2,0:2:0:0:
372,357,20539,1,2,0:3:0:0:
243,338,20689,2,2,L|178:333,1,53,2|2,0:2|0:2,0:2:0:0:
249,309,20839,5,2,0:3:0:0:
125,275,20989,1,2,0:2:0:0:
75,160,21139,1,2,0:2:0:0:
125,275,21289,1,2,0:3:0:0:
249,309,21439,1,2,0:3:0:0:
105,369,21589,5,2,0:3:0:0:
90,249,21739,1,2,0:2:0:0:
231,226,21889,1,2,0:2:0:0:
237,132,22039,1,2,0:3:0:0:
382,98,22189,2,2,L|329:75,1,53,2|2,0:2|0:2,0:2:0:0:
276,70,22339,1,2,0:2:0:0:
413,31,22489,5,2,0:3:0:0:
470,158,22639,1,2,0:2:0:0:
413,31,22789,1,2,0:2:0:0:
279,28,22939,1,2,0:3:0:0:
147,115,23089,6,2,L|200:138,1,53,2|2,0:2|0:2,0:2:0:0:
253,143,23239,1,2,0:3:0:0:
123,222,23389,2,2,L|63:231,1,53,2|2,0:2|0:2,0:2:0:0:
126,248,23539,2,2,L|210:248,1,53,2|2,0:2|0:2,0:2:0:0:
122,278,23689,2,2,L|42:284,1,53,2|2,0:3|0:2,0:2:0:0:
140,303,23839,2,2,L|65:313,1,53,2|2,0:3|0:2,0:2:0:0:
296,338,23989,5,2,0:3:0:0:
415,349,24139,1,2,0:2:0:0:
291,296,24289,1,2,0:2:0:0:
427,315,24439,1,2,0:3:0:0:
287,249,24589,2,2,L|234:226,1,53,2|2,0:2|0:2,0:2:0:0:
181,221,24739,1,2,0:2:0:0:
437,213,24889,5,2,0:3:0:0:
443,119,25039,1,2,0:2:0:0:
299,146,25189,1,2,0:2:0:0:
288,48,25339,1,2,0:3:0:0:
138,63,25489,6,2,L|191:40,1,53,2|2,0:2|0:2,0:2:0:0:
244,35,25639,1,2,0:3:0:0:
384,39,25789,1,2,0:3:0:0:
248,137,25939,1,2,0:3:0:0:
105,168,26089,1,2,0:3:0:0:
240,229,26239,2,2,L|309:228,1,53,2|2,0:3|0:2,0:2:0:0:
155,287,26389,5,2,3:1:0:0:
17,311,26464,1,0,3:0:0:0:
162,332,26539,2,0,L|166:260,1,53,2|0,3:1|3:0,3:0:0:0:
343,225,26689,2,0,L|268:211,1,53,2|0,3:1|0:0,0:0:0:0:
103,119,26839,2,0,L|181:105,1,53,2|0,3:1|0:0,0:0:0:0:
359,30,26989,6,0,B|320:180|320:180|216:85|216:85|508:118,1,587.240019265229,8|2,3:1|3:1,0:0:0:0:
369,204,27364,5,0,3:0:0:0:
227,232,27439,2,0,L|312:244,1,53,2|0,3:1|3:0,3:0:0:0:
470,327,27589,2,0,L|477:253,1,53,2|0,3:1|0:0,0:0:0:0:
297,360,27739,2,0,L|288:282,1,53,2|0,3:1|0:0,0:0:0:0:
110,299,27889,5,2,3:1:0:0:
256,245,27964,1,0,3:0:0:0:
406,199,28039,2,0,L|332:197,1,53,2|0,3:1|3:0,3:0:0:0:
110,187,28189,6,0,L|110:14,1,159,2|0,3:1|0:0,0:0:0:0:
110,187,28489,6,0,L|110:14,1,159,2|0,0:1|0:0,0:0:0:0:
323,34,28789,6,0,B|77:206|77:206|36:50|36:50|21:202|21:202|60:336|60:336|99:191|99:191|154:339,1,1053.63994694501,6|0,3:2|0:0,0:0:0:0:
94,342,29389,6,2,L|64:295,2,35.3333333333333,2|2|2,0:1|0:1|0:1,0:1:0:0:
137,353,29539,1,2,0:1:0:0:
228,354,29639,1,2,0:1:0:0:
137,353,29739,1,2,0:1:0:0:
364,355,29839,6,0,P|377:283|170:175,1,344.499984230042,6|0,3:2|0:0,0:0:0:0:
176,171,30289,2,0,L|175:153,1,13.25,2|0,0:3|0:0,0:0:0:0:
303,140,30439,2,0,L|326:100,2,26.5,0|0|0,1:0|1:0|1:0,1:0:0:0:
239,154,30589,5,2,0:3:0:0:
472,184,30739,2,0,L|487:208,2,26.5,2|0|0,1:1|1:1|1:1,1:1:0:0:
266,262,30889,1,2,1:1:0:0:
210,267,30964,1,0,1:0:0:0:
439,346,31039,6,0,P|455:280|332:249,1,190.799994177246,6|0,3:2|0:0,0:0:0:0:
157,191,31339,1,2,2:1:0:0:
285,164,31489,1,2,2:1:0:0:
37,295,31639,6,0,L|30:95,1,159,6|0,3:2|0:0,0:0:0:0:
222,75,31939,2,0,L|104:70,1,106,2|2,0:1|0:1,0:0:0:0:
116,70,32126,1,2,0:1:0:0:
116,70,32164,1,2,0:1:0:0:
342,38,32239,6,0,P|331:110|203:154,1,190.799994177246,6|0,3:2|0:0,0:0:0:0:
166,159,32539,1,2,0:1:0:0:
166,159,32689,1,0,1:0:0:0:
166,159,32726,1,0,1:0:0:0:
166,159,32764,1,0,1:0:0:0:
389,144,32839,6,0,L|399:328,1,159,6|0,3:2|0:0,0:0:0:0:
210,379,33139,2,0,L|146:382,1,53,8|0,3:2|3:0,3:2:0:0:
397,302,33289,2,0,L|469:310,1,53,8|0,3:2|3:0,3:0:0:0:
201,308,33439,6,0,P|281:98|332:315,1,572.399982531739,6|0,3:2|0:0,0:0:0:0:
149,320,34189,5,2,1:0:0:0:
139,295,34226,1,0,1:0:0:0:
142,268,34264,1,2,1:0:0:0:
158,246,34301,1,0,1:0:0:0:
185,230,34339,1,2,1:0:0:0:
225,224,34376,1,0,1:0:0:0:
268,225,34414,1,2,1:0:0:0:
294,240,34451,1,0,1:0:0:0:
310,263,34489,1,2,1:0:0:0:
313,289,34526,1,0,1:0:0:0:
302,314,34564,1,2,1:0:0:0:
57,351,34639,6,0,P|34:263|252:100,1,371,6|0,3:2|0:0,0:0:0:0:
24,88,35239,6,0,L|21:20,1,53,2|0,0:1|0:0,0:0:0:0:
207,20,35389,1,2,1:0:0:0:
234,17,35426,1,0,1:0:0:0:
261,15,35464,1,0,1:0:0:0:
73,252,35539,5,0,1:0:0:0:
70,225,35576,1,0,1:0:0:0:
68,198,35614,1,0,1:0:0:0:
265,222,35689,2,0,L|279:147,1,53,2|0,0:1|0:0,0:0:0:0:
480,66,35839,6,0,L|201:95,1,265,6|0,3:2|0:0,0:0:0:0:
405,172,36289,1,2,1:1:0:0:
431,174,36326,1,0,1:1:0:0:
457,177,36364,1,0,1:1:0:0:
369,236,36439,1,2,1:1:0:0:
362,261,36476,1,0,1:1:0:0:
355,286,36514,1,0,1:1:0:0:
146,337,36589,6,0,L|116:302,2,26.5,2|0|0,1:1|1:1|1:1,1:1:0:0:
178,338,36701,1,0,1:1:0:0:
215,339,36739,1,2,1:1:0:0:
280,345,36814,1,0,1:1:0:0:
83,204,36889,1,2,1:1:0:0:
54,204,36926,1,0,1:1:0:0:
26,204,36964,1,0,1:1:0:0:
244,222,37039,6,0,B|305:94|305:94|367:228|367:228|60:215,3,583.000005559921,6|6|6|2,3:2|3:2|3:2|3:1,0:0:0:0:
61,166,38014,5,0,0:0:0:0:
229,146,38089,2,0,L|238:73,1,53,2|0,0:1|0:0,0:0:0:0:
417,59,38239,2,0,L|481:50,1,53,2|0,0:1|0:0,0:0:0:0:
247,11,38389,6,0,P|172:46|330:260,1,463.75,6|0,3:2|0:0,0:0:0:0:
261,278,38989,6,2,L|231:231,2,35.3333333333333,2|2|2,0:1|0:1|0:1,0:1:0:0:
304,289,39139,1,2,0:1:0:0:
203,321,39239,1,2,0:1:0:0:
304,289,39339,1,2,0:1:0:0:
48,335,39439,6,0,P|26:249|154:133,1,265,6|0,3:2|0:0,0:0:0:0:
205,134,39889,2,0,L|204:116,1,13.25,2|0,0:3|0:0,0:0:0:0:
74,52,40039,2,0,L|51:12,2,26.5,0|0|0,1:0|1:0|1:0,1:0:0:0:
239,78,40189,5,2,1:0:0:0:
243,51,40226,1,0,1:0:0:0:
247,25,40264,1,0,1:0:0:0:
414,24,40339,2,0,L|483:32,1,53,2|0,0:1|0:0,0:0:0:0:
336,142,40489,1,2,0:1:0:0:
203,193,40564,1,0,0:0:0:0:
372,317,40639,6,0,B|427:177|427:177|478:312|478:311|479:311|479:311|182:311|182:311|272:289|272:289|296:84|296:84|196:198,1,1031.38003147522,6|2,3:2|0:0,0:0:0:0:
143,186,41239,5,2,0:2:0:0:
98,147,41314,1,2,0:2:0:0:
81,90,41389,1,2,0:2:0:0:
99,33,41464,1,2,0:2:0:0:
145,0,41539,1,2,0:2:0:0:
205,0,41614,1,2,0:2:0:0:
270,24,41689,2,0,L|318:29,2,26.5,2|0|0,1:1|1:1|1:1,1:1:0:0:
59,76,41839,6,0,B|12:229|12:229|59:101|59:101|389:89,1,589.36001798584,6|0,3:2|1:0,0:0:0:0:
380,95,42176,1,0,1:0:0:0:
401,113,42214,1,0,1:0:0:0:
408,138,42251,1,0,1:0:0:0:
400,163,42289,1,0,1:0:0:0:
333,189,42364,1,0,1:0:0:0:
110,318,42439,6,0,P|96:262|194:221,1,159,6|0,3:2|0:0,0:0:0:0:
381,320,42739,2,0,L|449:323,1,53,8|0,3:2|3:0,3:0:0:0:
192,111,42889,2,0,L|99:109,1,53,8|0,3:2|3:0,3:0:0:0:
372,28,43039,6,0,P|443:50|352:153,1,254.399992236328,6|2,3:2|0:1,0:0:0:0:
255,184,43489,1,2,0:1:0:0:
387,256,43639,1,2,0:1:0:0:
244,286,43789,1,2,0:1:0:0:
6,126,43939,6,0,L|176:97,1,159,6|0,3:2|0:0,0:0:0:0:
407,55,44239,6,0,P|367:137|200:182,1,254.399992236328,6|0,3:2|1:0,0:0:0:0:
149,182,44614,1,0,1:0:0:0:
218,228,44689,2,0,L|309:222,1,53,2|0,1:0|1:0,1:0:0:0:
195,254,44839,2,0,L|274:259,1,53,2|0,1:0|1:0,1:0:0:0:
442,308,44989,6,0,L|468:266,2,26.5,2|0|0,1:0|1:0|1:0,1:0:0:0:
261,365,45139,2,0,L|187:368,1,53,2|0,1:0|1:0,1:0:0:0:
22,285,45289,1,2,1:0:0:0:
49,281,45326,1,0,1:0:0:0:
77,278,45364,1,0,1:0:0:0:
304,284,45439,6,0,P|323:211|159:138,1,254.399992236328,6|4,3:2|0:3,0:0:0:0:
264,117,45814,2,0,L|305:52,2,60.4199992624512,0|8|0,0:0|0:3|0:0,0:0:0:0:
195,119,46039,2,8,L|296:118,1,60.4199992624512,8|8,0:3|0:3,0:3:0:0:
423,149,46189,6,4,L|440:236,1,60.4199992624512,4|4,0:3|0:3,0:3:0:0:
268,247,46339,2,0,L|255:313,1,60.4199992624512,4|0,0:3|0:0,0:0:0:0:
336,324,46489,2,8,L|254:337,1,60.4199992624512,8|8,0:3|0:3,0:3:0:0:
109,340,46639,2,0,L|102:273,1,60.4199992624512,4|0,0:3|0:0,0:0:0:0:
265,233,46789,6,8,L|350:225,1,60.4199992624512,8|8,0:3|0:3,0:3:0:0:
257,208,46939,2,8,L|180:208,1,60.4199992624512,8|8,0:3|0:3,0:3:0:0:
399,145,47089,2,4,L|476:138,1,60.4199992624512,4|4,0:3|0:3,0:3:0:0:
209,76,47239,2,4,L|122:69,1,60.4199992624512,4|4,0:3|0:3,0:3:0:0:
383,22,47389,6,0,B|430:236|430:236|481:35|481:35|430:241|430:241|374:33|374:33|429:235|429:235|490:34|490:34|15:34,1,1696,2|4,3:2|3:1,0:0:0:0:
172,72,48139,5,2,0:2:0:0:
221,179,48289,1,2,0:3:0:0:
172,287,48439,1,2,0:2:0:0:
67,317,48589,1,2,0:3:0:0:
193,344,48739,1,2,0:2:0:0:
320,347,48889,1,2,0:3:0:0:
324,227,49039,1,2,0:2:0:0:
184,187,49189,5,2,0:3:0:0:
316,151,49339,1,2,0:2:0:0:
323,90,49414,1,2,0:2:0:0:
330,29,49489,1,2,0:3:0:0:
463,15,49639,1,2,0:2:0:0:
326,77,49789,5,2,0:3:0:0:
460,125,49939,1,2,0:2:0:0:
453,186,50014,1,2,0:2:0:0:
446,247,50089,1,2,0:3:0:0:
306,280,50239,2,2,L|221:297,1,60.950001162529,2|2,0:2|0:2,0:2:0:0:
35,338,50389,5,6,3:2:0:0:
157,332,50539,1,2,0:2:0:0:
164,271,50614,1,2,0:2:0:0:
171,210,50689,1,2,0:3:0:0:
37,177,50839,5,2,0:2:0:0:
175,161,50989,1,2,0:3:0:0:
119,144,51064,1,2,0:2:0:0:
95,90,51139,1,2,0:2:0:0:
119,36,51214,1,2,0:2:0:0:
176,20,51289,1,2,0:3:0:0:
36,30,51439,1,2,0:2:0:0:
306,51,51589,6,0,L|375:58,2,60.950001162529,2|0|0,3:1|3:0|3:0,3:0:0:0:
120,168,51814,2,0,L|41:182,1,60.950001162529,2|0,3:1|3:0,3:0:0:0:
239,192,51964,2,0,L|246:271,1,60.950001162529,2|0,3:1|3:0,3:0:0:0:
176,275,52114,1,0,3:0:0:0:
355,290,52189,6,0,L|430:279,2,60.950001162529,2|0|0,3:1|3:0|3:0,3:0:0:0:
164,313,52414,2,0,L|225:362,1,60.950001162529,2|0,3:1|3:0,3:0:0:0:
280,361,52564,1,0,3:0:0:0:
458,144,52639,2,0,L|369:134,1,60.950001162529,2|0,3:1|3:0,3:0:0:0:
217,208,52789,6,0,L|204:73,1,121.900002325058,2|0,3:1|0:0,0:0:0:0:
27,73,53014,2,0,L|152:15,1,121.900002325058,2|0,3:1|0:0,0:0:0:0:
286,28,53239,1,0,3:0:0:0:
137,21,53314,6,0,L|-1:51,1,121.900002325058,2|0,3:1|0:0,0:0:0:0:
188,140,53539,2,0,L|205:271,1,121.900002325058,2|0,3:1|0:0,0:0:0:0:
375,305,53764,2,0,L|511:350,1,121.900002325058,2|0,3:1|0:0,0:0:0:0:
317,359,53989,2,0,L|232:360,2,60.950001162529,2|0|0,3:1|3:0|3:0,3:0:0:0:
144,281,54214,6,0,L|11:263,1,121.900002325058,2|0,3:1|0:0,0:0:0:0:
213,203,54439,2,0,L|349:181,1,121.900002325058,2|0,3:1|0:0,0:0:0:0:
126,162,54664,2,0,L|104:15,1,121.900002325058,2|0,3:1|0:0,0:0:0:0:
308,38,54889,2,0,L|386:37,1,60.950001162529,2|0,3:1|0:0,0:0:0:0:
177,108,55039,2,0,L|165:31,1,60.950001162529,2|0,3:1|0:0,0:0:0:0:
379,113,55189,6,0,L|461:102,2,60.950001162529,2|0|0,3:1|3:0|3:0,3:0:0:0:
188,209,55414,2,0,L|248:258,1,60.950001162529,2|0,3:1|3:0,3:0:0:0:
302,258,55564,1,0,3:0:0:0:
114,319,55639,2,0,L|41:328,1,60.950001162529,2|0,3:1|3:0,3:0:0:0:
255,361,55789,6,0,L|281:322,2,30.4750005812645,0|0|0,3:1|3:0|3:0,3:0:0:0:
146,369,55901,1,0,3:0:0:0:
37,235,55939,6,0,L|11:196,2,30.4750005812645,0|0|0,3:0|3:0|3:0,3:0:0:0:
150,229,56051,1,0,3:0:0:0:
265,220,56089,6,0,L|303:221,2,30.4750005812645,2|0|0,3:1|3:0|3:0,3:0:0:0:
155,207,56201,1,0,3:0:0:0:
44,136,56239,2,0,L|1:134,2,30.4750005812645,0|0|0,3:0|3:0|3:0,3:0:0:0:
281,50,56389,5,6,3:2:0:0:
281,145,56539,1,8,0:3:0:0:
220,134,56614,1,8,0:3:0:0:
160,124,56689,1,8,0:3:0:0:
419,69,56839,1,4,0:3:0:0:
295,220,56989,2,4,L|217:232,1,60.950001162529,4|4,0:3|0:3,0:3:0:0:
302,254,57139,2,4,L|391:261,1,60.950001162529,4|4,0:3|0:3,0:3:0:0:
143,350,57289,6,0,P|74:336|88:231,1,182.850003487587,10|0,3:2|0:0,0:0:0:0:
240,42,57589,2,0,L|320:53,1,63.5999980590821,6|0,3:1|1:0,0:0:0:0:
157,82,57739,1,0,1:0:0:0:
88,94,57814,1,0,1:0:0:0:
231,115,57889,1,2,3:1:0:0:
376,135,57964,1,0,1:0:0:0:
309,154,58039,1,0,1:0:0:0:
246,171,58114,1,0,1:0:0:0:
404,225,58189,5,2,3:1:0:0:
477,237,58264,1,0,1:0:0:0:
323,254,58339,1,2,1:1:0:0:
175,279,58414,1,0,1:0:0:0:
244,288,58489,1,0,3:0:0:0:
313,298,58564,1,0,1:0:0:0:
176,199,58639,1,2,1:1:0:0:
103,211,58714,1,0,1:0:0:0:
246,122,58789,5,2,3:1:0:0:
390,101,58864,1,0,1:0:0:0:
446,127,58939,1,0,1:0:0:0:
388,149,59014,1,0,1:0:0:0:
240,193,59089,6,0,L|231:273,1,63.5999980590821,2|0,3:1|1:0,1:0:0:0:
71,309,59239,1,2,1:0:0:0:
214,330,59314,1,0,1:0:0:0:
377,312,59389,1,2,3:1:0:0:
306,293,59464,1,0,1:0:0:0:
237,277,59539,1,0,1:0:0:0:
80,220,59614,1,0,3:0:0:0:
237,122,59689,6,0,L|264:190,1,63.5999980590821,0|0,3:0|1:0,1:0:0:0:
435,179,59839,2,0,L|434:103,1,63.5999980590821,0|0,3:0|1:0,1:0:0:0:
203,35,59989,5,6,3:2:0:0:
154,41,60026,1,0,1:0:0:0:
114,57,60064,1,0,1:0:0:0:
90,87,60101,1,0,1:0:0:0:
115,118,60139,1,0,1:0:0:0:
88,145,60176,1,0,1:0:0:0:
118,178,60214,1,0,1:0:0:0:
255,262,60289,5,2,3:1:0:0:
321,276,60364,1,0,1:0:0:0:
255,298,60439,1,2,1:1:0:0:
321,314,60514,1,2,1:1:0:0:
162,319,60589,6,0,L|97:328,1,63.5999980590821,2|0,3:1|0:0,0:0:0:0:
308,108,60739,2,0,L|387:97,1,63.5999980590821,2|0,1:1|0:0,0:0:0:0:
279,132,60889,2,0,L|268:209,1,63.5999980590821,0|0,3:0|0:0,0:0:0:0:
57,192,61039,2,2,L|143:201,1,63.5999980590821,2|2,1:0|1:0,1:0:0:0:
200,209,61189,6,0,L|210:275,1,63.5999980590821,0|0,3:1|0:0,0:0:0:0:
400,307,61339,2,0,L|466:302,1,63.5999980590821,2|0,1:0|0:0,0:0:0:0:
296,42,61489,1,0,3:0:0:0:
130,75,61564,1,2,0:1:0:0:
305,112,61639,2,2,L|387:109,1,63.5999980590821,2|2,1:1|1:1,1:1:0:0:
170,326,61789,6,0,L|163:247,1,63.5999980590821,2|0,3:1|0:0,0:0:0:0:
347,322,61939,2,2,L|413:316,1,63.5999980590821,2|2,1:0|1:0,1:0:0:0:
229,214,62089,5,2,3:1:0:0:
209,186,62126,1,0,1:0:0:0:
216,150,62164,1,0,1:0:0:0:
246,124,62201,1,0,1:0:0:0:
280,116,62239,1,0,1:0:0:0:
320,111,62276,1,0,1:0:0:0:
363,110,62314,1,0,1:0:0:0:
158,322,62389,5,6,3:2:0:0:
107,317,62426,1,0,1:0:0:0:
70,294,62464,1,0,1:0:0:0:
55,257,62501,1,0,1:0:0:0:
69,209,62539,1,0,1:0:0:0:
104,180,62576,1,0,1:0:0:0:
151,168,62614,1,0,1:0:0:0:
292,16,62689,5,2,1:0:0:0:
456,32,62764,1,2,1:0:0:0:
299,57,62839,1,2,1:0:0:0:
150,83,62914,1,2,1:0:0:0:
306,320,62989,6,0,P|361:315|432:278,1,116.60000355835,10|0,3:2|0:0,0:0:0:0:
256,275,63214,2,0,P|194:264|155:213,1,116.60000355835,2|0,3:1|0:0,0:0:0:0:
252,200,63439,2,0,L|256:119,1,58.3000017791749,2|0,3:1|0:0,0:0:0:0:
430,62,63589,6,0,P|399:86|313:108,1,116.60000355835,10|0,3:2|0:0,0:0:0:0:
157,127,63814,2,0,P|186:149|282:160,1,116.60000355835,2|0,3:1|0:0,0:0:0:0:
126,200,64039,2,0,L|48:175,1,58.3000017791749,2|0,3:1|3:0,3:0:0:0:
271,354,64189,6,0,L|278:276,1,58.3000017791749,10|0,3:2|0:0,0:0:0:0:
428,268,64339,2,0,L|435:197,1,58.3000017791749,2|0,3:1|0:0,0:0:0:0:
256,90,64489,2,0,L|101:78,1,137.799993692017,2|2,3:1|1:0,0:0:0:0:
181,94,64714,1,0,1:0:0:0:
342,185,64789,6,0,L|178:197,1,137.799993692017,6|0,3:2|0:0,0:0:0:0:
411,265,65014,1,10,3:2:0:0:
302,329,65239,2,0,L|360:334,1,53,0|0,3:0|3:0,3:0:0:0:
188,249,65389,5,10,3:2:0:0:
169,239,65414,1,0,0:0:0:0:
379,193,65539,1,2,3:1:0:0:
402,178,65564,1,0,0:0:0:0:
221,120,65689,5,2,0:1:0:0:
342,52,65839,1,2,0:1:0:0:
117,54,65989,5,2,3:1:0:0:
241,74,66139,2,0,B|60:63|46:139|90:231|157:212,1,275.599987384034,2|2,1:0|1:0,0:0:0:0:
394,339,66589,1,10,3:2:0:0:
313,332,66664,1,8,0:3:0:0:
231,322,66739,1,8,0:3:0:0:
305,300,66814,1,8,0:3:0:0:
378,282,66889,1,4,0:3:0:0:
298,266,66964,1,4,0:3:0:0:
364,241,67039,1,4,0:3:0:0:
431,219,67114,1,4,0:3:0:0:
215,68,67189,5,2,3:2:0:0:
294,148,67339,2,0,L|73:166,1,212,2|6,3:1|3:2,0:0:0:0:
219,179,67564,1,0,1:0:0:0:
365,190,67639,1,0,1:0:0:0:
296,205,67714,1,0,1:0:0:0:
147,228,67789,5,2,3:1:0:0:
75,243,67864,1,0,1:0:0:0:
218,261,67939,1,2,0:1:0:0:
360,277,68014,1,0,1:0:0:0:
289,291,68089,1,0,3:0:0:0:
218,306,68164,1,0,1:0:0:0:
363,319,68239,1,2,1:1:0:0:
434,329,68314,1,0,1:0:0:0:
290,249,68389,5,2,3:1:0:0:
149,189,68464,1,0,1:0:0:0:
217,169,68539,1,0,1:0:0:0:
283,147,68614,1,0,1:0:0:0:
101,33,68689,6,0,L|85:104,1,59.8900001827698,2|0,3:1|1:0,1:0:0:0:
262,99,68839,2,0,L|263:177,1,59.8900001827698,2|0,1:0|1:0,1:0:0:0:
447,162,68989,2,0,L|459:228,1,59.8900001827698,2|0,3:1|1:0,1:0:0:0:
254,297,69139,2,2,L|334:286,1,59.8900001827698,2|2,1:0|3:1,3:1:0:0:
153,298,69289,2,0,L|87:291,1,59.8900001827698,2|2,3:1|1:1,1:0:0:0:
254,155,69439,2,0,L|332:140,1,59.8900001827698,2|0,3:1|1:0,1:0:0:0:
88,47,69589,6,0,L|314:58,1,212,6|0,3:2|1:0,0:0:0:0:
338,74,69776,1,0,1:0:0:0:
357,105,69814,1,0,1:0:0:0:
338,146,69851,1,0,1:0:0:0:
218,152,69889,5,2,3:1:0:0:
141,180,69964,1,2,1:0:0:0:
215,208,70039,1,2,1:0:0:0:
432,210,70189,1,2,3:1:0:0:
356,247,70264,1,2,1:0:0:0:
431,280,70339,1,2,1:0:0:0:
215,340,70489,5,2,3:1:0:0:
282,328,70564,1,2,1:1:0:0:
100,309,70639,1,2,3:1:0:0:
211,50,70789,1,2,3:1:0:0:
162,94,70864,1,2,3:1:0:0:
90,106,70939,1,2,3:1:0:0:
309,110,71089,5,2,3:1:0:0:
243,126,71164,1,0,1:0:0:0:
178,136,71239,1,2,1:1:0:0:
239,150,71314,1,2,1:1:0:0:
404,259,71389,1,2,3:1:0:0:
470,297,71464,1,0,1:0:0:0:
405,334,71539,1,2,1:0:0:0:
154,152,71689,6,0,L|383:230,1,238.500009098053,8|0,3:1|0:0,0:0:0:0:
114,327,71989,1,6,3:2:0:0:
75,310,72026,1,0,1:0:0:0:
113,273,72064,1,0,1:0:0:0:
81,258,72101,1,0,1:0:0:0:
110,225,72139,1,0,1:0:0:0:
87,208,72176,1,0,1:0:0:0:
108,177,72214,1,0,1:0:0:0:
92,162,72251,1,0,1:0:0:0:
134,161,72289,5,0,1:0:0:0:
179,155,72326,1,0,1:0:0:0:
216,140,72364,1,0,1:0:0:0:
244,111,72401,1,0,1:0:0:0:
258,85,72439,1,0,1:0:0:0:
263,59,72476,1,0,1:0:0:0:
258,85,72514,1,0,1:0:0:0:
244,111,72551,1,0,1:0:0:0:
216,140,72589,5,0,1:0:0:0:
180,149,72627,1,0,1:0:0:0:
134,161,72664,1,0,1:0:0:0:
348,184,72739,2,0,L|275:191,1,53,0|0,3:0|3:0,3:0:0:0:
137,323,72889,1,6,3:2:0:0:
366,325,73039,2,0,L|390:262,1,53,0|0,3:0|3:0,3:0:0:0:
373,225,73189,5,2,0:1:0:0:
348,184,73239,1,2,0:1:0:0:
291,164,73289,1,2,0:1:0:0:
233,157,73339,1,2,0:1:0:0:
295,137,73389,1,2,0:1:0:0:
356,116,73439,1,2,0:1:0:0:
202,333,73489,5,2,3:1:0:0:
308,312,73639,1,2,0:1:0:0:
55,288,73789,1,10,3:2:0:0:
115,268,73864,1,2,0:1:0:0:
173,250,73939,1,2,0:1:0:0:
48,182,74089,1,2,0:1:0:0:
189,65,74239,1,2,3:1:0:0:
124,71,74314,1,0,3:0:0:0:
362,120,74389,6,0,L|422:126,1,58.3000017791749,8|0,3:2|3:0,3:0:0:0:
287,154,74539,2,0,L|227:184,1,58.3000017791749,2|8,3:1|3:2,3:0:0:0:
366,192,74689,2,0,L|379:266,1,58.3000017791749,2|0,3:1|3:0,3:0:0:0:
144,343,74839,6,0,L|68:329,1,58.3000017791749,10|0,3:2|3:0,3:0:0:0:
222,297,74989,2,0,L|286:269,1,58.3000017791749,2|8,3:1|3:2,3:0:0:0:
144,252,75139,2,0,L|130:173,1,58.3000017791749,2|0,3:1|3:0,3:0:0:0:
363,50,75289,6,0,L|282:61,1,58.3000017791749,8|0,3:2|3:0,3:0:0:0:
167,48,75439,2,0,L|132:111,1,58.3000017791749,8|0,3:2|3:0,3:0:0:0:
343,335,75589,5,6,3:2:0:0:
379,199,75739,1,2,1:0:0:0:
325,206,75814,1,2,1:0:0:0:
270,213,75889,1,2,1:0:0:0:
331,147,76039,1,2,1:1:0:0:
279,133,76114,1,2,1:1:0:0:
208,359,76189,5,8,0:3:0:0:
258,351,76226,1,8,0:3:0:0:
299,336,76264,1,8,0:3:0:0:
316,296,76301,1,8,0:3:0:0:
293,258,76339,1,8,0:3:0:0:
241,246,76414,1,4,0:3:0:0:
173,229,76489,1,4,3:3:0:0:
238,205,76564,1,4,3:3:0:0:
171,195,76639,1,4,3:3:0:0:
104,185,76714,1,4,3:3:0:0:
301,342,76789,5,6,3:2:0:0:
408,178,76939,1,2,3:0:0:0:
350,169,77014,1,0,3:0:0:0:
175,46,77089,1,0,3:0:0:0:
66,156,77239,1,2,3:0:0:0:
125,165,77314,1,0,3:0:0:0:
301,193,77389,1,0,3:0:0:0:
194,336,77539,1,2,3:0:0:0:
136,341,77614,1,0,3:0:0:0:
314,35,77689,5,0,3:0:0:0:
421,96,77839,1,2,3:0:0:0:
363,110,77914,1,0,3:0:0:0:
185,125,77989,1,0,3:0:0:0:
77,224,78139,1,2,3:0:0:0:
135,235,78214,1,0,3:0:0:0:
310,338,78289,1,0,3:0:0:0:
201,255,78439,1,2,3:0:0:0:
193,209,78514,1,0,3:0:0:0:
367,171,78589,5,0,3:0:0:0:
479,317,78739,1,2,3:0:0:0:
417,328,78814,1,0,3:0:0:0:
241,332,78889,1,0,3:0:0:0:
127,289,79039,1,2,3:0:0:0:
189,277,79114,1,0,3:0:0:0:
362,97,79189,5,6,3:2:0:0:
417,96,79226,1,0,1:0:0:0:
456,104,79264,1,0,1:0:0:0:
469,145,79301,1,0,1:0:0:0:
454,180,79339,1,0,1:0:0:0:
397,186,79414,1,0,3:0:0:0:
192,85,79489,5,10,3:2:0:0:
119,123,79564,1,0,0:0:0:0:
186,166,79639,1,0,0:0:0:0:
350,344,79714,1,0,3:0:0:0:
293,314,79789,1,0,0:0:0:0:
217,311,79864,1,0,0:0:0:0:
404,253,79939,1,8,3:2:0:0:
471,206,80014,1,0,0:0:0:0:
395,168,80089,1,0,0:0:0:0:
225,39,80164,5,0,3:0:0:0:
302,50,80239,1,2,0:1:0:0:
307,96,80314,1,2,0:1:0:0:
116,134,80389,1,2,3:1:0:0:
236,228,80539,1,2,1:0:0:0:
387,280,80614,1,0,3:0:0:0:
235,332,80689,5,8,3:2:0:0:
365,301,80839,1,2,1:0:0:0:
306,290,80914,1,2,1:0:0:0:
245,282,80989,1,2,1:3:0:0:
427,176,81064,1,0,3:0:0:0:
366,161,81139,1,2,0:1:0:0:
304,151,81214,1,0,1:3:0:0:
119,37,81289,5,8,3:2:0:0:
82,84,81364,1,2,1:1:0:0:
116,135,81439,1,2,1:2:0:0:
189,142,81514,1,2,1:2:0:0:
382,134,81589,5,6,3:2:0:0:
491,202,81739,1,2,3:0:0:0:
433,218,81814,1,0,3:0:0:0:
256,343,81889,1,0,3:0:0:0:
363,257,82039,1,2,3:0:0:0:
353,209,82114,1,0,3:0:0:0:
178,203,82189,1,0,3:0:0:0:
71,150,82339,1,2,3:0:0:0:
128,138,82414,1,0,3:0:0:0:
305,57,82489,5,0,3:0:0:0:
410,119,82639,1,2,3:0:0:0:
351,130,82714,1,0,3:0:0:0:
172,342,82789,1,0,3:0:0:0:
66,299,82939,1,2,3:0:0:0:
124,283,83014,1,0,3:0:0:0:
299,326,83089,1,0,3:0:0:0:
194,187,83239,1,2,3:0:0:0:
136,182,83314,1,0,3:0:0:0:
315,50,83389,5,0,3:0:0:0:
422,136,83539,1,2,3:0:0:0:
370,153,83614,1,0,3:0:0:0:
193,52,83689,1,0,3:0:0:0:
294,149,83839,1,2,3:0:0:0:
83,338,83989,5,6,3:2:0:0:
180,318,84139,1,2,0:0:0:0:
183,285,84189,1,2,0:0:0:0:
251,258,84289,1,2,0:3:0:0:
142,169,84439,1,2,0:3:0:0:
254,18,84589,5,2,0:3:0:0:
314,29,84664,1,2,0:0:0:0:
253,34,84739,1,2,0:0:0:0:
194,43,84814,1,2,0:0:0:0:
254,57,84889,1,2,0:0:0:0:
350,118,85039,5,2,0:3:0:0:
259,129,85114,1,2,0:2:0:0:
244,154,85151,1,2,0:2:0:0:
257,183,85189,1,2,1:2:0:0:
313,267,85264,1,2,0:0:0:0:
399,194,85414,1,2,0:0:0:0:
328,189,85489,5,0,1:3:0:0:
320,146,85639,1,2,0:3:0:0:
212,350,85789,1,2,0:3:0:0:
269,330,85864,1,2,0:0:0:0:
204,310,85939,1,2,0:0:0:0:
139,307,86014,1,2,0:0:0:0:
136,266,86089,5,2,0:3:0:0:
306,218,86164,1,10,0:0:0:0:
136,266,86239,1,10,0:0:0:0:
72,262,86314,1,10,0:0:0:0:
306,218,86389,5,6,3:2:0:0:
422,146,86539,2,0,L|328:136,1,58.3000017791749,2|0,3:0|3:0,3:0:0:0:
178,128,86689,1,0,3:0:0:0:
291,119,86839,2,0,L|296:52,1,58.3000017791749,2|0,3:0|3:0,3:0:0:0:
105,40,86989,1,0,3:0:0:0:
18,168,87139,2,0,L|100:177,1,58.3000017791749,2|0,3:0|3:0,3:0:0:0:
257,270,87289,5,0,3:0:0:0:
149,318,87439,2,0,L|134:249,1,58.3000017791749,2|0,3:0|3:0,3:0:0:0:
328,209,87589,1,0,3:0:0:0:
441,206,87739,2,0,L|455:132,1,58.3000017791749,2|0,3:0|3:0,3:0:0:0:
253,127,87889,1,0,3:0:0:0:
363,100,88039,2,0,L|369:22,1,58.3000017791749,2|0,3:0|3:0,3:0:0:0:
172,36,88189,5,0,3:0:0:0:
52,115,88339,2,0,L|143:129,1,58.3000017791749,2|0,3:0|3:0,3:0:0:0:
301,230,88489,1,0,3:0:0:0:
175,252,88639,1,2,3:0:0:0:
432,335,88789,5,0,3:0:0:0:
447,310,88826,1,0,1:0:0:0:
432,291,88864,1,0,1:0:0:0:
324,272,88901,1,0,1:0:0:0:
206,258,88939,1,0,1:0:0:0:
189,231,88976,1,0,1:0:0:0:
206,258,89014,1,0,1:0:0:0:
280,273,89089,5,2,3:1:0:0:
101,353,89164,2,2,L|63:350,1,29.1500008895874,2|2,0:1|0:1,0:1:0:0:
263,172,89276,1,2,0:1:0:0:
372,162,89389,6,0,B|121:78|121:78|121:220,1,397.5,2|0,3:1|0:0,0:0:0:0:
301,257,89689,1,10,3:2:0:0:
104,347,89789,1,2,3:1:0:0:
189,353,89889,2,2,L|220:352,1,19.4333339263916,2|2,3:1|3:1,3:1:0:0:
406,337,89989,6,0,L|425:338,1,19.4333339263916,6|0,3:2|0:0,0:0:0:0:
483,333,90089,1,0,0:1:0:0:
272,298,90189,2,0,L|268:273,1,19.4333339263916,2|0,3:1|0:0,0:0:0:0:
262,220,90289,1,0,0:1:0:0:
42,168,90389,2,0,L|64:170,1,19.4333339263916,2|0,3:1|0:0,0:0:0:0:
196,145,90489,1,2,3:1:0:0:
355,64,90589,6,0,L|328:62,1,19.4333339263916,10|0,3:2|0:0,0:0:0:0:
260,60,90689,1,0,0:1:0:0:
39,50,90789,2,0,L|67:44,1,19.4333339263916,2|0,3:1|0:0,0:0:0:0:
115,35,90889,1,0,0:1:0:0:
351,171,90989,2,0,L|324:146,1,19.4333339263916,2|0,3:1|0:0,0:0:0:0:
194,96,91089,1,2,3:1:0:0:
37,50,91189,6,0,P|120:63|-1:222,1,371,6|0,3:2|0:0,0:0:0:0:
245,314,91789,2,0,L|324:308,1,53,8|0,3:2|0:0,0:0:0:0:
95,360,91939,2,0,L|90:269,1,53,0|0,3:0|0:0,0:0:0:0:
300,269,92089,6,0,P|217:256|338:97,1,371,6|0,3:2|0:0,0:0:0:0:
499,22,92689,2,0,L|434:12,1,53,10|0,3:2|0:0,0:0:0:0:
251,8,92839,2,0,L|180:12,1,53,0|0,3:0|0:0,0:0:0:0:
397,91,92989,6,0,P|421:152|208:340,1,371,6|0,3:2|0:0,0:0:0:0:
37,262,93589,2,0,L|119:240,1,53,10|0,3:2|0:0,0:0:0:0:
285,208,93739,2,0,L|377:202,1,53,0|0,3:0|0:0,0:0:0:0:
135,334,93889,6,0,P|81:270|262:129,1,371,6|0,3:2|0:0,0:0:0:0:
39,106,94489,2,0,L|30:20,1,53,10|0,3:2|0:0,0:0:0:0:
235,22,94639,2,0,L|308:21,1,53,0|0,3:0|0:0,0:0:0:0:
55,297,94789,6,0,L|45:144,1,116.60000355835,6|0,3:2|0:0,0:0:0:0:
242,147,95014,2,0,L|93:139,1,116.60000355835,2|0,3:1|0:0,0:0:0:0:
322,214,95239,2,0,L|471:196,1,116.60000355835,2|0,3:1|0:0,0:0:0:0:
250,312,95464,2,0,L|235:182,1,116.60000355835,2|0,3:1|0:0,0:0:0:0:
436,218,95689,6,0,L|452:88,1,116.60000355835,2|0,3:1|0:0,0:0:0:0:
263,76,95914,2,0,L|393:66,1,116.60000355835,2|0,3:1|0:0,0:0:0:0:
183,11,96139,2,0,L|49:34,1,116.60000355835,2|0,3:1|0:0,0:0:0:0:
274,110,96364,2,0,L|290:236,1,116.60000355835,2|0,3:1|0:0,0:0:0:0:
73,271,96589,6,0,L|285:308,1,174.900005337525,2|0,3:1|0:0,0:0:0:0:
45,364,96889,6,0,L|-1:359,2,29.1500008895874,2|2|2,3:1|0:1|0:1,0:0:0:0:
158,359,97001,1,2,0:1:0:0:
275,360,97039,2,2,L|321:355,2,29.1500008895874,2|2|2,0:1|0:1|0:1,0:1:0:0:
59,299,97189,6,0,P|29:228|232:66,2,381.599988354493,6|2|2,3:2|0:0|0:0,0:0:0:0:
256,192,98239,12,0,100639,0:0:0:0:
276,152,100789,6,0,L|455:208,1,159,6|0,3:2|0:0,0:0:0:0:
366,229,101089,1,8,0:3:0:0:
238,270,101239,1,4,0:3:0:0:
232,217,101314,1,8,0:3:0:0:
226,164,101389,5,4,0:3:0:0:
93,152,101539,1,8,0:3:0:0:
340,87,101689,1,12,0:3:0:0:
86,61,101839,2,4,L|7:69,1,53,12|12,3:3|3:3,3:3:0:0:
241,160,101989,6,0,L|340:166,2,58.3000017791749,6|0|0,3:2|3:0|3:0,3:0:0:0:
36,260,102214,2,0,L|168:273,1,116.60000355835,0|0,3:0|3:0,3:0:0:0:
343,315,102439,1,0,3:0:0:0:
97,370,102589,2,0,L|90:300,1,53,0|0,3:0|3:0,3:0:0:0:
318,222,102818,2,0,L|230:221,1,53,0|0,3:0|3:0,3:0:0:0:
26,107,103048,2,0,L|110:97,1,53,0|0,3:0|3:0,3:0:0:0:
269,38,103201,5,0,3:0:0:0:
212,32,103279,1,0,3:0:0:0:
269,38,103357,1,0,3:0:0:0:
475,78,103435,2,0,L|486:211,1,106,0|0,3:0|3:0,3:0:0:0:
292,235,103669,1,0,3:0:0:0:
229,239,103747,5,0,3:0:0:0:
479,332,103906,1,0,3:0:0:0:
422,337,103987,1,0,3:0:0:0:
181,353,104148,1,0,3:0:0:0:
244,353,104229,1,0,3:0:0:0:
362,346,104390,1,0,3:0:0:0:
154,266,104471,5,6,3:2:0:0:
87,262,104552,1,0,3:0:0:0:
154,266,104633,1,0,3:0:0:0:
364,182,104714,2,0,L|240:169,1,106,0|0,3:0|3:0,3:0:0:0:
69,160,104957,1,0,3:0:0:0:
341,79,105119,5,0,3:0:0:0:
346,131,105202,1,0,3:0:0:0:
94,74,105369,1,0,3:0:0:0:
162,84,105452,1,0,3:0:0:0:
423,243,105619,1,0,3:0:0:0:
350,254,105702,1,0,3:0:0:0:
149,317,105785,5,0,3:0:0:0:
208,330,105870,1,0,3:0:0:0:
284,335,105955,1,0,3:0:0:0:
70,365,106040,2,0,L|59:247,1,106,0|0,3:0|3:0,3:0:0:0:
247,195,106296,1,0,3:0:0:0:
173,193,106381,1,0,3:0:0:0:
247,195,106466,5,0,3:0:0:0:
462,104,106553,1,0,3:0:0:0:
390,97,106640,1,0,3:0:0:0:
145,44,106814,1,0,3:0:0:0:
221,38,106902,1,0,3:0:0:0:
366,36,107076,1,0,3:0:0:0:
135,300,107163,5,14,3:2:0:0:
104,255,107207,1,0,3:0:0:0:
135,300,107252,1,0,3:0:0:0:
329,335,107341,1,0,3:0:0:0:
256,345,107430,1,0,3:0:0:0:
453,351,107520,5,8,3:2:0:0:
490,329,107564,1,0,3:0:0:0:
453,351,107609,1,0,3:0:0:0:
372,359,107698,1,0,3:0:0:0:
146,174,107788,1,0,3:0:0:0:
112,174,107832,1,0,3:0:0:0:
319,133,107877,5,8,3:2:0:0:
402,120,107970,1,0,3:0:0:0:
187,70,108063,1,0,3:0:0:0:
227,57,108109,1,0,3:0:0:0:
276,55,108156,1,0,3:0:0:0:
190,30,108249,5,8,3:2:0:0:
435,38,108342,1,0,3:0:0:0:
473,70,108389,1,0,3:0:0:0:
435,38,108436,1,0,3:0:0:0:
249,166,108529,1,0,3:0:0:0:
63,231,108622,5,8,3:2:0:0:
25,183,108669,1,0,3:0:0:0:
63,231,108716,1,0,3:0:0:0:
146,245,108811,1,0,3:0:0:0:
372,276,108906,1,0,3:0:0:0:
328,297,108954,1,0,3:0:0:0:
281,302,109001,5,8,3:2:0:0:
190,315,109096,1,8,3:2:0:0:
368,356,109191,1,8,3:2:0:0:
197,336,109286,1,8,3:2:0:0:
22,358,109383,6,0,L|20:317,2,26.5,8|0|8,3:2|3:0|3:2,3:0:0:0:
147,308,109528,1,0,3:0:0:0:
270,241,109576,2,0,L|307:238,2,26.5,8|0|8,3:2|3:0|3:2,3:0:0:0:
38,160,109770,6,0,L|-10:157,2,26.5,8|0|8,3:2|3:0|3:2,3:0:0:0:
181,150,109915,1,0,3:0:0:0:
323,95,109963,1,8,3:2:0:0:
287,91,110012,1,0,3:0:0:0:
128,35,110060,1,8,3:2:0:0:
164,31,110109,1,0,3:0:0:0:
356,197,110157,5,14,3:2:0:0:
480,253,110357,2,4,L|415:284,1,53,4|4,0:3|0:3,0:3:0:0:
331,281,110557,1,8,0:3:0:0:
63,331,110757,1,4,0:3:0:0:
143,353,110857,1,4,0:3:0:0:
236,361,110957,6,0,L|255:285,3,53,8|0|8|0,0:3|0:0|0:3|0:0,0:0:0:0:
39,251,111357,2,0,L|14:218,2,26.5,2|0|2,3:1|0:0|0:1,0:0:0:0:
146,191,111557,1,2,3:1:0:0:
117,182,111607,1,0,0:0:0:0:
75,178,111657,1,2,0:1:0:0:
341,128,111757,6,0,L|92:91,1,222.599993206787,10|0,3:2|0:0,0:0:0:0:
392,231,112157,2,0,L|158:222,1,222.599993206787,10|0,3:2|0:0,0:0:0:0:
444,344,112557,6,0,L|462:193,1,148.399995471192,10|0,3:2|3:0,0:0:0:0:
415,170,112823,1,0,3:0:0:0:
356,156,112890,1,0,3:0:0:0:
126,69,112957,2,8,L|216:61,1,74.1999977355958,8|8,3:1|0:1,0:1:0:0:
466,28,113157,2,8,L|359:20,1,74.1999977355958,8|8,0:1|0:1,0:1:0:0:
197,193,113357,5,6,3:2:0:0:
286,209,113457,2,0,L|94:229,1,169.6,2|2,0:3|0:0,0:0:0:0:
406,346,113757,1,8,3:1:0:0:
323,321,113857,1,2,0:3:0:0:
405,297,113957,1,2,0:3:0:0:
205,58,114057,2,0,L|380:68,1,169.6,2|0,0:3|3:0,0:0:0:0:
155,140,114357,2,0,L|248:145,1,84.8,2|2,0:0|0:0,0:0:0:0:
35,288,114557,6,0,L|27:188,1,84.8,8|2,3:1|0:0,0:0:0:0:
258,320,114757,2,0,L|157:335,1,84.8,2|2,0:3|0:0,0:0:0:0:
394,235,114957,5,2,3:3:0:0:
308,249,115057,1,2,0:3:0:0:
390,256,115157,1,2,0:3:0:0:
473,264,115257,1,2,0:3:0:0:
241,52,115357,2,0,B|359:73|359:73|336:191,1,212,8|2,3:1|0:0,0:0:0:0:
135,125,115657,6,0,P|51:146|20:238,1,169.6,2|2,3:2|0:0,0:0:0:0:
309,310,115957,2,0,L|132:318,1,169.6,2|0,3:2|0:0,0:0:0:0:
378,255,116257,2,0,P|471:197|477:109,1,169.6,8|0,3:1|0:0,0:0:0:0:
143,64,116557,5,6,3:2:0:0:
232,78,116657,2,0,L|45:88,1,169.6,2|2,0:3|0:0,0:0:0:0:
305,318,116957,2,0,P|392:275|399:203,1,169.6,8|2,3:1|0:3,0:0:0:0:
126,154,117257,2,0,L|305:145,1,169.6,2|0,0:3|3:0,0:0:0:0:
74,249,117557,2,0,L|168:242,1,84.8,2|2,0:0|0:0,0:0:0:0:
381,251,117757,6,0,L|391:156,1,84.8,8|2,3:1|0:0,0:0:0:0:
158,161,117957,2,0,L|64:155,1,84.8,2|2,0:3|0:0,0:0:0:0:
301,237,118157,5,2,3:3:0:0:
213,251,118257,2,0,L|202:339,1,84.8,2|2,0:3|0:3,0:0:0:0:
403,327,118457,1,0,3:0:0:0:
204,46,118557,2,0,L|115:54,1,84.8,2|2,0:3|0:0,0:0:0:0:
345,121,118757,5,8,3:1:0:0:
258,137,118857,2,0,L|431:146,1,169.6,2|0,0:3|3:0,0:0:0:0:
337,185,119157,1,0,3:0:0:0:
420,226,119257,1,0,3:0:0:0:
179,352,119357,5,8,3:1:0:0:
348,336,119457,1,0,3:0:0:0:
126,326,119557,2,0,B|47:303|47:303|83:198,1,159,8|0,3:1|0:0,0:0:0:0:
335,46,119757,6,0,B|59:69|59:69|54:306,1,482.299977922059,14|0,3:2|0:0,0:0:0:0:
331,288,120157,2,0,L|30:316,1,275.599987384034,8|2,3:1|0:1,0:0:0:0:
462,77,120557,6,0,B|186:104|186:104|172:340,1,482.299977922059,10|0,3:1|0:0,0:0:0:0:
349,308,120957,2,0,L|475:206,1,159,10|0,3:1|0:0,0:0:0:0:
230,307,121157,2,0,L|92:191,1,159,10|0,3:1|0:0,0:0:0:0:
284,231,121357,6,0,B|384:213|364:53|281:18|281:18|26:17,1,482.299977922059,10|0,3:1|0:0,0:0:0:0:
285,344,121757,2,0,B|444:336|444:336|444:98,1,371,10|0,3:1|0:0,0:0:0:0:
158,113,122157,1,10,3:1:0:0:
329,107,122357,6,0,B|334:196|317:203|153:208,1,212,2|2,0:1|0:3,0:0:0:0:
239,227,122657,1,2,0:1:0:0:
199,291,122757,1,2,0:1:0:0:
123,301,122857,1,2,0:1:0:0:
376,285,122957,6,0,L|485:295,1,84.8,6|0,3:2|0:0,0:0:0:0:
271,344,123157,1,4,3:3:0:0:
452,328,123257,1,0,0:0:0:0:
267,81,123357,2,0,L|258:191,1,84.8,4|0,3:0|0:0,0:0:0:0:
94,180,123557,1,4,3:0:0:0:
266,196,123657,6,0,L|377:205,1,84.8,2|4,0:1|3:0,0:0:0:0:
168,264,123857,2,0,L|69:276,1,84.8,2|4,0:1|3:0,0:0:0:0:
374,267,124057,2,0,L|468:283,1,84.8,2|4,0:1|3:0,0:0:0:0:
256,323,124257,5,0,0:0:0:0:
458,261,124357,1,4,3:0:0:0:
263,218,124457,1,2,0:1:0:0:
101,48,124557,5,6,3:2:0:0:
197,75,124657,1,8,0:3:0:0:
168,117,124707,1,8,0:3:0:0:
107,126,124757,1,8,0:3:0:0:
292,330,124857,1,4,3:0:0:0:
208,310,124957,1,4,0:3:0:0:
292,283,125057,1,8,0:3:0:0:
107,149,125157,1,4,0:3:0:0:
24,177,125257,1,8,0:3:0:0:
108,202,125357,1,8,0:3:0:0:
343,197,125457,5,14,3:3:0:0:
399,191,125507,1,8,3:3:0:0:
440,174,125557,1,8,3:3:0:0:
456,137,125607,1,8,3:3:0:0:
437,98,125657,1,8,3:3:0:0:
395,82,125707,1,8,3:3:0:0:
216,39,125757,5,8,3:1:0:0:
160,46,125823,1,2,3:2:0:0:
326,169,125890,1,2,3:2:0:0:
384,179,125957,1,2,3:2:0:0:
208,265,126023,1,2,3:2:0:0:
264,274,126090,1,2,3:2:0:0:
86,328,126157,5,6,3:2:0:0:
51,278,126257,1,8,0:3:0:0:
84,240,126307,1,8,0:3:0:0:
135,217,126357,1,8,0:3:0:0:
194,208,126407,1,4,0:3:0:0:
148,175,126457,1,4,0:3:0:0:
100,150,126507,1,4,0:3:0:0:
342,59,126557,5,6,3:2:0:0:
246,97,126757,1,2,0:3:0:0:
335,126,126857,2,0,L|140:140,1,169.6,2|0,0:3|3:0,0:0:0:0:
426,198,127157,2,0,L|334:206,1,84.8,0|0,3:0|0:0,0:0:0:0:
99,358,127357,6,0,L|90:248,1,84.8,8|0,3:1|0:0,0:0:0:0:
337,351,127557,2,2,L|239:345,1,84.8,2|2,0:3|0:3,0:3:0:0:
473,67,127757,5,2,3:2:0:0:
385,71,127857,2,0,L|184:81,1,169.6,2|2,0:3|0:0,0:0:0:0:
470,164,128157,2,0,L|283:175,1,169.6,8|0,3:1|0:0,0:0:0:0:
44,151,128457,5,2,3:2:0:0:
127,178,128557,1,2,0:3:0:0:
45,202,128657,1,2,0:3:0:0:
285,320,128757,2,0,L|72:331,1,169.6,2|2,3:2|0:0,0:0:0:0:
377,270,129057,2,0,P|479:198|439:116,1,169.6,8|2,3:1|0:0,0:0:0:0:
177,53,129357,5,2,0:3:0:0:
266,77,129457,1,2,0:3:0:0:
170,92,129557,1,2,3:2:0:0:
164,135,129657,1,2,0:0:0:0:
382,169,129757,5,8,3:1:0:0:
295,197,129857,1,2,0:3:0:0:
200,209,129957,1,2,0:3:0:0:
292,220,130057,1,2,0:3:0:0:
197,230,130157,5,2,0:0:0:0:
429,262,130257,1,0,3:0:0:0:
344,309,130357,1,0,3:0:0:0:
435,337,130457,1,2,0:3:0:0:
225,32,130557,2,0,L|401:42,1,169.6,8|2,3:1|0:0,0:0:0:0:
302,57,130857,1,2,0:0:0:0:
92,93,130957,5,6,3:2:0:0:
298,134,131057,1,8,3:1:0:0:
88,177,131157,1,8,0:1:0:0:
179,195,131257,1,0,3:0:0:0:
369,206,131357,1,2,0:3:0:0:
384,270,131457,1,0,3:0:0:0:
212,327,131557,1,8,3:1:0:0:
122,316,131657,1,0,3:0:0:0:
382,321,131757,5,8,3:1:0:0:
428,313,131857,1,0,3:0:0:0:
258,283,131957,1,8,0:1:0:0:
334,272,132057,1,0,3:3:0:0:
149,230,132157,1,8,3:1:0:0:
247,216,132257,1,0,3:3:0:0:
44,139,132357,1,8,3:1:0:0:
155,126,132457,1,0,3:0:0:0:
423,149,132557,6,0,B|90:153|90:153|88:340,1,508.8,6|0,3:2|0:0,0:0:0:0:
332,325,132957,1,2,0:1:0:0:
454,55,133157,1,2,1:0:0:0:
335,63,133190,1,0,0:0:0:0:
208,82,133257,1,2,1:0:0:0:
326,94,133290,1,0,0:0:0:0:
456,130,133357,5,10,3:2:0:0:
325,182,133557,1,2,0:1:0:0:
200,187,133590,1,0,0:0:0:0:
80,262,133757,1,2,0:1:0:0:
195,274,133790,1,0,0:0:0:0:
311,42,133957,5,2,1:1:0:0:
192,66,133990,1,0,0:0:0:0:
57,69,134057,1,2,1:1:0:0:
179,94,134090,1,0,0:0:0:0:
314,130,134157,5,2,3:1:0:0:
442,247,134357,1,2,0:1:0:0:
315,257,134390,1,0,0:0:0:0:
195,319,134557,1,2,0:1:0:0:
321,331,134590,1,0,0:0:0:0:
445,189,134757,6,0,L|124:208,1,318.000012130738,2|10,3:1|3:2,0:0:0:0:
128,167,135007,1,0,1:0:0:0:
158,135,135057,1,0,1:0:0:0:
215,127,135107,1,0,1:0:0:0:
423,48,135157,5,2,1:0:0:0:
429,88,135207,1,0,1:0:0:0:
437,125,135257,1,0,1:0:0:0:
244,164,135357,1,2,1:0:0:0:
261,210,135407,1,0,1:0:0:0:
303,243,135457,1,0,1:0:0:0:
82,277,135557,1,2,1:0:0:0:
127,310,135607,1,0,1:0:0:0:
175,330,135657,1,0,1:0:0:0:
447,90,135757,5,6,3:2:0:0:
367,131,135857,1,2,0:1:0:0:
447,172,135957,1,2,0:1:0:0:
237,302,136057,1,2,0:1:0:0:
434,292,136157,6,0,P|452:235|421:198,1,84.8,10|0,3:2|0:0,0:0:0:0:
273,220,136357,1,2,1:0:0:0:
218,212,136407,1,2,1:0:0:0:
184,188,136457,1,2,1:0:0:0:
175,150,136507,1,2,1:0:0:0:
373,57,136557,6,0,L|81:61,1,265,2|2,3:1|3:1,0:0:0:0:
422,115,136957,2,0,L|415:171,1,42.4,10|2,3:2|0:1,0:0:0:0:
278,130,137057,2,2,L|274:177,1,42.4,2|2,0:1|0:1,0:1:0:0:
146,170,137157,2,2,L|139:215,1,42.4,2|2,0:1|0:1,0:1:0:0:
284,230,137257,2,2,L|290:287,1,42.4,2|2,0:1|0:1,0:1:0:0:
130,300,137357,5,6,3:2:0:0:
256,192,137457,12,0,138157,0:0:0:0:
293,34,138357,5,2,1:0:0:0:
189,43,138457,1,2,1:0:0:0:
259,89,138557,1,2,1:0:0:0:
194,132,138657,1,2,1:0:0:0:
408,190,138757,1,2,3:1:0:0:
205,235,138857,1,2,3:1:0:0:
412,284,138957,5,14,3:2:0:0:
315,277,139057,2,2,L|310:178,2,74.1999977355958,2|2|2,0:1|0:1|0:1,0:1:0:0:
66,181,139357,5,10,3:2:0:0:
167,178,139457,2,2,L|172:79,2,74.1999977355958,2|2|2,0:1|0:1|0:1,0:1:0:0:
381,61,139757,2,2,L|287:39,1,74.1999977355958,8|2,3:2|0:1,0:1:0:0:
205,69,139957,2,2,L|298:86,1,74.1999977355958,2|2,0:1|0:1,0:1:0:0:
484,166,140157,2,2,L|488:260,1,74.1999977355958,8|2,3:2|0:1,0:1:0:0:
376,267,140357,2,2,L|469:272,1,74.1999977355958,2|2,0:1|0:1,0:1:0:0:
247,355,140557,5,10,3:2:0:0:
209,353,140607,1,2,1:0:0:0:
172,351,140657,1,2,1:0:0:0:
278,337,140757,2,0,L|285:234,1,74.1999977355958,2|0,0:1|0:0,0:0:0:0:
40,245,140957,2,2,L|33:160,1,74.1999977355958,8|2,3:2|0:1,0:1:0:0:
143,143,141157,2,2,L|43:144,1,74.1999977355958,2|2,0:1|0:1,0:1:0:0:
287,108,141357,6,2,L|411:90,1,74.1999977355958,10|2,3:2|0:1,0:1:0:0:
257,67,141557,2,2,L|164:69,1,74.1999977355958,2|2,0:1|0:1,0:1:0:0:
414,17,141757,2,2,L|426:115,1,74.1999977355958,10|2,3:2|0:1,0:1:0:0:
316,116,141957,2,2,L|303:220,1,74.1999977355958,2|2,0:1|0:1,0:1:0:0:
80,254,142157,6,0,L|247:273,1,148.399995471192,10|2,3:2|1:0,0:0:0:0:
231,300,142407,1,2,1:0:0:0:
233,326,142457,1,2,1:0:0:0:
23,351,142557,2,2,L|17:256,1,74.1999977355958,10|2,3:2|0:1,0:1:0:0:
123,253,142757,2,2,L|11:249,1,74.1999977355958,2|2,0:1|0:1,0:1:0:0:
242,189,142957,6,2,L|321:179,1,74.1999977355958,10|2,3:2|0:1,0:1:0:0:
202,161,143157,2,2,L|288:154,1,74.1999977355958,2|2,0:1|0:1,0:1:0:0:
501,72,143357,2,2,L|407:58,1,74.1999977355958,10|2,3:2|0:1,0:1:0:0:
320,44,143557,2,2,L|425:37,1,74.1999977355958,2|2,0:1|0:1,0:1:0:0:
140,28,143757,6,2,L|126:136,1,74.1999977355958,14|2,3:2|0:1,0:1:0:0:
437,187,143957,2,2,L|457:297,1,74.1999977355958,4|2,3:2|0:1,0:1:0:0:
202,320,144157,5,6,3:2:0:0:
293,323,144257,2,2,L|300:231,1,74.1999977355958,2|2,0:1|0:1,0:1:0:0:
51,233,144457,2,2,L|40:137,1,74.1999977355958,6|2,3:2|0:1,0:1:0:0:
138,136,144657,1,0,0:0:0:0:
407,61,144757,6,0,L|282:48,1,74.1999977355958,6|0,3:2|0:0,0:0:0:0:
134,40,144957,2,8,L|228:30,1,74.1999977355958
18,154,145157,1,8,0:0:0:0:
218,184,145257,1,8,0:0:0:0:
434,250,145357,6,0,L|139:317,1,238.500009098053,6|2,3:2|1:1,0:0:0:0:
201,302,145707,1,2,1:0:0:0:
359,174,145757,2,0,L|499:161,1,74.1999977355958,8|2,3:2|1:0,0:0:0:0:
322,163,145957,2,0,L|314:76,1,74.1999977355958,2|0,1:0|1:0,0:0:0:0:
214,69,146157,6,0,L|310:62,1,74.1999977355958,0|0,3:0|0:0,0:0:0:0:
75,139,146357,2,0,L|49:94,2,37.0999988677979,2|0|0,1:0|1:0|1:0,1:0:0:0:
281,230,146557,2,0,L|307:185,2,37.0999988677979,10|0|0,3:2|1:0|1:0,1:0:0:0:
62,307,146757,2,0,L|56:214,1,74.1999977355958,2|0,1:0|0:0,0:0:0:0:
292,150,146957,6,0,L|84:135,1,169.6,2|2,3:1|1:0,0:0:0:0:
154,110,147207,1,2,1:0:0:0:
209,99,147257,1,2,1:0:0:0:
428,136,147357,2,0,L|436:234,1,74.1999977355958,10|0,3:2|0:0,0:0:0:0:
182,298,147557,6,0,L|485:330,1,283.020009824684,2|2,3:1|3:2,0:0:0:0:
415,298,147823,1,2,0:0:0:0:
360,285,147890,1,2,0:0:0:0:
178,196,147957,2,2,L|166:114,1,74.1999977355958
376,65,148157,6,0,L|335:52,1,37.0999988677979,10|0,1:2|1:0,1:0:0:0:
291,49,148257,1,0,1:0:0:0:
32,41,148357,2,0,L|73:28,1,37.0999988677979,2|0,3:1|3:0,3:0:0:0:
204,20,148457,1,2,3:1:0:0:
405,53,148557,6,0,P|344:160|176:196,1,259.169999802269,6|0,3:2|0:0,0:0:0:0:
174,202,148907,1,0,0:0:0:0:
354,260,148957,2,0,L|451:262,1,75.7900010408173,6|0,3:2|0:0,0:0:0:0:
227,353,149123,6,0,L|221:313,1,25.2633336802724,6|0,3:2|0:0,0:0:0:0:
426,348,149223,2,0,L|432:315,1,25.2633336802724,0|0,3:0|0:0,0:0:0:0:
213,228,149323,2,0,L|206:197,1,25.2633336802724,0|0,3:0|0:0,0:0:0:0:
360,148,149407,6,0,L|412:146,2,37.8950005204086,0|0|0,3:0|3:0|3:0,3:0:0:0:
167,79,149557,2,0,L|111:80,2,37.8950005204086,0|0|0,3:0|3:0|3:0,3:0:0:0:
284,51,149707,1,0,3:0:0:0:
399,45,149757,5,8,3:2:0:0:
414,66,149782,1,0,3:0:0:0:
428,89,149807,1,0,3:0:0:0:
437,114,149832,1,0,3:0:0:0:
444,141,149857,1,0,3:0:0:0:
445,167,149882,1,0,3:0:0:0:
443,193,149907,1,0,3:0:0:0:
437,220,149932,1,0,3:0:0:0:
428,245,149957,1,0,3:0:0:0:
414,271,149982,1,0,3:0:0:0:
397,295,150007,1,0,3:0:0:0:
249,340,150032,1,0,3:0:0:0:
100,345,150057,5,0,3:0:0:0:
75,336,150082,1,0,3:0:0:0:
54,320,150107,1,0,3:0:0:0:
41,297,150132,1,0,3:0:0:0:
36,271,150157,1,0,3:0:0:0:
41,245,150182,1,0,3:0:0:0:
55,223,150207,1,0,3:0:0:0:
76,206,150232,1,0,3:0:0:0:
101,199,150257,1,0,3:0:0:0:
364,168,150357,6,0,L|391:168,6,18.9475002602043,0|0|0|0|0|0|0,3:0|3:0|3:0|3:0|3:0|3:0|3:0,3:0:0:0:
303,166,150557,5,0,3:0:0:0:
262,157,150607,1,0,3:0:0:0:
244,124,150657,1,0,3:0:0:0:
261,91,150707,1,0,3:0:0:0:
302,82,150757,1,0,3:0:0:0:
374,79,150823,1,0,3:0:0:0:
302,82,150890,1,0,3:0:0:0:
92,49,150957,5,2,3:1:0:0:
186,40,151057,1,2,3:1:0:0:
88,108,151157,1,2,3:1:0:0:
81,184,151257,1,2,3:1:0:0:
348,278,151357,6,0,L|87:301,1,227.370003122452,14|0,3:2|0:0,0:0:0:0:
441,375,151757,5,4,3:1:0:0:
251,256,154895,5,2,0:3:0:0:
248,217,155084,1,2,0:0:0:0:
103,206,155274,1,2,0:0:0:0:
97,147,155464,1,2,0:0:0:0:
248,39,155654,6,2,L|268:261,1,212,2|2,0:0|0:3,0:0:0:0:
412,284,156224,1,2,0:0:0:0:
283,336,156413,1,2,0:0:0:0:
146,341,156599,1,2,0:0:0:0:
294,308,156785,5,2,0:0:0:0:
322,273,156878,1,2,0:0:0:0:
294,308,156972,1,2,0:0:0:0:
139,250,157158,1,2,0:0:0:0:
111,215,157251,1,2,0:0:0:0:
139,250,157344,2,2,L|336:232,1,159
71,155,157903,5,2,0:3:0:0:
66,125,158085,1,2,0:0:0:0:
201,119,158268,1,2,0:0:0:0:
206,89,158451,1,2,0:0:0:0:
366,80,158634,1,2,0:0:0:0:
312,53,158726,1,2,0:0:0:0:
238,43,158817,1,2,0:0:0:0:
389,24,159000,5,2,0:3:0:0:
393,48,159183,1,2,0:0:0:0:
257,148,159366,1,2,0:0:0:0:
251,180,159542,1,2,0:0:0:0:
414,200,159718,1,2,0:0:0:0:
443,228,159807,1,2,0:0:0:0:
414,200,159895,1,2,0:0:0:0:
269,289,160071,5,2,0:0:0:0:
267,317,160248,1,2,0:0:0:0:
127,354,160424,1,2,0:0:0:0:
266,351,160601,1,2,0:0:0:0:
115,328,160777,5,2,0:3:0:0:
101,301,160952,1,2,0:0:0:0:
254,277,161127,1,2,0:0:0:0:
259,255,161303,1,2,0:0:0:0:
104,221,161478,1,2,0:0:0:0:
75,193,161566,1,2,0:0:0:0:
104,221,161654,1,2,0:0:0:0:
252,191,161829,5,2,0:3:0:0:
255,170,162005,1,2,0:0:0:0:
405,137,162180,1,2,0:0:0:0:
264,88,162351,1,2,0:0:0:0:
113,69,162522,1,2,0:0:0:0:
167,49,162608,1,2,0:0:0:0:
235,35,162694,1,2,0:0:0:0:
398,42,162865,5,2,0:0:0:0:
455,53,162951,1,2,0:0:0:0:
481,97,163037,1,2,0:0:0:0:
455,53,163122,1,2,0:0:0:0:
398,42,163208,1,2,0:0:0:0:
328,57,163294,1,2,0:0:0:0:
405,63,163380,1,2,0:0:0:0:
325,78,163465,1,2,0:0:0:0:
109,159,163551,5,2,0:3:0:0:
103,181,163720,1,2,0:0:0:0:
242,216,163889,1,2,0:0:0:0:
247,240,164059,1,2,0:0:0:0:
100,302,164228,1,2,0:0:0:0:
72,277,164313,1,2,0:0:0:0:
100,302,164398,1,2,0:0:0:0:
242,353,164567,5,2,0:3:0:0:
247,328,164737,1,2,0:0:0:0:
392,291,164906,1,2,0:0:0:0:
262,241,165071,1,2,0:0:0:0:
412,208,165237,1,2,0:0:0:0:
442,182,165320,1,2,0:0:0:0:
412,208,165403,1,2,0:0:0:0:
268,166,165568,5,2,0:0:0:0:
261,134,165734,1,2,0:0:0:0:
112,124,165900,1,2,0:0:0:0:
121,93,166066,1,2,0:0:0:0:
280,55,166231,5,2,0:3:0:0:
146,30,166393,1,2,0:0:0:0:
87,190,166555,1,2,0:0:0:0:
146,30,166717,1,2,0:0:0:0:
289,55,166879,1,2,0:0:0:0:
238,84,166960,1,2,0:0:0:0:
163,91,167041,1,2,0:0:0:0:
310,155,167203,5,2,0:3:0:0:
317,183,167366,1,2,0:0:0:0:
465,226,167528,1,2,0:0:0:0:
457,260,167685,1,2,0:0:0:0:
314,331,167843,1,2,0:0:0:0:
310,302,167922,1,2,0:0:0:0:
305,271,168001,1,2,0:0:0:0:
149,266,168159,5,2,0:0:0:0:
201,236,168238,1,2,0:0:0:0:
277,226,168317,1,2,0:0:0:0:
278,182,168396,1,2,0:0:0:0:
204,160,168475,1,2,0:0:0:0:
269,134,168554,1,2,0:0:0:0:
340,127,168633,1,2,0:0:0:0:
263,105,168712,1,2,0:0:0:0:
46,149,168791,5,2,0:3:0:0:
42,117,168949,1,2,0:0:0:0:
174,96,169106,1,2,0:0:0:0:
181,67,169264,1,2,0:0:0:0:
338,38,169422,1,2,0:0:0:0:
283,68,169501,1,2,0:0:0:0:
216,75,169580,1,2,0:0:0:0:
346,153,169738,5,2,0:3:0:0:
349,186,169896,1,2,0:0:0:0:
492,240,170054,1,2,0:0:0:0:
371,284,170207,1,2,0:0:0:0:
226,297,170361,1,2,0:0:0:0:
282,322,170438,1,2,0:0:0:0:
354,330,170515,1,2,0:0:0:0:
217,373,170669,5,2,0:0:0:0:
212,339,170823,1,2,0:0:0:0:
66,310,170977,1,2,0:0:0:0:
76,276,171130,1,2,0:0:0:0:
355,262,171284,5,2,0:3:0:0:
345,228,171434,1,2,0:0:0:0:
193,195,171584,1,2,0:0:0:0:
204,164,171734,1,2,0:0:0:0:
355,141,171884,1,2,0:0:0:0:
384,109,171959,1,2,0:0:0:0:
355,141,172034,1,2,0:0:0:0:
212,77,172184,5,2,0:3:0:0:
343,46,172334,1,2,0:0:0:0:
483,170,172484,1,2,0:0:0:0:
344,232,172634,1,2,0:0:0:0:
186,280,172784,1,2,0:0:0:0:
131,277,172859,1,2,0:0:0:0:
103,241,172934,1,2,0:0:0:0:
131,277,173009,1,2,0:0:0:0:
340,337,173084,6,0,L|512:316,1,159,2|0,3:2|0:0,0:0:0:0:
254,155,173384,2,0,L|22:126,1,190.799994177246,2|0,3:2|0:0,0:0:0:0:
393,322,173684,6,0,B|473:303|525:224|518:92|406:1|255:-1|113:67|113:67|417:158|417:158|258:161|220:180|210:339|210:339|210:183|210:183|224:342|267:351|440:354|463:341|446:162|446:162|132:162|132:162|303:149|303:149|225:203,1,2464.50009401322,6|0,3:1|0:0,0:0:0:0:
88,344,176084,2,0,B|186:363|323:353|388:210|339:26|141:76,1,556.500021228791,6|0,3:2|0:0,0:0:0:0:
365,40,176684,6,0,B|153:61|153:61|130:187,1,318,2|0,3:1|0:0,0:0:0:0:
376,73,176984,2,0,B|164:94|164:94|141:220,1,318,2|0,3:1|0:0,0:0:0:0:
389,103,177284,6,0,B|177:124|177:124|154:250,1,318,2|0,3:1|0:0,0:0:0:0:
399,136,177584,2,0,B|187:157|187:157|164:283,1,318,2|0,3:1|0:0,0:0:0:0:
383,342,177884,5,2,1:1:0:0:
429,334,177921,1,0,1:0:0:0:
455,317,177959,1,2,1:1:0:0:
469,295,177996,1,0,1:0:0:0:
469,295,178034,1,2,1:1:0:0:
469,295,178071,1,0,1:0:0:0:
469,295,178109,1,2,1:1:0:0:
469,295,178146,1,0,1:0:0:0:
453,172,178184,5,2,1:1:0:0:
423,147,178221,1,0,1:0:0:0:
380,136,178259,1,2,1:1:0:0:
336,129,178296,1,0,1:0:0:0:
376,106,178334,1,2,1:1:0:0:
415,87,178371,1,0,1:0:0:0:
452,65,178409,1,2,1:1:0:0:
219,23,178484,6,0,B|130:29|117:37|34:111|23:124|65:315|68:321|205:352|214:353|357:349|357:349|188:315|153:226|158:139|158:139|153:229|201:308|309:300,1,1192.50004549027,6|0,3:2|0:0,0:0:0:0:
471,284,179684,6,0,B|402:278|226:315|201:110|255:20|402:14|484:24|487:150|468:225|468:225|427:338|230:361|215:358|49:268|211:80,1,1192.50004549027,6|0,3:2|0:0,0:0:0:0:
373,26,180884,6,0,B|221:51|99:131|143:351|143:351|292:344,1,556.500021228791,6|0,3:2|0:0,0:0:0:0:
288,212,181484,2,0,L|309:193,1,19.8750007581711,2|0,1:1|1:0,1:0:0:0:
242,227,181559,2,0,L|218:205,1,19.8750007581711,2|0,1:1|1:0,1:0:0:0:
288,212,181634,2,0,L|307:194,1,19.8750007581711,2|0,1:1|1:0,1:0:0:0:
242,227,181709,2,0,L|219:208,1,19.8750007581711,2|0,1:1|1:0,1:0:0:0:
378,341,181784,6,0,B|405:279|414:193|383:139|321:56|165:30|82:131,1,482.299977922059,6|0,3:2|0:0,0:0:0:0:
248,58,182384,2,0,L|267:66,1,19.8750007581711,2|0,1:1|1:0,1:0:0:0:
383,100,182459,2,0,L|402:93,1,19.8750007581711,2|0,1:0|1:0,1:0:0:0:
267,131,182534,2,0,L|238:140,1,19.8750007581711,2|0,1:0|1:0,1:0:0:0:
140,166,182609,2,0,L|121:172,1,19.8750007581711,2|0,1:0|1:0,1:0:0:0:
309,346,182684,6,0,P|389:315|363:157,1,238.500009098053,2|0,1:0|0:0,0:0:0:0:
194,189,182984,2,0,L|270:143,1,79.5000030326844,10|8,3:2|3:2,1:0:0:0:
467,72,183134,2,0,L|373:16,1,79.5000030326844,10|8,3:2|3:2,1:0:0:0:
185,348,183284,6,0,B|109:307|16:249|43:75|150:30|429:53|429:53|258:80|209:114|199:324|279:380|435:375|425:232,1,1192.50004549027,6|0,3:2|0:0,0:0:0:0:
235,345,184484,6,0,B|327:322|421:288|447:163|331:11|95:80|70:234|70:234|236:246|237:230|267:8|250:1|74:17|74:17|177:65,1,1192.50004549027,6|0,3:2|0:0,0:0:0:0:
340,344,185684,2,0,B|422:298|422:298|264:299|264:299|353:357|466:332|504:204|479:133|415:94,1,630.700012029648,6|0,3:2|0:0,0:0:0:0:
366,30,186284,6,0,L|347:69,1,35.3333333333333,2|0,1:0|1:0,1:0:0:0:
278,63,186384,2,0,L|260:124,1,35.3333333333333,2|0,1:0|1:0,1:0:0:0:
196,104,186484,2,0,L|178:146,1,35.3333333333333,2|0,1:0|1:0,1:0:0:0:
256,145,186584,6,0,L|276:192,1,35.3333333333333,2|0,1:0|1:0,1:0:0:0:
344,185,186684,2,0,L|379:226,1,35.3333333333333,2|0,1:0|1:0,1:0:0:0:
294,221,186784,2,0,L|272:254,1,35.3333333333333,2|0,1:0|1:0,1:0:0:0:
204,253,186884,6,0,L|172:289,1,35.3333333333333,2|0,1:0|1:0,1:0:0:0:
254,287,186984,2,0,L|288:320,1,35.3333333333333,2|0,1:0|1:0,1:0:0:0:
350,317,187084,2,0,L|377:341,1,35.3333333333333,2|0,1:0|1:0,1:0:0:0:
304,345,187184,6,0,L|259:365,1,35.3333333333333,2|0,1:0|1:0,1:0:0:0:
127,14,187284,2,0,L|71:32,1,35.3333333333333,2|0,1:0|1:0,1:0:0:0:
212,31,187384,2,0,L|276:50,1,35.3333333333333,2|0,1:0|1:0,1:0:0:0:
119,58,187484,6,0,L|79:65,1,38.8666678527832,2|0,1:0|1:0,1:0:0:0:
223,63,187584,2,0,L|292:81,1,38.8666678527832,2|0,1:0|1:0,1:0:0:0:
105,116,187684,2,0,L|48:129,1,38.8666678527832,2|0,1:0|1:0,1:0:0:0:
234,103,187784,6,0,L|281:114,1,38.8666678527832,2|0,1:0|1:0,1:0:0:0:
89,175,187884,2,0,L|40:184,1,38.8666678527832,2|0,1:0|1:0,1:0:0:0:
247,151,187984,2,0,L|312:167,1,38.8666678527832,2|0,1:0|1:0,1:0:0:0:
77,81,188084,6,0,B|4:114|6:289|133:415|279:383|445:339|446:277|446:277|447:106,1,795,6|0,3:2|0:0,0:0:0:0:
269,5,189284,6,0,B|205:45|213:125|218:129|378:135|378:135|196:140|106:149|82:242|92:275|110:360|280:339|280:339|120:338,1,964.599955844118,6|0,3:2|0:0,0:0:0:0:
446,13,190484,6,0,P|492:95|119:-23,1,1107.70003380432,6|0,3:2|0:0,0:0:0:0:
155,0,191984,6,0,L|185:51,1,53,4|0,0:3|3:0,0:0:0:0:
104,59,192134,2,8,L|86:111,1,53,8|8,0:3|0:3,0:3:0:0:
169,118,192284,5,4,3:0:0:0:
203,161,192359,1,0,1:0:0:0:
176,203,192434,1,0,1:0:0:0:
119,210,192509,1,4,3:0:0:0:
199,224,192584,2,0,L|245:257,1,53,4|0,0:3|0:0,0:0:0:0:
169,257,192734,2,0,L|119:298,1,53,0|8,1:3|3:0,0:0:0:0:
283,326,192884,5,0,3:0:0:0:
228,306,192959,1,8,3:0:0:0:
179,287,193034,1,0,3:0:0:0:
128,273,193109,1,0,3:0:0:0:
308,53,193184,2,0,L|377:69,1,53,8|0,3:0|3:0,3:0:0:0:
286,74,193334,2,0,L|229:84,1,53,0|8,3:0|3:0,3:0:0:0:
410,152,193484,6,0,L|356:140,1,53,0|0,3:0|3:0,3:0:0:0:
198,176,193634,2,0,L|142:175,1,53,8|0,3:0|3:0,3:0:0:0:
229,199,193784,2,0,L|286:200,1,53,12|0,3:0|3:0,3:0:0:0:
114,329,193934,2,0,L|189:325,1,53,8|0,3:0|3:0,3:0:0:0:
361,315,194084,5,0,3:0:0:0:
459,315,194159,1,2,1:0:0:0:
473,277,194196,1,0,1:0:0:0:
460,237,194234,1,0,1:0:0:0:
424,213,194271,1,0,1:0:0:0:
357,205,194309,1,0,1:0:0:0:
188,215,194384,5,0,1:0:0:0:
112,214,194459,1,2,1:0:0:0:
79,202,194496,1,0,1:0:0:0:
57,185,194534,1,0,1:0:0:0:
45,165,194571,1,0,1:0:0:0:
41,146,194609,1,0,1:0:0:0:
272,134,194684,5,2,1:0:0:0:
327,126,194759,1,0,1:0:0:0:
358,117,194796,1,0,1:0:0:0:
378,81,194834,1,0,1:0:0:0:
146,31,194909,1,2,1:0:0:0:
117,37,194946,1,0,1:0:0:0:
94,56,194984,5,0,1:0:0:0:
72,108,195059,1,0,1:0:0:0:
300,258,195134,1,2,1:0:0:0:
325,269,195171,1,0,1:0:0:0:
352,278,195209,1,0,1:0:0:0:
63,331,195284,5,4,3:1:0:0:
162,205,204884,6,0,L|235:196,1,53,0|0,3:0|3:0,3:0:0:0:
416,277,205034,1,6,3:2:0:0:
471,175,205184,1,0,3:0:0:0:
416,277,205334,1,0,3:0:0:0:
274,318,205484,6,0,L|264:249,4,53,2|0|0|0|0,3:3|3:0|3:0|3:0|3:0,3:0:0:0:
408,257,205934,1,0,3:0:0:0:
179,218,206084,5,2,3:3:0:0:
308,207,206234,2,0,L|321:147,4,53,0|0|0|0|0,3:0|3:0|3:0|3:0|3:0,3:0:0:0:
58,122,206684,6,0,L|173:111,1,106,2|0,3:3|3:0,3:0:0:0:
298,58,206984,1,0,3:0:0:0:
245,55,207059,1,0,3:0:0:0:
192,52,207134,1,0,3:0:0:0:
139,49,207209,1,0,3:0:0:0:
316,155,207284,5,2,3:3:0:0:
435,178,207434,1,0,3:0:0:0:
308,246,207584,1,0,3:0:0:0:
238,273,207659,1,0,3:0:0:0:
168,311,207734,5,0,3:0:0:0:
213,340,207809,1,0,3:0:0:0:
267,354,207884,1,0,3:0:0:0:
328,360,207959,1,0,3:0:0:0:
158,219,208034,2,0,L|94:225,1,53,0|0,3:0|3:0,3:0:0:0:
297,163,208184,6,0,L|334:102,2,53,0|0|0,3:0|3:0|3:0,3:0:0:0:
240,171,208409,1,0,3:0:0:0:
48,158,208484,6,0,L|38:69,1,53,0|0,3:0|3:0,3:0:0:0:
127,91,208634,2,0,L|132:24,1,53,0|0,3:0|3:0,3:0:0:0:
220,29,208784,2,0,L|235:100,1,53,0|0,3:0|3:0,3:0:0:0:
43,237,208934,6,0,L|10:184,2,53,0|0|0,3:0|3:0|3:0,3:0:0:0:
103,255,209159,1,0,3:0:0:0:
292,290,209234,2,0,L|375:287,1,53,0|0,3:0|3:0,3:0:0:0:
154,362,209384,6,0,L|142:301,3,53,0|0|0|0,3:0|3:0|3:0|3:0,3:0:0:0:
372,362,209684,6,0,L|310:293,1,59.8900001827698,6|0,3:2|3:0,3:0:0:0:
258,292,209834,2,0,L|162:282,1,59.8900001827698,0|0,3:0|3:0,3:0:0:0:
385,217,209984,2,0,L|465:207,1,59.8900001827698,0|0,3:0|3:0,3:0:0:0:
246,199,210134,2,0,L|238:128,1,59.8900001827698,10|0,3:2|3:0,3:0:0:0:
324,127,210284,2,0,L|331:48,1,59.8900001827698,0|0,3:0|3:0,3:0:0:0:
130,48,210434,2,0,L|55:42,1,59.8900001827698,0|0,3:0|3:0,3:0:0:0:
266,185,210584,2,0,L|274:256,1,59.8900001827698,10|0,3:2|3:0,3:0:0:0:
187,256,210734,2,0,L|180:335,1,59.8900001827698,0|0,3:0|3:0,3:0:0:0:
386,348,210884,6,0,L|463:340,1,59.8900001827698,10|0,3:2|3:0,3:0:0:0:
298,320,211034,2,0,L|290:234,1,59.8900001827698,0|0,3:0|3:0,3:0:0:0:
128,249,211184,2,0,L|116:152,1,59.8900001827698,0|0,3:0|3:0,3:0:0:0:
326,252,211334,6,0,L|403:244,1,59.8900001827698,10|0,3:2|3:0,3:0:0:0:
216,208,211484,2,0,L|208:122,1,59.8900001827698,0|0,3:0|3:0,3:0:0:0:
38,140,211634,2,0,L|26:43,1,59.8900001827698,0|0,3:2|3:0,3:0:0:0:
218,33,211784,2,0,L|305:33,1,59.8900001827698,10|0,3:2|3:0,3:0:0:0:
210,56,211934,2,0,L|136:58,1,59.8900001827698,0|0,3:0|3:0,3:0:0:0:
359,138,212084,6,0,L|377:104,2,29.9450000913849,10|0|0,3:2|3:0|3:0,3:0:0:0:
247,184,212196,1,0,3:0:0:0:
132,162,212234,2,0,L|114:128,2,29.9450000913849,0|0|0,3:0|3:0|3:0,3:0:0:0:
255,202,212346,1,0,3:0:0:0:
374,203,212384,6,0,L|408:175,2,29.9450000913849,0|0|0,3:0|3:0|3:0,3:0:0:0:
254,220,212496,1,0,3:0:0:0:
132,212,212534,2,0,L|98:184,2,29.9450000913849,10|0|0,3:2|3:0|3:0,3:0:0:0:
259,242,212646,1,0,3:0:0:0:
385,250,212684,6,0,L|427:247,2,29.9450000913849,0|0|0,3:0|3:0|3:0,3:0:0:0:
260,260,212796,1,0,3:0:0:0:
133,259,212834,2,0,L|91:262,2,29.9450000913849,0|0|0,3:0|3:0|3:0,3:0:0:0:
261,279,212946,1,0,3:0:0:0:
391,282,212984,6,0,L|426:282,1,29.9450000913849,10|0,3:2|3:0,3:0:0:0:
307,350,213059,2,0,L|268:355,1,29.9450000913849,0|0,3:0|3:0,3:0:0:0:
161,348,213134,2,0,L|110:348,1,29.9450000913849,0|0,3:0|3:0,3:0:0:0:
14,282,213209,2,0,L|53:277,1,29.9450000913849,0|0,3:0|3:0,3:0:0:0:
227,307,213284,5,6,3:2:0:0:
286,303,213359,1,2,0:0:0:0:
338,275,213434,1,2,0:0:0:0:
373,227,213509,1,2,0:0:0:0:
384,168,213584,1,2,0:0:0:0:
368,111,213659,1,2,0:0:0:0:
329,66,213734,1,2,0:0:0:0:
275,43,213809,1,2,0:0:0:0:
215,35,213884,6,2,L|123:40,1,59.8900001827698
362,182,214034,2,2,L|448:188,1,59.8900001827698
165,263,214184,2,2,L|250:273,1,59.8900001827698,2|2,3:1|3:1,3:1:0:0:
386,310,214334,1,2,3:1:0:0:
230,366,214409,1,2,3:1:0:0:
54,364,214484,6,0,P|42:297|154:245,1,182.850003487587,6|0,3:1|0:0,0:0:0:0:
290,225,214784,2,0,L|321:142,1,60.950001162529,10|0,3:1|0:0,0:0:0:0:
470,125,214934,6,0,L|169:82,1,265,2|2,0:1|0:3,0:0:0:0:
266,61,215159,1,0,0:0:0:0:
457,37,215234,2,0,L|466:122,1,79.5000030326844,2|0,3:1|0:0,0:0:0:0:
266,197,215384,2,0,L|-22:213,1,265,10|2,3:1|0:3,0:0:0:0:
62,244,215609,1,2,0:3:0:0:
255,322,215684,6,0,L|292:259,2,60.950001162529,2|0|2,3:1|0:0|0:3,0:0:0:0:
188,332,215909,1,2,0:3:0:0:
371,359,215984,2,0,L|455:348,1,60.950001162529,10|0,3:1|0:0,0:0:0:0:
243,285,216134,6,0,L|498:191,1,265,2|2,3:1|0:3,0:0:0:0:
435,167,216359,1,0,0:0:0:0:
265,165,216434,2,0,L|232:84,1,60.950001162529,2|0,3:1|0:0,0:0:0:0:
68,76,216584,6,0,L|348:29,1,265,10|2,3:1|0:3,0:0:0:0:
265,21,216809,1,2,0:3:0:0:
65,100,216884,6,0,L|53:185,1,60.950001162529,2|0,3:1|0:0,0:0:0:0:
145,176,217034,2,0,L|154:245,1,60.950001162529,2|0,0:3|0:0,0:0:0:0:
333,293,217184,2,0,L|414:298,1,60.950001162529,10|0,3:1|0:0,0:0:0:0:
200,354,217334,6,0,L|159:284,2,60.950001162529,2|2|2,3:1|0:3|0:3,0:0:0:0:
268,360,217559,1,2,0:3:0:0:
81,288,217634,2,0,L|1:292,1,60.950001162529,2|0,3:1|0:0,0:0:0:0:
222,253,217784,2,0,L|229:155,1,60.950001162529,10|0,3:1|0:0,0:0:0:0:
139,188,217934,2,0,L|131:115,1,60.950001162529,2|0,0:3|0:0,0:0:0:0:
343,77,218084,6,0,L|157:54,1,182.850003487587,2|0,3:1|0:0,0:0:0:0:
368,200,218384,2,0,L|459:192,1,60.950001162529,10|0,3:1|0:0,0:0:0:0:
237,290,218534,6,0,L|503:349,1,265,2|2,3:1|3:1,0:0:0:0:
438,318,218759,1,2,0:3:0:0:
255,212,218834,2,0,L|247:134,1,60.950001162529,10|0,3:1|0:0,0:0:0:0:
446,81,218984,2,0,L|366:76,1,60.950001162529,2|0,3:1|0:0,0:0:0:0:
239,36,219134,1,10,3:1:0:0:
93,46,219209,1,10,3:1:0:0:
258,99,219284,6,0,L|395:103,1,121.900002325058,2|2,3:1|0:3,0:0:0:0:
207,301,219509,1,2,0:1:0:0:
200,240,219584,1,8,3:1:0:0:
194,179,219659,1,2,0:3:0:0:
22,141,219734,6,0,L|94:100,1,60.950001162529,2|2,0:1|0:3,0:0:0:0:
145,102,219884,1,2,0:3:0:0:
335,247,219959,2,0,L|263:288,1,60.950001162529,2|0,0:1|3:0,0:0:0:0:
208,289,220109,1,2,0:3:0:0:
400,333,220184,2,0,L|482:337,1,60.950001162529,10|2,3:1|0:3,0:0:0:0:
251,368,220334,2,2,L|181:373,1,60.950001162529,2|2,0:1|0:1,0:1:0:0:
426,375,220484,6,0,L|434:219,1,121.900002325058,2|2,3:1|0:3,0:0:0:0:
250,237,220709,1,2,0:1:0:0:
243,176,220784,1,8,3:1:0:0:
236,115,220859,1,2,0:3:0:0:
45,78,220934,6,0,L|117:37,1,60.950001162529,2|2,0:1|0:3,0:0:0:0:
168,39,221084,1,2,0:3:0:0:
323,48,221159,1,2,0:1:0:0:
168,39,221234,2,0,L|96:46,1,60.950001162529,2|2,3:1|0:3,0:0:0:0:
277,137,221384,2,0,L|288:210,1,60.950001162529,10|0,3:1|0:0,0:0:0:0:
466,260,221534,2,2,L|381:270,1,60.950001162529,2|2,0:1|0:1,0:1:0:0:
205,353,221684,6,0,L|338:340,1,121.900002325058,2|2,3:1|0:1,0:0:0:0:
266,319,221909,1,2,0:1:0:0:
103,300,221984,1,10,3:1:0:0:
249,272,222059,1,2,0:1:0:0:
402,228,222134,6,0,L|317:219,1,60.950001162529,2|0,3:1|0:0,0:0:0:0:
161,164,222284,2,2,L|235:153,1,60.950001162529,2|2,0:1|0:1,0:1:0:0:
77,109,222434,1,2,3:1:0:0:
216,79,222509,1,2,0:1:0:0:
356,86,222584,2,0,L|367:11,1,60.950001162529,10|0,3:1|0:0,0:0:0:0:
161,67,222734,2,0,L|150:-8,1,60.950001162529,2|0,3:1|0:0,0:0:0:0:
356,86,222884,6,0,L|495:107,1,121.900002325058,2|2,3:1|0:3,0:0:0:0:
323,175,223109,1,2,0:1:0:0:
476,104,223184,2,0,L|486:264,1,121.900002325058,10|2,3:1|0:3,0:0:0:0:
329,287,223409,1,2,0:1:0:0:
166,344,223484,6,0,L|263:366,1,60.950001162529,2|0,3:1|0:0,0:0:0:0:
405,88,223634,2,0,L|314:105,1,60.950001162529,10|0,3:1|0:0,0:0:0:0:
144,104,223784,1,10,3:1:0:0:
298,151,223859,1,10,3:1:0:0:
453,201,223934,2,10,L|338:211,1,60.950001162529,10|10,3:1|3:1,3:1:0:0:
158,239,224084,6,0,L|8:229,1,121.900002325058,6|2,3:1|0:3,0:0:0:0:
104,213,224309,1,2,0:3:0:0:
280,212,224384,2,0,L|293:114,1,60.950001162529,10|0,3:1|0:0,0:0:0:0:
89,107,224534,6,0,L|395:60,1,265,2|2,3:1|0:3,0:0:0:0:
286,47,224759,1,2,0:3:0:0:
94,24,224834,2,0,L|17:35,1,60.950001162529,2|0,3:1|0:0,0:0:0:0:
229,176,224984,2,0,L|500:206,1,265,10|2,3:1|0:3,0:0:0:0:
428,237,225209,1,2,0:3:0:0:
246,326,225284,6,0,L|205:262,2,60.950001162529,2|2|2,3:1|0:3|0:3,0:0:0:0:
313,336,225509,1,2,0:3:0:0:
131,352,225584,2,0,L|56:352,1,60.950001162529,10|0,3:1|0:0,0:0:0:0:
277,268,225734,6,0,L|9:213,1,265,2|2,3:1|0:3,0:0:0:0:
81,182,225959,1,2,0:3:0:0:
259,182,226034,2,0,L|267:102,1,60.950001162529,2|0,3:1|0:0,0:0:0:0:
37,80,226184,2,0,L|323:17,1,265,10|2,3:1|0:3,0:0:0:0:
232,20,226409,1,2,0:3:0:0:
50,106,226484,6,0,L|34:190,1,60.950001162529,2|0,3:1|0:0,0:0:0:0:
120,187,226634,2,0,L|132:258,1,60.950001162529,2|0,0:1|0:0,0:0:0:0:
304,297,226784,2,0,L|379:302,1,60.950001162529,10|0,3:1|0:0,0:0:0:0:
180,362,226934,2,0,L|166:275,1,60.950001162529,2|0,3:1|0:0,0:0:0:0:
356,227,227084,6,0,L|284:213,1,60.950001162529,2|0,0:1|0:0,0:0:0:0:
478,174,227234,2,0,L|485:94,1,60.950001162529,2|0,3:1|0:0,0:0:0:0:
293,77,227384,2,0,L|197:65,1,60.950001162529,10|0,3:1|0:0,0:0:0:0:
303,49,227534,2,0,L|399:40,1,60.950001162529,2|0,3:1|0:0,0:0:0:0:
159,156,227684,6,0,L|-1:136,1,121.900002325058,2|2,3:1|0:3,0:0:0:0:
103,115,227909,1,2,0:3:0:0:
289,238,227984,2,0,L|199:260,1,60.950001162529,10|0,3:1|0:0,0:0:0:0:
75,296,228134,1,10,3:1:0:0:
230,340,228209,1,10,3:1:0:0:
385,347,228284,6,2,L|395:257,1,60.950001162529,2|2,3:1|0:1,0:1:0:0:
217,238,228434,2,2,L|210:142,1,60.950001162529,8|2,3:1|0:1,0:1:0:0:
28,116,228584,2,2,L|106:86,1,60.950001162529,10|0,3:1|3:1,3:1:0:0:
287,71,228734,2,2,L|385:72,1,60.950001162529,10|0,3:1|3:1,3:1:0:0:
126,17,228884,6,0,L|109:140,1,106,6|0,3:2|0:0,0:0:0:0:
171,140,229109,1,2,0:1:0:0:
373,193,229184,5,2,1:1:0:0:
470,211,229221,1,2,1:1:0:0:
256,270,229334,1,2,1:1:0:0:
159,288,229371,1,2,1:1:0:0:
373,193,229484,1,2,1:1:0:0:
470,211,229521,1,2,1:1:0:0:
256,270,229634,1,2,1:1:0:0:
159,288,229671,1,2,1:1:0:0:
401,346,229784,5,2,1:0:0:0:
410,334,229821,1,0,1:0:0:0:
399,327,229859,1,0,1:0:0:0:
419,317,229896,1,0,1:0:0:0:
390,308,229934,1,0,1:0:0:0:
430,298,229971,1,0,1:0:0:0:
383,291,230009,1,0,1:0:0:0:
158,187,230084,6,0,L|342:150,1,159,6|0,3:2|1:0,0:0:0:0:
351,148,230346,1,0,1:0:0:0:
386,141,230384,1,0,1:0:0:0:
314,109,230459,1,0,1:0:0:0:
72,156,230534,6,0,L|66:119,4,26.5,4|0|0|0|8,1:3|1:0|1:0|1:0|1:3,1:0:0:0:
161,103,230759,5,4,1:3:0:0:
134,100,230796,1,0,1:0:0:0:
108,98,230834,1,0,1:0:0:0:
81,95,230871,1,0,1:0:0:0:
55,93,230909,1,8,1:3:0:0:
143,58,230984,5,4,1:3:0:0:
172,57,231021,1,0,1:0:0:0:
202,56,231059,1,8,1:3:0:0:
112,24,231134,1,8,1:3:0:0:
202,56,231209,1,8,1:3:0:0:
401,240,231284,6,0,L|329:245,1,59.8900001827698,6|0,3:2|0:0,0:0:0:0:
88,328,231434,2,0,L|7:330,1,59.8900001827698,6|0,3:2|0:0,0:0:0:0:
437,352,231734,6,0,L|514:353,1,59.8900001827698,6|0,3:2|0:0,0:0:0:0:
80,39,232034,2,0,L|15:39,1,59.8900001827698,6|0,3:2|0:0,0:0:0:0:
247,148,232184,6,0,L|343:151,1,59.8900001827698,6|0,3:2|3:0,0:0:0:0:
165,225,232334,1,0,3:0:0:0:
24,239,232409,1,0,3:0:0:0:
227,73,232484,5,6,3:2:0:0:
289,71,232559,1,2,3:2:0:0:
340,105,232634,1,2,3:2:0:0:
359,161,232709,1,2,3:2:0:0:
338,217,232784,1,2,3:2:0:0:
286,249,232859,1,2,3:2:0:0:
222,251,232934,1,2,3:2:0:0:
377,306,233009,1,2,3:2:0:0:
222,251,233084,6,2,L|157:260,1,39.9266667885132,2|2,3:1|3:2,3:0:0:0:
33,342,233184,2,2,L|93:349,1,39.9266667885132,2|10,3:2|3:3,3:2:0:0:
193,355,233284,1,10,3:2:0:0:
314,353,233334,1,10,3:2:0:0:
170,319,233384,5,2,3:2:0:0:
107,311,233459,2,2,L|78:249,2,59.8900001827698,2|2|2,3:2|3:2|3:2,3:2:0:0:
303,53,233684,6,0,L|436:62,1,121.900002325058,4|2,3:1|0:0,0:0:0:0:
362,72,233909,1,2,0:0:0:0:
166,92,233984,2,2,L|313:102,1,121.900002325058,10|2,3:2|0:3,0:3:0:0:
224,111,234209,1,2,0:3:0:0:
416,181,234284,2,0,L|345:192,1,60.950001162529,0|0,3:0|0:0,0:0:0:0:
160,332,234434,2,0,L|153:266,1,60.950001162529,10|0,3:2|0:0,0:0:0:0:
349,331,234584,6,0,L|220:321,1,121.900002325058,2|2,3:2|0:3,0:0:0:0:
290,310,234809,1,2,0:3:0:0:
102,115,234884,2,0,L|246:126,1,121.900002325058,0|2,3:0|0:3,0:0:0:0:
293,129,235109,1,2,0:3:0:0:
94,346,235184,6,0,L|86:209,1,121.900002325058,10|2,3:2|0:3,0:3:0:0:
159,200,235409,1,2,0:3:0:0:
352,335,235484,2,0,L|361:269,1,60.950001162529
171,99,235634,6,0,L|103:91,1,60.950001162529,10|0,3:2|0:0,0:0:0:0:
282,34,235784,2,0,L|296:123,1,60.950001162529,0|0,3:0|0:0,0:0:0:0:
90,171,235934,2,0,L|81:237,1,60.950001162529,10|0,3:2|0:0,0:0:0:0:
290,265,236084,6,0,L|140:277,1,121.900002325058,2|2,3:2|0:3,0:0:0:0:
435,344,236384,1,0,3:0:0:0:
215,200,236534,2,2,L|289:194,1,60.950001162529,10|2,3:2|0:3,0:3:0:0:
100,318,236684,2,0,L|184:309,1,60.950001162529,2|0,3:2|3:0,0:0:0:0:
332,277,236834,1,10,3:2:0:0:
66,48,236984,6,0,L|224:58,1,121.900002325058,2|2,3:2|0:3,0:0:0:0:
124,72,237209,1,2,0:3:0:0:
318,85,237284,2,0,L|327:161,1,60.950001162529,0|0,3:0|0:0,0:0:0:0:
154,179,237434,2,2,L|145:264,1,60.950001162529,0|0,0:0|0:0,0:3:0:0:
343,262,237584,6,0,L|170:278,1,121.900002325058,10|2,3:2|0:3,0:0:0:0:
284,282,237809,1,2,0:3:0:0:
449,297,237884,6,0,L|444:212,1,60.950001162529,2|0,3:2|0:0,0:0:0:0:
284,192,238034,2,0,L|278:118,1,60.950001162529,10|0,3:2|0:0,0:0:0:0:
120,320,238184,6,0,L|59:314,1,60.950001162529,2|0,3:2|0:0,0:0:0:0:
256,318,238334,2,0,L|326:307,1,60.950001162529,10|0,3:2|0:0,0:0:0:0:
110,293,238484,5,6,3:2:0:0:
60,286,238521,1,0,1:0:0:0:
35,264,238559,1,0,1:0:0:0:
23,237,238596,1,0,1:0:0:0:
34,202,238634,1,0,1:0:0:0:
63,187,238671,1,0,1:0:0:0:
111,186,238709,1,0,1:0:0:0:
305,35,238784,5,10,3:2:0:0:
311,65,238821,1,0,1:0:0:0:
317,93,238859,1,0,1:0:0:0:
265,102,238896,1,0,1:0:0:0:
215,110,238934,1,0,1:0:0:0:
204,139,238971,1,0,1:0:0:0:
195,164,239009,1,2,1:1:0:0:
237,183,239046,1,0,1:0:0:0:
282,202,239084,1,0,1:0:0:0:
254,224,239121,1,0,1:0:0:0:
223,243,239159,1,2,1:0:0:0:
394,338,239234,5,2,3:3:0:0:
443,328,239271,1,0,1:0:0:0:
476,303,239309,1,0,1:0:0:0:
485,268,239346,1,0,1:0:0:0:
472,230,239384,1,2,1:0:0:0:
439,213,239421,1,0,1:0:0:0:
391,209,239459,1,2,1:0:0:0:
222,42,239534,5,10,3:2:0:0:
290,40,239609,1,0,1:0:0:0:
135,43,239684,1,0,3:0:0:0:
85,50,239721,1,0,1:0:0:0:
50,67,239759,1,0,1:0:0:0:
30,106,239796,1,0,1:0:0:0:
47,132,239834,1,0,1:0:0:0:
28,158,239871,1,0,1:0:0:0:
51,188,239909,1,0,1:0:0:0:
209,137,239984,5,10,3:2:0:0:
173,137,240021,1,0,1:0:0:0:
140,137,240059,1,2,1:1:0:0:
296,169,240134,1,2,1:0:0:0:
330,177,240171,1,0,1:0:0:0:
367,186,240209,1,2,1:0:0:0:
301,216,240284,5,2,1:0:0:0:
296,241,240322,1,0,1:0:0:0:
292,272,240359,1,2,1:0:0:0:
138,276,240434,2,0,L|153:199,1,60.950001162529,2|0,3:1|0:0,0:0:0:0:
319,50,240584,6,0,L|382:56,1,60.950001162529,10|0,3:2|0:0,0:0:0:0:
194,51,240734,2,0,L|131:56,1,60.950001162529,2|0,1:1|1:0,0:0:0:0:
348,104,240884,2,0,B|221:220|221:220|412:219,1,339.2,2|10,3:1|3:2,0:0:0:0:
323,258,241259,1,2,0:1:0:0:
393,275,241334,1,2,0:1:0:0:
327,292,241409,1,2,0:1:0:0:
256,306,241484,5,2,0:1:0:0:
188,318,241559,1,2,0:1:0:0:
333,42,241634,1,2,3:1:0:0:
404,50,241709,1,2,0:1:0:0:
268,63,241784,1,2,0:1:0:0:
136,82,241859,1,2,0:1:0:0:
302,96,241934,1,10,3:1:0:0:
444,113,242009,1,2,0:1:0:0:
283,320,242084,6,0,B|39:296|39:296|100:173,1,381.599988354493,6|0,3:2|3:0,0:0:0:0:
322,58,242384,1,10,3:2:0:0:
372,70,242459,1,0,3:0:0:0:
230,321,242534,6,0,B|474:297|474:297|415:171,1,381.599988354493,6|0,3:2|3:0,0:0:0:0:
173,59,242834,1,10,3:2:0:0:
125,71,242909,1,0,3:0:0:0:
260,259,242984,5,6,3:2:0:0:
402,274,243059,1,2,0:1:0:0:
260,269,243134,1,2,0:1:0:0:
119,278,243209,1,2,0:1:0:0:
258,76,243284,6,0,L|421:85,1,121.900002325058,4|2,3:1|0:3,0:0:0:0:
115,139,243584,2,0,L|267:149,1,121.900002325058,2|2,3:2|0:3,0:0:0:0:
171,159,243809,1,2,0:3:0:0:
364,240,243884,2,0,L|300:243,1,60.950001162529,2|0,3:2|0:0,0:0:0:0:
135,351,244034,2,0,L|130:291,1,60.950001162529,10|0,3:2|0:0,0:0:0:0:
325,55,244184,6,0,L|405:62,1,60.950001162529,2|0,3:2|0:0,0:0:0:0:
214,324,244334,2,0,L|207:251,1,60.950001162529,2|2,0:3|0:3,0:0:0:0:
399,133,244484,2,0,L|272:142,1,121.900002325058,2|2,3:2|0:3,0:0:0:0:
340,148,244709,1,2,0:3:0:0:
163,320,244784,6,0,L|333:306,1,121.900002325058,2|2,3:2|0:3,0:0:0:0:
225,297,245009,1,2,0:3:0:0:
73,220,245084,2,0,L|133:211,1,60.950001162529,2|2,3:2|0:3,0:0:0:0:
310,202,245234,2,0,L|319:267,1,60.950001162529,10|0,3:2|0:0,0:0:0:0:
147,336,245384,2,0,L|139:271,1,60.950001162529,2|2,3:2|0:3,0:0:0:0:
315,104,245534,2,0,L|397:96,1,60.950001162529,10|2,3:2|0:3,0:0:0:0:
197,34,245684,6,0,L|403:45,1,182.850003487587,6|0,3:2|0:0,0:0:0:0:
202,99,245984,2,0,L|196:164,1,60.950001162529,2|0,1:0|0:0,0:0:0:0:
26,186,246134,2,0,L|86:190,1,60.950001162529,2|0,1:0|0:0,0:0:0:0:
330,222,246284,6,0,L|129:237,1,182.850003487587,6|0,3:2|0:0,0:0:0:0:
325,306,246584,2,0,L|257:318,1,60.950001162529,2|0,1:0|1:0,0:0:0:0:
439,357,246734,2,0,L|449:293,1,60.950001162529,2|0,1:0|1:0,1:0:0:0:
201,70,246884,6,0,L|408:79,1,182.850003487587,6|0,3:2|0:0,0:0:0:0:
141,106,247184,2,0,P|65:159|110:224,1,137.799993692017,2|2,3:1|0:3,0:0:0:0:
146,210,247409,1,2,0:3:0:0:
349,291,247484,2,0,L|152:302,1,182.850003487587,6|0,3:2|0:0,0:0:0:0:
391,229,247784,5,6,3:2:0:0:
442,216,247821,1,0,3:0:0:0:
474,192,247859,1,0,3:0:0:0:
481,149,247896,1,0,3:0:0:0:
463,109,247934,1,0,3:0:0:0:
422,88,247971,1,0,3:0:0:0:
370,85,248009,1,0,3:0:0:0:
174,48,248084,6,0,P|288:70|323:213,1,238.500009098053,6|0,3:2|0:0,0:0:0:0:
253,335,248384,2,0,P|179:310|200:164,1,238.500009098053,2|0,0:1|0:0,0:0:0:0:
268,96,248684,6,2,L|136:118,1,127.199996118164,2|2,0:1|0:1,0:1:0:0:
270,144,248984,2,2,L|399:156,1,127.199996118164,2|2,0:1|0:1,0:1:0:0:
238,320,249284,6,0,P|194:320|204:179,1,222.599993206787,2|0,0:1|0:0,0:0:0:0:
296,55,249584,1,2,0:1:0:0:
197,102,249734,2,2,L|275:124,1,68.8999968460084,0|2,1:0|1:0,1:0:0:0:
169,140,249884,2,2,L|105:164,1,68.8999968460084,0|2,1:0|1:0,1:0:0:0:
183,170,250034,2,2,L|103:202,1,68.8999968460084,0|2,1:0|1:0,1:0:0:0:
287,201,250184,6,0,L|356:218,1,68.8999968460084,2|0,1:0|1:0,1:0:0:0:
214,257,250334,2,0,L|140:286,1,68.8999968460084,2|0,1:0|1:0,1:0:0:0:
354,284,250484,1,6,3:2:0:0:
220,297,250559,1,0,3:0:0:0:
79,309,250634,1,0,3:0:0:0:
221,328,250709,1,0,3:0:0:0:
394,50,250784,6,0,L|322:58,1,60.950001162529,8|0,3:2|0:0,0:0:0:0:
118,51,250934,2,0,L|183:59,1,60.950001162529,8|0,3:2|0:0,0:0:0:0:
406,341,251084,2,0,P|435:250|279:225,1,238.500009098053,2|0,3:1|0:0,0:0:0:0:
118,51,251384,6,0,L|194:59,1,60.950001162529,14|0,3:2|0:0,0:0:0:0:
394,50,251534,2,0,L|322:59,1,60.950001162529,14|0,3:2|0:0,0:0:0:0:
142,146,251684,1,0,3:0:0:0:
281,135,251759,1,0,3:0:0:0:
421,148,251834,1,0,3:0:0:0:
280,163,251909,1,0,3:0:0:0:
119,331,251984,6,0,B|24:295|25:286|64:120,1,238.500009098053,2|0,3:1|0:0,0:0:0:0:
253,59,252284,2,0,L|261:129,1,53,14|0,3:2|0:0,0:0:0:0:
452,116,252434,2,0,L|460:195,1,53,14|0,3:2|0:0,0:0:0:0:
221,330,252584,6,0,P|148:308|188:199,1,190.799994177246,2|0,3:1|0:0,0:0:0:0:
388,41,252884,6,0,P|436:85|328:147,1,212,6|2,3:2|0:0,0:0:0:0:
212,270,253334,2,2,L|196:52,1,212
329,42,253784,1,2,0:0:0:0:
190,65,253934,2,2,P|114:75|90:200,1,212
142,219,254309,1,2,0:0:0:0:
312,312,254384,6,2,L|232:317,2,53
453,353,254684,2,0,L|443:175,1,159,2|0,0:0|0:0,0:0:0:0:
228,159,254984,2,2,L|29:138,1,159,2|0,0:0|0:0,0:0:0:0:
397,85,255284,5,6,3:2:0:0:
381,77,256484,1,8,3:1:0:0:
161,130,256559,2,0,L|41:144,1,106,8|0,3:1|3:0,0:0:0:0:
285,226,256784,1,0,3:0:0:0:
161,317,256934,2,0,L|242:323,1,53,0|0,3:0|3:0,3:0:0:0:
428,212,257084,6,0,L|339:201,1,53,6|0,3:2|3:0,0:0:0:0:
192,237,257234,2,0,L|181:151,1,53,0|0,3:0|3:0,3:0:0:0:
370,115,257384,2,8,L|272:103,1,53,8|8,0:1|0:1,0:1:0:0:
74,49,257534,1,8,0:1:0:0:
136,43,257609,1,8,0:1:0:0:
380,51,257684,5,6,3:2:0:0:
454,157,257834,1,0,3:0:0:0:
222,236,257984,1,8,3:2:0:0:
364,275,258134,1,0,3:0:0:0:
80,342,258284,5,0,3:0:0:0:
44,220,258434,1,0,3:0:0:0:
286,153,258584,1,8,3:2:0:0:
146,135,258734,1,0,3:0:0:0:
446,100,258884,6,0,L|328:115,1,106,0|0,3:0|3:0,3:0:0:0:
145,44,259109,1,2,0:0:0:0:
197,51,259184,1,8,3:2:0:0:
437,232,259334,1,0,3:0:0:0:
161,338,259484,6,0,L|147:217,1,106,0|0,3:0|3:0,3:0:0:0:
346,231,259709,1,2,0:0:0:0:
294,217,259784,1,8,3:2:0:0:
59,106,259934,2,0,L|127:100,1,53,0|0,3:0|3:0,3:0:0:0:
336,56,260084,6,0,L|461:57,1,106,4|0,3:2|3:0,0:0:0:0:
258,196,260309,1,2,0:0:0:0:
204,203,260384,1,8,3:2:0:0:
461,243,260534,5,0,3:0:0:0:
326,281,260684,1,0,3:0:0:0:
74,312,260834,1,0,3:0:0:0:
326,357,260984,1,8,3:2:0:0:
184,364,261134,1,0,3:0:0:0:
457,304,261284,6,0,L|468:182,1,106,0|0,3:0|3:0,3:0:0:0:
262,178,261509,1,2,0:0:0:0:
209,170,261584,1,8,3:2:0:0:
399,113,261659,1,2,0:0:0:0:
452,68,261734,2,0,L|364:66,1,53,0|0,3:0|3:0,3:0:0:0:
177,56,261884,5,0,3:0:0:0:
312,43,262034,1,0,3:0:0:0:
56,70,262184,2,0,L|46:191,1,106,8|0,3:2|3:0,3:0:0:0:
110,193,262409,1,0,3:0:0:0:
312,251,262484,6,0,L|245:280,1,59.8900001827698,6|0,3:2|3:0,3:0:0:0:
188,276,262634,1,0,3:0:0:0:
379,335,262709,2,0,L|462:336,1,59.8900001827698,2|0,3:1|3:0,3:0:0:0:
245,357,262859,2,0,L|241:269,1,59.8900001827698,2|0,3:1|3:0,3:0:0:0:
310,285,263009,1,0,3:0:0:0:
112,219,263084,6,0,L|28:210,2,59.8900001827698,2|0|0,3:1|3:0|3:0,3:0:0:0:
299,195,263309,2,0,L|250:135,1,59.8900001827698,2|0,3:1|3:0,3:0:0:0:
188,136,263459,1,0,3:0:0:0:
387,89,263534,2,0,L|468:81,1,59.8900001827698,2|0,3:1|3:0,3:0:0:0:
252,87,263684,6,0,L|246:10,1,59.8900001827698,4|0,3:1|3:0,3:0:0:0:
316,19,263834,1,0,3:0:0:0:
113,68,263909,2,0,L|26:81,1,59.8900001827698,2|0,3:1|3:0,3:0:0:0:
254,182,264059,2,0,L|330:190,2,59.8900001827698,2|0|0,3:1|3:0|3:0,3:0:0:0:
55,268,264284,6,0,L|45:181,1,59.8900001827698,2|0,3:1|3:0,3:0:0:0:
117,188,264434,1,0,3:0:0:0:
310,231,264509,2,0,L|233:281,1,59.8900001827698,2|0,3:1|3:0,3:0:0:0:
189,285,264659,1,0,3:0:0:0:
329,318,264734,1,2,3:1:0:0:
471,320,264809,1,2,3:1:0:0:
321,348,264884,6,0,L|309:308,4,29.9450000913849,6|0|0|0|0,3:2|3:0|3:0|3:0|3:0,3:0:0:0:
118,253,265109,1,2,3:1:0:0:
147,249,265146,1,0,3:0:0:0:
177,245,265184,1,0,3:0:0:0:
207,241,265221,1,0,3:0:0:0:
236,237,265259,1,0,3:0:0:0:
48,171,265334,2,0,L|3:173,2,29.9450000913849,2|0|0,3:1|3:0|3:0,3:0:0:0:
287,131,265484,6,0,L|305:97,2,29.9450000913849,2|0|0,3:1|3:1|3:1,3:1:0:0:
175,177,265596,1,0,3:0:0:0:
60,155,265634,2,0,L|42:121,2,29.9450000913849,0|0|0,3:0|3:0|3:0,3:0:0:0:
183,195,265746,1,0,3:0:0:0:
302,196,265784,6,0,L|347:193,2,29.9450000913849,2|0|0,3:1|3:0|3:0,3:0:0:0:
182,213,265896,1,0,3:0:0:0:
57,285,265934,2,0,L|114:290,1,29.9450000913849,2|0,3:1|3:0,3:0:0:0:
237,320,266009,2,0,L|279:317,1,29.9450000913849,0|0,3:0|3:0,3:0:0:0:
424,344,266084,5,6,3:2:0:0:
256,192,266984,12,0,267002,0:0:0:0:
256,192,267021,12,0,267040,0:0:0:0:
256,192,267059,12,0,267078,0:0:0:0:
256,192,267096,12,0,267115,0:0:0:0:
256,192,267134,12,0,267153,0:0:0:0:
256,192,267171,12,0,267189,0:0:0:0:
256,192,267208,12,0,267227,0:0:0:0:
256,192,267246,12,0,267265,0:0:0:0:
256,192,267283,12,0,267302,0:0:0:0:
256,192,267321,12,0,267340,0:0:0:0:
256,192,267359,12,0,267377,0:0:0:0:
256,192,267396,12,0,267415,0:0:0:0:
256,192,267434,12,0,267453,0:0:0:0:
256,192,267471,12,0,267490,0:0:0:0:
256,192,267509,12,0,267528,0:0:0:0:
256,192,267546,12,0,267564,0:0:0:0:
256,192,267583,12,0,267602,0:0:0:0:
256,192,267621,12,0,267640,0:0:0:0:
256,192,267658,12,0,267677,0:0:0:0:
256,192,267696,12,0,267715,0:0:0:0:
256,192,267734,12,0,267752,0:0:0:0:
256,192,267771,12,0,267790,0:0:0:0:
256,192,267809,12,0,267828,0:0:0:0:
256,192,267846,12,0,267865,0:0:0:0:
256,192,267884,12,0,267903,0:0:0:0:
256,192,267921,12,0,267959,0:0:0:0:
256,192,267996,12,0,268034,0:0:0:0:
256,192,268071,12,0,268109,0:0:0:0:
256,192,268146,12,0,268184,0:0:0:0:
256,192,268221,12,0,268334,0:0:0:0:
256,192,268484,5,8,3:1:0:0:
118,115,268634,2,0,L|193:101,1,59.8900001827698,0|0,3:0|3:0,3:0:0:0:
390,95,268784,1,8,3:1:0:0:
163,289,268934,2,0,L|81:286,1,59.8900001827698,0|0,3:0|3:0,3:0:0:0:
319,344,269084,5,8,3:1:0:0:
442,273,269234,1,0,3:0:0:0:
410,270,269271,1,0,3:0:0:0:
379,267,269309,1,0,3:0:0:0:
166,201,269384,6,0,L|305:195,1,119.78000036554,2|2,3:1|0:1,0:0:0:0:
76,334,269684,6,0,B|432:317,1,296.799990942383,14|2,3:2|0:1,0:0:0:0:
319,307,269909,1,2,0:1:0:0:
109,64,269984,2,0,L|263:72,1,137.799993692017,2|2,3:1|0:1,0:0:0:0:
188,82,270209,1,2,0:1:0:0:
447,66,270284,6,0,B|188:85|188:85|177:391,1,530,10|0,3:2|1:1,0:0:0:0:
326,346,270734,1,2,1:0:0:0:
431,333,270759,1,2,1:0:0:0:
171,361,270884,6,0,B|434:330|434:330|447:50,1,530,10|0,3:2|1:0,0:0:0:0:
314,53,271334,1,2,1:0:0:0:
209,40,271359,1,2,1:0:0:0:
439,153,271484,6,0,L|160:177,1,265,10|0,3:2|1:1,0:0:0:0:
168,207,271709,1,0,1:1:0:0:
242,328,271784,1,2,1:0:0:0:
350,314,271809,1,2,1:0:0:0:
168,207,271934,2,0,L|243:198,1,53,2|0,1:0|1:0,1:0:0:0:
414,62,272084,6,0,B|103:84|103:84|96:265,1,477.000018196107,14|0,3:2|0:0,0:0:0:0:
314,340,272384,2,0,B|402:325|442:317|441:224|441:224|365:168,1,270.300005155563,2|0,3:1|0:0,0:0:0:0:
225,76,272684,2,0,L|295:76,1,59.8900001827698,10|0,3:2|0:0,0:0:0:0:
105,336,272834,6,0,L|102:264,1,59.8900001827698,2|0,1:0|0:0,0:0:0:0:
254,246,272984,2,0,L|265:177,1,59.8900001827698,2|0,1:0|0:0,0:0:0:0:
416,162,273134,2,0,L|470:95,1,59.8900001827698,2|0,1:0|0:0,0:0:0:0:
151,63,273284,6,0,B|413:77|413:77|417:222,1,397.5,2|0,3:1|0:0,0:0:0:0:
256,321,273584,2,2,L|341:305,1,63.5999980590821,2|2,0:1|0:1,0:1:0:0:
383,294,273734,1,2,0:1:0:0:
315,282,273809,1,2,0:1:0:0:
161,191,273884,5,10,3:1:0:0:
302,165,273959,1,2,0:1:0:0:
442,130,274034,1,2,0:1:0:0:
377,115,274109,1,2,0:1:0:0:
223,103,274184,1,10,3:1:0:0:
294,112,274259,1,2,0:1:0:0:
225,131,274334,1,2,0:1:0:0:
161,151,274409,1,2,0:1:0:0:
328,334,274484,5,6,3:2:0:0:
389,330,274521,1,0,1:0:0:0:
432,315,274559,1,0,1:0:0:0:
446,276,274596,1,0,1:0:0:0:
432,232,274634,1,0,1:0:0:0:
383,208,274671,1,0,1:0:0:0:
274,178,274709,1,2,1:0:0:0:
143,91,274784,2,0,L|214:97,1,68.8999968460084,0|0,1:0|1:0,1:0:0:0:
136,115,274934,2,0,L|131:210,1,68.8999968460084,2|0,1:0|1:0,1:0:0:0:
396,58,275084,6,0,B|137:77|137:77|126:383,1,530,10|0,3:2|1:0,0:0:0:0:
281,329,275534,1,2,1:0:0:0:
386,316,275559,1,2,1:0:0:0:
127,347,275684,6,0,B|390:316|390:316|399:152,1,397.5,10|0,3:2|0:0,0:0:0:0:
211,177,275984,1,2,1:0:0:0:
106,165,276009,1,2,1:0:0:0:
297,114,276134,1,2,1:0:0:0:
402,101,276159,1,2,1:0:0:0:
144,50,276284,6,0,B|413:66|413:66|423:226,1,397.5,10|0,3:2|0:0,0:0:0:0:
271,218,276584,1,2,1:0:0:0:
167,233,276609,1,2,1:0:0:0:
53,313,276734,1,2,1:0:0:0:
156,329,276759,1,2,1:0:0:0:
403,326,276884,6,0,L|409:244,1,59.8900001827698,6|0,3:2|0:0,0:0:0:0:
235,241,277034,2,0,L|241:176,1,59.8900001827698,2|0,1:0|1:0,1:0:0:0:
68,133,277184,2,0,L|145:120,1,59.8900001827698,10|0,3:2|1:0,1:0:0:0:
302,57,277334,2,0,L|390:43,1,59.8900001827698,2|0,1:0|1:0,1:0:0:0:
227,168,277484,6,0,L|219:216,1,39.9266667885132,2|0,0:1|0:0,0:0:0:0:
347,251,277584,2,0,L|403:273,1,39.9266667885132,2|0,0:1|0:0,0:0:0:0:
256,317,277684,2,0,L|210:331,1,39.9266667885132,2|0,0:1|0:0,0:0:0:0:
69,88,277784,2,0,L|58:170,1,59.8900001827698,10|0,3:2|0:0,0:0:0:0:
242,144,277934,2,0,L|251:221,1,59.8900001827698,2|0,0:1|0:0,0:0:0:0:
421,348,278084,5,6,3:2:0:0:
450,299,278159,1,2,1:2:0:0:
409,255,278234,1,2,1:2:0:0:
349,241,278309,1,2,1:2:0:0:
286,237,278384,1,2,1:1:0:0:
224,235,278459,1,2,1:2:0:0:
373,202,278534,5,2,1:1:0:0:
311,189,278609,1,2,1:2:0:0:
284,155,278684,1,2,1:2:0:0:
313,122,278759,1,2,1:2:0:0:
375,109,278834,1,2,1:1:0:0:
456,107,278909,1,2,1:2:0:0:
271,318,278984,2,2,L|191:329,1,59.8900001827698,10|2,1:2|1:2,1:2:0:0:
399,317,279134,2,2,L|473:331,1,59.8900001827698,10|2,1:2|1:2,1:2:0:0:
140,65,279284,6,0,L|542:99,1,318.000012130738,6|0,3:2|0:0,0:0:0:0:
390,102,279509,1,0,0:0:0:0:
225,190,279584,2,0,L|154:181,1,63.5999980590821,2|0,3:1|0:0,0:0:0:0:
319,250,279734,1,2,3:1:0:0:
161,319,279809,2,0,L|86:310,1,63.5999980590821,2|0,3:1|0:0,0:0:0:0:
293,241,279959,2,0,L|377:233,1,63.5999980590821,2|0,3:1|0:0,0:0:0:0:
200,188,280109,1,2,3:1:0:0:
366,134,280184,6,0,L|443:125,1,63.5999980590821,10|0,3:2|0:0,0:0:0:0:
236,174,280334,2,0,L|151:163,1,63.5999980590821,10|0,3:2|0:0,0:0:0:0:
363,334,280484,6,0,B|109:325|107:314|115:129,1,397.5,2|0,3:1|0:0,0:0:0:0:
262,94,280784,2,0,L|265:171,1,63.5999980590821,2|0,3:1|0:0,0:0:0:0:
411,162,280934,2,0,L|415:244,1,63.5999980590821,2|0,3:1|0:0,0:0:0:0:
263,242,281084,2,0,L|251:325,1,63.5999980590821,2|0,3:1|0:0,0:0:0:0:
100,297,281234,2,0,L|91:362,1,63.5999980590821,2|0,3:1|0:0,0:0:0:0:
263,30,281384,6,0,L|253:115,1,63.5999980590821,10|0,3:2|0:0,0:0:0:0:
428,133,281534,2,0,L|421:206,1,63.5999980590821,10|0,3:2|0:0,0:0:0:0:
276,336,281684,1,2,3:1:0:0:
144,338,281721,1,0,1:0:0:0:
91,333,281759,1,0,1:0:0:0:
49,314,281796,1,0,1:0:0:0:
33,277,281834,1,0,1:0:0:0:
47,235,281871,1,0,1:0:0:0:
93,222,281909,1,0,1:0:0:0:
317,94,281984,6,0,L|400:84,1,63.5999980590821,2|0,3:1|0:0,0:0:0:0:
203,156,282134,1,2,3:1:0:0:
382,221,282209,2,0,L|302:209,1,63.5999980590821,2|0,3:1|0:0,0:0:0:0:
139,281,282359,1,2,3:1:0:0:
312,343,282434,2,0,L|395:331,1,63.5999980590821,2|0,3:1|0:0,0:0:0:0:
200,24,282584,5,10,3:2:0:0:
66,60,282659,1,2,3:1:0:0:
208,38,282734,1,10,3:2:0:0:
66,60,282809,1,2,3:1:0:0:
217,58,282884,5,2,3:1:0:0:
352,73,282959,1,2,3:1:0:0:
220,95,283034,1,2,3:1:0:0:
151,113,283109,1,0,0:0:0:0:
290,337,283184,5,2,3:1:0:0:
439,313,283259,1,2,3:1:0:0:
297,312,283334,1,2,3:1:0:0:
160,308,283409,1,2,3:1:0:0:
305,283,283484,1,2,3:1:0:0:
148,110,283559,2,0,P|89:158|120:209,1,127.199996118164,2|0,0:1|0:0,0:0:0:0:
363,197,283784,6,0,P|367:267|230:313,1,206.699990538025,10|0,3:1|0:0,0:0:0:0:
121,157,284084,1,14,3:2:0:0:
254,179,284159,1,8,3:2:0:0:
387,155,284234,1,8,3:2:0:0:
254,179,284309,1,8,3:2:0:0:
118,149,284384,1,8,3:2:0:0:
254,179,284459,1,8,3:2:0:0:
394,146,284534,1,8,3:2:0:0:
254,179,284609,1,8,3:2:0:0:
97,333,284684,6,0,B|241:343|352:300|352:300|406:240|400:104,1,445.199986413575,2|0,3:1|0:0,0:0:0:0:
253,22,285284,5,14,3:2:0:0:
119,27,285359,1,10,3:2:0:0:
267,37,285434,1,10,3:2:0:0:
400,28,285509,1,10,3:2:0:0:
252,53,285584,1,10,3:2:0:0:
112,42,285659,1,10,3:2:0:0:
273,69,285734,1,10,3:2:0:0:
408,46,285809,1,10,3:2:0:0:
239,347,285884,6,0,B|108:358|21:182|116:63|272:77,1,445.199986413575,2|0,3:1|0:0,0:0:0:0:
385,94,286484,2,10,L|430:89,1,31.799999029541,10|10,3:2|3:2,3:2:0:0:
289,92,286559,2,10,L|236:85,1,31.799999029541,10|10,3:2|3:2,3:2:0:0:
385,94,286634,2,10,L|434:88,1,31.799999029541,10|10,3:2|3:2,3:2:0:0:
289,92,286709,2,10,L|248:87,1,31.799999029541,10|10,3:2|3:2,3:2:0:0:
106,67,286784,6,0,L|104:376,1,278.250010614396,2|0,3:1|0:0,0:0:0:0:
243,334,287084,2,8,L|283:329,1,31.799999029541,8|8,3:2|3:2,3:2:0:0:
400,306,287159,2,8,L|449:290,1,31.799999029541,8|8,3:2|3:2,3:2:0:0:
288,277,287234,2,8,L|249:271,1,31.799999029541,8|8,3:2|3:2,3:2:0:0:
124,252,287309,2,8,L|81:243,1,31.799999029541,8|8,3:2|3:2,3:2:0:0:
255,178,287384,6,0,B|313:136|313:136|187:86,1,190.799994177246,2|0,3:1|0:0,0:0:0:0:
398,53,287684,2,0,P|264:391|163:37,1,953.999970886231,6|0,3:2|0:0,0:0:0:0:
371,222,288884,5,6,3:1:0:0:
451,169,289184,1,2,0:0:0:0:
432,79,289334,1,0,0:0:0:0:
324,66,289484,1,2,0:0:0:0:
93,157,289784,1,2,0:0:0:0:
88,267,289934,1,2,0:0:0:0:
217,300,290084,5,2,0:0:0:0:
159,199,290234,1,0,0:0:0:0:
217,300,290384,1,2,0:0:0:0:
338,329,290534,1,0,0:0:0:0:
217,300,290684,1,2,0:0:0:0:
434,354,290984,1,2,0:0:0:0:
441,258,291134,1,2,0:0:0:0:
316,202,291284,5,2,0:0:0:0:
443,192,291434,1,0,0:0:0:0:
497,97,291584,1,2,0:0:0:0:
443,192,291734,1,0,0:0:0:0:
305,206,291884,1,2,0:0:0:0:
38,195,292334,1,2,0:0:0:0:
61,175,292484,5,0,0:0:0:0:
200,156,292634,1,2,0:0:0:0:
174,132,292784,1,0,0:0:0:0:
29,88,292934,1,2,0:0:0:0:
39,120,293084,5,0,0:0:0:0:
183,50,293234,1,2,0:0:0:0:
189,111,293384,1,0,0:0:0:0:
338,104,293534,1,2,0:0:0:0:
202,187,293684,5,2,0:0:0:0:
331,222,293834,1,0,0:0:0:0:
387,297,293984,1,2,0:0:0:0:
331,222,294134,1,0,0:0:0:0:
202,187,294284,1,2,0:0:0:0:
424,352,294584,1,2,0:0:0:0:
182,354,294884,5,2,0:0:0:0:
127,251,295034,1,0,0:0:0:0:
182,354,295184,1,2,0:0:0:0:
322,357,295334,1,0,0:0:0:0:
182,354,295484,1,2,0:0:0:0:
415,260,295784,1,2,0:0:0:0:
420,189,295934,1,2,0:0:0:0:
295,115,296084,5,2,0:0:0:0:
418,150,296234,1,0,0:0:0:0:
471,278,296384,1,2,0:0:0:0:
418,150,296534,1,0,0:0:0:0:
283,138,296684,1,2,0:0:0:0:
345,223,296834,1,0,0:0:0:0:
283,138,296984,1,2,0:0:0:0:
147,321,297134,1,2,0:0:0:0:
389,45,297434,5,2,0:0:0:0:
261,51,297584,1,2,0:0:0:0:
255,77,297734,1,0,0:0:0:0:
125,113,297884,1,2,0:0:0:0:
240,181,298034,1,0,0:0:0:0:
373,193,298184,1,2,0:0:0:0:
242,231,298334,1,2,0:0:0:0:
91,240,298484,5,2,0:0:0:0:
227,257,298634,1,0,0:0:0:0:
281,340,298784,1,2,0:0:0:0:
227,257,298934,1,0,0:0:0:0:
91,240,299084,1,2,0:0:0:0:
328,214,299384,1,2,0:0:0:0:
333,181,299534,1,2,0:0:0:0:
203,164,299684,5,2,0:0:0:0:
148,58,299834,1,0,0:0:0:0:
203,164,299984,1,2,0:0:0:0:
334,197,300134,1,0,0:0:0:0:
203,164,300284,1,2,0:0:0:0:
447,170,300584,1,2,0:0:0:0:
447,146,300734,1,2,0:0:0:0:
333,68,300884,5,2,0:0:0:0:
447,103,301034,1,0,0:0:0:0:
498,219,301184,1,2,0:0:0:0:
447,103,301334,1,0,0:0:0:0:
312,84,301484,1,2,0:0:0:0:
48,134,301934,5,2,0:0:0:0:
183,174,302084,1,0,0:0:0:0:
189,205,302234,1,2,0:0:0:0:
330,251,302384,1,0,0:0:0:0:
196,290,302534,1,2,0:0:0:0:
187,344,302684,1,0,0:0:0:0:
328,355,302834,1,2,0:0:0:0:
337,315,302984,1,0,0:0:0:0:
201,277,303134,1,2,0:0:0:0:
352,230,303284,5,2,0:0:0:0:
217,202,303434,1,0,0:0:0:0:
164,103,303584,1,2,0:0:0:0:
217,202,303734,1,0,0:0:0:0:
355,220,303884,1,2,0:0:0:0:
106,302,304184,1,2,0:0:0:0:
100,272,304334,1,2,0:0:0:0:
234,126,304484,5,2,0:0:0:0:
104,171,304634,1,0,0:0:0:0:
48,277,304784,1,2,0:0:0:0:
104,171,304934,1,0,0:0:0:0:
238,135,305084,1,2,0:0:0:0:
473,52,305384,1,2,0:0:0:0:
355,24,305534,1,2,0:0:0:0:
231,99,305684,5,2,0:0:0:0:
359,156,305834,1,0,0:0:0:0:
410,249,305984,1,2,0:0:0:0:
357,157,306134,1,0,0:0:0:0:
221,118,306284,1,2,0:0:0:0:
344,75,306434,1,0,0:0:0:0:
217,38,306584,1,2,0:0:0:0:
82,48,306734,1,0,0:0:0:0:
383,180,306884,5,2,0:0:0:0:
71,333,307784,2,0,L|31:268,2,53,2|0|2,0:0|0:0|0:0,0:0:0:0:
135,351,308009,1,0,0:0:0:0:
204,348,308084,5,2,0:0:0:0:
263,246,308234,1,0,0:0:0:0:
204,348,308384,1,2,0:0:0:0:
74,244,308534,2,0,L|311:209,1,212,2|0,0:0|0:0,0:0:0:0:
427,213,308984,5,2,0:0:0:0:
116,108,309734,1,2,0:0:0:0:
433,70,310184,1,2,0:0:0:0:
189,45,310484,5,2,0:0:0:0:
418,205,312584,1,2,0:0:0:0:
416,170,312734,1,2,0:0:0:0:
275,176,312884,5,2,0:0:0:0:
334,77,313034,1,0,0:0:0:0:
275,176,313184,1,2,0:0:0:0:
135,215,313334,2,0,L|372:255,1,212,2|0,0:0|0:0,0:0:0:0:
230,328,313784,5,2,0:0:0:0:
48,283,314534,1,2,0:0:0:0:
266,233,314984,1,2,0:0:0:0:
470,176,315284,5,2,0:0:0:0:
252,86,315884,2,0,L|231:206,3,106,2|0|2|0,0:0|0:0|0:0|0:0,0:0:0:0:
94,242,316484,6,0,L|304:298,1,212,2|0,0:0|0:0,0:0:0:0:
165,342,316934,1,2,0:0:0:0:
394,355,317384,2,0,L|431:299,2,53,2|0|2,0:0|0:0|0:0,0:0:0:0:
334,364,317609,1,0,0:0:0:0:
258,360,317684,5,2,0:0:0:0:
202,272,317834,1,0,0:0:0:0:
258,360,317984,1,2,0:0:0:0:
395,364,318134,2,0,L|400:150,1,212,2|0,0:0|0:0,0:0:0:0:
260,126,318584,5,2,0:0:0:0:
56,79,319334,1,2,0:0:0:0:
375,60,319784,1,2,0:0:0:0:
133,240,320084,5,2,0:0:0:0:
432,281,322184,1,2,0:0:0:0:
435,235,322334,1,2,0:0:0:0:
298,211,322484,5,2,0:0:0:0:
395,138,322634,1,0,0:0:0:0:
266,86,322784,1,2,0:0:0:0:
137,68,322934,6,0,L|460:233,1,318,2|2,0:0|0:0,0:0:0:0:
51,304,323984,1,2,0:0:0:0:
227,285,324284,1,2,0:0:0:0:
429,294,324584,1,2,0:0:0:0:
147,248,324884,6,0,P|107:168|340:27,1,424,2|0,0:0|0:0,0:0:0:0:
91,16,325784,2,0,P|70:95|333:239,1,424,2|0,0:0|0:0,0:0:0:0:
69,336,326684,5,2,0:2:0:0:
256,192,326984,12,0,336284,0:0:0:0:
