osu file format v14

[General]
AudioFilename: audio.mp3
AudioLeadIn: 0
PreviewTime: 32666
Countdown: 0
SampleSet: Normal
StackLeniency: 0
Mode: 1
LetterboxInBreaks: 0
WidescreenStoryboard: 1

[Editor]
Bookmarks: 1333,11999,19999,22666,27999,33333,43999,54666,65333,70666,75999,78666
DistanceSpacing: 1
BeatDivisor: 4
GridSize: 32
TimelineZoom: 1.8

[Metadata]
Title:Sidequest (Cut Ver.)
TitleUnicode:Sidequest (Cut Ver.)
Artist:Redside
ArtistUnicode:Redside
Creator:Nytrocide_
Version:Futsuu
Source:osu! World Cup 2022
Tags:nytro ganyumymommy yasuho uone owc owc2022 original electronic dance music vocaloid instrumental edm chiptune future bass happy version featured artist fa mappers mappers' guild mg mpg quest
BeatmapID:4291405
BeatmapSetID:2053899

[Difficulty]
HPDrainRate:8
CircleSize:2
OverallDifficulty:4
ApproachRate:10
SliderMultiplier:1.4
SliderTickRate:1

[Events]
//Background and Video events
0,0,"Quest.jpg",0,-90
//Break Periods
2,76199,78216
//Storyboard Layer 0 (Background)
//Storyboard Layer 1 (Fail)
//Storyboard Layer 2 (Pass)
//Storyboard Layer 3 (Foreground)
//Storyboard Layer 4 (Overlay)
//Storyboard Sound Samples

[TimingPoints]
0,333.333333333333,4,1,0,65,1,0
0,-100,4,1,0,65,0,0
1333,-100,4,1,0,65,0,0
11996,-100,4,1,0,70,0,0
19996,-100,4,1,0,80,0,0
22663,-100,4,1,0,70,0,0
27996,-100,4,1,0,80,0,0
32996,-100,4,1,0,85,0,0
33333,-100,4,1,0,95,0,1
43996,-100,4,1,0,100,0,1
54666,-100,4,1,0,85,0,0
70666,-100,4,1,0,85,0,0
75999,-100,4,1,0,85,0,0
78666,-100,4,1,0,95,0,0

[HitObjects]
256,192,1333,5,8,0:0:0:0:
256,192,2333,1,8,0:0:0:0:
256,192,2499,1,0,0:0:0:0:
256,192,3166,1,8,0:0:0:0:
256,192,3499,1,0,0:0:0:0:
256,192,3666,1,0,0:0:0:0:
256,192,3999,1,8,0:0:0:0:
256,192,4833,1,0,0:0:0:0:
256,192,4999,1,8,0:0:0:0:
256,192,5166,1,0,0:0:0:0:
256,192,5833,1,8,0:0:0:0:
256,192,6166,1,8,0:0:0:0:
256,192,6333,1,8,0:0:0:0:
256,192,6499,1,0,0:0:0:0:
256,192,7333,1,0,0:0:0:0:
256,192,7666,1,8,0:0:0:0:
256,192,7833,1,0,0:0:0:0:
256,192,8499,1,0,0:0:0:0:
256,192,8833,1,0,0:0:0:0:
256,192,9000,1,8,0:0:0:0:
256,192,9333,1,0,0:0:0:0:
256,192,9666,1,8,0:0:0:0:
256,192,9833,1,0,0:0:0:0:
256,192,10333,1,8,0:0:0:0:
256,192,10499,1,0,0:0:0:0:
256,192,11166,1,0,0:0:0:0:
256,192,11499,1,0,0:0:0:0:
256,192,11666,1,8,0:0:0:0:
256,192,11999,1,4,0:0:0:0:
256,192,12666,1,0,0:0:0:0:
256,192,12999,1,0,0:0:0:0:
256,192,13166,1,8,0:0:0:0:
256,192,13333,1,0,0:0:0:0:
256,192,13666,1,8,0:0:0:0:
256,192,13999,1,0,0:0:0:0:
256,192,14333,1,8,0:0:0:0:
256,192,14499,1,8,0:0:0:0:
256,192,14666,1,0,0:0:0:0:
256,192,14999,1,8,0:0:0:0:
256,192,15333,1,0,0:0:0:0:
256,192,15666,1,0,0:0:0:0:
256,192,15833,1,8,0:0:0:0:
256,192,15999,1,0,0:0:0:0:
256,192,16333,1,8,0:0:0:0:
256,192,16666,1,8,0:0:0:0:
256,192,16833,1,0,0:0:0:0:
256,192,16999,1,0,0:0:0:0:
256,192,17166,1,8,0:0:0:0:
256,192,17333,1,8,0:0:0:0:
256,192,17666,1,8,0:0:0:0:
256,192,17833,1,0,0:0:0:0:
256,192,18166,1,0,0:0:0:0:
256,192,18333,1,8,0:0:0:0:
256,192,19166,1,8,0:0:0:0:
256,192,19499,1,0,0:0:0:0:
256,192,19666,1,8,0:0:0:0:
256,192,19999,1,4,0:0:0:0:
256,192,20499,1,4,0:0:0:0:
256,192,20999,1,12,0:0:0:0:
256,192,22666,1,4,0:0:0:0:
256,192,22999,1,8,0:0:0:0:
256,192,23333,1,0,0:0:0:0:
256,192,23666,1,8,0:0:0:0:
256,192,23833,1,8,0:0:0:0:
256,192,23999,1,0,0:0:0:0:
256,192,24332,1,8,0:0:0:0:
256,192,24666,1,0,0:0:0:0:
256,192,24999,1,0,0:0:0:0:
256,192,25166,1,8,0:0:0:0:
256,192,25333,1,0,0:0:0:0:
256,192,25666,1,8,0:0:0:0:
256,192,25999,1,0,0:0:0:0:
256,192,26333,1,8,0:0:0:0:
256,192,26499,1,0,0:0:0:0:
256,192,26666,1,0,0:0:0:0:
256,192,26999,1,8,0:0:0:0:
256,192,27333,1,0,0:0:0:0:
256,192,27999,1,0,0:0:0:0:
256,192,28333,1,8,0:0:0:0:
256,192,28666,1,0,0:0:0:0:
256,192,28999,1,8,0:0:0:0:
256,192,29166,1,8,0:0:0:0:
256,192,29333,1,0,0:0:0:0:
256,192,29666,1,8,0:0:0:0:
256,192,29999,1,0,0:0:0:0:
256,192,30333,1,8,0:0:0:0:
256,192,30499,1,0,0:0:0:0:
256,192,30666,1,0,0:0:0:0:
256,192,30999,1,8,0:0:0:0:
256,192,31333,1,8,0:0:0:0:
256,192,31666,1,8,0:0:0:0:
256,192,31999,1,8,0:0:0:0:
256,192,32166,1,0,0:0:0:0:
256,192,32333,1,8,0:0:0:0:
256,192,32499,1,0,0:0:0:0:
256,192,32666,1,8,0:0:0:0:
256,192,32999,1,0,0:0:0:0:
256,192,33333,1,12,0:0:0:0:
256,192,33999,1,8,0:0:0:0:
256,192,34166,1,8,0:0:0:0:
256,192,34333,1,8,0:0:0:0:
256,192,34499,1,8,0:0:0:0:
256,192,34833,1,0,0:0:0:0:
256,192,34999,1,0,0:0:0:0:
256,192,35333,1,8,0:0:0:0:
256,192,35666,1,8,0:0:0:0:
256,192,35833,1,8,0:0:0:0:
256,192,35999,1,0,0:0:0:0:
256,192,36666,1,8,0:0:0:0:
256,192,36833,1,0,0:0:0:0:
256,192,36999,1,0,0:0:0:0:
256,192,37166,1,8,0:0:0:0:
256,192,37499,1,0,0:0:0:0:
256,192,37666,1,8,0:0:0:0:
256,192,37833,1,0,0:0:0:0:
256,192,37999,1,8,0:0:0:0:
256,192,38333,1,0,0:0:0:0:
256,192,38666,1,8,0:0:0:0:
256,192,39333,1,8,0:0:0:0:
256,192,39499,1,8,0:0:0:0:
256,192,39666,1,8,0:0:0:0:
256,192,39833,1,8,0:0:0:0:
256,192,40166,1,0,0:0:0:0:
256,192,40333,1,0,0:0:0:0:
256,192,40666,1,8,0:0:0:0:
256,192,40833,1,0,0:0:0:0:
256,192,40999,1,8,0:0:0:0:
256,192,41333,1,0,0:0:0:0:
256,192,41999,1,8,0:0:0:0:
256,192,42166,1,0,0:0:0:0:
256,192,42333,1,8,0:0:0:0:
256,192,42499,1,8,0:0:0:0:
256,192,42833,1,0,0:0:0:0:
256,192,42999,1,0,0:0:0:0:
256,192,43333,1,8,0:0:0:0:
256,192,43499,1,0,0:0:0:0:
256,192,43666,1,0,0:0:0:0:
256,192,43833,1,8,0:0:0:0:
256,192,43999,1,8,0:0:0:0:
256,192,44333,1,8,0:0:0:0:
256,192,44666,1,0,0:0:0:0:
256,192,44833,1,8,0:0:0:0:
256,192,44999,1,0,0:0:0:0:
256,192,45333,1,8,0:0:0:0:
256,192,45499,1,0,0:0:0:0:
256,192,45666,1,8,0:0:0:0:
256,192,45999,1,8,0:0:0:0:
256,192,46166,1,8,0:0:0:0:
256,192,46333,1,0,0:0:0:0:
256,192,46499,1,8,0:0:0:0:
256,192,46666,1,0,0:0:0:0:
256,192,46999,1,8,0:0:0:0:
256,192,47333,1,0,0:0:0:0:
256,192,47499,1,8,0:0:0:0:
256,192,47666,1,8,0:0:0:0:
256,192,47833,1,8,0:0:0:0:
256,192,47999,1,0,0:0:0:0:
256,192,48333,1,8,0:0:0:0:
256,192,48499,1,8,0:0:0:0:
256,192,48666,1,0,0:0:0:0:
256,192,49333,1,8,0:0:0:0:
256,192,49666,1,8,0:0:0:0:
256,192,49999,1,0,0:0:0:0:
256,192,50166,1,8,0:0:0:0:
256,192,50333,1,0,0:0:0:0:
256,192,50666,1,0,0:0:0:0:
256,192,50833,1,8,0:0:0:0:
256,192,50999,1,8,0:0:0:0:
256,192,51333,1,8,0:0:0:0:
256,192,51499,1,0,0:0:0:0:
256,192,51666,1,0,0:0:0:0:
256,192,51833,1,8,0:0:0:0:
256,192,51999,1,8,0:0:0:0:
256,192,52333,1,8,0:0:0:0:
256,192,52666,1,8,0:0:0:0:
256,192,53000,1,8,0:0:0:0:
256,192,53333,1,8,0:0:0:0:
256,192,53667,1,8,0:0:0:0:
256,192,53999,1,8,0:0:0:0:
256,192,54166,1,0,0:0:0:0:
256,192,54333,1,8,0:0:0:0:
256,192,54666,1,4,0:0:0:0:
256,192,55333,1,0,0:0:0:0:
256,192,55666,1,8,0:0:0:0:
256,192,55999,1,0,0:0:0:0:
256,192,56166,1,8,0:0:0:0:
256,192,56333,1,0,0:0:0:0:
256,192,56666,1,8,0:0:0:0:
256,192,56999,1,0,0:0:0:0:
256,192,57333,1,0,0:0:0:0:
256,192,57999,1,0,0:0:0:0:
256,192,58333,1,8,0:0:0:0:
256,192,58666,1,0,0:0:0:0:
256,192,58833,1,8,0:0:0:0:
256,192,58999,1,8,0:0:0:0:
256,192,59333,1,8,0:0:0:0:
256,192,59499,1,0,0:0:0:0:
256,192,59666,1,0,0:0:0:0:
256,192,59999,1,8,0:0:0:0:
256,192,60666,1,8,0:0:0:0:
256,192,60999,1,0,0:0:0:0:
256,192,61333,1,0,0:0:0:0:
256,192,61499,1,0,0:0:0:0:
256,192,61666,1,8,0:0:0:0:
256,192,62000,1,8,0:0:0:0:
256,192,62333,1,8,0:0:0:0:
256,192,62666,1,0,0:0:0:0:
256,192,63333,1,0,0:0:0:0:
256,192,63666,1,8,0:0:0:0:
256,192,63999,1,0,0:0:0:0:
256,192,64166,1,8,0:0:0:0:
256,192,64333,1,8,0:0:0:0:
256,192,64666,1,0,0:0:0:0:
256,192,64833,1,8,0:0:0:0:
256,192,64999,1,0,0:0:0:0:
256,192,65333,1,12,0:0:0:0:
256,192,65999,1,8,0:0:0:0:
256,192,66333,1,0,0:0:0:0:
256,192,66499,1,8,0:0:0:0:
256,192,66833,1,0,0:0:0:0:
256,192,66999,1,0,0:0:0:0:
256,192,67333,1,8,0:0:0:0:
256,192,67999,1,0,0:0:0:0:
256,192,68333,1,8,0:0:0:0:
256,192,68666,1,8,0:0:0:0:
256,192,68833,1,0,0:0:0:0:
256,192,68999,1,0,0:0:0:0:
256,192,69166,1,8,0:0:0:0:
256,192,69499,1,0,0:0:0:0:
256,192,69666,1,0,0:0:0:0:
256,192,69999,1,8,0:0:0:0:
256,192,70666,1,8,0:0:0:0:
256,192,70999,1,8,0:0:0:0:
256,192,71333,1,8,0:0:0:0:
256,192,71666,1,8,0:0:0:0:
256,192,71999,1,8,0:0:0:0:
256,192,72166,1,0,0:0:0:0:
256,192,72333,1,8,0:0:0:0:
256,192,72666,1,0,0:0:0:0:
256,192,72833,1,8,0:0:0:0:
256,192,72999,1,0,0:0:0:0:
256,192,73333,1,8,0:0:0:0:
256,192,73666,1,8,0:0:0:0:
256,192,73999,1,8,0:0:0:0:
256,192,74166,1,0,0:0:0:0:
256,192,74332,1,8,0:0:0:0:
256,192,74666,1,8,0:0:0:0:
256,192,74833,1,8,0:0:0:0:
256,192,74999,1,0,0:0:0:0:
256,192,75166,1,8,0:0:0:0:
256,192,75333,1,8,0:0:0:0:
256,192,75666,1,0,0:0:0:0:
256,192,75833,1,0,0:0:0:0:
256,192,75999,1,8,0:0:0:0:
256,192,78666,5,12,0:0:0:0:
