osu file format v14

[General]
AudioFilename: audio.mp3
AudioLeadIn: 0
PreviewTime: 32660
Countdown: 0
SampleSet: Normal
StackLeniency: 0.7
Mode: 1
LetterboxInBreaks: 0
WidescreenStoryboard: 0

[Editor]
DistanceSpacing: 1
BeatDivisor: 4
GridSize: 32
TimelineZoom: 2.4

[Metadata]
Title:Sidequest (Cut Ver.)
TitleUnicode:Sidequest (Cut Ver.)
Artist:Redside
ArtistUnicode:Redside
Creator:Hivie
Version:Summertime
Source:osu! World Cup 2022
Tags:owc2022 osu! original osu!original electronic dance music instrumental edm chiptune future bass happy version featured artist fa mappers mappers' guild mg mpg side quest summer time
BeatmapID:4428756
BeatmapSetID:2109907

[Difficulty]
HPDrainRate:6.6
CircleSize:2
OverallDifficulty:6.6
ApproachRate:10
SliderMultiplier:1.4
SliderTickRate:1

[Events]
//Background and Video events
0,0,"tofumang.jpg",0,70
//Break Periods
2,76131,77731
//Storyboard Layer 0 (Background)
//Storyboard Layer 1 (Fail)
//Storyboard Layer 2 (Pass)
//Storyboard Layer 3 (Foreground)
//Storyboard Layer 4 (Overlay)
//Storyboard Sound Samples

[TimingPoints]
15,333.333333333333,4,1,0,65,1,8
15,-117.647058823529,4,1,0,65,0,0
1348,-117.647058823529,4,1,0,65,0,0
11511,-109.894459102902,4,1,0,65,0,0
11677,-106.399284710691,4,1,0,65,0,0
11844,-103.100439383625,4,1,0,65,0,0
12011,-100,4,1,0,70,0,0
18678,-98.3574309039048,4,1,0,70,0,0
18845,-96.7679504548094,4,1,0,70,0,0
18928,-95.9969280983008,4,1,0,70,0,0
19011,-95.2380952380952,4,1,0,70,0,0
19178,-93.7470704040499,4,1,0,70,0,0
19261,-93.0232558139535,4,1,0,70,0,0
19345,-92.3020121838656,4,1,0,70,0,0
19511,-90.9090909090909,4,1,0,70,0,0
19678,-89.5495656846064,4,1,0,70,0,0
19761,-88.8888888888889,4,1,0,70,0,0
19845,-88.2301041115228,4,1,0,70,0,0
19928,-87.5886835420864,4,1,0,70,0,0
20011,-76.9230769230769,4,1,0,80,0,0
20511,-66.6666666666667,4,1,0,80,0,0
21011,-57.1428571428571,4,1,0,80,0,0
21345,-80,4,1,0,80,0,0
21511,-82.8902776482293,4,1,0,80,0,0
21678,-86.0166483835581,4,1,0,80,0,0
21845,-89.3880972338642,4,1,0,80,0,0
21928,-91.1639994528792,4,1,0,80,0,0
22011,-93.01189687053,4,1,0,80,0,0
22178,-96.966610896923,4,1,0,80,0,0
22345,-101.272554605888,4,1,0,80,0,0
22428,-103.558110627719,4,1,0,80,0,0
22511,-105.949211143345,4,1,0,80,0,0
22678,-111.111111111111,4,1,0,70,0,0
27011,-108.110300081103,4,1,0,70,0,0
27344,-105.267314222538,4,1,0,70,0,0
27678,-102.562129722244,4,1,0,70,0,0
27845,-101.261014889091,4,1,0,70,0,0
27928,-100.626556956292,4,1,0,70,0,0
28011,-100,4,1,0,80,0,0
28178,-98.9670316075957,4,1,0,80,0,0
28345,-97.9551855026325,4,1,0,80,0,0
28512,-96.9638203745228,4,1,0,80,0,0
28678,-95.9980800383992,4,1,0,80,0,0
28845,-95.0457407627421,4,1,0,80,0,0
29012,-94.112111052291,4,1,0,80,0,0
29179,-93.1966449207829,4,1,0,80,0,0
29345,-92.3041421483789,4,1,0,80,0,0
29512,-91.4233472373007,4,1,0,80,0,0
29678,-90.564328974925,4,1,0,80,0,0
29845,-89.7162722888864,4,1,0,80,0,0
30011,-88.8888888888889,4,1,0,80,0,0
30178,-88.0717784994771,4,1,0,80,0,0
30345,-87.269553834406,4,1,0,80,0,0
30512,-86.4818117939571,4,1,0,80,0,0
30678,-85.7127551293727,4,1,0,80,0,0
30845,-84.952745035574,4,1,0,80,0,0
31011,-84.2105263157895,4,1,0,80,0,0
31178,-83.4768090989722,4,1,0,80,0,0
31345,-82.7557670425158,4,1,0,80,0,0
31512,-82.0470745089995,4,1,0,80,0,0
31678,-81.3545533126557,4,1,0,80,0,0
31845,-80.6695573258042,4,1,0,80,0,0
32011,-80,4,1,0,80,0,0
32095,-78.0345130155016,4,1,0,80,0,0
32178,-76.1850371216448,4,1,0,80,0,0
32261,-74.4211994421199,4,1,0,80,0,0
32345,-72.7173616789316,4,1,0,80,0,0
32428,-71.1087420042644,4,1,0,80,0,0
32511,-69.5697522816167,4,1,0,80,0,0
32595,-68.0785914774177,4,1,0,80,0,0
32678,-66.6666666666667,4,1,0,80,0,0
33011,-80,4,1,0,85,0,0
33094,-84.1839949590422,4,1,0,85,0,0
33178,-88.8888888888889,4,1,0,85,0,0
33261,-94.0845070422535,4,1,0,85,0,0
33348,-66.6666666666667,4,1,0,95,0,1
33673,-76.9230769230769,4,1,0,95,0,1
33756,-78.2864952592466,4,1,0,95,0,1
33840,-79.7164477689832,4,1,0,95,0,1
34006,-83.3333333333333,4,1,0,95,0,1
34173,-85.939331426696,4,1,0,95,0,1
34215,-86.7938822860931,4,1,0,95,0,1
34340,-89.4408119449595,4,1,0,95,0,1
34382,-90.3667915598501,4,1,0,95,0,1
34506,-93.2160292921074,4,1,0,95,0,1
34548,-94.2222679140537,4,1,0,95,0,1
34673,-142.857142857143,4,1,0,95,0,1
34840,-101.867289096365,4,1,0,95,0,1
34882,-103.070175438596,4,1,0,95,0,1
35007,-106.824407016726,4,1,0,95,0,1
35049,-108.14797333176,4,1,0,95,0,1
35173,-112.254271541429,4,1,0,95,0,1
35215,-113.716731807184,4,1,0,95,0,1
35340,-133.333333333333,4,1,0,95,0,1
35506,-125,4,1,0,95,0,1
35551,-126.582278481013,4,1,0,95,0,1
35673,-111.111111111111,4,1,0,95,0,1
35756,-102.587800369686,4,1,0,95,0,1
35840,-95.1972555746141,4,1,0,95,0,1
35923,-88.871096877502,4,1,0,95,0,1
36006,-83.3333333333333,4,1,0,95,0,1
36343,-76.9230769230769,4,1,0,95,0,1
36426,-78.2864952592466,4,1,0,95,0,1
36510,-79.7164477689832,4,1,0,95,0,1
36676,-83.3333333333333,4,1,0,95,0,1
36843,-85.939331426696,4,1,0,95,0,1
36885,-86.7938822860931,4,1,0,95,0,1
37010,-89.4408119449595,4,1,0,95,0,1
37052,-90.3667915598501,4,1,0,95,0,1
37176,-93.2160292921074,4,1,0,95,0,1
37218,-94.2222679140537,4,1,0,95,0,1
37343,-142.857142857143,4,1,0,95,0,1
37510,-101.867289096365,4,1,0,95,0,1
37552,-103.070175438596,4,1,0,95,0,1
37677,-106.824407016726,4,1,0,95,0,1
37719,-108.14797333176,4,1,0,95,0,1
37843,-112.254271541429,4,1,0,95,0,1
37885,-113.716731807184,4,1,0,95,0,1
38010,-133.333333333333,4,1,0,95,0,1
38176,-125,4,1,0,95,0,1
38223,-126.582278481013,4,1,0,95,0,1
38343,-111.111111111111,4,1,0,95,0,1
38426,-102.587800369686,4,1,0,95,0,1
38510,-95.1972555746141,4,1,0,95,0,1
38593,-88.871096877502,4,1,0,95,0,1
38676,-83.3333333333333,4,1,0,95,0,1
39011,-111.111111111111,4,1,0,95,0,1
39094,-108.444187391556,4,1,0,95,0,1
39178,-105.872388481084,4,1,0,95,0,1
39344,-101.010101010101,4,1,0,95,0,1
39511,-96.7741935483871,4,1,0,95,0,1
39553,-95.7365330610161,4,1,0,95,0,1
39678,-92.7758535378525,4,1,0,95,0,1
39720,-91.8217433888345,4,1,0,95,0,1
39844,-89.1159695817491,4,1,0,95,0,1
39886,-88.2352941176471,4,1,0,95,0,1
40011,-142.857142857143,4,1,0,95,0,1
40178,-82.5627476882431,4,1,0,95,0,1
40220,-81.8062827225131,4,1,0,95,0,1
40345,-79.634741983436,4,1,0,95,0,1
40387,-78.9307514207535,4,1,0,95,0,1
40511,-76.9230769230769,4,1,0,95,0,1
40553,-76.2660158633313,4,1,0,95,0,1
40678,-166.666666666667,4,1,0,95,0,1
40844,-72.0046082949309,4,1,0,95,0,1
40886,-71.4285714285714,4,1,0,95,0,1
41011,-66.6666666666667,4,1,0,95,0,1
41094,-70.1643489254109,4,1,0,95,0,1
41178,-74.0987983978638,4,1,0,95,0,1
41261,-78.4452296819788,4,1,0,95,0,1
41344,-83.3333333333333,4,1,0,95,0,1
41660,-76.9230769230769,4,1,0,95,0,1
41743,-78.2864952592466,4,1,0,95,0,1
41827,-79.7164477689832,4,1,0,95,0,1
41993,-83.3333333333333,4,1,0,95,0,1
42160,-85.939331426696,4,1,0,95,0,1
42202,-86.7938822860931,4,1,0,95,0,1
42327,-89.4408119449595,4,1,0,95,0,1
42369,-90.3667915598501,4,1,0,95,0,1
42493,-93.2160292921074,4,1,0,95,0,1
42535,-94.2222679140537,4,1,0,95,0,1
42660,-142.857142857143,4,1,0,95,0,1
42827,-101.867289096365,4,1,0,95,0,1
42869,-103.070175438596,4,1,0,95,0,1
42994,-106.824407016726,4,1,0,95,0,1
43036,-108.14797333176,4,1,0,95,0,1
43160,-112.254271541429,4,1,0,95,0,1
43202,-113.716731807184,4,1,0,95,0,1
43327,-125,4,1,0,95,0,1
43345,-125,4,1,0,95,0,1
43511,-111.148197596796,4,1,0,95,0,1
43595,-105.246523388116,4,1,0,95,0,1
43678,-100,4,1,0,95,0,1
43845,-90.8842794759825,4,1,0,95,0,1
43928,-86.9451697127937,4,1,0,95,0,1
44011,-83.3333333333333,4,1,0,100,0,1
44181,-86.9565217391304,4,1,0,100,0,1
52345,-90.2323482968644,4,1,0,100,0,1
52678,-93.7536622524317,4,1,0,100,0,1
53012,-97.5728747408221,4,1,0,100,0,1
53345,-101.703534197813,4,1,0,100,0,1
53679,-106.213489113117,4,1,0,100,0,1
54011,-90.9090909090908,4,1,0,100,0,1
54178,-93.0232558139535,4,1,0,100,0,1
54345,-83.3333333333333,4,1,0,100,0,1
54428,-85.1009455660618,4,1,0,100,0,1
54511,-86.9451697127937,4,1,0,100,0,1
54594,-88.871096877502,4,1,0,100,0,1
54681,-90.9090909090909,4,1,0,100,0,0
54848,-100,4,1,0,100,0,0
63845,-91.7446340121079,4,1,0,85,0,0
63928,-92.1656438325869,4,1,0,85,0,0
64011,-92.5905354365697,4,1,0,85,0,0
64095,-93.0245535714286,4,1,0,85,0,0
64178,-93.4574199697258,4,1,0,85,0,0
64261,-93.8943336712854,4,1,0,85,0,0
64345,-94.3406904357668,4,1,0,85,0,0
64428,-94.7859214192301,4,1,0,85,0,0
64511,-95.2353747714808,4,1,0,85,0,0
64595,-95.6946039035591,4,1,0,85,0,0
64678,-96.1527369210359,4,1,0,85,0,0
64761,-96.6152776167845,4,1,0,85,0,0
64845,-97.0879440885265,4,1,0,85,0,0
64928,-97.5595481945338,4,1,0,85,0,0
65011,-98.035756292637,4,1,0,85,0,0
65095,-98.5224586288416,4,1,0,85,0,0
65178,-99.0081368414801,4,1,0,85,0,0
65345,-83.3333333333333,4,1,0,85,0,0
65678,-86.9536855838226,4,1,0,85,0,0
66011,-90.9028914348063,4,1,0,85,0,0
66178,-93.0216329378925,4,1,0,85,0,0
66261,-94.1118328155888,4,1,0,85,0,0
66345,-95.2414975707345,4,1,0,85,0,0
66511,-97.5556206088993,4,1,0,85,0,0
66678,-100,4,1,0,85,0,0
66845,-102.570021545091,4,1,0,85,0,0
66928,-103.897116134061,4,1,0,85,0,0
67011,-105.259001895136,4,1,0,85,0,0
67178,-108.110300081103,4,1,0,85,0,0
67345,-111.120373457819,4,1,0,85,0,0
67511,-114.283264746228,4,1,0,85,0,0
67594,-115.933205774917,4,1,0,85,0,0
67677,-117.631486057183,4,1,0,85,0,0
67845,-121.225900327392,4,1,0,85,0,0
67928,-123.084025854109,4,1,0,85,0,0
68011,-83.3333333333333,4,1,0,85,0,0
68345,-86.963610277814,4,1,0,85,0,0
68678,-90.9121898009272,4,1,0,85,0,0
68845,-93.0305567182922,4,1,0,85,0,0
68928,-94.1205533596838,4,1,0,85,0,0
69011,-95.2363948007427,4,1,0,85,0,0
69178,-97.5636523266023,4,1,0,85,0,0
69345,-100.007499625019,4,1,0,85,0,0
69511,-102.561144439317,4,1,0,85,0,0
69678,-105.265235238396,4,1,0,85,0,0
69844,-108.098249027237,4,1,0,85,0,0
69928,-109.590729783037,4,1,0,85,0,0
70011,-111.111111111111,4,1,0,85,0,0
70178,-108.103727714749,4,1,0,85,0,0
70261,-106.668798976491,4,1,0,85,0,0
70345,-105.254852453843,4,1,0,85,0,0
70428,-103.894080996885,4,1,0,85,0,0
70511,-102.568045517453,4,1,0,85,0,0
70595,-101.260057689388,4,1,0,85,0,0
70678,-100,4,1,0,85,0,0
71011,-98.1615414343289,4,1,0,85,0,0
71345,-96.3842359191196,4,1,0,85,0,0
71511,-95.5246333207973,4,1,0,85,0,0
71678,-94.6751863684771,4,1,0,85,0,0
71845,-93.8407135694305,4,1,0,85,0,0
71928,-93.4314240672622,4,1,0,85,0,0
72011,-93.0256893214043,4,1,0,85,0,0
72178,-92.2199170124481,4,1,0,85,0,0
72345,-91.427983750707,4,1,0,85,0,0
72511,-90.6541579564575,4,1,0,85,0,0
72594,-90.2721364744111,4,1,0,85,0,0
72678,-89.8887765419616,4,1,0,85,0,0
72845,-89.1362109590415,4,1,0,85,0,0
72928,-88.7668497254119,4,1,0,85,0,0
73012,-88.3961419906533,4,1,0,85,0,0
73095,-88.0328761697282,4,1,0,85,0,0
73178,-87.67258382643,4,1,0,85,0,0
73261,-87.3152286008938,4,1,0,85,0,0
73345,-86.9565217391304,4,1,0,85,0,0
73511,-85.7951985582802,4,1,0,85,0,0
73678,-84.6577647936745,4,1,0,85,0,0
73844,-83.5566420635294,4,1,0,85,0,0
74011,-82.4774161613662,4,1,0,85,0,0
74177,-81.4319313357158,4,1,0,85,0,0
74344,-80.4065567837377,4,1,0,85,0,0
74510,-79.4125969944745,4,1,0,85,0,0
74595,-78.9130949561923,4,1,0,85,0,0
74678,-78.4313725490196,4,1,0,85,0,0
74845,-77.4797291406318,4,1,0,85,0,0
75011,-76.556397886515,4,1,0,85,0,0
75178,-75.6494473844757,4,1,0,85,0,0
75345,-74.7637342606355,4,1,0,85,0,0
75428,-74.3312004237938,4,1,0,85,0,0
75512,-73.8985211980098,4,1,0,85,0,0
75595,-73.4759122478227,4,1,0,85,0,0
75678,-73.0581094227423,4,1,0,85,0,0
75761,-72.6450311997602,4,1,0,85,0,0
75845,-72.2317050041995,4,1,0,85,0,0
75928,-71.8278932550214,4,1,0,85,0,0
76014,-50,4,1,0,5,0,0
76181,-133.333333333333,4,1,0,5,0,0
78098,-57.1428571428571,4,1,0,70,0,0
78681,-100,4,1,0,95,0,0

[HitObjects]
256,192,1181,5,0,0:0:0:0:
256,192,1265,1,0,0:0:0:0:
256,192,1348,1,8,0:0:0:0:
256,192,2348,1,8,0:0:0:0:
256,192,2515,1,0,0:0:0:0:
256,192,3181,1,8,0:0:0:0:
256,192,3514,1,0,0:0:0:0:
256,192,3681,1,0,0:0:0:0:
256,192,3848,1,0,0:0:0:0:
256,192,4014,1,8,0:0:0:0:
256,192,4848,1,0,0:0:0:0:
256,192,5014,1,8,0:0:0:0:
256,192,5181,1,0,0:0:0:0:
256,192,5848,1,8,0:0:0:0:
256,192,6181,1,8,0:0:0:0:
256,192,6348,1,8,0:0:0:0:
256,192,6514,1,0,0:0:0:0:
256,192,7348,1,8,0:0:0:0:
256,192,7514,1,8,0:0:0:0:
256,192,7681,1,8,0:0:0:0:
256,192,7848,1,0,0:0:0:0:
256,192,8514,1,8,0:0:0:0:
256,192,8848,1,8,0:0:0:0:
256,192,9015,1,8,0:0:0:0:
256,192,9182,1,0,0:0:0:0:
256,192,9348,1,8,0:0:0:0:
256,192,9681,1,8,0:0:0:0:
256,192,9848,1,8,0:0:0:0:
256,192,10181,1,0,0:0:0:0:
256,192,10347,1,8,0:0:0:0:
256,192,10514,1,8,0:0:0:0:
256,192,11181,1,0,0:0:0:0:
256,192,11514,1,0,0:0:0:0:
256,192,11680,1,8,0:0:0:0:
256,192,11847,1,8,0:0:0:0:
256,192,12014,1,4,0:0:0:0:
256,192,12181,1,0,0:0:0:0:
256,192,12348,1,8,0:0:0:0:
256,192,12514,1,0,0:0:0:0:
256,192,12598,1,8,0:0:0:0:
256,192,12681,1,0,0:0:0:0:
256,192,12764,1,0,0:0:0:0:
256,192,12848,1,8,0:0:0:0:
256,192,13014,1,0,0:0:0:0:
256,192,13181,1,8,0:0:0:0:
256,192,13264,1,8,0:0:0:0:
256,192,13348,1,0,0:0:0:0:
256,192,13514,1,0,0:0:0:0:
256,192,13681,1,8,0:0:0:0:
256,192,13848,1,8,0:0:0:0:
256,192,13931,1,0,0:0:0:0:
256,192,14014,1,8,0:0:0:0:
256,192,14098,1,8,0:0:0:0:
256,192,14181,1,0,0:0:0:0:
256,192,14264,1,0,0:0:0:0:
256,192,14348,1,8,0:0:0:0:
256,192,14514,1,8,0:0:0:0:
256,192,14681,1,0,0:0:0:0:
256,192,14848,1,0,0:0:0:0:
256,192,14931,1,0,0:0:0:0:
256,192,15014,1,8,0:0:0:0:
256,192,15181,1,0,0:0:0:0:
256,192,15348,1,8,0:0:0:0:
256,192,15431,1,8,0:0:0:0:
256,192,15514,1,0,0:0:0:0:
256,192,15598,1,0,0:0:0:0:
256,192,15681,1,8,0:0:0:0:
256,192,15764,1,0,0:0:0:0:
256,192,15848,1,8,0:0:0:0:
256,192,16014,1,0,0:0:0:0:
256,192,16180,1,0,0:0:0:0:
256,192,16264,1,0,0:0:0:0:
256,192,16347,1,8,0:0:0:0:
256,192,16514,1,0,0:0:0:0:
256,192,16680,1,8,0:0:0:0:
256,192,16764,1,8,0:0:0:0:
256,192,16847,1,0,0:0:0:0:
256,192,17014,1,8,0:0:0:0:
256,192,17098,1,0,0:0:0:0:
256,192,17181,1,8,0:0:0:0:
256,192,17264,1,8,0:0:0:0:
256,192,17348,1,0,0:0:0:0:
256,192,17514,1,0,0:0:0:0:
256,192,17681,1,8,0:0:0:0:
256,192,17848,1,8,0:0:0:0:
256,192,17931,1,8,0:0:0:0:
256,192,18014,1,0,0:0:0:0:
256,192,18181,1,0,0:0:0:0:
256,192,18348,1,8,0:0:0:0:
256,192,18431,1,0,0:0:0:0:
256,192,18514,1,8,0:0:0:0:
256,192,18681,1,0,0:0:0:0:
256,192,18848,1,0,0:0:0:0:
256,192,18931,1,0,0:0:0:0:
256,192,19014,1,8,0:0:0:0:
256,192,19181,1,8,0:0:0:0:
256,192,19264,1,8,0:0:0:0:
256,192,19348,1,0,0:0:0:0:
256,192,19514,1,8,0:0:0:0:
256,192,19681,1,8,0:0:0:0:
256,192,19764,1,8,0:0:0:0:
256,192,19848,1,8,0:0:0:0:
256,192,19931,1,8,0:0:0:0:
256,192,20014,1,4,0:0:0:0:
256,192,20514,1,4,0:0:0:0:
256,192,21014,1,12,0:0:0:0:
256,192,21348,1,0,0:0:0:0:
256,192,21514,1,0,0:0:0:0:
256,192,21681,1,8,0:0:0:0:
256,192,21848,1,0,0:0:0:0:
256,192,21931,1,0,0:0:0:0:
256,192,22014,1,8,0:0:0:0:
256,192,22181,1,0,0:0:0:0:
256,192,22348,1,8,0:0:0:0:
256,192,22431,1,8,0:0:0:0:
256,192,22514,1,0,0:0:0:0:
256,192,22681,1,4,0:0:0:0:
256,192,23014,1,8,0:0:0:0:
256,192,23348,1,0,0:0:0:0:
256,192,23681,1,8,0:0:0:0:
256,192,23848,1,8,0:0:0:0:
256,192,24014,1,0,0:0:0:0:
256,192,24347,1,8,0:0:0:0:
256,192,24681,1,0,0:0:0:0:
256,192,25014,1,0,0:0:0:0:
256,192,25181,1,8,0:0:0:0:
256,192,25348,1,0,0:0:0:0:
256,192,25681,1,8,0:0:0:0:
256,192,26014,1,0,0:0:0:0:
256,192,26348,1,8,0:0:0:0:
256,192,26514,1,8,0:0:0:0:
256,192,26681,1,0,0:0:0:0:
256,192,27014,1,8,0:0:0:0:
256,192,27347,1,0,0:0:0:0:
256,192,27681,1,8,0:0:0:0:
256,192,27848,1,8,0:0:0:0:
256,192,27931,1,8,0:0:0:0:
256,192,28014,1,0,0:0:0:0:
256,192,28181,1,0,0:0:0:0:
256,192,28348,1,8,0:0:0:0:
256,192,28515,1,0,0:0:0:0:
256,192,28681,1,8,0:0:0:0:
256,192,28848,1,0,0:0:0:0:
256,192,29015,1,8,0:0:0:0:
256,192,29182,1,8,0:0:0:0:
256,192,29348,1,0,0:0:0:0:
256,192,29515,1,0,0:0:0:0:
256,192,29681,1,8,0:0:0:0:
256,192,29848,1,0,0:0:0:0:
256,192,30014,1,8,0:0:0:0:
256,192,30181,1,0,0:0:0:0:
256,192,30348,1,8,0:0:0:0:
256,192,30515,1,0,0:0:0:0:
256,192,30681,1,8,0:0:0:0:
256,192,30848,1,8,0:0:0:0:
256,192,31014,1,8,0:0:0:0:
256,192,31181,1,8,0:0:0:0:
256,192,31348,1,0,0:0:0:0:
256,192,31515,1,0,0:0:0:0:
256,192,31681,1,0,0:0:0:0:
256,192,31848,1,0,0:0:0:0:
256,192,32014,1,8,0:0:0:0:
256,192,32098,1,8,0:0:0:0:
256,192,32181,1,0,0:0:0:0:
256,192,32264,1,0,0:0:0:0:
256,192,32348,1,8,0:0:0:0:
256,192,32431,1,8,0:0:0:0:
256,192,32514,1,0,0:0:0:0:
256,192,32598,1,0,0:0:0:0:
256,192,32681,1,8,0:0:0:0:
256,192,33014,1,8,0:0:0:0:
256,192,33097,1,0,0:0:0:0:
256,192,33181,1,0,0:0:0:0:
256,192,33264,1,0,0:0:0:0:
256,192,33348,1,12,0:0:0:0:
256,192,33681,1,8,0:0:0:0:
256,192,33764,1,0,0:0:0:0:
256,192,33848,1,8,0:0:0:0:
256,192,34014,1,0,0:0:0:0:
256,192,34181,1,8,0:0:0:0:
256,192,34223,1,8,0:0:0:0:
256,192,34348,1,8,0:0:0:0:
256,192,34390,1,8,0:0:0:0:
256,192,34514,1,8,0:0:0:0:
256,192,34556,1,8,0:0:0:0:
256,192,34681,1,0,0:0:0:0:
256,192,34848,1,8,0:0:0:0:
256,192,34890,1,8,0:0:0:0:
256,192,35015,1,8,0:0:0:0:
256,192,35057,1,8,0:0:0:0:
256,192,35181,1,8,0:0:0:0:
256,192,35223,1,8,0:0:0:0:
256,192,35348,1,0,0:0:0:0:
256,192,35514,1,8,0:0:0:0:
256,192,35556,1,8,0:0:0:0:
256,192,35681,1,0,0:0:0:0:
256,192,35764,1,0,0:0:0:0:
256,192,35848,1,8,0:0:0:0:
256,192,35931,1,8,0:0:0:0:
256,192,36014,1,0,0:0:0:0:
256,192,36348,1,0,0:0:0:0:
256,192,36431,1,0,0:0:0:0:
256,192,36514,1,8,0:0:0:0:
256,192,36681,1,0,0:0:0:0:
256,192,36848,1,8,0:0:0:0:
256,192,36890,1,8,0:0:0:0:
256,192,37015,1,0,0:0:0:0:
256,192,37057,1,0,0:0:0:0:
256,192,37181,1,8,0:0:0:0:
256,192,37223,1,8,0:0:0:0:
256,192,37348,1,0,0:0:0:0:
256,192,37515,1,8,0:0:0:0:
256,192,37557,1,8,0:0:0:0:
256,192,37682,1,0,0:0:0:0:
256,192,37724,1,0,0:0:0:0:
256,192,37848,1,8,0:0:0:0:
256,192,37890,1,8,0:0:0:0:
256,192,38015,1,0,0:0:0:0:
256,192,38181,1,8,0:0:0:0:
256,192,38223,1,8,0:0:0:0:
256,192,38347,1,0,0:0:0:0:
256,192,38431,1,0,0:0:0:0:
256,192,38515,1,0,0:0:0:0:
256,192,38598,1,0,0:0:0:0:
256,192,38681,1,8,0:0:0:0:
256,192,39014,1,8,0:0:0:0:
256,192,39097,1,0,0:0:0:0:
256,192,39181,1,8,0:0:0:0:
256,192,39347,1,0,0:0:0:0:
256,192,39514,1,8,0:0:0:0:
256,192,39556,1,8,0:0:0:0:
256,192,39681,1,8,0:0:0:0:
256,192,39723,1,8,0:0:0:0:
256,192,39847,1,8,0:0:0:0:
256,192,39889,1,8,0:0:0:0:
256,192,40014,1,0,0:0:0:0:
256,192,40181,1,8,0:0:0:0:
256,192,40223,1,8,0:0:0:0:
256,192,40348,1,8,0:0:0:0:
256,192,40390,1,8,0:0:0:0:
256,192,40514,1,8,0:0:0:0:
256,192,40556,1,8,0:0:0:0:
256,192,40681,1,0,0:0:0:0:
256,192,40847,1,8,0:0:0:0:
256,192,40889,1,8,0:0:0:0:
256,192,41014,1,0,0:0:0:0:
256,192,41097,1,0,0:0:0:0:
256,192,41181,1,8,0:0:0:0:
256,192,41264,1,8,0:0:0:0:
256,192,41347,1,0,0:0:0:0:
256,192,41681,1,0,0:0:0:0:
256,192,41764,1,8,0:0:0:0:
256,192,41848,1,8,0:0:0:0:
256,192,42014,1,0,0:0:0:0:
256,192,42181,1,8,0:0:0:0:
256,192,42223,1,8,0:0:0:0:
256,192,42347,1,8,0:0:0:0:
256,192,42389,1,8,0:0:0:0:
256,192,42514,1,8,0:0:0:0:
256,192,42556,1,8,0:0:0:0:
256,192,42681,1,0,0:0:0:0:
256,192,42848,1,8,0:0:0:0:
256,192,42889,1,8,0:0:0:0:
256,192,43014,1,0,0:0:0:0:
256,192,43056,1,0,0:0:0:0:
256,192,43181,1,8,0:0:0:0:
256,192,43223,1,8,0:0:0:0:
256,192,43348,1,0,0:0:0:0:
256,192,43514,1,8,0:0:0:0:
256,192,43598,1,8,0:0:0:0:
256,192,43681,1,8,0:0:0:0:
256,192,43848,1,8,0:0:0:0:
256,192,43931,1,8,0:0:0:0:
256,192,44014,1,0,0:0:0:0:
256,192,44348,1,0,0:0:0:0:
256,192,44514,1,8,0:0:0:0:
256,192,44681,1,0,0:0:0:0:
256,192,44848,1,8,0:0:0:0:
256,192,44931,1,8,0:0:0:0:
256,192,45014,1,0,0:0:0:0:
256,192,45098,1,0,0:0:0:0:
256,192,45181,1,8,0:0:0:0:
256,192,45348,1,0,0:0:0:0:
256,192,45514,1,8,0:0:0:0:
256,192,45597,1,0,0:0:0:0:
256,192,45681,1,0,0:0:0:0:
256,192,45764,1,0,0:0:0:0:
256,192,45848,1,8,0:0:0:0:
256,192,46014,1,0,0:0:0:0:
256,192,46181,1,8,0:0:0:0:
256,192,46264,1,0,0:0:0:0:
256,192,46348,1,0,0:0:0:0:
256,192,46514,1,8,0:0:0:0:
256,192,46598,1,8,0:0:0:0:
256,192,46681,1,0,0:0:0:0:
256,192,47014,1,0,0:0:0:0:
256,192,47181,1,8,0:0:0:0:
256,192,47348,1,0,0:0:0:0:
256,192,47514,1,8,0:0:0:0:
256,192,47598,1,0,0:0:0:0:
256,192,47681,1,8,0:0:0:0:
256,192,47764,1,8,0:0:0:0:
256,192,47848,1,0,0:0:0:0:
256,192,48014,1,8,0:0:0:0:
256,192,48181,1,0,0:0:0:0:
256,192,48264,1,0,0:0:0:0:
256,192,48348,1,8,0:0:0:0:
256,192,48431,1,0,0:0:0:0:
256,192,48515,1,0,0:0:0:0:
256,192,48681,1,8,0:0:0:0:
256,192,48848,1,0,0:0:0:0:
256,192,48931,1,8,0:0:0:0:
256,192,49014,1,0,0:0:0:0:
256,192,49181,1,0,0:0:0:0:
256,192,49264,1,0,0:0:0:0:
256,192,49348,1,8,0:0:0:0:
256,192,49681,1,8,0:0:0:0:
256,192,49848,1,8,0:0:0:0:
256,192,50014,1,0,0:0:0:0:
256,192,50181,1,8,0:0:0:0:
256,192,50264,1,8,0:0:0:0:
256,192,50348,1,0,0:0:0:0:
256,192,50431,1,8,0:0:0:0:
256,192,50514,1,8,0:0:0:0:
256,192,50598,1,8,0:0:0:0:
256,192,50681,1,0,0:0:0:0:
256,192,50848,1,8,0:0:0:0:
256,192,51014,1,0,0:0:0:0:
256,192,51098,1,0,0:0:0:0:
256,192,51181,1,8,0:0:0:0:
256,192,51348,1,0,0:0:0:0:
256,192,51431,1,0,0:0:0:0:
256,192,51514,1,8,0:0:0:0:
256,192,51598,1,0,0:0:0:0:
256,192,51681,1,8,0:0:0:0:
256,192,51764,1,8,0:0:0:0:
256,192,51848,1,0,0:0:0:0:
256,192,51931,1,0,0:0:0:0:
256,192,52014,1,8,0:0:0:0:
256,192,52348,1,8,0:0:0:0:
256,192,52681,1,8,0:0:0:0:
256,192,53015,1,8,0:0:0:0:
256,192,53348,1,8,0:0:0:0:
256,192,53682,1,8,0:0:0:0:
256,192,54014,1,8,0:0:0:0:
256,192,54181,1,0,0:0:0:0:
256,192,54348,1,8,0:0:0:0:
256,192,54431,1,8,0:0:0:0:
256,192,54514,1,8,0:0:0:0:
256,192,54597,1,8,0:0:0:0:
256,192,54681,1,4,0:0:0:0:
256,192,55014,1,8,0:0:0:0:
256,192,55348,1,0,0:0:0:0:
256,192,55514,1,8,0:0:0:0:
256,192,55681,1,0,0:0:0:0:
256,192,55848,1,8,0:0:0:0:
256,192,55931,1,8,0:0:0:0:
256,192,56014,1,0,0:0:0:0:
256,192,56181,1,0,0:0:0:0:
256,192,56348,1,8,0:0:0:0:
256,192,56514,1,0,0:0:0:0:
256,192,56598,1,8,0:0:0:0:
256,192,56681,1,0,0:0:0:0:
256,192,56764,1,0,0:0:0:0:
256,192,56848,1,8,0:0:0:0:
256,192,57014,1,0,0:0:0:0:
256,192,57181,1,8,0:0:0:0:
256,192,57264,1,8,0:0:0:0:
256,192,57348,1,0,0:0:0:0:
256,192,57681,1,8,0:0:0:0:
256,192,58014,1,0,0:0:0:0:
256,192,58181,1,0,0:0:0:0:
256,192,58264,1,8,0:0:0:0:
256,192,58348,1,0,0:0:0:0:
256,192,58514,1,8,0:0:0:0:
256,192,58681,1,0,0:0:0:0:
256,192,58764,1,0,0:0:0:0:
256,192,58848,1,8,0:0:0:0:
256,192,58931,1,8,0:0:0:0:
256,192,59014,1,0,0:0:0:0:
256,192,59181,1,8,0:0:0:0:
256,192,59348,1,0,0:0:0:0:
256,192,59431,1,0,0:0:0:0:
256,192,59514,1,8,0:0:0:0:
256,192,59598,1,0,0:0:0:0:
256,192,59681,1,8,0:0:0:0:
256,192,59764,1,8,0:0:0:0:
256,192,59848,1,0,0:0:0:0:
256,192,59931,1,0,0:0:0:0:
256,192,60014,1,8,0:0:0:0:
256,192,60348,1,8,0:0:0:0:
256,192,60681,1,0,0:0:0:0:
256,192,60848,1,8,0:0:0:0:
256,192,61014,1,0,0:0:0:0:
256,192,61181,1,8,0:0:0:0:
256,192,61264,1,8,0:0:0:0:
256,192,61348,1,0,0:0:0:0:
256,192,61514,1,8,0:0:0:0:
256,192,61681,1,0,0:0:0:0:
256,192,61848,1,8,0:0:0:0:
256,192,61931,1,0,0:0:0:0:
256,192,62015,1,8,0:0:0:0:
256,192,62098,1,8,0:0:0:0:
256,192,62181,1,0,0:0:0:0:
256,192,62264,1,0,0:0:0:0:
256,192,62348,1,8,0:0:0:0:
256,192,62514,1,8,0:0:0:0:
256,192,62598,1,8,0:0:0:0:
256,192,62681,1,0,0:0:0:0:
256,192,63014,1,8,0:0:0:0:
256,192,63348,1,0,0:0:0:0:
256,192,63514,1,8,0:0:0:0:
256,192,63681,1,0,0:0:0:0:
256,192,63848,1,8,0:0:0:0:
256,192,63931,1,8,0:0:0:0:
256,192,64014,1,0,0:0:0:0:
256,192,64098,1,8,0:0:0:0:
256,192,64181,1,0,0:0:0:0:
256,192,64264,1,0,0:0:0:0:
256,192,64348,1,8,0:0:0:0:
256,192,64431,1,0,0:0:0:0:
256,192,64514,1,8,0:0:0:0:
256,192,64598,1,8,0:0:0:0:
256,192,64681,1,0,0:0:0:0:
256,192,64764,1,0,0:0:0:0:
256,192,64848,1,8,0:0:0:0:
256,192,64931,1,0,0:0:0:0:
256,192,65014,1,0,0:0:0:0:
256,192,65098,1,0,0:0:0:0:
256,192,65181,1,8,0:0:0:0:
256,192,65348,1,4,0:0:0:0:
256,192,65681,1,8,0:0:0:0:
256,192,66014,1,0,0:0:0:0:
256,192,66181,1,8,0:0:0:0:
256,192,66264,1,8,0:0:0:0:
256,192,66348,1,0,0:0:0:0:
256,192,66514,1,8,0:0:0:0:
256,192,66681,1,0,0:0:0:0:
256,192,66848,1,8,0:0:0:0:
256,192,66931,1,0,0:0:0:0:
256,192,67014,1,0,0:0:0:0:
256,192,67181,1,8,0:0:0:0:
256,192,67348,1,0,0:0:0:0:
256,192,67514,1,0,0:0:0:0:
256,192,67597,1,8,0:0:0:0:
256,192,67680,1,0,0:0:0:0:
256,192,67848,1,0,0:0:0:0:
256,192,67931,1,0,0:0:0:0:
256,192,68014,1,8,0:0:0:0:
256,192,68348,1,0,0:0:0:0:
256,192,68681,1,8,0:0:0:0:
256,192,68848,1,0,0:0:0:0:
256,192,68931,1,0,0:0:0:0:
256,192,69014,1,8,0:0:0:0:
256,192,69181,1,8,0:0:0:0:
256,192,69348,1,0,0:0:0:0:
256,192,69514,1,8,0:0:0:0:
256,192,69681,1,0,0:0:0:0:
256,192,69847,1,8,0:0:0:0:
256,192,69931,1,0,0:0:0:0:
256,192,70014,1,8,0:0:0:0:
256,192,70181,1,8,0:0:0:0:
256,192,70264,1,8,0:0:0:0:
256,192,70348,1,0,0:0:0:0:
256,192,70431,1,8,0:0:0:0:
256,192,70514,1,0,0:0:0:0:
256,192,70598,1,0,0:0:0:0:
256,192,70681,1,8,0:0:0:0:
256,192,71014,1,8,0:0:0:0:
256,192,71348,1,8,0:0:0:0:
256,192,71514,1,0,0:0:0:0:
256,192,71681,1,8,0:0:0:0:
256,192,71848,1,0,0:0:0:0:
256,192,71931,1,0,0:0:0:0:
256,192,72014,1,8,0:0:0:0:
256,192,72181,1,0,0:0:0:0:
256,192,72348,1,8,0:0:0:0:
256,192,72514,1,0,0:0:0:0:
256,192,72597,1,0,0:0:0:0:
256,192,72681,1,8,0:0:0:0:
256,192,72848,1,8,0:0:0:0:
256,192,72931,1,0,0:0:0:0:
256,192,73015,1,8,0:0:0:0:
256,192,73098,1,8,0:0:0:0:
256,192,73181,1,0,0:0:0:0:
256,192,73264,1,0,0:0:0:0:
256,192,73348,1,8,0:0:0:0:
256,192,73514,1,0,0:0:0:0:
256,192,73681,1,8,0:0:0:0:
256,192,73847,1,0,0:0:0:0:
256,192,74014,1,8,0:0:0:0:
256,192,74180,1,0,0:0:0:0:
256,192,74347,1,8,0:0:0:0:
256,192,74513,1,0,0:0:0:0:
256,192,74598,1,0,0:0:0:0:
256,192,74681,1,8,0:0:0:0:
256,192,74848,1,8,0:0:0:0:
256,192,75014,1,8,0:0:0:0:
256,192,75181,1,8,0:0:0:0:
256,192,75348,1,8,0:0:0:0:
256,192,75431,1,0,0:0:0:0:
256,192,75515,1,8,0:0:0:0:
256,192,75598,1,0,0:0:0:0:
256,192,75681,1,8,0:0:0:0:
256,192,75764,1,8,0:0:0:0:
256,192,75848,1,8,0:0:0:0:
256,192,75931,1,8,0:0:0:0:
256,192,78181,6,0,L|256:281,4,61.2500005841255
256,192,78681,5,12,0:0:0:0:
