osu file format v14

[General]
AudioFilename: audio.mp3
AudioLeadIn: 0
PreviewTime: 32660
Countdown: 0
SampleSet: Normal
StackLeniency: 0.7
Mode: 1
LetterboxInBreaks: 0
WidescreenStoryboard: 1

[Editor]
DistanceSpacing: 1
BeatDivisor: 4
GridSize: 32
TimelineZoom: 1.2

[Metadata]
Title:Sidequest (Cut Ver.)
TitleUnicode:Sidequest (Cut Ver.)
Artist:Redside
ArtistUnicode:Redside
Creator:Hivie
Version:Kantan
Source:osu! World Cup 2022
Tags:owc2022 osu! original osu!original electronic dance music instrumental edm chiptune future bass happy version featured artist fa mappers mappers' guild mg mpg side quest summer time
BeatmapID:4428753
BeatmapSetID:2109907

[Difficulty]
HPDrainRate:8
CircleSize:2
OverallDifficulty:3
ApproachRate:10
SliderMultiplier:1.4
SliderTickRate:1

[Events]
//Background and Video events
0,0,"tofumang.jpg",0,70
//Break Periods
2,75881,78231
//Storyboard Layer 0 (Background)
//Storyboard Layer 1 (Fail)
//Storyboard Layer 2 (Pass)
//Storyboard Layer 3 (Foreground)
//Storyboard Layer 4 (Overlay)
//Storyboard Sound Samples

[TimingPoints]
15,333.333333333333,4,1,0,65,1,8
15,-100,4,1,0,65,0,0
12011,-100,4,1,0,70,0,0
20011,-100,4,1,0,80,0,0
22678,-100,4,1,0,70,0,0
28011,-100,4,1,0,80,0,0
33011,-100,4,1,0,85,0,0
33348,-100,4,1,0,100,0,1
54681,-100,4,1,0,85,0,0
76014,-100,4,1,0,5,0,0
78598,-100,4,1,0,95,0,0

[HitObjects]
256,192,12014,5,4,0:0:0:0:
256,192,12681,1,8,0:0:0:0:
256,192,13014,1,8,0:0:0:0:
256,192,13348,1,0,0:0:0:0:
256,192,14014,1,0,0:0:0:0:
256,192,14348,1,8,0:0:0:0:
256,192,14681,1,0,0:0:0:0:
256,192,15348,1,8,0:0:0:0:
256,192,15681,1,8,0:0:0:0:
256,192,16014,1,0,0:0:0:0:
256,192,16681,1,0,0:0:0:0:
256,192,17014,1,8,0:0:0:0:
256,192,17348,1,0,0:0:0:0:
256,192,17848,1,8,0:0:0:0:
256,192,18348,1,8,0:0:0:0:
256,192,19181,1,0,0:0:0:0:
256,192,19681,1,8,0:0:0:0:
256,192,20014,1,4,0:0:0:0:
256,192,20514,1,4,0:0:0:0:
256,192,21014,1,12,0:0:0:0:
256,192,22681,1,4,0:0:0:0:
256,192,23348,1,8,0:0:0:0:
256,192,24014,1,0,0:0:0:0:
256,192,24681,1,8,0:0:0:0:
256,192,25348,1,0,0:0:0:0:
256,192,26014,1,8,0:0:0:0:
256,192,26681,1,0,0:0:0:0:
256,192,28014,1,0,0:0:0:0:
256,192,28348,1,8,0:0:0:0:
256,192,28681,1,0,0:0:0:0:
256,192,29348,1,0,0:0:0:0:
256,192,29681,1,8,0:0:0:0:
256,192,30014,1,0,0:0:0:0:
256,192,30681,1,8,0:0:0:0:
256,192,31014,1,8,0:0:0:0:
256,192,31348,1,0,0:0:0:0:
256,192,31681,1,8,0:0:0:0:
256,192,32014,1,0,0:0:0:0:
256,192,33348,1,12,0:0:0:0:
256,192,34014,1,0,0:0:0:0:
256,192,34348,1,8,0:0:0:0:
256,192,34681,1,0,0:0:0:0:
256,192,35014,1,0,0:0:0:0:
256,192,35348,1,8,0:0:0:0:
256,192,36014,1,8,0:0:0:0:
256,192,36681,1,0,0:0:0:0:
256,192,37014,1,8,0:0:0:0:
256,192,37348,1,0,0:0:0:0:
256,192,37681,1,8,0:0:0:0:
256,192,38014,1,8,0:0:0:0:
256,192,38681,1,8,0:0:0:0:
256,192,39347,1,0,0:0:0:0:
256,192,39681,1,8,0:0:0:0:
256,192,40014,1,8,0:0:0:0:
256,192,40348,1,8,0:0:0:0:
256,192,40681,1,0,0:0:0:0:
256,192,41348,1,8,0:0:0:0:
256,192,42014,1,0,0:0:0:0:
256,192,42347,1,8,0:0:0:0:
256,192,42681,1,0,0:0:0:0:
256,192,43014,1,0,0:0:0:0:
256,192,43348,1,8,0:0:0:0:
256,192,44014,1,0,0:0:0:0:
256,192,45014,1,0,0:0:0:0:
256,192,45348,1,8,0:0:0:0:
256,192,46014,1,0,0:0:0:0:
256,192,46348,1,0,0:0:0:0:
256,192,46681,1,8,0:0:0:0:
256,192,47348,1,8,0:0:0:0:
256,192,47681,1,0,0:0:0:0:
256,192,48014,1,8,0:0:0:0:
256,192,48348,1,8,0:0:0:0:
256,192,48681,1,0,0:0:0:0:
256,192,49348,1,8,0:0:0:0:
256,192,50014,1,0,0:0:0:0:
256,192,50348,1,8,0:0:0:0:
256,192,50681,1,0,0:0:0:0:
256,192,51014,1,8,0:0:0:0:
256,192,51348,1,0,0:0:0:0:
256,192,52014,1,8,0:0:0:0:
256,192,52681,1,8,0:0:0:0:
256,192,53348,1,8,0:0:0:0:
256,192,53682,1,8,0:0:0:0:
256,192,54014,1,8,0:0:0:0:
256,192,54348,1,8,0:0:0:0:
256,192,54681,1,4,0:0:0:0:
256,192,55681,1,0,0:0:0:0:
256,192,56014,1,8,0:0:0:0:
256,192,56681,1,0,0:0:0:0:
256,192,57014,1,8,0:0:0:0:
256,192,57348,1,0,0:0:0:0:
256,192,58014,1,8,0:0:0:0:
256,192,58681,1,0,0:0:0:0:
256,192,59014,1,0,0:0:0:0:
256,192,59348,1,8,0:0:0:0:
256,192,59681,1,0,0:0:0:0:
256,192,60014,1,8,0:0:0:0:
256,192,60681,1,0,0:0:0:0:
256,192,61348,1,8,0:0:0:0:
256,192,61681,1,0,0:0:0:0:
256,192,62014,1,8,0:0:0:0:
256,192,62348,1,8,0:0:0:0:
256,192,62681,1,0,0:0:0:0:
256,192,63348,1,8,0:0:0:0:
256,192,64014,1,0,0:0:0:0:
256,192,64348,1,0,0:0:0:0:
256,192,64681,1,8,0:0:0:0:
256,192,65348,1,4,0:0:0:0:
256,192,66348,1,8,0:0:0:0:
256,192,66681,1,0,0:0:0:0:
256,192,67348,1,8,0:0:0:0:
256,192,68014,1,0,0:0:0:0:
256,192,68681,1,0,0:0:0:0:
256,192,69014,1,8,0:0:0:0:
256,192,69348,1,0,0:0:0:0:
256,192,70014,1,0,0:0:0:0:
256,192,70681,1,8,0:0:0:0:
256,192,71348,1,8,0:0:0:0:
256,192,72014,1,8,0:0:0:0:
256,192,72681,1,8,0:0:0:0:
256,192,73348,1,8,0:0:0:0:
256,192,73681,1,8,0:0:0:0:
256,192,74014,1,8,0:0:0:0:
256,192,74681,1,8,0:0:0:0:
256,192,75014,1,8,0:0:0:0:
256,192,75348,1,8,0:0:0:0:
256,192,75681,1,8,0:0:0:0:
256,192,78681,5,12,0:0:0:0:
