osu file format v14

[General]
AudioFilename: audio.mp3
AudioLeadIn: 0
PreviewTime: 56433
Countdown: 1
SampleSet: Normal
StackLeniency: 0.7
Mode: 0
LetterboxInBreaks: 0
WidescreenStoryboard: 0

[Editor]
DistanceSpacing: 1.4
BeatDivisor: 8
GridSize: 8
TimelineZoom: 5.799998

[Metadata]
Title:The Devil Went Down to Georgia
TitleUnicode:The Devil Went Down to Georgia
Artist:Rednex
ArtistUnicode:Rednex
Creator:Kenny
Version:Insane
Source:
Tags:
BeatmapID:1386243
BeatmapSetID:653962

[Difficulty]
HPDrainRate:6
CircleSize:4.5
OverallDifficulty:8
ApproachRate:9.5
SliderMultiplier:2
SliderTickRate:1

[Events]
//Background and Video events
//Break Periods
2,84350,90365
2,134894,141995
2,175764,192212
//Storyboard Layer 0 (Background)
//Storyboard Layer 1 (Fail)
//Storyboard Layer 2 (Pass)
//Storyboard Layer 3 (Foreground)
//Storyboard Sound Samples

[TimingPoints]
7086,434.782608695652,4,1,0,100,1,0
7086,-66.6666666666667,4,1,0,100,0,0
7738,434.782608695652,4,1,0,100,1,0
7738,-66.6666666666667,4,1,0,100,0,0
11653,-76.9230769230769,4,1,0,100,0,0
12086,-90.9090909090909,4,1,0,100,0,0
12520,-111.111111111111,4,1,0,100,0,0
12955,-142.857142857143,4,1,0,100,0,0
13390,-200,4,1,0,100,0,0
13824,-200,4,1,0,100,0,0
14911,-100,4,1,0,20,0,0
15129,-83.3333333333333,4,1,0,30,0,0
15346,-71.4285714285714,4,1,0,40,0,0
15564,-62.5,4,1,0,60,0,0
15781,-55.5555555555556,4,1,0,70,0,0
15998,-50,4,1,0,80,0,0
18824,-50,4,1,0,50,0,0
21651,-100,4,1,0,50,0,0
49477,-100,4,1,0,50,0,1
51216,-83.3333333333333,4,1,0,50,0,0
52955,-66.6666666666667,4,1,0,50,0,0
54694,-66.6666666666667,4,1,0,50,0,0
54911,-83.3333333333333,4,1,0,50,0,0
55129,-100,4,1,0,50,0,0
55346,-133.333333333333,4,1,0,50,0,0
56433,-76.9230769230769,4,1,0,50,0,1
70346,-66.6666666666667,4,1,0,50,0,0
81216,-76.9230769230769,4,1,0,50,0,0
81651,-90.9090909090909,4,1,0,50,0,0
82085,-111.111111111111,4,1,0,50,0,0
82520,-142.857142857143,4,1,0,50,0,0
82955,-200,4,1,0,50,0,0
84259,-100,4,1,0,50,0,0
90890,-100,4,1,0,100,0,0
98172,-76.9230769230769,4,1,0,25,0,0
105129,-66.6666666666667,4,1,0,25,0,0
142520,-133.333333333333,4,1,0,60,0,0
143390,-100,4,1,0,75,0,0
145129,-66.6666666666667,4,1,0,90,0,0
150346,-100,4,1,0,75,0,0
152085,-66.6666666666667,4,1,0,90,0,0
153824,-66.6666666666667,4,1,0,75,0,0
155564,-66.6666666666667,4,1,0,85,0,0
157303,-66.6666666666667,4,1,0,90,0,0
173281,-100,4,1,0,25,0,0
194694,-58.8235294117647,4,1,0,90,0,0
224151,-58.8235294117647,4,1,0,70,0,0

[HitObjects]
96,208,7086,6,0,P|160:160|48:192,1,375.000014305115
48,224,7738,6,0,B|16:240|16:240|48:256|80:304|192:288,1,225.000008583069
256,288,8172,2,0,B|320:288|320:176|352:224|208:160,1,225.000008583069
144,144,8607,5,0,0:0:0:0:
111,81,8716,1,0,0:0:0:0:
161,31,8824,1,0,0:0:0:0:
223,63,8933,1,0,0:0:0:0:
272,112,9042,5,0,0:0:0:0:
334,144,9151,1,0,0:0:0:0:
384,94,9259,1,0,0:0:0:0:
352,32,9368,1,0,0:0:0:0:
288,32,9477,6,0,B|224:80|224:80|240:160|336:176,1,225.000008583069
384,176,9911,1,0,0:0:0:0:
432,224,10020,1,0,0:0:0:0:
416,288,10129,1,0,0:0:0:0:
352,320,10238,2,0,B|320:320|320:320|320:304|320:304|304:320|288:304|288:288|288:288|288:272|288:272|256:288|240:288|240:288,1,150.000005722046
192,304,10564,5,0,0:0:0:0:
131,262,10672,1,0,0:0:0:0:
128,192,10781,2,0,P|136:145|168:129,1,75.0000028610231
233,119,10998,2,0,P|272:128|288:160,1,75.0000028610231
240,208,11216,5,0,0:0:0:0:
272,272,11324,1,0,0:0:0:0:
343,287,11433,1,0,0:0:0:0:
399,241,11542,1,0,0:0:0:0:
368,176,11651,5,0,0:0:0:0:
427,136,11759,1,0,0:0:0:0:
491,168,11868,1,0,0:0:0:0:
495,240,11977,1,0,0:0:0:0:
448,272,12085,5,0,0:0:0:0:
411,312,12194,1,0,0:0:0:0:
361,332,12303,1,0,0:0:0:0:
306,328,12411,1,0,0:0:0:0:
272,320,12520,5,0,0:0:0:0:
228,321,12629,1,0,0:0:0:0:
194,292,12737,1,0,0:0:0:0:
190,249,12846,1,0,0:0:0:0:
208,224,12955,5,0,0:0:0:0:
237,204,13064,1,0,0:0:0:0:
266,185,13172,1,0,0:0:0:0:
295,165,13281,1,0,0:0:0:0:
256,112,13390,5,0,0:0:0:0:
236,127,13498,1,0,0:0:0:0:
216,142,13607,1,0,0:0:0:0:
196,157,13716,1,0,0:0:0:0:
176,96,13824,5,0,0:0:0:0:
196,81,13933,1,0,0:0:0:0:
216,66,14042,1,0,0:0:0:0:
236,51,14151,1,0,0:0:0:0:
288,72,14259,6,0,P|333:71|327:32,1,87.5
136,144,14911,6,0,L|112:240,1,75
160,240,15129,6,0,L|184:128,1,89.9999972534181
224,152,15346,6,0,L|200:280,1,104.999996795654
248,264,15564,6,0,L|272:144,1,120
320,144,15781,6,0,L|288:288,1,134.999995880127
336,280,15998,6,0,L|368:128,1,150
366,133,16216,2,0,P|272:136|208:96,1,150
224,111,16433,2,0,P|226:205|186:269,1,150
202,252,16651,2,0,P|296:249|360:289,1,150
376,248,16868,6,0,P|373:153|413:89,1,150
304,64,17085,6,0,P|128:72|128:72,1,150
112,104,17303,2,0,P|96:152|120:256,1,150
264,304,17520,6,0,P|266:209|226:145,1,150
56,96,17737,6,0,P|40:144|64:248,1,150
320,304,17955,6,0,P|322:209|282:145,1,150
88,40,18172,6,0,B|40:104|40:104|80:200,1,150
120,232,18390,2,0,B|184:280|184:280|248:253,1,150
312,208,18607,2,0,B|360:144|360:144|320:48,1,150
288,72,18824,6,0,L|216:64,15,50
208,104,19694,6,0,L|152:120,1,50
200,144,19803,2,0,L|144:176,1,50
200,184,19911,2,0,L|160:232,1,50
216,224,20020,2,0,L|192:272,1,50
240,256,20129,2,0,L|224:312,1,50
264,288,20237,2,0,L|264:344,1,50
296,312,20346,2,0,L|328:352,1,50
344,312,20455,2,0,L|400:344,1,50
384,288,20564,2,0,L|448:264,15,50
400,232,21433,6,0,P|336:128|304:128,1,150
280,112,21651,5,0,0:0:0:0:
240,120,21759,2,0,L|128:128,1,100
96,72,22085,6,0,P|80:160|96:184,1,100
152,288,22520,2,0,L|264:280,1,100
352,184,22955,2,0,L|472:184,1,100
168,104,23390,2,0,L|280:96,1,100
264,240,23824,2,0,L|368:264,1,100
320,128,24259,2,0,B|360:96|360:96|384:144|384:144|416:120|416:120|472:120,1,200
184,232,24911,5,0,0:0:0:0:
184,232,25020,1,0,0:0:0:0:
184,232,25129,2,0,L|224:328,1,100
272,152,25564,2,0,L|320:256,1,100
112,120,25998,2,0,L|160:216,1,100
272,128,26433,2,0,L|320:224,1,100
112,80,26868,5,0,0:0:0:0:
112,80,26977,1,0,0:0:0:0:
112,80,27085,2,0,L|152:176,2,100
264,96,27737,6,0,P|352:88|392:144,2,150
280,232,28607,6,0,L|176:248,1,100
344,96,29042,2,0,L|232:112,1,100
320,224,29477,2,0,L|208:240,1,100
384,88,29911,2,0,L|272:104,1,100
184,168,30346,5,0,0:0:0:0:
184,168,30455,1,0,0:0:0:0:
184,168,30564,2,0,P|152:192|88:176,2,100
304,144,31216,6,0,B|336:104|336:104|416:192,2,150
240,264,32086,5,0,0:0:0:0:
240,264,32194,1,0,0:0:0:0:
240,264,32303,2,0,L|344:256,2,100
184,136,32955,2,0,L|84:143,1,100
320,224,33390,2,0,L|208:232,1,100
264,96,33825,6,0,B|208:80|208:80|168:96|168:96,1,100
168,232,34260,2,0,B|224:256|224:256|272:240,1,100
384,168,34694,2,0,B|320:176|320:176|312:152|312:152|288:168|288:168|256:160|256:160|200:160|200:160,1,200
136,152,35238,5,0,0:0:0:0:
136,152,35347,1,0,0:0:0:0:
88,200,35455,1,0,0:0:0:0:
88,200,35564,2,0,L|120:304,1,100
136,152,35999,2,0,L|168:248,1,100
184,104,36433,2,0,L|216:208,1,100
232,56,36868,2,0,L|264:152,1,100
304,288,37303,5,0,0:0:0:0:
192,215,37520,1,0,0:0:0:0:
227,87,37738,1,0,0:0:0:0:
359,80,37955,1,0,0:0:0:0:
408,208,38173,2,0,B|384:264|384:264|328:264,1,100
344,264,38607,1,0,0:0:0:0:
376,152,38716,5,0,0:0:0:0:
376,152,38825,1,0,0:0:0:0:
424,200,38933,1,0,0:0:0:0:
424,200,39042,2,0,L|392:304,1,100
376,152,39477,2,0,L|344:248,1,100
328,104,39912,2,0,L|296:208,1,100
280,56,40347,2,0,L|248:152,1,100
208,288,40781,5,0,0:0:0:0:
320,215,40999,1,0,0:0:0:0:
285,87,41216,1,0,0:0:0:0:
153,80,41433,1,0,0:0:0:0:
104,208,41651,2,0,B|128:264|128:264|184:264,1,100
256,200,42086,1,0,0:0:0:0:
256,128,42194,5,0,0:0:0:0:
256,128,42303,1,0,0:0:0:0:
256,56,42412,1,0,0:0:0:0:
256,56,42520,2,0,L|160:104,1,100
256,128,42955,2,0,L|352:176,1,100
256,200,43390,2,0,L|160:248,1,100
256,272,43825,2,0,L|352:320,1,100
384,184,44260,5,0,0:0:0:0:
448,56,44477,1,0,0:0:0:0:
128,184,44694,5,0,0:0:0:0:
64,56,44912,1,0,0:0:0:0:
256,56,45129,6,0,B|248:96|248:96|264:144|264:144|256:184|256:184|256:208,1,150
192,304,45781,5,0,0:0:0:0:
192,304,45890,1,0,0:0:0:0:
192,304,45999,2,0,L|296:288,1,100
416,216,46433,2,0,L|312:224,1,100
184,176,46868,6,0,P|248:168|248:168,3,50
264,104,47303,2,0,P|320:96|320:96,3,50
320,168,47738,2,0,P|384:160|384:160,3,50
400,96,48173,2,0,P|456:88|456:88,3,50
472,160,48607,2,0,P|480:200|480:200,14,25
472,232,49477,5,0,0:0:0:0:
448,296,49586,1,0,0:0:0:0:
392,336,49694,2,0,L|328:328,1,50
272,312,49912,2,0,L|208:304,3,50
152,296,50347,2,0,P|80:280|80:280,3,50
96,224,50781,2,0,P|160:208|160:208,3,50
224,184,51216,5,0,0:0:0:0:
304,160,51324,1,0,0:0:0:0:
384,136,51433,6,0,P|464:120|464:120,1,59.9999981689454
376,216,51651,2,0,P|456:200|456:200,3,59.9999981689454
360,296,52085,2,0,P|440:280|440:280,3,59.9999981689454
280,304,52520,2,0,P|200:288|200:288,3,59.9999981689454
136,232,52955,6,0,L|80:136,1,75.0000028610231
192,120,53172,2,0,P|176:24|176:24,1,75.0000028610231
272,208,53390,2,0,P|304:112|304:112,1,75.0000028610231
384,168,53607,2,0,P|360:88|360:88,1,75.0000028610231
416,264,53824,6,0,P|472:328|472:328,1,75.0000028610231
280,232,54042,2,0,P|272:320|272:320,1,75.0000028610231
152,192,54259,2,0,P|168:280|168:280,1,75.0000028610231
56,200,54477,2,0,L|32:280,1,75.0000028610231
72,120,54694,6,0,L|136:40,1,75.0000028610231
160,96,54911,6,0,P|216:56|216:56,1,59.9999981689454
248,88,55129,6,0,P|312:64|312:64,1,50
320,75,55346,6,0,P|421:148|307:124,1,337.500012874604
368,112,56433,6,0,B|368:168|352:240|352:240|280:232|280:232,1,194.999991073609
240,200,56868,2,0,P|200:192|192:312,1,194.999991073609
240,320,57303,5,0,0:0:0:0:
302,328,57411,1,0,0:0:0:0:
357,296,57520,1,0,0:0:0:0:
378,235,57629,1,0,0:0:0:0:
356,175,57737,2,0,B|324:217|324:217|400:263|423:123,1,194.999991073609
384,96,58172,6,0,B|312:120|312:120|256:96,1,129.999994049073
200,80,58498,2,0,B|152:144|152:144|128:216,1,129.999994049073
136,272,58824,2,0,B|144:328|144:328|216:344|280:312|280:304,1,194.999991073609
328,272,59259,5,0,0:0:0:0:
369,224,59367,1,0,0:0:0:0:
372,160,59476,1,0,0:0:0:0:
336,108,59585,1,0,0:0:0:0:
276,88,59693,1,0,0:0:0:0:
216,112,59803,1,0,0:0:0:0:
184,168,59911,6,0,B|184:216|208:240|208:240|176:296,1,129.999994049073
128,320,60237,1,0,0:0:0:0:
128,320,60346,2,0,P|80:320|56:232,1,129.999994049073
72,192,60672,1,0,0:0:0:0:
48,128,60781,2,0,P|68:69|129:61,1,129.999994049073
176,104,61107,1,0,0:0:0:0:
216,160,61216,2,0,P|236:218|297:226,1,129.999994049073
360,232,61542,1,0,0:0:0:0:
360,232,61651,2,0,B|352:264|352:264|368:280|368:280|344:304|344:304|368:320|368:320|352:336|352:336|344:360|256:360|256:304,1,259.999988098145
256,176,62303,5,0,0:0:0:0:
320,176,62411,2,0,P|256:112|192:184,1,194.999991073609
192,240,62846,6,0,P|208:280|240:304,1,64.9999970245363
280,328,63064,2,0,P|319:344|359:339,1,64.9999970245363
408,328,63281,6,0,P|448:312|472:279,1,64.9999970245363
464,232,63498,1,0,0:0:0:0:
464,232,63607,2,0,P|448:144|448:144,1,64.9999970245363
384,176,63824,2,0,P|368:104|368:104,1,64.9999970245363
312,72,64042,5,0,0:0:0:0:
248,80,64151,1,0,0:0:0:0:
192,112,64259,2,0,P|160:144|160:176,1,64.9999970245363
200,208,64477,5,0,0:0:0:0:
264,216,64586,1,0,0:0:0:0:
320,248,64694,2,0,P|352:280|352:312,1,64.9999970245363
416,280,64911,5,0,0:0:0:0:
408,216,65020,1,0,0:0:0:0:
376,160,65128,2,0,P|344:128|312:128,1,64.9999970245363
264,104,65346,5,0,0:0:0:0:
200,80,65455,1,0,0:0:0:0:
136,96,65564,1,0,0:0:0:0:
104,152,65672,1,0,0:0:0:0:
112,216,65781,1,0,0:0:0:0:
160,256,65890,1,0,0:0:0:0:
224,264,65998,2,0,P|280:272|336:224,1,129.999994049073
304,168,66324,5,0,0:0:0:0:
304,168,66433,2,0,L|216:64,1,129.999994049073
220,68,66759,1,0,0:0:0:0:
220,68,66868,6,0,L|152:24,1,64.9999970245363
189,82,67085,2,0,L|112:56,1,64.9999970245363
163,103,67303,2,0,L|81:98,1,64.9999970245363
143,130,67520,2,0,L|63:146,1,64.9999970245363
131,161,67737,2,0,L|58:198,1,64.9999970245363
127,194,67955,2,0,L|66:248,1,64.9999970245363
132,227,68172,2,0,L|88:296,1,64.9999970245363
146,258,68390,2,0,L|120:335,1,64.9999970245363
176,280,68607,2,0,B|152:328|208:368|272:320|256:216|256:216|232:200|232:200|288:176|288:176|256:144|256:144|264:88|272:24|352:0|376:48|360:112,1,584.999973220826
384,168,69694,6,0,P|310:135|425:133,1,324.999985122681
480,120,70346,6,0,L|488:208,1,75.0000028610231
416,168,70564,2,0,L|424:256,1,75.0000028610231
344,120,70781,2,0,L|352:200,1,75.0000028610231
272,72,70998,2,0,L|280:160,1,75.0000028610231
208,120,71216,2,0,L|216:208,1,75.0000028610231
136,72,71433,2,0,L|144:152,1,75.0000028610231
72,120,71651,2,0,L|80:208,1,75.0000028610231
8,168,71869,2,0,L|16:256,1,75.0000028610231
40,312,72085,6,0,L|32:224,1,75.0000028610231
104,264,72303,2,0,L|96:176,1,75.0000028610231
176,312,72520,2,0,L|168:232,1,75.0000028610231
248,360,72737,2,0,L|240:272,1,75.0000028610231
312,312,72955,2,0,L|304:224,1,75.0000028610231
384,360,73172,2,0,L|376:280,1,75.0000028610231
448,312,73390,2,0,L|440:224,1,75.0000028610231
512,264,73608,2,0,L|504:176,1,75.0000028610231
464,128,73824,6,0,B|416:104|416:104|376:128|376:128|328:112|328:112,1,150.000005722046
256,88,74151,1,0,0:0:0:0:
184,72,74259,2,0,P|120:120|144:176,1,150.000005722046
208,208,74585,1,0,0:0:0:0:
280,184,74694,2,0,L|352:152,1,75.0000028610231
344,232,74911,2,0,L|440:184,1,75.0000028610231
360,144,75129,2,0,L|432:112,1,75.0000028610231
424,192,75346,2,0,L|520:144,1,75.0000028610231
400,80,75564,6,0,P|328:40|288:80,1,150.000005722046
264,152,75890,1,0,0:0:0:0:
248,224,75998,2,0,P|216:272|200:288,1,75.0000028610231
136,320,76216,2,0,P|88:304|72:272,2,75.0000028610231
208,344,76542,1,0,0:0:0:0:
280,320,76651,2,0,P|328:304|344:272,2,75.0000028610231
208,344,76977,1,0,0:0:0:0:
208,344,77085,1,0,0:0:0:0:
208,344,77194,1,0,0:0:0:0:
208,344,77303,6,0,P|152:296|176:224,1,150.000005722046
248,224,77629,1,0,0:0:0:0:
248,224,77737,2,0,P|304:192|296:160,3,75.0000028610231
272,152,78172,2,0,P|328:120|320:88,3,75.0000028610231
272,72,78607,1,0,0:0:0:0:
200,72,78716,1,0,0:0:0:0:
128,72,78824,1,0,0:0:0:0:
56,72,78933,1,0,0:0:0:0:
56,72,79042,6,0,P|40:136|72:224,1,150.000005722046
128,256,79368,1,0,0:0:0:0:
200,264,79477,1,0,0:0:0:0:
256,216,79585,1,0,0:0:0:0:
248,144,79694,1,0,0:0:0:0:
200,88,79803,6,0,P|240:120|328:80,1,150.000005722046
400,72,80129,1,0,0:0:0:0:
448,128,80237,1,0,0:0:0:0:
464,192,80346,6,0,P|473:244|444:261,1,75.0000028610231
416,296,80564,1,0,0:0:0:0:
352,328,80673,1,0,0:0:0:0:
288,296,80781,5,0,0:0:0:0:
229,252,80889,1,0,0:0:0:0:
225,180,80998,1,0,0:0:0:0:
278,130,81107,1,0,0:0:0:0:
278,130,81216,5,0,0:0:0:0:
216,126,81324,1,0,0:0:0:0:
185,71,81433,1,0,0:0:0:0:
215,16,81542,1,0,0:0:0:0:
215,16,81651,5,0,0:0:0:0:
176,54,81759,1,0,0:0:0:0:
123,64,81868,1,0,0:0:0:0:
74,42,81977,1,0,0:0:0:0:
74,42,82085,5,0,0:0:0:0:
87,84,82193,1,0,0:0:0:0:
78,127,82302,1,0,0:0:0:0:
47,160,82411,1,0,0:0:0:0:
47,160,82520,5,0,0:0:0:0:
80,169,82628,1,0,0:0:0:0:
102,196,82737,1,0,0:0:0:0:
106,230,82846,1,0,0:0:0:0:
104,232,82955,5,0,0:0:0:0:
128,226,83063,1,0,0:0:0:0:
153,227,83172,1,0,0:0:0:0:
176,235,83281,1,0,0:0:0:0:
192,256,83390,5,0,0:0:0:0:
216,261,83498,1,0,0:0:0:0:
241,260,83607,1,0,0:0:0:0:
264,252,83716,1,0,0:0:0:0:
288,248,83824,6,0,P|304:232|272:208,1,75
48,88,90890,5,0,0:0:0:0:
48,88,90999,1,0,0:0:0:0:
120,72,91108,1,0,0:0:0:0:
120,72,91216,5,0,0:0:0:0:
164,51,91324,1,0,0:0:0:0:
211,66,91433,1,0,0:0:0:0:
192,136,91542,5,0,0:0:0:0:
238,151,91650,1,0,0:0:0:0:
287,141,91759,1,0,0:0:0:0:
352,112,91868,5,0,0:0:0:0:
376,152,91976,1,0,0:0:0:0:
376,200,92085,1,0,0:0:0:0:
304,200,92194,5,0,0:0:0:0:
296,248,92302,1,0,0:0:0:0:
317,293,92411,1,0,0:0:0:0:
384,304,92520,5,0,0:0:0:0:
424,325,92628,1,0,0:0:0:0:
405,366,92737,1,0,0:0:0:0:
363,349,92846,1,0,0:0:0:0:
296,344,92955,5,0,0:0:0:0:
250,323,93063,1,0,0:0:0:0:
216,288,93172,1,0,0:0:0:0:
184,224,93281,5,0,0:0:0:0:
167,177,93389,1,0,0:0:0:0:
178,129,93498,1,0,0:0:0:0:
232,88,93607,5,0,0:0:0:0:
242,136,93716,1,0,0:0:0:0:
226,182,93824,1,0,0:0:0:0:
168,224,93933,5,0,0:0:0:0:
119,231,94041,1,0,0:0:0:0:
76,208,94150,1,0,0:0:0:0:
48,144,94259,5,0,0:0:0:0:
47,98,94367,1,0,0:0:0:0:
93,95,94476,1,0,0:0:0:0:
98,140,94585,1,0,0:0:0:0:
76,208,94694,5,0,0:0:0:0:
84,257,94802,1,0,0:0:0:0:
119,290,94911,1,0,0:0:0:0:
192,296,95020,5,0,0:0:0:0:
242,296,95128,1,0,0:0:0:0:
292,296,95237,1,0,0:0:0:0:
360,296,95346,5,0,0:0:0:0:
391,258,95454,1,0,0:0:0:0:
385,210,95563,1,0,0:0:0:0:
320,184,95672,5,0,0:0:0:0:
270,184,95780,1,0,0:0:0:0:
220,184,95889,1,0,0:0:0:0:
152,192,95998,5,0,0:0:0:0:
112,169,96106,1,0,0:0:0:0:
132,129,96215,1,0,0:0:0:0:
174,147,96324,1,0,0:0:0:0:
224,200,96433,5,0,0:0:0:0:
231,248,96541,1,0,0:0:0:0:
216,295,96650,1,0,0:0:0:0:
288,312,96759,5,0,0:0:0:0:
329,287,96867,1,0,0:0:0:0:
374,305,96976,1,0,0:0:0:0:
424,256,97085,5,0,0:0:0:0:
399,213,97193,1,0,0:0:0:0:
407,165,97302,1,0,0:0:0:0:
344,136,97411,5,0,0:0:0:0:
298,155,97519,1,0,0:0:0:0:
249,148,97628,1,0,0:0:0:0:
210,118,97737,2,0,P|168:104|224:64,1,150
288,88,98172,6,0,P|328:96|368:88,3,64.9999970245363
400,96,98553,1,0,0:0:0:0:
392,184,98716,2,0,L|464:224,2,64.9999970245363
304,176,99042,6,0,P|264:152|240:152,3,64.9999970245363
200,160,99422,1,0,0:0:0:0:
88,208,99585,2,0,L|24:224,2,64.9999970245363
160,264,99911,6,0,P|208:288|248:280,3,64.9999970245363
264,288,100292,1,0,0:0:0:0:
384,288,100455,2,0,P|440:304|456:320,2,64.9999970245363
320,224,100781,6,0,P|272:176|264:152,3,64.9999970245363
256,136,101161,1,0,0:0:0:0:
160,72,101324,2,0,P|88:72|88:72,2,64.9999970245363
256,72,101651,6,0,L|320:72,3,64.9999970245363
368,72,102031,1,0,0:0:0:0:
432,160,102194,2,0,P|432:208|416:232,2,64.9999970245363
352,120,102520,6,0,P|336:160|344:192,3,64.9999970245363
360,224,102901,1,0,0:0:0:0:
408,336,103064,2,0,B|376:352|376:352|336:336|336:336,2,64.9999970245363
472,272,103390,6,0,P|480:208|480:208,3,64.9999970245363
480,160,103770,1,0,0:0:0:0:
384,96,103933,2,0,P|360:120|328:120,2,64.9999970245363
312,40,104259,6,0,P|224:64|224:64,3,64.9999970245363
208,72,104640,1,0,0:0:0:0:
96,112,104803,2,0,P|80:160|80:192,2,64.9999970245363
160,200,105129,6,0,P|200:240|232:248,3,75.0000028610231
264,256,105509,1,0,0:0:0:0:
408,248,105672,2,0,P|440:224|448:192,2,75.0000028610231
304,216,105998,6,0,B|272:184|272:184|288:144|288:144,3,75.0000028610231
304,112,106379,1,0,0:0:0:0:
216,72,106542,2,0,P|192:112|152:120,2,75.0000028610231
264,168,106868,6,0,P|224:240|224:240,3,75.0000028610231
192,272,107248,1,0,0:0:0:0:
64,240,107411,2,0,B|24:208|24:208|16:184,2,75.0000028610231
160,200,107737,6,0,P|200:128|200:128,3,75.0000028610231
224,88,108118,1,0,0:0:0:0:
352,80,108281,2,0,P|400:96|432:80,2,75.0000028610231
272,152,108607,6,0,P|184:176|184:176,3,75.0000028610231
152,184,108987,1,0,0:0:0:0:
200,264,109151,2,0,P|112:288|112:288,2,75.0000028610231
304,248,109477,6,0,P|392:224|392:224,3,75.0000028610231
424,216,109857,1,0,0:0:0:0:
400,112,110020,2,0,P|440:48|440:48,2,75.0000028610231
312,168,110346,6,0,P|248:184|224:168,3,75.0000028610231
200,160,110727,1,0,0:0:0:0:
240,64,110890,6,0,P|160:16|160:16,2,75.0000028610231
336,104,111216,2,0,P|392:104|424:80,3,75.0000028610231
456,72,111596,1,0,0:0:0:0:
432,144,111759,2,0,L|360:176,2,75.0000028610231
424,248,112085,5,0,0:0:0:0:
358,282,112193,1,0,0:0:0:0:
284,285,112302,1,0,0:0:0:0:
216,254,112411,1,0,0:0:0:0:
216,254,112520,2,0,P|192:208|224:200,1,75.0000028610231
304,184,112737,5,0,0:0:0:0:
374,196,112845,1,0,0:0:0:0:
425,145,112954,1,0,0:0:0:0:
410,74,113063,1,0,0:0:0:0:
343,47,113171,1,0,0:0:0:0:
283,87,113281,2,0,P|240:104|200:88,1,75.0000028610231
112,72,113498,5,0,0:0:0:0:
112,72,113606,1,0,0:0:0:0:
112,72,113716,1,0,0:0:0:0:
40,152,113824,5,0,0:0:0:0:
128,104,113933,1,0,0:0:0:0:
32,120,114042,1,0,0:0:0:0:
128,144,114151,1,0,0:0:0:0:
200,128,114368,5,0,0:0:0:0:
160,224,114477,1,0,0:0:0:0:
221,144,114586,1,0,0:0:0:0:
138,207,114694,1,0,0:0:0:0:
231,169,114803,1,0,0:0:0:0:
128,182,114912,1,0,0:0:0:0:
232,192,115020,1,0,0:0:0:0:
400,64,115237,5,0,0:0:0:0:
424,168,115346,1,0,0:0:0:0:
400,64,115455,1,0,0:0:0:0:
432,168,115564,2,0,P|448:248|448:248,3,75.0000028610231
240,272,116107,5,0,0:0:0:0:
176,240,116216,1,0,0:0:0:0:
160,168,116324,1,0,0:0:0:0:
192,104,116433,2,0,P|248:80|288:88,3,75.0000028610231
188,237,116977,5,0,0:0:0:0:
165,169,117086,1,0,0:0:0:0:
205,107,117194,1,0,0:0:0:0:
272,84,117303,2,0,P|329:107|352:141,3,75.0000028610231
178,218,117846,5,0,0:0:0:0:
174,146,117955,1,0,0:0:0:0:
228,96,118063,1,0,0:0:0:0:
300,92,118172,2,0,P|348:129|362:167,3,75.0000028610231
328,312,118716,6,0,P|256:280|256:280,2,75.0000028610231
432,288,119042,2,0,P|480:224|480:224,3,75.0000028610231
272,248,119585,6,0,P|200:216|200:216,2,75.0000028610231
376,224,119911,2,0,P|424:160|424:160,3,75.0000028610231
208,192,120455,6,0,P|136:160|136:160,2,75.0000028610231
312,168,120781,2,0,P|360:104|360:104,3,75.0000028610231
152,128,121324,6,0,P|80:96|80:96,2,75.0000028610231
256,104,121650,2,0,P|304:40|304:40,3,75.0000028610231
384,112,122194,5,0,0:0:0:0:
430,168,122302,1,0,0:0:0:0:
427,241,122411,1,0,0:0:0:0:
374,292,122520,2,0,P|336:320|288:312,3,75.0000028610231
208,288,123064,5,0,0:0:0:0:
149,244,123172,1,0,0:0:0:0:
137,172,123281,1,0,0:0:0:0:
181,113,123390,2,0,P|224:80|256:80,3,75.0000028610231
384,88,123933,5,0,0:0:0:0:
373,160,124041,1,0,0:0:0:0:
313,201,124150,1,0,0:0:0:0:
242,185,124259,2,0,P|200:176|160:136,3,75.0000028610231
208,56,124803,5,0,0:0:0:0:
247,118,124911,1,0,0:0:0:0:
235,190,125020,1,0,0:0:0:0:
178,236,125129,2,0,P|128:256|80:248,3,75.0000028610231
72,136,125781,5,0,0:0:0:0:
72,136,125890,1,0,0:0:0:0:
72,136,125998,2,0,B|120:48|120:48|128:88|128:88|176:64|176:56|176:56|200:80|200:80|224:64|240:64|312:88|352:136|312:232|288:232,1,450.000017166138
144,272,126868,6,0,P|192:200|264:208,2,150.000005722046
288,320,127520,5,0,0:0:0:0:
288,320,127629,1,0,0:0:0:0:
288,320,127737,2,0,B|344:304|352:280|352:280|392:288|392:288|368:240|368:240|424:240|424:240|408:176|384:152|336:136|304:152|256:208,1,450.000017166138
72,280,128607,6,0,P|80:160|112:136,2,150.000005722046
384,232,129368,5,0,0:0:0:0:
384,232,129477,2,0,B|440:176|440:176|408:168|408:168|416:120|416:112|376:128|376:128|376:80|312:88|272:96,1,300.000011444092
184,288,130346,5,0,0:0:0:0:
184,288,130455,1,0,0:0:0:0:
184,288,130564,2,0,B|136:248|136:248|136:208|128:168|192:128|192:128|144:104|144:104|280:24|320:136,1,450.000017166138
320,216,131324,1,0,0:0:0:0:
360,312,131433,1,0,0:0:0:0:
448,256,131542,1,0,0:0:0:0:
416,296,131651,6,0,P|464:224|464:224,1,75.0000028610231
342,362,131868,2,0,P|420:323|420:323,1,75.0000028610231
252,382,132085,2,0,P|339:385|339:385,1,75.0000028610231
169,361,132303,2,0,P|245:402|245:402,1,75.0000028610231
107,312,132520,2,0,P|161:379|161:379,1,75.0000028610231
73,247,132737,2,0,P|97:330|97:330,1,75.0000028610231
65,181,132955,2,0,P|59:268|59:268,1,75.0000028610231
77,123,133172,2,0,P|45:203|45:203,1,75.0000028610231
103,77,133390,2,0,P|50:145|50:145,1,75.0000028610231
135,43,133607,2,0,P|68:97|68:97,1,75.0000028610231
169,21,133824,2,0,P|91:60|91:60,1,75.0000028610231
200,9,134042,2,0,P|117:33|117:33,1,75.0000028610231
226,3,134259,2,0,P|140:16|140:16,1,75.0000028610231
246,1,134477,2,0,P|159:4|159:4,1,75.0000028610231
259,1,134694,1,0,0:0:0:0:
168,144,142520,6,0,P|240:96|280:136,2,150.000005722046
144,208,143498,1,0,0:0:0:0:
174,270,143606,1,0,0:0:0:0:
229,312,143715,1,0,0:0:0:0:
297,326,143824,1,0,0:0:0:0:
364,308,143932,1,0,0:0:0:0:
417,263,144041,1,0,0:0:0:0:
443,199,144150,1,0,0:0:0:0:
439,129,144258,1,0,0:0:0:0:
376,160,144368,1,0,0:0:0:0:
312,185,144476,1,0,0:0:0:0:
254,152,144585,1,0,0:0:0:0:
222,87,144694,2,0,P|217:54|269:92,1,150
248,120,145129,6,0,P|200:144|104:24,1,225.000008583069
99,38,145564,2,0,L|48:104,1,75.0000028610231
104,192,145781,2,0,L|64:256,1,75.0000028610231
240,80,145998,2,0,L|188:145,1,75.0000028610231
244,234,146215,2,0,L|204:298,1,75.0000028610231
392,112,146433,2,0,B|376:128|376:128|376:144|376:144|360:160|360:160|360:176|360:176|344:192|344:192|344:208|344:208|328:224|328:224|328:240|328:240,1,150.000005722046
272,320,146759,5,0,0:0:0:0:
272,320,146868,2,0,P|192:344|136:312,1,150.000005722046
80,224,147194,1,0,0:0:0:0:
80,224,147303,2,0,P|99:142|154:110,1,150.000005722046
256,120,147629,1,0,0:0:0:0:
256,120,147738,2,0,P|316:177|317:241,1,150.000005722046
248,312,148064,1,0,0:0:0:0:
248,312,148173,2,0,P|187:254|186:190,1,150.000005722046
256,112,148498,5,0,0:0:0:0:
256,112,148607,2,0,B|304:104|304:104|344:112|344:112|384:104|384:104|424:112|424:112,1,150.000005722046
456,200,148933,1,0,0:0:0:0:
456,200,149042,2,0,P|352:200|352:200,1,75.0000028610231
384,304,149259,2,0,P|288:304|288:304,1,75.0000028610231
304,112,149477,2,0,P|208:112|208:112,1,75.0000028610231
232,240,149694,2,0,P|144:240|144:240,1,75.0000028610231
160,152,149911,2,0,B|144:144|144:144|112:160|112:160|80:144|80:144|48:160|48:160|16:144,1,150.000005722046
112,264,150346,5,0,0:0:0:0:
180,270,150454,1,0,0:0:0:0:
237,232,150563,1,0,0:0:0:0:
280,176,150672,1,0,0:0:0:0:
346,162,150780,1,0,0:0:0:0:
396,206,150889,1,0,0:0:0:0:
400,280,150998,1,0,0:0:0:0:
345,322,151106,1,0,0:0:0:0:
276,327,151215,1,0,0:0:0:0:
216,296,151324,1,0,0:0:0:0:
179,236,151432,1,0,0:0:0:0:
171,167,151541,1,0,0:0:0:0:
184,96,151651,2,0,P|216:64|224:136,1,150
235,132,152085,6,0,P|168:144|96:112,1,150.000005722046
184,48,152411,1,0,0:0:0:0:
184,48,152520,2,0,L|288:40,1,75.0000028610231
344,104,152737,2,0,L|256:112,1,75.0000028610231
192,184,152955,2,0,L|288:176,1,75.0000028610231
360,232,153172,2,0,L|272:240,1,75.0000028610231
217,289,153390,2,0,B|262:295|268:295|288:289|288:289|314:295|314:295|346:282|346:282|366:295|366:295|392:282|392:282,1,150.000005722046
416,96,153824,5,0,0:0:0:0:
456,192,153933,1,0,0:0:0:0:
392,112,154042,1,0,0:0:0:0:
400,216,154151,1,0,0:0:0:0:
368,120,154259,2,0,P|320:264|320:264,1,150.000005722046
240,328,154585,1,0,0:0:0:0:
240,328,154694,2,0,P|176:304|152:256,1,112.500004291535
160,216,154911,2,0,B|192:144|136:72|104:136|96:160|136:184|224:144|224:144|304:112|304:112,1,300.000011444092
472,56,155564,6,0,P|464:128|400:200,1,150.000005722046
360,224,155890,1,0,0:0:0:0:
296,240,155998,1,0,0:0:0:0:
232,216,156107,2,0,P|200:192|192:160,2,75.0000028610231
296,216,156433,6,0,P|336:184|336:80,1,150.000005722046
280,64,156759,1,0,0:0:0:0:
216,40,156868,1,0,0:0:0:0:
152,72,156977,2,0,P|120:112|120:144,2,75.0000028610231
256,96,157303,6,0,P|280:160|264:192,1,75.0000028610231
216,248,157520,2,0,P|152:272|120:256,1,75.0000028610231
323,124,157737,6,0,P|295:186|261:197,1,75.0000028610231
188,203,157954,2,0,P|125:175|114:141,1,75.0000028610231
350,175,158172,6,0,P|291:210|257:199,1,75.0000028610231
193,162,158389,2,0,P|159:103|169:69,1,75.0000028610231
339,240,158607,6,0,P|271:228|252:198,1,75.0000028610231
227,129,158824,2,0,P|238:61|268:42,1,75.0000028610231
344,64,159042,6,0,P|408:120|408:120,1,75.0000028610231
344,104,159259,2,0,P|408:160|408:160,1,75.0000028610231
344,144,159477,2,0,P|408:200|408:200,1,75.0000028610231
344,184,159694,2,0,P|408:240|408:240,1,75.0000028610231
344,224,159911,2,0,L|408:280,1,75.0000028610231
344,264,160129,2,0,P|416:328|416:328,1,75.0000028610231
344,296,160346,2,0,P|376:328|376:328,2,37.5000014305115
240,272,160564,5,0,0:0:0:0:
240,272,160672,1,0,0:0:0:0:
240,272,160781,2,0,P|184:280|168:272,1,75.0000028610231
104,192,160998,2,0,P|96:136|104:120,1,75.0000028610231
176,48,161216,2,0,P|232:40|248:48,1,75.0000028610231
312,128,161433,2,0,P|320:184|312:200,1,75.0000028610231
160,256,161651,6,0,P|114:222|109:205,1,75.0000028610231
120,103,161868,2,0,P|153:57|170:52,1,75.0000028610231
273,52,162086,2,0,P|318:85|323:102,1,75.0000028610231
312,205,162303,2,0,P|278:250|261:255,1,75.0000028610231
160,256,162520,6,0,P|80:256|80:256,1,75.0000028610231
160,224,162737,2,0,P|72:224|72:224,1,75.0000028610231
160,192,162955,2,0,P|72:192|72:192,1,75.0000028610231
160,160,163172,2,0,P|72:160|72:160,1,75.0000028610231
160,128,163390,2,0,P|72:128|72:128,1,75.0000028610231
160,96,163607,2,0,P|72:96|72:96,1,75.0000028610231
160,64,163824,2,0,P|112:64|112:64,2,37.5000014305115
264,72,164042,5,0,0:0:0:0:
264,72,164151,1,0,0:0:0:0:
264,72,164259,2,0,P|352:96|352:96,1,75.0000028610231
400,176,164477,2,0,P|376:264|376:264,1,75.0000028610231
216,112,164694,2,0,P|304:136|304:136,1,75.0000028610231
352,216,164912,2,0,P|328:304|328:304,1,75.0000028610231
168,152,165129,6,0,P|256:176|256:176,1,75.0000028610231
304,256,165347,2,0,P|280:344|280:344,1,75.0000028610231
120,184,165564,2,0,P|208:208|208:208,1,75.0000028610231
256,288,165782,2,0,P|232:376|232:376,1,75.0000028610231
168,280,165998,6,0,L|80:280,1,75.0000028610231
168,280,166216,2,0,L|105:217,1,75.0000028610231
168,280,166433,2,0,L|167:192,1,75.0000028610231
168,280,166651,2,0,L|230:217,1,75.0000028610231
168,280,166868,2,0,L|255:280,1,75.0000028610231
168,280,167085,2,0,L|230:342,1,75.0000028610231
168,280,167303,2,0,L|168:344,2,37.5000014305115
168,280,167520,2,0,L|105:342,1,75.0000028610231
72,240,167737,6,0,P|48:160|48:160,2,75.0000028610231
112,336,168064,1,0,0:0:0:0:
152,240,168172,2,0,P|184:160|184:160,2,75.0000028610231
112,336,168498,1,0,0:0:0:0:
80,272,168607,6,0,P|56:192|56:192,2,75.0000028610231
112,336,168933,1,0,0:0:0:0:
144,272,169042,2,0,P|176:192|176:192,2,75.0000028610231
112,336,169368,1,0,0:0:0:0:
112,336,169477,6,0,P|192:336|208:320,1,75.0000028610231
272,288,169694,2,0,P|328:231|328:208,1,75.0000028610231
360,144,169911,6,0,P|360:64|344:48,1,75.0000028610231
264,112,170128,2,0,P|207:55|184:55,1,75.0000028610231
176,152,170346,6,0,P|96:152|80:168,1,75.0000028610231
144,248,170564,2,0,P|87:304|87:327,1,75.0000028610231
192,328,170781,2,0,P|240:304|264:256,1,75.0000028610231
304,200,170998,2,0,P|368:200|384:216,1,75.0000028610231
416,272,171216,6,0,P|416:352|432:368,1,75.0000028610231
416,240,171433,2,0,P|416:160|432:144,1,75.0000028610231
448,272,171651,6,0,P|448:352|464:368,1,75.0000028610231
448,240,171868,2,0,P|448:160|464:144,1,75.0000028610231
464,64,172085,5,0,0:0:0:0:
464,64,172194,2,0,B|488:64|488:64|464:32|352:40,1,150.000005722046
296,112,172520,2,0,P|224:128|152:96,1,150.000005722046
72,32,172846,2,0,B|32:64|32:64|40:136|128:208,1,225.000008583069
184,240,173281,6,0,P|232:216|280:240,1,100
328,272,173607,2,0,B|363:224|435:296|435:296|467:144|347:160|256:176,1,400
256,192,174694,12,0,175564,0:0:0:0:
256,192,192737,12,0,194259,0:0:0:0:
200,72,194694,6,0,P|168:128|224:248,1,170.000003242493
296,160,195020,1,0,0:0:0:0:
296,160,195129,2,0,P|328:216|272:336,1,170.000003242493
184,336,195455,1,0,0:0:0:0:
184,336,195564,2,0,P|120:312|104:280,1,85.0000016212464
80,184,195781,2,0,P|104:120|136:104,1,85.0000016212464
232,96,195998,2,0,P|296:120|296:288,1,255.000004863739
184,272,196433,6,0,B|96:272|96:208|160:176|160:176|128:160|128:160|152:144|152:144|120:128|120:128,1,255.000004863739
40,48,196868,2,0,L|40:144,1,85.0000016212464
152,168,197085,2,0,P|152:264|152:264,1,85.0000016212464
248,80,197303,2,0,L|248:200,1,85.0000016212464
352,208,197520,2,0,P|352:296|352:296,1,85.0000016212464
440,56,197737,2,0,B|432:80|432:80|448:104|448:104|432:128|432:128|448:152|448:152|432:176|432:176|448:200|448:200,1,170.000003242493
384,304,198064,5,0,0:0:0:0:
384,304,198172,2,0,P|339:307|272:280,1,85.0000016212464
184,256,198390,2,0,P|136:224|104:176,1,85.0000016212464
176,96,198607,2,0,P|205:129|272:158,1,85.0000016212464
351,203,198825,2,0,P|407:214|464:203,1,85.0000016212464
432,96,199042,2,0,P|320:80|280:32,2,170.000003242493
432,96,199585,5,0,0:0:0:0:
432,96,199694,1,0,0:0:0:0:
432,96,199803,1,0,0:0:0:0:
432,96,199911,2,0,P|416:184|440:352,1,255.000004863739
328,304,200346,2,0,P|208:288|208:288,1,85.0000016212464
176,200,200564,2,0,P|280:216|280:216,1,85.0000016212464
360,144,200781,2,0,P|248:128|248:128,1,85.0000016212464
192,48,200998,2,0,L|304:56,1,85.0000016212464
384,112,201216,2,0,B|352:88|352:88|296:120|288:120|256:80|256:80|200:120|200:120|144:104|144:104,1,255.000004863739
56,152,201651,5,0,0:0:0:0:
85,219,201759,1,0,0:0:0:0:
141,268,201868,1,0,0:0:0:0:
211,290,201977,1,0,0:0:0:0:
284,281,202085,2,0,P|336:272|376:232,1,85.0000016212464
339,234,202303,2,0,P|369:192|369:135,1,85.0000016212464
345,163,202520,2,0,P|336:112|296:72,1,85.0000016212464
298,108,202737,2,0,P|256:78|199:78,1,85.0000016212464
227,102,202955,2,0,P|176:112|120:216,1,170.000003242493
184,312,203281,5,0,0:0:0:0:
184,312,203390,2,0,P|240:320|328:240,1,170.000003242493
336,136,203716,1,0,0:0:0:0:
336,136,203824,2,0,P|336:48|336:48,1,85.0000016212464
264,144,204041,2,0,L|264:56,1,85.0000016212464
192,152,204259,2,0,L|192:48,1,85.0000016212464
120,160,204476,2,0,L|120:56,1,85.0000016212464
48,168,204694,2,0,B|40:160|40:160|56:152|56:152|40:144|40:144|56:136|56:136|40:128|40:128|56:120|56:120|40:112|40:112|56:104|56:104|40:96|40:96|56:88|56:88|40:80|40:80|56:72|56:72,1,170.000003242493
72,208,205020,5,0,0:0:0:0:
72,208,205129,2,0,L|120:288,1,85.0000016212464
136,160,205346,2,0,L|192:248,1,85.0000016212464
200,112,205564,2,0,L|248:192,1,85.0000016212464
256,64,205781,2,0,L|312:152,1,85.0000016212464
376,232,205998,2,0,P|416:304|440:312,1,85.0000016212464
414,302,206216,2,0,P|440:248|384:72,1,255.000004863739
384,72,206651,2,0,P|328:104|280:88,1,85.0000016212464
192,80,206868,6,0,P|192:128|224:184,1,85.0000016212464
304,232,207085,2,0,P|368:296|368:296,1,85.0000016212464
368,296,207303,2,0,P|400:328|400:328,2,42.5000008106232
168,152,207520,6,0,P|232:216|232:216,1,85.0000016212464
232,216,207737,2,0,P|264:248|264:248,2,42.5000008106232
40,64,207955,6,0,P|104:128|104:128,1,85.0000016212464
100,124,208173,1,0,0:0:0:0:
100,124,208281,1,0,0:0:0:0:
100,124,208390,1,0,0:0:0:0:
100,124,208498,1,0,0:0:0:0:
100,124,208607,6,0,L|168:192,1,85.0000016212464
248,104,208824,2,0,L|320:176,1,85.0000016212464
232,256,209042,1,0,0:0:0:0:
232,256,209151,1,0,0:0:0:0:
232,256,209259,1,0,0:0:0:0:
232,256,209368,1,0,0:0:0:0:
232,256,209477,6,0,P|304:328|304:336,1,85.0000016212464
400,240,209694,2,0,P|360:208|320:200,1,85.0000016212464
256,192,209911,1,0,0:0:0:0:
171,192,210019,1,0,0:0:0:0:
93,224,210128,1,0,0:0:0:0:
32,283,210237,1,0,0:0:0:0:
32,288,210346,6,0,P|136:288|136:288,1,85.0000016212464
136,152,210564,2,0,P|240:152|240:152,1,85.0000016212464
240,256,210781,2,0,P|344:256|344:256,1,85.0000016212464
344,104,210998,2,0,P|448:104|448:104,1,85.0000016212464
472,224,211216,6,0,P|384:224|384:224,1,85.0000016212464
320,136,211433,2,0,P|216:136|216:136,1,85.0000016212464
224,288,211651,2,0,P|176:288|176:288,2,42.5000008106232
120,144,211868,2,0,P|32:144|32:144,1,85.0000016212464
112,232,212085,6,0,P|120:328|120:328,1,85.0000016212464
232,360,212303,2,0,P|256:256|256:256,1,85.0000016212464
336,200,212520,2,0,P|344:296|344:296,1,85.0000016212464
456,328,212737,2,0,P|432:224|432:224,1,85.0000016212464
432,128,212955,2,0,P|432:24|432:24,1,85.0000016212464
312,40,213172,2,0,P|288:136|288:136,1,85.0000016212464
176,144,213390,2,0,P|152:32|152:32,1,85.0000016212464
40,48,213607,2,0,P|48:136|48:136,1,85.0000016212464
80,248,213824,6,0,P|120:304|152:320,2,85.0000016212464
80,128,214151,1,0,0:0:0:0:
80,128,214259,2,0,P|136:80|176:80,2,85.0000016212464
128,240,214585,1,0,0:0:0:0:
128,240,214694,2,0,P|144:296|200:312,2,85.0000016212464
192,144,215020,1,0,0:0:0:0:
192,144,215129,2,0,P|248:96|248:96,2,42.5000008106232
104,224,215346,5,0,0:0:0:0:
104,224,215455,1,0,0:0:0:0:
104,224,215564,2,0,P|64:264|48:320,1,85.0000016212464
168,256,215781,2,0,P|208:296|264:312,1,85.0000016212464
192,192,215998,2,0,P|232:152|248:96,1,85.0000016212464
128,160,216215,2,0,P|88:120|32:104,1,85.0000016212464
136,240,216433,6,0,P|136:296|164:347,1,85.0000016212464
203,217,216650,2,0,P|259:217|310:188,1,85.0000016212464
175,155,216867,2,0,P|174:98|146:47,1,85.0000016212464
107,177,217084,2,0,P|50:177|0:205,1,85.0000016212464
88,296,217303,6,0,P|168:328|168:328,2,85.0000016212464
208,280,217629,1,0,0:0:0:0:
208,280,217737,2,0,P|288:312|288:312,2,85.0000016212464
328,264,218064,1,0,0:0:0:0:
328,264,218172,2,0,P|408:296|408:296,2,85.0000016212464
448,248,218498,1,0,0:0:0:0:
448,248,218607,2,0,P|504:272|504:272,2,42.5000008106232
344,192,218824,5,0,0:0:0:0:
344,192,218933,1,0,0:0:0:0:
344,192,219042,2,0,P|400:112|328:64,1,170.000003242493
256,120,219368,1,0,0:0:0:0:
256,120,219477,6,0,P|160:120|160:120,2,85.0000016212464
352,192,219803,1,0,0:0:0:0:
352,192,219911,2,0,P|456:192|456:192,2,85.0000016212464
264,272,220237,1,0,0:0:0:0:
264,272,220346,2,0,P|176:272|176:272,2,85.0000016212464
352,352,220672,1,0,0:0:0:0:
352,352,220781,2,0,P|456:352|456:352,2,85.0000016212464
232,352,221107,6,0,P|136:352|136:352,1,85.0000016212464
248,288,221324,2,0,P|160:288|160:288,1,85.0000016212464
264,224,221542,2,0,P|176:224|176:224,1,85.0000016212464
280,160,221759,2,0,P|192:160|192:160,1,85.0000016212464
296,96,221977,1,0,0:0:0:0:
296,96,222085,2,0,B|240:88|240:88|176:104|176:104|120:88|120:88,1,170.000003242493
48,112,222411,5,0,0:0:0:0:
16,192,222520,1,0,0:0:0:0:
56,264,222629,1,0,0:0:0:0:
136,272,222737,2,0,P|192:248|224:144,1,170.000003242493
225,150,223064,2,0,P|240:224|336:288,1,170.000003242493
310,282,223390,2,0,P|400:280|448:208,1,170.000003242493
440,112,223824,2,0,B|384:96|384:96|360:128|352:112|336:96|320:112|320:112|320:104|296:96|288:96,1,170.000003242493
216,144,224151,1,0,0:0:0:0:
216,144,224261,6,0,P|152:112|136:64,1,85.0000016212464
204,155,224478,2,0,P|134:141|106:99,1,85.0000016212464
197,170,224695,2,0,P|125:174|88:141,1,85.0000016212464
193,186,224913,2,0,P|125:208|80:186,1,85.0000016212464
194,202,225130,2,0,P|134:242|85:231,1,85.0000016212464
199,218,225347,2,0,P|151:271|101:274,1,85.0000016212464
208,232,225565,2,0,P|176:296|127:312,1,85.0000016212464
219,243,225782,2,0,P|205:313|163:341,1,85.0000016212464
234,250,225999,2,0,P|238:322|205:359,1,85.0000016212464
250,254,226217,2,0,P|272:322|250:367,1,85.0000016212464
266,253,226434,2,0,P|306:313|295:362,1,85.0000016212464
282,248,226651,2,0,P|335:296|338:346,1,85.0000016212464
296,240,226869,2,0,P|360:272|376:320,1,85.0000016212464
307,228,227087,2,0,P|377:242|405:284,1,85.0000016212464
314,213,227304,2,0,P|386:209|448:296,1,170.000003242493
