osu file format v14

[General]
AudioFilename: audio.mp3
AudioLeadIn: 0
PreviewTime: 107996
Countdown: 0
SampleSet: Soft
StackLeniency: 0.7
Mode: 0
LetterboxInBreaks: 0
WidescreenStoryboard: 1

[Editor]
DistanceSpacing: 1.2
BeatDivisor: 8
GridSize: 4
TimelineZoom: 1

[Metadata]
Title:Zimzalabim
TitleUnicode:짐살라빔
Artist:Red Velvet
ArtistUnicode:레드벨벳
Creator:ldc_OSU
Version:Hard
Source:
Tags:korean pop kpop smtown irene seulgi wendy joy yeri the reve festival day 1
BeatmapID:2071660
BeatmapSetID:990410

[Difficulty]
HPDrainRate:6
CircleSize:3
OverallDifficulty:6
ApproachRate:7
SliderMultiplier:1.6
SliderTickRate:1

[Events]
//Background and Video events
0,0,"D9Ocf6IU0AA-gAO.jpg",0,0
Video,0,"Red Velvet ' (Zimzalabim)' MV_0_0.mp4"
//Break Periods
2,18200,23779
2,85700,91866
2,138199,144600
//Storyboard Layer 0 (Background)
//Storyboard Layer 1 (Fail)
//Storyboard Layer 2 (Pass)
//Storyboard Layer 3 (Foreground)
//Storyboard Layer 4 (Overlay)
//Storyboard Sound Samples

[TimingPoints]
3000,468.75,4,2,0,100,1,0
3000,-133.333333333333,4,2,0,100,0,0
18000,-100,4,3,0,100,0,0
40500,-100,4,2,0,100,0,0
55500,-66.6666666666667,4,1,0,100,0,1
70500,-100,4,3,0,100,0,0
100500,-100,4,3,0,100,0,0
108000,-66.6666666666667,4,1,0,100,0,0
108703,-66.6666666666667,4,1,0,100,0,1
122765,-66.6666666666667,4,1,0,100,0,0
123000,-66.6666666666667,4,1,0,100,0,1
138000,-133.333333333333,4,2,0,100,0,0
145500,-133.333333333333,4,2,0,75,0,0
160500,-66.6666666666667,4,1,0,100,0,1
175265,-66.6666666666667,4,1,0,100,0,0
175500,-66.6666666666667,4,1,0,100,0,1
190500,-100,4,3,0,100,0,0

[Colours]
Combo1 : 168,36,255
Combo2 : 255,45,145
Combo3 : 255,136,28
Combo4 : 55,115,255
Combo5 : 67,255,40

[HitObjects]
100,136,10500,6,0,P|164:76|272:64,1,180.000006866455
440,168,11906,1,0,0:0:0:0:
408,232,12140,1,0,0:0:0:0:
352,280,12375,2,0,P|296:316|244:324,1,120.000004577637
176,304,13078,2,0,P|136:248|132:196,1,120.000004577637
152,128,13781,1,0,0:0:0:0:
204,76,14015,1,0,0:0:0:0:
272,52,14250,6,0,P|336:60|368:116,1,120.000004577637
296,120,14953,2,0,P|331:166|389:170,1,120.000004577637
460,148,15656,1,0,0:0:0:0:
460,220,15890,1,0,0:0:0:0:
392,248,16125,2,0,L|324:248,1,60.0000022888184,2|2,0:2|0:2,0:2:0:0:
260,244,16593,2,0,L|192:244,1,60.0000022888184,2|2,0:2|0:2,0:2:0:0:
128,244,17062,2,0,L|128:200,2,30.0000011444092,2|2|2,0:2|0:2|0:2,0:2:0:0:
56,244,17531,2,0,L|56:200,2,30.0000011444092,2|2|2,0:2|0:2|0:2,0:2:0:0:
56,148,18000,5,4,0:2:0:0:
148,300,24679,6,0,L|108:272,2,40
196,300,25031,2,0,L|236:272,1,40
276,276,25265,2,0,L|308:298,1,40
356,300,25500,5,12,0:0:0:0:
452,300,25734,1,0,0:0:0:0:
452,300,25851,1,0,0:0:0:0:
452,300,25968,1,0,0:0:0:0:
452,204,26203,2,0,P|424:121|376:89,1,120,8|0,0:0|0:0,0:0:0:0:
356,92,26671,2,0,L|268:92,1,80,8|0,0:0|0:0,0:0:0:0:
180,92,27140,1,0,0:0:0:0:
180,92,27257,1,0,0:0:0:0:
180,92,27375,1,8,0:0:0:0:
92,128,27609,1,0,0:0:0:0:
48,212,27843,1,0,0:0:0:0:
60,308,28078,2,2,P|97:316|128:293,1,80,8|0,0:0|0:0,0:0:0:0:
164,260,28429,6,0,L|164:220,2,40
184,304,28781,2,0,L|224:304,1,40,8|0,0:0|0:0,0:0:0:0:
272,304,29015,2,0,L|312:304,1,40
360,304,29250,5,8,0:0:0:0:
444,260,29484,1,0,0:0:0:0:
444,260,29601,1,0,0:0:0:0:
444,260,29718,1,0,0:0:0:0:
456,164,29953,2,0,P|452:100|408:56,1,120,8|0,0:0|0:0,0:0:0:0:
372,44,30421,2,0,L|284:44,1,80,8|0,0:0|0:0,0:0:0:0:
196,44,30890,1,0,0:0:0:0:
196,44,31007,1,0,0:0:0:0:
196,44,31125,5,8,0:0:0:0:
244,128,31359,1,0,0:0:0:0:
340,128,31593,1,0,0:0:0:0:
376,216,31828,2,0,P|360:256|304:276,1,80,2|2,0:0|0:0,0:0:0:0:
280,276,32179,6,0,L|246:254,2,40
276,324,32531,2,0,L|242:346,1,40,8|0,0:0|0:0,0:0:0:0:
196,344,32765,2,0,L|162:321,1,40
120,300,33000,5,8,0:0:0:0:
68,220,33234,1,0,0:0:0:0:
68,220,33351,1,0,0:0:0:0:
68,220,33468,1,0,0:0:0:0:
96,128,33703,2,0,B|96:48|96:48|152:48,1,120,8|0,0:0|0:0,0:0:0:0:
184,48,34171,2,0,L|264:48,1,80,8|0,0:0|0:0,0:0:0:0:
360,48,34640,1,0,0:0:0:0:
360,48,34757,1,0,0:0:0:0:
360,48,34875,5,8,0:0:0:0:
436,108,35109,1,0,0:0:0:0:
372,180,35343,1,0,0:0:0:0:
448,240,35578,2,0,P|468:271|446:302,1,80,2|2,0:0|0:0,0:0:0:0:
400,320,35929,6,0,L|352:336,2,40
400,272,36281,2,0,L|352:256,1,40,8|0,0:0|0:0,0:0:0:0:
316,240,36515,2,0,L|332:192,1,40
344,156,36750,5,8,0:0:0:0:
304,68,36984,1,0,0:0:0:0:
304,68,37101,1,0,0:0:0:0:
304,68,37218,1,0,0:0:0:0:
212,44,37453,2,0,P|104:72|88:88,1,120,8|0,0:0|0:0,0:0:0:0:
68,112,37921,2,0,P|40:168|44:212,1,80,8|0,0:0|0:0,0:0:0:0:
68,276,38390,1,0,0:0:0:0:
68,276,38507,1,0,0:0:0:0:
68,276,38625,5,8,0:0:0:0:
136,212,38859,1,0,0:0:0:0:
208,272,39093,2,0,L|236:328,1,40
276,308,39328,2,0,L|293:272,1,40,8|0,0:0|0:0,0:0:0:0:
341,272,39562,2,0,P|392:240|408:200,1,80
412,176,39914,2,0,P|392:128|328:148,1,120,0|0,0:0|0:2,0:0:0:0:
272,212,40500,5,4,0:0:0:0:
244,120,40734,1,0,0:3:0:0:
180,52,40968,2,0,P|124:56|88:96,1,80,0|8,0:3|0:3,0:3:0:0:
68,156,41437,1,0,0:3:0:0:
80,204,41554,1,0,0:3:0:0:
136,284,41789,2,0,P|200:312|252:312,1,120,0|0,0:3|0:3,0:3:0:0:
344,300,42375,1,8,0:3:0:0:
436,272,42609,1,0,0:3:0:0:
464,180,42843,2,0,P|464:124|424:92,1,80,0|8,0:3|0:3,0:3:0:0:
368,60,43312,1,0,0:3:0:0:
320,68,43429,1,0,0:3:0:0:
232,108,43664,2,0,P|284:160|336:164,1,120,0|0,0:3|0:3,0:3:0:0:
424,164,44250,5,8,0:3:0:0:
445,257,44485,1,2,0:3:0:0:
363,307,44719,1,2,0:3:0:0:
290,244,44953,1,10,0:3:0:0:
327,155,45187,2,0,P|320:88|228:92,1,160,2|0,0:3|0:0,0:0:0:0:
185,155,45890,5,2,0:3:0:0:
222,244,46125,1,10,0:3:0:0:
149,307,46359,1,2,0:3:0:0:
67,257,46593,1,2,0:3:0:0:
88,164,46828,1,10,0:3:0:0:
176,204,47062,2,2,L|176:108,1,80,0|0,0:1|0:1,0:1:0:0:
268,152,47531,2,2,L|268:56,1,80,0|0,0:1|0:1,0:1:0:0:
176,40,48000,5,8,0:3:0:0:
88,84,48234,1,0,0:3:0:0:
48,172,48468,2,0,P|56:224|68:248,1,80,0|8,0:3|0:3,0:3:0:0:
144,308,48937,1,0,0:3:0:0:
188,324,49054,1,0,0:3:0:0:
284,336,49289,2,0,P|360:336|404:284,1,120,0|0,0:3|0:3,0:3:0:0:
432,224,49875,1,8,0:3:0:0:
336,240,50109,1,0,0:3:0:0:
240,260,50343,2,0,P|256:188|280:160,1,80,0|8,0:3|0:3,0:3:0:0:
340,132,50812,1,0,0:3:0:0:
364,176,50929,1,0,0:3:0:0:
444,120,51164,2,0,B|432:72|432:72|344:52,1,120,0|0,0:3|0:3,0:3:0:0:
268,48,51750,5,8,0:3:0:0:
176,77,51984,1,2,0:3:0:0:
176,173,52218,1,2,0:3:0:0:
267,203,52452,1,10,0:3:0:0:
324,125,52687,2,0,P|400:140|392:228,1,160,2|0,0:3|0:0,0:0:0:0:
324,259,53390,5,2,0:3:0:0:
267,181,53624,1,10,0:3:0:0:
176,211,53858,1,2,0:3:0:0:
176,307,54092,1,2,0:3:0:0:
268,336,54328,1,10,0:3:0:0:
256,192,54914,5,2,0:0:0:0:
100,48,55500,5,4,0:2:0:0:
244,48,55734,2,0,L|328:48,2,60.0000022888184,0|0|0,0:3|0:3|0:3,0:3:0:0:
244,192,56203,1,8,0:3:0:0:
100,192,56438,1,0,0:3:0:0:
100,336,56672,2,0,L|200:336,2,60.0000022888184,0|0|8,0:3|0:3|0:3,0:3:0:0:
100,192,57141,1,0,0:3:0:0:
244,192,57375,1,0,0:3:0:0:
388,192,57609,2,0,L|460:192,2,60.0000022888184,0|0|8,0:3|0:3|0:3,0:3:0:0:
388,336,58078,1,0,0:3:0:0:
244,336,58313,2,0,P|208:248|171:336,1,240.000009155274,0|8,0:3|0:3,0:3:0:0:
76,60,59250,5,8,0:3:0:0:
180,160,59484,2,0,P|120:184|80:160,2,60.0000022888184,0|0|0,0:3|0:3|0:3,0:3:0:0:
284,60,59953,1,8,0:3:0:0:
412,128,60188,1,0,0:3:0:0:
400,272,60422,2,0,P|388:316|332:328,2,60.0000022888184,0|0|8,0:3|0:3|0:3,0:3:0:0:
256,280,60891,1,0,0:3:0:0:
128,216,61125,1,0,0:3:0:0:
196,88,61359,2,0,P|224:64|288:48,2,60.0000022888184,0|0|8,0:3|0:3|0:3,0:3:0:0:
328,148,61828,1,0,0:3:0:0:
432,252,62063,2,0,P|344:316|344:252,1,240.000009155274,0|8,0:3|0:3,0:3:0:0:
56,272,63000,5,8,0:3:0:0:
100,136,63234,2,0,L|120:68,2,60.0000022888184,0|0|0,0:3|0:3|0:3,0:3:0:0:
220,52,63703,1,8,0:3:0:0:
364,52,63938,1,0,0:3:0:0:
452,164,64172,2,0,L|464:244,2,60.0000022888184,0|0|8,0:3|0:3|0:3,0:3:0:0:
404,300,64641,1,0,0:3:0:0:
268,344,64875,1,0,0:3:0:0:
132,304,65109,2,0,L|172:248,2,60.0000022888184,0|0|8,0:3|0:3|0:3,0:3:0:0:
80,168,65578,1,0,0:3:0:0:
220,128,65813,2,0,P|304:52|428:80,1,240.000009155274,0|8,0:3|0:3,0:3:0:0:
264,316,66750,5,8,0:3:0:0:
124,284,66984,2,0,P|96:244|104:196,2,60.0000022888184,0|0|0,0:3|0:3|0:3,0:3:0:0:
104,140,67453,1,8,0:3:0:0:
220,52,67688,1,0,0:3:0:0:
364,64,67922,2,0,P|400:72|432:100,2,60.0000022888184,0|0|8,0:3|0:3|0:3,0:3:0:0:
464,168,68391,1,0,0:3:0:0:
376,280,68625,1,0,0:3:0:0:
236,320,68859,2,0,P|200:316|172:272,2,60.0000022888184,0|0|8,0:3|0:3|0:3,0:3:0:0:
316,200,69328,1,0,0:3:0:0:
300,56,69563,1,0,0:3:0:0:
156,68,69796,6,0,L|212:104,1,60.0000022888184,0|0,3:0|3:0,3:0:0:0:
192,172,70031,2,0,L|248:208,1,60.0000022888184,0|0,3:0|3:0,3:0:0:0:
240,276,70265,2,0,L|296:312,1,60.0000022888184,0|0,3:0|3:0,3:0:0:0:
340,308,70500,6,0,P|396:292|428:244,1,80,4|0,0:2|0:0,0:0:0:0:
440,240,70851,2,0,P|468:172|432:120,1,120,8|0,0:0|0:0,0:0:0:0:
272,60,71672,1,0,0:0:0:0:
176,72,71906,1,0,0:0:0:0:
100,132,72141,1,0,0:0:0:0:
44,212,72375,2,0,P|60:272|100:292,1,80,8|0,0:0|0:0,0:0:0:0:
112,308,72727,2,0,P|184:328|240:308,1,120,8|8,0:0|0:0,0:0:0:0:
392,220,73546,6,0,L|358:163,1,40
323,170,73781,2,0,L|266:203,1,40
242,179,74015,2,0,L|208:122,1,40
200,100,74250,6,0,L|296:48,1,80,8|0,0:0|0:0,0:0:0:0:
312,40,74601,1,8,0:0:0:0:
452,68,74953,2,0,P|448:108|424:148,1,80,8|0,0:0|0:0,0:0:0:0:
360,208,75421,1,0,0:0:0:0:
268,240,75656,1,0,0:0:0:0:
140,96,76125,2,0,L|56:164,1,80,8|0,0:0|0:0,0:0:0:0:
40,176,76476,1,8,0:0:0:0:
132,288,76828,2,0,P|180:332|224:336,1,80,8|0,0:0|0:0,0:0:0:0:
284,300,77296,2,0,P|236:256|192:252,1,80
80,124,78000,5,8,0:0:0:0:
160,72,78234,2,0,P|204:48|252:56,2,80,0|0|8,0:0|0:0|0:0,0:0:0:0:
224,144,78938,1,0,0:0:0:0:
272,132,79055,1,0,0:0:0:0:
344,68,79289,2,0,P|404:68|456:124,1,120
472,200,79875,1,8,0:0:0:0:
440,288,80109,2,0,P|396:324|344:328,2,80,0|0|8,0:0|0:0|0:0,0:0:0:0:
360,236,80813,1,0,0:0:0:0:
316,256,80930,1,0,0:0:0:0:
228,288,81164,2,0,L|228:152,1,120
228,72,81750,1,8,0:0:0:0:
136,96,81984,5,2,0:0:0:0:
64,160,82218,1,2,0:0:0:0:
104,247,82453,1,10,0:0:0:0:
200,236,82687,2,0,P|196:308|288:328,1,160,2|0,0:0|0:0,0:0:0:0:
294,243,83390,5,2,0:0:0:0:
313,148,83625,1,10,0:0:0:0:
408,137,83859,1,2,0:0:0:0:
448,224,84094,1,2,0:0:0:0:
376,288,84328,1,10,0:0:0:0:
284,268,84562,2,2,L|252:160,1,80,0|0,0:0|0:0,0:0:0:0:
168,212,85031,2,2,L|136:104,1,80,0|0,0:0|0:0,0:0:0:0:
52,156,85500,1,4,0:2:0:0:
424,80,92766,5,0,0:0:0:0:
336,124,93000,1,8,0:0:0:0:
252,168,93234,2,0,L|200:200,2,40,0|0|0,0:0|0:0|0:0,0:0:0:0:
244,72,93703,2,0,P|187:49|153:66,1,80,8|0,0:0|0:0,0:0:0:0:
92,108,94171,2,0,P|69:164|86:198,1,80,0|8,0:0|0:0,0:0:0:0:
108,272,94641,6,0,L|102:311,1,40,0|0,0:0|0:0,0:0:0:0:
96,352,94875,1,8,0:0:0:0:
188,328,95109,1,0,0:0:0:0:
236,340,95227,1,0,0:0:0:0:
284,336,95344,1,0,0:0:0:0:
380,324,95578,2,0,L|408:284,2,40,8|0|0,0:0|0:0|0:0,0:0:0:0:
432,240,96047,1,0,0:0:0:0:
376,164,96281,1,8,0:0:0:0:
336,136,96398,6,0,L|284:92,2,40,0|0|0,0:0|0:0|0:0,0:0:0:0:
328,184,96750,2,0,L|284:236,1,40,8|0,0:0|0:0,0:0:0:0:
272,252,96984,2,0,L|228:304,1,40,0|0,0:0|0:0,0:0:0:0:
216,320,97218,2,0,L|138:253,1,80,0|8,0:0|0:0,0:0:0:0:
80,208,97687,2,0,L|124:156,1,40,0|0,0:0|0:0,0:0:0:0:
136,140,97921,2,0,L|180:88,1,40,0|0,0:0|0:0,0:0:0:0:
192,72,98155,2,0,L|270:139,1,80,8|0,0:0|0:0,0:0:0:0:
332,180,98625,6,0,P|392:156|416:112,1,80,8|0,0:0|0:0,0:0:0:0:
412,52,99093,2,0,P|352:76|328:120,1,80,0|8,0:0|0:0,0:0:0:0:
248,84,99562,2,0,P|211:58|188:64,1,40,0|0,0:0|0:0,0:0:0:0:
172,52,99796,2,0,P|128:60|116:80,1,40,0|0,0:0|0:0,0:0:0:0:
96,88,100031,2,0,P|68:136|63:192,1,80,8|0,0:0|0:0,0:0:0:0:
88,252,100500,6,0,P|120:312|160:324,1,80,4|0,0:2|0:0,0:0:0:0:
172,332,100851,2,0,P|252:300|280:308,1,120,8|0,0:0|0:0,0:0:0:0:
452,220,101671,1,8,0:0:0:0:
460,124,101906,1,0,0:0:0:0:
368,156,102140,1,0,0:0:0:0:
380,60,102375,2,0,P|332:44|292:68,1,80,8|0,0:0|0:0,0:0:0:0:
268,84,102726,2,0,P|208:104|164:76,1,120,8|8,0:0|0:0,0:0:0:0:
68,240,103546,5,8,0:0:0:0:
144,180,103781,1,0,0:0:0:0:
164,276,104015,1,0,0:0:0:0:
256,304,104250,2,0,P|290:285|300:248,1,80,8|0,0:0|0:0,0:0:0:0:
300,200,104601,2,0,L|428:200,1,120,8|8,0:0|0:0,0:0:0:0:
292,56,105421,1,8,0:0:0:0:
196,56,105656,1,0,0:0:0:0:
100,56,105890,1,0,0:0:0:0:
256,192,106125,12,0,108000,2:0:0:0:
428,332,108703,5,4,0:2:0:0:
284,332,108938,1,0,0:3:0:0:
140,332,109172,2,0,L|40:332,2,60.0000022888184,0|0|8,0:3|0:3|0:3,0:3:0:0:
80,200,109641,1,0,0:3:0:0:
80,56,109875,1,0,0:3:0:0:
224,56,110109,2,0,L|284:56,2,60.0000022888184,0|0|8,0:3|0:3|0:3,0:3:0:0:
224,200,110578,1,0,0:3:0:0:
368,200,110813,2,0,P|404:288|441:200,1,240.000009155274,0|8,0:3|0:3,0:3:0:0:
200,44,111750,5,8,0:3:0:0:
344,44,111984,2,0,P|328:112|308:140,2,60.0000022888184,0|0|0,0:3|0:3|0:3,0:3:0:0:
444,148,112453,1,8,0:3:0:0:
424,292,112687,1,0,0:3:0:0:
288,336,112921,2,0,P|220:320|192:300,2,60.0000022888184,0|0|8,0:3|0:3|0:3,0:3:0:0:
152,292,113391,1,0,0:3:0:0:
56,184,113625,1,0,0:3:0:0:
120,56,113859,2,0,P|188:72|216:92,2,60.0000022888184,0|0|8,0:3|0:3|0:3,0:3:0:0:
252,112,114328,1,0,0:3:0:0:
212,252,114563,2,0,P|255:339|299:252,1,240.000009155274,0|8,0:3|0:3,0:3:0:0:
60,96,115500,5,8,0:3:0:0:
104,232,115734,2,0,L|124:296,2,60.0000022888184,0|0|0,0:3|0:3|0:3,0:3:0:0:
212,136,116203,1,8,0:3:0:0:
256,272,116438,1,0,0:3:0:0:
392,320,116671,2,0,L|449:302,2,60.0000022888184,0|0|8,0:3|0:3|0:3,0:3:0:0:
448,188,117141,1,0,0:3:0:0:
364,72,117375,1,0,0:3:0:0:
296,200,117609,2,0,L|232:180,2,60.0000022888184,0|0|8,0:3|0:3|0:3,0:3:0:0:
156,164,118078,1,0,0:3:0:0:
44,72,118313,2,0,P|188:56|268:112,1,240.000009155274,0|8,0:3|0:3,0:3:0:0:
68,320,119250,5,8,0:3:0:0:
48,176,119484,2,0,P|104:184|132:212,2,60.0000022888184,0|0|0,0:3|0:3|0:3,0:3:0:0:
180,236,119953,1,8,0:3:0:0:
284,336,120188,1,0,0:3:0:0:
424,300,120421,2,0,P|434:272|433:242,2,60.0000022888184,0|0|8,0:3|0:3|0:3,0:3:0:0:
424,156,120891,1,0,0:3:0:0:
336,44,121125,1,0,0:3:0:0:
196,76,121359,2,0,P|168:88|148:110,2,60.0000022888184,0|0|8,0:3|0:3|0:3,0:3:0:0:
136,208,121828,1,0,0:3:0:0:
216,328,122062,2,0,P|320:296|372:168,1,240.000009155274,0|8,0:0|0:2,0:0:0:0:
288,64,122765,1,8,0:2:0:0:
144,76,123000,6,0,P|88:108|84:184,1,120.000004577637,12|0,0:2|0:2,0:2:0:0:
132,292,123468,1,8,0:2:0:0:
276,320,123703,1,0,0:2:0:0:
348,320,123820,2,0,P|388:268|408:144,1,180.000006866455,8|8,0:2|0:2,0:2:0:0:
296,72,124406,2,0,P|236:84|244:140,1,120.000004577637,0|8,0:2|0:2,0:2:0:0:
280,272,124875,2,0,P|216:312|144:276,1,120.000004577637,8|0,0:2|0:2,0:2:0:0:
108,176,125343,1,8,0:2:0:0:
212,76,125578,1,0,0:2:0:0:
280,60,125695,2,0,P|340:48|392:160,1,180.000006866455,8|8,0:2|0:2,0:2:0:0:
428,276,126281,2,0,P|376:324|300:300,1,120.000004577637,0|8,0:2|0:2,0:2:0:0:
188,312,126750,6,0,B|128:308|128:308|76:272,1,120.000004577637,8|0,0:2|0:2,0:2:0:0:
60,132,127218,1,8,0:2:0:0:
184,56,127453,1,0,0:2:0:0:
256,60,127570,2,0,B|328:96|328:96|332:120|332:120|404:152,1,180.000006866455,8|8,0:2|0:2,0:2:0:0:
436,292,128156,2,0,L|304:232,1,120.000004577637,0|8,0:2|0:2,0:2:0:0:
224,140,128625,2,0,L|112:200,1,120.000004577637,8|0,0:2|0:2,0:2:0:0:
68,332,129093,1,8,0:2:0:0:
208,304,129328,1,0,0:2:0:0:
280,292,129445,2,0,B|336:260|336:260|336:144,1,180.000006866455,8|10,0:2|0:2,0:2:0:0:
284,92,129914,5,2,0:2:0:0:
212,84,130031,2,0,P|172:88|128:112,1,60.0000022888184,2|2,0:2|0:2,0:2:0:0:
96,140,130265,2,0,P|64:184|64:240,1,60.0000022888184,10|2,0:2|0:2,0:2:0:0:
76,260,130500,6,0,P|128:300|188:304,1,120.000004577637,8|0,0:2|0:2,0:2:0:0:
316,280,130968,1,8,0:2:0:0:
416,176,131203,1,0,0:2:0:0:
444,112,131320,2,0,B|416:64|376:56|360:120|332:132|288:72,1,180.000006866455,8|8,0:2|0:2,0:2:0:0:
148,80,131906,2,0,P|88:128|108:176,1,120.000004577637,0|8,0:2|0:2,0:2:0:0:
236,128,132375,2,0,P|234:185|183:209,1,120.000004577637,8|0,0:2|0:2,0:2:0:0:
116,336,132843,1,8,0:2:0:0:
40,212,133078,1,0,0:2:0:0:
72,148,133195,2,0,B|120:148|140:124|160:40|184:40|256:44,1,180.000006866455,8|8,0:2|0:2,0:2:0:0:
352,48,133781,2,0,P|396:92|368:168,1,120.000004577637,0|8,0:2|0:2,0:2:0:0:
436,280,134250,6,0,B|384:304|384:304|376:288|376:288|320:312,1,120.000004577637,8|0,0:2|0:2,0:2:0:0:
196,340,134718,1,8,0:2:0:0:
80,256,134953,1,0,0:2:0:0:
96,184,135070,2,0,B|112:152|112:152|168:144|168:144|195:92|195:92|248:80,1,180.000006866455,8|8,0:2|0:2,0:2:0:0:
368,76,135656,2,0,L|444:192,1,120.000004577637,0|8,0:2|0:2,0:2:0:0:
336,280,136125,2,0,L|228:208,1,120.000004577637,8|0,0:2|0:2,0:2:0:0:
192,76,136593,1,8,0:2:0:0:
64,144,136828,1,0,0:2:0:0:
76,216,136945,2,0,B|112:276|112:276|148:260|148:260|184:324,1,180.000006866455,8|10,0:2|0:2,0:2:0:0:
252,340,137414,5,2,0:2:0:0:
320,316,137531,2,0,P|368:292|388:272,1,60.0000022888184,2|2,0:2|0:2,0:2:0:0:
428,240,137765,2,0,P|456:188|456:152,1,60.0000022888184,10|2,0:2|0:2,0:2:0:0:
456,116,137999,1,4,0:2:0:0:
420,96,145500,6,0,P|440:200|340:312,1,240.000009155274,0|2,0:0|0:0,0:0:0:0:
296,320,146672,1,0,0:0:0:0:
224,324,146906,1,0,0:0:0:0:
152,316,147141,2,0,P|100:236|144:160,1,180.000006866455
188,120,148078,2,0,P|232:82|289:95,1,120.000004577637
356,120,148781,1,0,0:0:0:0:
420,152,149016,2,0,P|368:284|252:224,1,300.000011444092,0|2,0:0|0:0,0:0:0:0:
56,320,150891,6,0,P|72:236|100:192,1,120.000004577637
136,152,151594,2,0,L|192:96,1,60.0000022888184
240,68,152063,1,2,0:0:0:0:
380,108,152531,1,0,0:0:0:0:
436,156,152766,1,0,0:0:0:0:
412,224,153000,6,0,P|376:288|320:312,1,120.000004577637,2|2,0:0|0:0,0:0:0:0:
264,312,153703,1,0,0:0:0:0:
236,288,153820,2,0,B|180:220,1,60.0000022888184,2|0,0:0|0:0,0:0:0:0:
172,216,154171,2,0,B|116:148,1,60.0000022888184,2|0,0:0|0:0,0:0:0:0:
132,96,154641,1,2,0:0:0:0:
204,96,154875,6,0,L|336:96,1,120.000004577637,2|2,0:0|0:0,0:0:0:0:
396,96,155578,1,0,0:0:0:0:
396,132,155695,2,0,B|396:208,1,60.0000022888184,2|0,0:0|0:0,0:0:0:0:
396,228,156046,2,0,B|396:304,1,60.0000022888184,2|0,0:0|0:0,0:0:0:0:
336,328,156516,1,2,0:0:0:0:
256,192,156750,12,0,159563,0:0:0:0:
244,128,160500,5,6,0:2:0:0:
104,164,160734,2,0,P|88:212|116:264,2,60.0000022888184,0|0|2,0:2|0:2|0:2,0:2:0:0:
124,308,161203,1,0,0:2:0:0:
268,328,161437,1,2,0:2:0:0:
412,324,161671,2,0,P|396:288|352:272,2,60.0000022888184,0|0|2,0:2|0:2|0:2,0:2:0:0:
456,188,162140,1,0,0:2:0:0:
404,52,162375,1,2,0:2:0:0:
328,172,162609,2,0,P|300:140|312:100,2,60.0000022888184,0|0|2,0:2|0:2|0:2,0:2:0:0:
232,280,163078,1,0,0:2:0:0:
124,188,163312,2,0,P|108:120|124:40,2,120.000004577637,2|0|2,0:2|0:2|0:2,0:2:0:0:
384,60,164250,5,2,0:2:0:0:
464,180,164484,2,0,L|380:204,2,60.0000022888184,0|0|2,0:2|0:2|0:2,0:2:0:0:
328,224,164953,1,0,0:2:0:0:
216,316,165187,1,2,0:2:0:0:
92,244,165421,2,0,L|71:187,2,60.0000022888184,0|0|2,0:2|0:2|0:2,0:2:0:0:
36,112,165890,1,0,0:2:0:0:
148,20,166125,1,2,0:2:0:0:
292,20,166359,2,0,L|352:56,2,60.0000022888184,0|0|2,0:2|0:2|0:2,0:2:0:0:
420,92,166828,1,0,0:2:0:0:
504,208,167062,2,0,B|491:247|491:247|415:267,2,120.000004577637,2|0|2,0:2|0:2|0:2,0:2:0:0:
228,288,168000,5,10,0:2:0:0:
268,148,168234,2,0,P|270:118|257:91,2,60.0000022888184,0|0|10,0:2|0:2|0:2,0:2:0:0:
192,24,168703,1,0,0:2:0:0:
52,64,168937,1,2,0:2:0:0:
52,208,169171,2,0,P|77:223|106:222,2,60.0000022888184,8|0|2,0:2|0:2|0:2,0:2:0:0:
196,192,169640,1,8,0:2:0:0:
240,328,169875,1,10,0:2:0:0:
372,276,170109,2,0,P|401:273|428:260,2,60.0000022888184,0|0|10,0:2|0:2|0:2,0:2:0:0:
496,204,170578,1,0,0:2:0:0:
400,100,170812,2,0,P|364:40|300:28,2,120.000004577637,2|8|2,0:2|0:2|0:2,0:2:0:0:
112,116,171750,5,10,0:2:0:0:
112,260,171984,2,0,L|12:260,2,60.0000022888184,0|0|10,0:2|0:2|0:2,0:2:0:0:
236,188,172453,1,0,0:2:0:0:
112,116,172687,1,2,0:2:0:0:
240,48,172921,2,0,L|300:48,2,60.0000022888184,8|0|2,0:2|0:2|0:2,0:2:0:0:
236,188,173390,1,8,0:2:0:0:
236,332,173625,1,10,0:2:0:0:
380,332,173859,2,0,L|464:332,2,60.0000022888184,0|0|10,0:2|0:2|0:2,0:2:0:0:
380,188,174328,1,0,0:2:0:0:
380,44,174562,1,0,0:2:0:0:
240,76,174796,5,8,0:2:0:0:
114,147,175031,1,8,0:2:0:0:
237,221,175265,1,0,0:2:0:0:
364,288,175500,5,6,0:2:0:0:
436,164,175734,2,0,L|436:100,2,60.0000022888184,0|0|2,0:2|0:2|0:2,0:2:0:0:
304,108,176203,2,0,P|212:76|144:144,1,180.000006866455,0|0,0:2|0:2,0:2:0:0:
184,188,176671,2,0,P|244:212|280:168,1,120.000004577637,0|2,0:2|0:2,0:2:0:0:
384,276,177140,2,0,L|460:276,2,60.0000022888184,0|0|2,0:2|0:2|0:2,0:2:0:0:
248,328,177609,1,0,0:2:0:0:
112,284,177843,1,2,0:2:0:0:
20,172,178078,2,0,P|56:92|88:76,1,120.000004577637,0|2,0:2|0:2,0:2:0:0:
220,48,178547,5,0,0:2:0:0:
364,48,178782,1,2,0:2:0:0:
464,152,179016,1,0,0:2:0:0:
320,152,179251,1,2,0:2:0:0:
176,152,179484,2,0,L|104:152,2,60.0000022888184,0|0|2,0:2|0:2|0:2,0:2:0:0:
60,240,179953,2,0,P|104:316|192:344,1,180.000006866455,0|0,0:2|0:2,0:2:0:0:
260,344,180421,2,0,L|388:344,1,120.000004577637,0|2,0:2|0:2,0:2:0:0:
476,236,180890,2,0,L|476:176,2,60.0000022888184,0|0|2,0:2|0:2|0:2,0:2:0:0:
476,92,181359,1,0,0:2:0:0:
332,92,181593,1,2,0:2:0:0:
188,92,181828,2,0,P|131:103|88:64,1,120.000004577637,0|2,0:2|0:2,0:2:0:0:
16,188,182296,5,0,0:2:0:0:
88,312,182531,1,2,0:2:0:0:
196,220,182765,1,0,0:2:0:0:
132,92,183000,1,10,0:2:0:0:
268,48,183234,2,0,L|322:23,2,60.0000022888184,0|0|8,0:2|0:2|0:2,0:2:0:0:
396,112,183703,2,0,P|473:147|448:232,1,180.000006866455,0|0,0:2|0:2,0:2:0:0:
392,260,184171,2,0,L|280:320,1,120.000004577637,8|2,0:2|0:2,0:2:0:0:
144,324,184640,2,0,L|84:324,2,60.0000022888184,0|0|10,0:2|0:2|0:2,0:2:0:0:
20,252,185109,1,0,0:2:0:0:
20,108,185343,1,2,0:2:0:0:
140,28,185578,2,0,P|220:32|256:84,1,120.000004577637,8|2,0:2|0:2,0:2:0:0:
144,160,186046,5,8,0:2:0:0:
204,292,186281,1,2,0:2:0:0:
344,320,186515,1,0,0:2:0:0:
444,216,186750,1,10,0:2:0:0:
400,80,186984,2,0,L|328:80,2,60.0000022888184,0|0|10,0:2|0:2|0:2,0:2:0:0:
256,80,187453,2,0,P|193:132|138:71,1,180.000006866455,0|0,0:2|0:2,0:2:0:0:
68,76,187921,2,0,L|68:248,1,120.000004577637,8|2,0:2|0:2,0:2:0:0:
68,340,188390,2,0,L|132:340,2,60.0000022888184,0|0|10,0:2|0:2|0:2,0:2:0:0:
212,340,188859,1,0,0:2:0:0:
340,276,189094,1,2,0:2:0:0:
420,156,189328,1,8,0:2:0:0:
256,192,189562,12,4,190500,0:2:0:0:
