osu file format v14

[General]
AudioFilename: audio.mp3
AudioLeadIn: 0
PreviewTime: 103012
Countdown: 0
SampleSet: Soft
StackLeniency: 0.7
Mode: 3
LetterboxInBreaks: 0
SpecialStyle: 0
WidescreenStoryboard: 0

[Editor]
Bookmarks: 42897,74282,101974,149051,177666,185974
DistanceSpacing: 0.8
BeatDivisor: 4
GridSize: 16
TimelineZoom: 2.499999

[Metadata]
Title:Russian Roulette
TitleUnicode:러시안 룰렛
Artist:Red Velvet
ArtistUnicode:레드벨벳
Creator:fvrex
Version:Winner
Source:
Tags:The 3rd Mini Album KT MUSIC 아이린 IRENE 슬기 SEULGI 웬디 WENDY 조이 JOY 예리 YERI kpop k-pop korean pop xtrippin hytex ln long notes noodles reveluv Sment SM Entertainment soft 6 Springtime osu!mania Free-for-all Tournament girl band girlband group
BeatmapID:3415961
BeatmapSetID:1672422

[Difficulty]
HPDrainRate:9
CircleSize:4
OverallDifficulty:7.6
ApproachRate:5
SliderMultiplier:1.4
SliderTickRate:1

[Events]
//Background and Video events
0,0,"bg.jpg",0,0
//Break Periods
//Storyboard Layer 0 (Background)
//Storyboard Layer 1 (Fail)
//Storyboard Layer 2 (Pass)
//Storyboard Layer 3 (Foreground)
//Storyboard Layer 4 (Overlay)
//Storyboard Sound Samples

[TimingPoints]
436,461.538461538462,4,2,1,75,1,0
44743,-100,4,2,1,75,0,1
59397,-100,4,2,1,75,0,0
59512,-100,4,2,1,75,0,1
72436,-100,4,2,1,75,0,0
103820,-100,4,2,1,75,0,1
118474,-100,4,2,1,75,0,0
118589,-100,4,2,1,75,0,1
131512,-100,4,2,1,75,0,0
149974,-100,4,2,1,75,0,1
164628,-100,4,2,1,75,0,0
164743,-100,4,2,1,75,0,1
177666,-100,4,2,1,75,0,0
186897,-100,4,2,1,75,0,1
190589,-100,4,2,1,75,0,0
194282,-100,4,2,1,75,0,1
201551,-100,4,2,1,75,0,0
201666,-100,4,2,1,75,0,1
207436,-100,4,2,1,75,0,0

[HitObjects]
64,192,436,128,0,666:0:0:0:0:
192,192,436,128,0,551:0:0:0:0:
192,192,897,1,0,0:0:0:0:
448,192,1128,128,0,1243:0:0:0:0:
64,192,1359,1,0,0:0:0:0:
448,192,1589,128,0,1705:0:0:0:0:
320,192,1820,1,0,0:0:0:0:
192,192,2051,128,0,2282:0:0:0:0:
64,192,2051,128,0,2166:0:0:0:0:
448,192,2282,1,0,0:0:0:0:
320,192,2512,1,0,0:0:0:0:
64,192,2743,128,0,2859:0:0:0:0:
64,192,2974,128,0,3089:0:0:0:0:
192,192,3205,1,0,0:0:0:0:
64,192,3436,128,0,3551:0:0:0:0:
448,192,3666,1,0,0:0:0:0:
192,192,3897,128,0,4128:0:0:0:0:
320,192,3897,128,0,4012:0:0:0:0:
192,192,4243,1,0,0:0:0:0:
64,192,4359,1,0,0:0:0:0:
192,192,4474,1,0,0:0:0:0:
448,192,4589,1,0,0:0:0:0:
320,192,4705,1,0,0:0:0:0:
448,192,4820,128,0,4936:0:0:0:0:
192,192,5051,1,0,0:0:0:0:
448,192,5282,128,0,5397:0:0:0:0:
64,192,5512,1,0,0:0:0:0:
192,192,5743,128,0,5974:0:0:0:0:
320,192,5859,128,0,5974:0:0:0:0:
448,192,6205,128,0,6320:0:0:0:0:
64,192,6205,128,0,6320:0:0:0:0:
448,192,6436,128,0,6551:0:0:0:0:
64,192,6436,128,0,6551:0:0:0:0:
320,192,6666,128,0,6897:0:0:0:0:
448,192,6666,128,0,6897:0:0:0:0:
192,192,7128,128,0,7359:0:0:0:0:
64,192,7243,128,0,7359:0:0:0:0:
320,192,7359,128,0,7474:0:0:0:0:
320,192,7589,1,0,0:0:0:0:
320,192,7705,1,0,0:0:0:0:
64,192,7820,128,0,8051:0:0:0:0:
192,192,7820,128,0,7936:0:0:0:0:
448,192,8051,1,0,0:0:0:0:
320,192,8166,1,0,0:0:0:0:
192,192,8282,1,0,0:0:0:0:
64,192,8282,1,0,0:0:0:0:
448,192,8512,128,0,8628:0:0:0:0:
320,192,8743,1,0,0:0:0:0:
192,192,8743,1,0,0:0:0:0:
448,192,8974,128,0,9089:0:0:0:0:
320,192,9205,1,0,0:0:0:0:
448,192,9205,1,0,0:0:0:0:
192,192,9436,128,0,9666:0:0:0:0:
64,192,9436,128,0,9551:0:0:0:0:
448,192,9666,1,0,0:0:0:0:
320,192,9666,1,0,0:0:0:0:
320,192,9897,1,0,0:0:0:0:
448,192,10012,1,0,0:0:0:0:
64,192,10128,128,0,10243:0:0:0:0:
192,192,10128,1,0,0:0:0:0:
64,192,10359,128,0,10474:0:0:0:0:
192,192,10589,1,0,0:0:0:0:
320,192,10589,1,0,0:0:0:0:
64,192,10820,128,0,10936:0:0:0:0:
448,192,11051,1,0,0:0:0:0:
320,192,11051,1,0,0:0:0:0:
192,192,11282,128,0,11512:0:0:0:0:
320,192,11282,128,0,11397:0:0:0:0:
448,192,11512,1,0,0:0:0:0:
64,192,11512,1,0,0:0:0:0:
320,192,11628,1,0,0:0:0:0:
64,192,11743,1,0,0:0:0:0:
64,192,11859,1,0,0:0:0:0:
448,192,11974,1,0,0:0:0:0:
320,192,11974,1,0,0:0:0:0:
448,192,12089,1,0,0:0:0:0:
192,192,12205,128,0,12320:0:0:0:0:
320,192,12436,1,0,0:0:0:0:
192,192,12436,1,0,0:0:0:0:
320,192,12666,128,0,12782:0:0:0:0:
192,192,12897,1,0,0:0:0:0:
64,192,12897,1,0,0:0:0:0:
192,192,13128,128,0,13359:0:0:0:0:
448,192,13128,1,0,0:0:0:0:
320,192,13359,1,0,0:0:0:0:
448,192,13359,1,0,0:0:0:0:
64,192,13589,1,0,0:0:0:0:
192,192,13705,1,0,0:0:0:0:
448,192,13820,1,0,0:0:0:0:
320,192,13936,1,0,0:0:0:0:
192,192,14051,1,0,0:0:0:0:
64,192,14051,1,0,0:0:0:0:
320,192,14166,1,0,0:0:0:0:
448,192,14282,128,0,14397:0:0:0:0:
64,192,14282,128,0,14397:0:0:0:0:
192,192,14512,128,0,14743:0:0:0:0:
64,192,14512,1,0,0:0:0:0:
320,192,14743,128,0,14974:0:0:0:0:
448,192,14743,1,0,0:0:0:0:
64,192,14974,128,0,15205:0:0:0:0:
448,192,15205,128,0,15436:0:0:0:0:
320,192,15205,1,0,0:0:0:0:
192,192,15205,1,0,0:0:0:0:
64,192,15436,128,0,15551:0:0:0:0:
64,192,15666,128,0,16128:0:0:0:0:
320,192,15666,128,0,15897:0:0:0:0:
192,192,15897,128,0,16128:0:0:0:0:
448,192,16128,128,0,16359:0:0:0:0:
64,192,16359,1,0,0:0:0:0:
320,192,16359,1,0,0:0:0:0:
192,192,16589,128,0,16820:0:0:0:0:
448,192,16589,1,0,0:0:0:0:
320,192,16820,128,0,17051:0:0:0:0:
64,192,16820,1,0,0:0:0:0:
192,192,17051,128,0,17282:0:0:0:0:
448,192,17282,128,0,17512:0:0:0:0:
64,192,17512,128,0,17974:0:0:0:0:
192,192,17512,1,0,0:0:0:0:
320,192,17743,128,0,17974:0:0:0:0:
192,192,17974,1,0,0:0:0:0:
64,192,18205,128,0,18320:0:0:0:0:
448,192,18205,128,0,18320:0:0:0:0:
320,192,18436,128,0,18551:0:0:0:0:
448,192,18436,128,0,18551:0:0:0:0:
64,192,18666,128,0,18897:0:0:0:0:
192,192,18666,128,0,18782:0:0:0:0:
320,192,18897,1,0,0:0:0:0:
448,192,18897,128,0,19128:0:0:0:0:
192,192,19128,128,0,19359:0:0:0:0:
320,192,19243,128,0,19359:0:0:0:0:
448,192,19359,128,0,19474:0:0:0:0:
64,192,19359,128,0,19474:0:0:0:0:
448,192,19589,128,0,19705:0:0:0:0:
64,192,19589,128,0,19705:0:0:0:0:
320,192,19820,128,0,19936:0:0:0:0:
192,192,19820,128,0,20051:0:0:0:0:
448,192,20051,1,0,0:0:0:0:
320,192,20051,128,0,20166:0:0:0:0:
64,192,20282,1,0,0:0:0:0:
192,192,20282,128,0,20512:0:0:0:0:
448,192,20512,128,0,20743:0:0:0:0:
320,192,20512,1,0,0:0:0:0:
64,192,20743,128,0,20974:0:0:0:0:
320,192,20974,128,0,21205:0:0:0:0:
64,192,21205,128,0,21320:0:0:0:0:
448,192,21205,128,0,21320:0:0:0:0:
448,192,21436,128,0,21551:0:0:0:0:
320,192,21436,128,0,21551:0:0:0:0:
192,192,21666,1,0,0:0:0:0:
64,192,21897,128,0,22012:0:0:0:0:
320,192,21897,128,0,22012:0:0:0:0:
192,192,22128,128,0,22243:0:0:0:0:
320,192,22128,128,0,22243:0:0:0:0:
64,192,22359,128,0,22820:0:0:0:0:
448,192,22359,128,0,22474:0:0:0:0:
192,192,22589,128,0,22820:0:0:0:0:
320,192,22820,1,0,0:0:0:0:
448,192,23051,128,0,23282:0:0:0:0:
320,192,23051,128,0,23282:0:0:0:0:
192,192,23512,128,0,23743:0:0:0:0:
448,192,23512,128,0,23743:0:0:0:0:
64,192,23743,1,0,0:0:0:0:
320,192,23743,1,0,0:0:0:0:
64,192,23974,128,0,24205:0:0:0:0:
320,192,23974,128,0,24205:0:0:0:0:
448,192,24205,1,0,0:0:0:0:
192,192,24205,1,0,0:0:0:0:
64,192,24436,128,0,24666:0:0:0:0:
320,192,24666,128,0,24897:0:0:0:0:
192,192,24897,128,0,25359:0:0:0:0:
448,192,24897,1,0,0:0:0:0:
448,192,25128,128,0,25359:0:0:0:0:
64,192,25359,1,0,0:0:0:0:
192,192,25589,128,0,25820:0:0:0:0:
320,192,25589,1,0,0:0:0:0:
64,192,25820,1,0,0:0:0:0:
448,192,25820,128,0,26051:0:0:0:0:
64,192,26051,128,0,26282:0:0:0:0:
320,192,26051,1,0,0:0:0:0:
192,192,26282,128,0,26512:0:0:0:0:
448,192,26512,128,0,26743:0:0:0:0:
192,192,26743,128,0,26974:0:0:0:0:
64,192,26743,1,0,0:0:0:0:
320,192,26974,128,0,27205:0:0:0:0:
64,192,27205,128,0,27666:0:0:0:0:
192,192,27436,128,0,27666:0:0:0:0:
448,192,27436,1,0,0:0:0:0:
448,192,27666,128,0,27897:0:0:0:0:
320,192,27666,1,0,0:0:0:0:
64,192,27897,128,0,28359:0:0:0:0:
192,192,27897,128,0,28128:0:0:0:0:
448,192,28128,1,0,0:0:0:0:
320,192,28359,1,0,0:0:0:0:
192,192,28359,1,0,0:0:0:0:
320,192,28589,1,0,0:0:0:0:
192,192,28589,1,0,0:0:0:0:
448,192,28820,128,0,29282:0:0:0:0:
64,192,28820,128,0,29051:0:0:0:0:
320,192,29051,1,0,0:0:0:0:
192,192,29282,128,0,29397:0:0:0:0:
64,192,29282,128,0,29397:0:0:0:0:
192,192,29512,128,0,29628:0:0:0:0:
448,192,29512,128,0,29628:0:0:0:0:
448,192,29743,128,0,29859:0:0:0:0:
320,192,29743,128,0,29859:0:0:0:0:
64,192,29974,128,0,30205:0:0:0:0:
320,192,29974,128,0,30089:0:0:0:0:
192,192,29974,1,0,0:0:0:0:
64,192,30436,128,0,30666:0:0:0:0:
320,192,30436,1,0,0:0:0:0:
64,192,30897,128,0,31128:0:0:0:0:
192,192,31128,1,0,0:0:0:0:
320,192,31128,1,0,0:0:0:0:
448,192,31359,1,0,0:0:0:0:
64,192,31359,128,0,31589:0:0:0:0:
192,192,31589,1,0,0:0:0:0:
320,192,31589,1,0,0:0:0:0:
320,192,31820,128,0,32051:0:0:0:0:
320,192,32282,128,0,32512:0:0:0:0:
64,192,32282,1,0,0:0:0:0:
320,192,32743,128,0,32974:0:0:0:0:
64,192,32974,1,0,0:0:0:0:
448,192,32974,1,0,0:0:0:0:
320,192,33205,128,0,33436:0:0:0:0:
192,192,33205,1,0,0:0:0:0:
64,192,33436,1,0,0:0:0:0:
448,192,33436,1,0,0:0:0:0:
192,192,33666,128,0,33897:0:0:0:0:
192,192,34128,128,0,34359:0:0:0:0:
448,192,34128,1,0,0:0:0:0:
192,192,34589,128,0,34820:0:0:0:0:
320,192,34820,1,0,0:0:0:0:
448,192,34820,1,0,0:0:0:0:
192,192,35051,128,0,35282:0:0:0:0:
64,192,35051,1,0,0:0:0:0:
320,192,35282,1,0,0:0:0:0:
448,192,35282,1,0,0:0:0:0:
448,192,35512,128,0,35743:0:0:0:0:
64,192,35743,1,0,0:0:0:0:
448,192,35974,128,0,36205:0:0:0:0:
192,192,35974,1,0,0:0:0:0:
320,192,36205,1,0,0:0:0:0:
448,192,36436,128,0,36666:0:0:0:0:
192,192,36666,1,0,0:0:0:0:
64,192,36666,1,0,0:0:0:0:
448,192,36897,128,0,37128:0:0:0:0:
320,192,36897,1,0,0:0:0:0:
192,192,37128,1,0,0:0:0:0:
64,192,37359,128,0,37589:0:0:0:0:
320,192,37359,1,0,0:0:0:0:
64,192,37820,128,0,38051:0:0:0:0:
448,192,37820,1,0,0:0:0:0:
64,192,38282,128,0,38512:0:0:0:0:
192,192,38512,1,0,0:0:0:0:
320,192,38512,1,0,0:0:0:0:
64,192,38743,128,0,38974:0:0:0:0:
448,192,38743,1,0,0:0:0:0:
192,192,38974,1,0,0:0:0:0:
320,192,38974,1,0,0:0:0:0:
320,192,39205,128,0,39436:0:0:0:0:
320,192,39666,128,0,39897:0:0:0:0:
64,192,39666,1,0,0:0:0:0:
320,192,40128,128,0,40359:0:0:0:0:
448,192,40359,1,0,0:0:0:0:
192,192,40359,1,0,0:0:0:0:
320,192,40589,128,0,40820:0:0:0:0:
64,192,40589,1,0,0:0:0:0:
448,192,40820,1,0,0:0:0:0:
192,192,40820,1,0,0:0:0:0:
320,192,41051,1,0,0:0:0:0:
64,192,41051,1,0,0:0:0:0:
448,192,41282,1,0,0:0:0:0:
192,192,41512,1,0,0:0:0:0:
64,192,41512,1,0,0:0:0:0:
320,192,41743,1,0,0:0:0:0:
192,192,41974,1,0,0:0:0:0:
448,192,41974,1,0,0:0:0:0:
64,192,42205,1,0,0:0:0:0:
192,192,42205,1,0,0:0:0:0:
320,192,42436,1,0,0:0:0:0:
448,192,42436,1,0,0:0:0:0:
64,192,42666,1,0,0:0:0:0:
448,192,42666,1,0,0:0:0:0:
320,192,42897,1,0,0:0:0:0:
192,192,42897,1,0,0:0:0:0:
192,192,44051,128,0,44628:0:0:0:0:
320,192,44282,128,0,44628:0:0:0:0:
448,192,44512,128,0,44628:0:0:0:0:
448,192,44743,128,0,44974:0:0:0:0:
192,192,44743,128,0,44859:0:0:0:0:
320,192,44743,128,0,44974:0:0:0:0:
192,192,44974,1,0,0:0:0:0:
64,192,45205,1,0,0:0:0:0:
320,192,45205,128,0,45320:0:0:0:0:
320,192,45436,128,0,45551:0:0:0:0:
192,192,45551,1,0,0:0:0:0:
320,192,45666,128,0,45782:0:0:0:0:
448,192,45666,128,0,45897:0:0:0:0:
64,192,45897,1,0,0:0:0:0:
320,192,46012,1,0,0:0:0:0:
192,192,46128,128,0,46243:0:0:0:0:
64,192,46128,128,0,46359:0:0:0:0:
320,192,46359,128,0,46589:0:0:0:0:
448,192,46474,128,0,46589:0:0:0:0:
192,192,46589,128,0,46705:0:0:0:0:
64,192,46589,128,0,46820:0:0:0:0:
192,192,46820,128,0,46936:0:0:0:0:
448,192,46936,1,0,0:0:0:0:
64,192,47051,1,0,0:0:0:0:
320,192,47051,128,0,47166:0:0:0:0:
320,192,47282,128,0,47397:0:0:0:0:
448,192,47282,128,0,47512:0:0:0:0:
192,192,47512,1,0,0:0:0:0:
64,192,47512,1,0,0:0:0:0:
320,192,47743,128,0,47974:0:0:0:0:
448,192,47743,128,0,47974:0:0:0:0:
192,192,47974,128,0,48089:0:0:0:0:
64,192,47974,128,0,48205:0:0:0:0:
192,192,48205,128,0,48320:0:0:0:0:
64,192,48320,1,0,0:0:0:0:
320,192,48436,128,0,48551:0:0:0:0:
448,192,48436,128,0,48666:0:0:0:0:
320,192,48666,128,0,48782:0:0:0:0:
448,192,48897,1,0,0:0:0:0:
192,192,48897,128,0,49012:0:0:0:0:
192,192,49128,128,0,49243:0:0:0:0:
320,192,49243,1,0,0:0:0:0:
64,192,49359,1,0,0:0:0:0:
192,192,49359,128,0,49474:0:0:0:0:
192,192,49589,128,0,49705:0:0:0:0:
320,192,49705,1,0,0:0:0:0:
448,192,49820,128,0,50051:0:0:0:0:
64,192,49820,128,0,50051:0:0:0:0:
320,192,50051,128,0,50282:0:0:0:0:
192,192,50051,128,0,50166:0:0:0:0:
192,192,50282,128,0,50397:0:0:0:0:
64,192,50282,128,0,50512:0:0:0:0:
192,192,50512,128,0,50628:0:0:0:0:
448,192,50628,1,0,0:0:0:0:
64,192,50743,1,0,0:0:0:0:
320,192,50743,128,0,50859:0:0:0:0:
320,192,50974,128,0,51089:0:0:0:0:
448,192,50974,128,0,51205:0:0:0:0:
192,192,51205,1,0,0:0:0:0:
64,192,51205,1,0,0:0:0:0:
64,192,51436,1,0,0:0:0:0:
192,192,51436,128,0,52012:0:0:0:0:
64,192,51666,128,0,52012:0:0:0:0:
448,192,51666,128,0,52012:0:0:0:0:
320,192,51897,128,0,52012:0:0:0:0:
64,192,52128,1,0,0:0:0:0:
448,192,52128,128,0,52243:0:0:0:0:
320,192,52128,128,0,52474:0:0:0:0:
448,192,52359,128,0,52474:0:0:0:0:
192,192,52589,128,0,52936:0:0:0:0:
448,192,52589,1,0,0:0:0:0:
320,192,52820,128,0,53051:0:0:0:0:
64,192,53051,128,0,53397:0:0:0:0:
192,192,53051,128,0,53166:0:0:0:0:
192,192,53282,128,0,53397:0:0:0:0:
64,192,53512,1,0,0:0:0:0:
320,192,53512,128,0,53628:0:0:0:0:
320,192,53743,128,0,53859:0:0:0:0:
320,192,53974,128,0,54320:0:0:0:0:
448,192,53974,128,0,54089:0:0:0:0:
448,192,54205,128,0,54320:0:0:0:0:
192,192,54436,128,0,54782:0:0:0:0:
448,192,54436,1,0,0:0:0:0:
320,192,54666,128,0,54897:0:0:0:0:
64,192,54897,128,0,55243:0:0:0:0:
192,192,54897,128,0,55012:0:0:0:0:
192,192,55128,128,0,55243:0:0:0:0:
64,192,55359,1,0,0:0:0:0:
320,192,55359,128,0,55705:0:0:0:0:
192,192,55589,128,0,55820:0:0:0:0:
448,192,55820,128,0,55936:0:0:0:0:
320,192,55820,128,0,56166:0:0:0:0:
448,192,56051,128,0,56166:0:0:0:0:
192,192,56282,128,0,56628:0:0:0:0:
448,192,56282,1,0,0:0:0:0:
320,192,56512,128,0,56743:0:0:0:0:
192,192,56743,128,0,56859:0:0:0:0:
64,192,56743,128,0,56974:0:0:0:0:
192,192,56974,128,0,57205:0:0:0:0:
320,192,57089,128,0,57205:0:0:0:0:
64,192,57205,128,0,57551:0:0:0:0:
448,192,57205,128,0,57551:0:0:0:0:
192,192,57436,128,0,57666:0:0:0:0:
320,192,57436,128,0,57666:0:0:0:0:
64,192,57666,1,0,0:0:0:0:
448,192,57666,1,0,0:0:0:0:
192,192,57897,128,0,58128:0:0:0:0:
320,192,58012,128,0,58128:0:0:0:0:
64,192,58128,1,0,0:0:0:0:
448,192,58128,1,0,0:0:0:0:
448,192,58359,128,0,58589:0:0:0:0:
320,192,58474,128,0,58589:0:0:0:0:
192,192,58589,1,0,0:0:0:0:
64,192,58589,1,0,0:0:0:0:
64,192,58820,1,0,0:0:0:0:
192,192,58820,128,0,59166:0:0:0:0:
64,192,59051,128,0,59282:0:0:0:0:
448,192,59051,128,0,59166:0:0:0:0:
320,192,59166,128,0,59282:0:0:0:0:
192,192,59282,128,0,59397:0:0:0:0:
64,192,59397,128,0,59512:0:0:0:0:
448,192,59512,128,0,59743:0:0:0:0:
192,192,59512,1,0,0:0:0:0:
320,192,59512,128,0,59628:0:0:0:0:
320,192,59743,1,0,0:0:0:0:
192,192,59974,1,0,0:0:0:0:
448,192,59974,1,0,0:0:0:0:
64,192,60205,128,0,60436:0:0:0:0:
192,192,60205,128,0,60320:0:0:0:0:
320,192,60436,1,0,0:0:0:0:
448,192,60436,128,0,60551:0:0:0:0:
64,192,60666,128,0,60897:0:0:0:0:
192,192,60666,128,0,60782:0:0:0:0:
192,192,60897,1,0,0:0:0:0:
448,192,60897,128,0,61012:0:0:0:0:
64,192,61128,128,0,61243:0:0:0:0:
320,192,61128,128,0,61359:0:0:0:0:
448,192,61128,128,0,61359:0:0:0:0:
192,192,61359,1,0,0:0:0:0:
64,192,61359,1,0,0:0:0:0:
192,192,61589,1,0,0:0:0:0:
448,192,61705,1,0,0:0:0:0:
64,192,61820,128,0,62051:0:0:0:0:
320,192,61820,128,0,61936:0:0:0:0:
320,192,62051,128,0,62166:0:0:0:0:
448,192,62051,128,0,62282:0:0:0:0:
192,192,62282,128,0,62512:0:0:0:0:
64,192,62282,1,0,0:0:0:0:
320,192,62512,128,0,62628:0:0:0:0:
448,192,62512,128,0,62743:0:0:0:0:
64,192,62743,1,0,0:0:0:0:
320,192,62743,128,0,62974:0:0:0:0:
448,192,62974,128,0,63089:0:0:0:0:
192,192,62974,128,0,63205:0:0:0:0:
64,192,62974,128,0,63205:0:0:0:0:
320,192,63205,1,0,0:0:0:0:
448,192,63205,1,0,0:0:0:0:
192,192,63320,1,0,0:0:0:0:
320,192,63436,1,0,0:0:0:0:
320,192,63551,1,0,0:0:0:0:
64,192,63666,1,0,0:0:0:0:
192,192,63666,1,0,0:0:0:0:
192,192,63782,1,0,0:0:0:0:
448,192,63897,128,0,64128:0:0:0:0:
320,192,64012,128,0,64128:0:0:0:0:
192,192,64128,1,0,0:0:0:0:
64,192,64128,1,0,0:0:0:0:
320,192,64359,128,0,64589:0:0:0:0:
192,192,64474,128,0,64589:0:0:0:0:
64,192,64589,1,0,0:0:0:0:
448,192,64589,1,0,0:0:0:0:
192,192,64820,128,0,65166:0:0:0:0:
320,192,65051,128,0,65282:0:0:0:0:
448,192,65051,128,0,65166:0:0:0:0:
192,192,65282,128,0,65397:0:0:0:0:
192,192,65512,128,0,65628:0:0:0:0:
448,192,65512,1,0,0:0:0:0:
320,192,65743,128,0,65859:0:0:0:0:
448,192,65743,128,0,65974:0:0:0:0:
192,192,65974,1,0,0:0:0:0:
64,192,65974,1,0,0:0:0:0:
64,192,66205,1,0,0:0:0:0:
192,192,66205,128,0,66666:0:0:0:0:
64,192,66436,128,0,66666:0:0:0:0:
448,192,66436,128,0,66666:0:0:0:0:
320,192,66666,128,0,66782:0:0:0:0:
320,192,66897,128,0,67243:0:0:0:0:
448,192,66897,128,0,67012:0:0:0:0:
448,192,67128,128,0,67243:0:0:0:0:
448,192,67359,1,0,0:0:0:0:
192,192,67359,128,0,67705:0:0:0:0:
320,192,67589,128,0,67820:0:0:0:0:
192,192,67820,128,0,67936:0:0:0:0:
64,192,67820,128,0,68166:0:0:0:0:
192,192,68051,128,0,68166:0:0:0:0:
320,192,68282,128,0,68397:0:0:0:0:
64,192,68282,1,0,0:0:0:0:
320,192,68512,128,0,68628:0:0:0:0:
448,192,68743,128,0,68859:0:0:0:0:
320,192,68743,128,0,69089:0:0:0:0:
448,192,68974,128,0,69089:0:0:0:0:
448,192,69205,1,0,0:0:0:0:
192,192,69205,128,0,69551:0:0:0:0:
320,192,69436,128,0,69666:0:0:0:0:
192,192,69666,128,0,69782:0:0:0:0:
64,192,69666,128,0,70012:0:0:0:0:
192,192,69897,128,0,70012:0:0:0:0:
320,192,70128,128,0,70474:0:0:0:0:
64,192,70128,1,0,0:0:0:0:
192,192,70359,128,0,70589:0:0:0:0:
320,192,70589,128,0,70936:0:0:0:0:
448,192,70589,128,0,70705:0:0:0:0:
448,192,70820,128,0,70936:0:0:0:0:
448,192,71051,1,0,0:0:0:0:
192,192,71051,128,0,71397:0:0:0:0:
320,192,71282,128,0,71512:0:0:0:0:
64,192,71512,128,0,71743:0:0:0:0:
192,192,71512,128,0,71628:0:0:0:0:
192,192,71743,128,0,71974:0:0:0:0:
320,192,71859,128,0,71974:0:0:0:0:
448,192,71974,128,0,72320:0:0:0:0:
64,192,71974,128,0,72320:0:0:0:0:
320,192,72205,128,0,72782:0:0:0:0:
192,192,72205,128,0,73243:0:0:0:0:
448,192,72436,128,0,72666:0:0:0:0:
64,192,72436,128,0,73128:0:0:0:0:
320,192,73589,1,0,0:0:0:0:
320,192,73705,1,0,0:0:0:0:
448,192,73820,1,0,0:0:0:0:
64,192,73820,1,0,0:0:0:0:
192,192,74051,1,0,0:0:0:0:
64,192,74051,1,0,0:0:0:0:
64,192,74282,128,0,74512:0:0:0:0:
192,192,74282,1,0,0:0:0:0:
448,192,74282,1,0,0:0:0:0:
320,192,74512,128,0,74628:0:0:0:0:
448,192,74743,128,0,75205:0:0:0:0:
192,192,74743,1,0,0:0:0:0:
320,192,74974,128,0,75205:0:0:0:0:
64,192,75205,128,0,75436:0:0:0:0:
448,192,75436,1,0,0:0:0:0:
192,192,75436,1,0,0:0:0:0:
320,192,75666,128,0,75897:0:0:0:0:
64,192,75666,1,0,0:0:0:0:
192,192,75897,128,0,76128:0:0:0:0:
448,192,75897,1,0,0:0:0:0:
320,192,76128,128,0,76359:0:0:0:0:
64,192,76359,128,0,76589:0:0:0:0:
448,192,76589,128,0,77051:0:0:0:0:
320,192,76589,1,0,0:0:0:0:
192,192,76820,128,0,77051:0:0:0:0:
320,192,77051,1,0,0:0:0:0:
448,192,77282,128,0,77397:0:0:0:0:
64,192,77282,128,0,77397:0:0:0:0:
192,192,77512,128,0,77628:0:0:0:0:
64,192,77512,128,0,77628:0:0:0:0:
320,192,77743,128,0,77974:0:0:0:0:
448,192,77743,128,0,77974:0:0:0:0:
192,192,77974,1,0,0:0:0:0:
64,192,77974,128,0,78205:0:0:0:0:
320,192,78205,128,0,78436:0:0:0:0:
192,192,78436,128,0,78551:0:0:0:0:
448,192,78436,128,0,78551:0:0:0:0:
448,192,78666,128,0,78782:0:0:0:0:
192,192,78666,128,0,78782:0:0:0:0:
64,192,78897,128,0,79012:0:0:0:0:
320,192,78897,128,0,79128:0:0:0:0:
448,192,79128,1,0,0:0:0:0:
64,192,79128,128,0,79243:0:0:0:0:
448,192,79359,1,0,0:0:0:0:
320,192,79359,128,0,79589:0:0:0:0:
64,192,79589,128,0,79820:0:0:0:0:
192,192,79589,1,0,0:0:0:0:
448,192,79820,128,0,80051:0:0:0:0:
192,192,80051,128,0,80282:0:0:0:0:
448,192,80282,128,0,80397:0:0:0:0:
64,192,80282,128,0,80397:0:0:0:0:
64,192,80512,128,0,80628:0:0:0:0:
192,192,80512,128,0,80628:0:0:0:0:
320,192,80743,1,0,0:0:0:0:
448,192,80974,128,0,81089:0:0:0:0:
320,192,80974,128,0,81089:0:0:0:0:
320,192,81205,128,0,81320:0:0:0:0:
64,192,81205,128,0,81320:0:0:0:0:
448,192,81436,128,0,81897:0:0:0:0:
64,192,81436,128,0,81551:0:0:0:0:
320,192,81666,128,0,81897:0:0:0:0:
192,192,81897,1,0,0:0:0:0:
64,192,82128,128,0,82359:0:0:0:0:
192,192,82128,128,0,82359:0:0:0:0:
320,192,82589,128,0,82820:0:0:0:0:
64,192,82589,128,0,82820:0:0:0:0:
448,192,82820,1,0,0:0:0:0:
192,192,82820,1,0,0:0:0:0:
448,192,83051,128,0,83282:0:0:0:0:
192,192,83051,128,0,83512:0:0:0:0:
320,192,83282,1,0,0:0:0:0:
64,192,83282,128,0,83512:0:0:0:0:
448,192,83512,128,0,83743:0:0:0:0:
192,192,83743,128,0,83974:0:0:0:0:
320,192,83974,128,0,84436:0:0:0:0:
64,192,83974,1,0,0:0:0:0:
192,192,84205,128,0,84436:0:0:0:0:
448,192,84436,1,0,0:0:0:0:
320,192,84666,128,0,84897:0:0:0:0:
192,192,84666,1,0,0:0:0:0:
448,192,84897,1,0,0:0:0:0:
64,192,84897,128,0,85128:0:0:0:0:
448,192,85128,128,0,85359:0:0:0:0:
192,192,85128,1,0,0:0:0:0:
320,192,85359,128,0,85589:0:0:0:0:
64,192,85589,128,0,85820:0:0:0:0:
320,192,85820,128,0,86051:0:0:0:0:
448,192,85820,1,0,0:0:0:0:
192,192,86051,128,0,86282:0:0:0:0:
448,192,86282,128,0,86743:0:0:0:0:
320,192,86512,128,0,86743:0:0:0:0:
64,192,86512,1,0,0:0:0:0:
64,192,86743,128,0,86974:0:0:0:0:
192,192,86743,1,0,0:0:0:0:
448,192,86974,128,0,87436:0:0:0:0:
320,192,86974,128,0,87205:0:0:0:0:
192,192,87205,1,0,0:0:0:0:
64,192,87436,1,0,0:0:0:0:
320,192,87666,1,0,0:0:0:0:
448,192,87666,1,0,0:0:0:0:
64,192,87897,128,0,88359:0:0:0:0:
448,192,87897,128,0,88128:0:0:0:0:
192,192,88128,1,0,0:0:0:0:
448,192,88359,128,0,88474:0:0:0:0:
320,192,88359,128,0,88474:0:0:0:0:
192,192,88589,128,0,88705:0:0:0:0:
448,192,88589,128,0,88705:0:0:0:0:
192,192,88820,128,0,88936:0:0:0:0:
64,192,88820,128,0,88936:0:0:0:0:
64,192,89051,128,0,89282:0:0:0:0:
192,192,89051,1,0,0:0:0:0:
448,192,89051,128,0,89166:0:0:0:0:
320,192,89512,1,0,0:0:0:0:
64,192,89512,128,0,89743:0:0:0:0:
64,192,89974,128,0,90205:0:0:0:0:
320,192,90205,1,0,0:0:0:0:
192,192,90205,1,0,0:0:0:0:
64,192,90436,128,0,90666:0:0:0:0:
448,192,90436,1,0,0:0:0:0:
320,192,90666,1,0,0:0:0:0:
192,192,90666,1,0,0:0:0:0:
320,192,90897,128,0,91128:0:0:0:0:
64,192,91359,1,0,0:0:0:0:
320,192,91359,128,0,91589:0:0:0:0:
320,192,91820,128,0,92051:0:0:0:0:
448,192,92051,1,0,0:0:0:0:
64,192,92051,1,0,0:0:0:0:
192,192,92282,1,0,0:0:0:0:
320,192,92282,128,0,92512:0:0:0:0:
448,192,92512,1,0,0:0:0:0:
64,192,92512,1,0,0:0:0:0:
192,192,92743,128,0,92974:0:0:0:0:
448,192,93205,1,0,0:0:0:0:
192,192,93205,128,0,93436:0:0:0:0:
192,192,93666,128,0,93897:0:0:0:0:
448,192,93897,1,0,0:0:0:0:
320,192,93897,1,0,0:0:0:0:
64,192,94128,1,0,0:0:0:0:
192,192,94128,128,0,94359:0:0:0:0:
448,192,94359,1,0,0:0:0:0:
320,192,94359,1,0,0:0:0:0:
448,192,94589,128,0,94820:0:0:0:0:
64,192,94820,1,0,0:0:0:0:
192,192,95051,1,0,0:0:0:0:
448,192,95051,128,0,95282:0:0:0:0:
320,192,95282,1,0,0:0:0:0:
64,192,95282,1,0,0:0:0:0:
448,192,95512,128,0,95743:0:0:0:0:
64,192,95743,1,0,0:0:0:0:
192,192,95743,1,0,0:0:0:0:
320,192,95974,1,0,0:0:0:0:
448,192,95974,128,0,96205:0:0:0:0:
192,192,96205,1,0,0:0:0:0:
320,192,96436,1,0,0:0:0:0:
64,192,96436,128,0,96666:0:0:0:0:
448,192,96897,1,0,0:0:0:0:
64,192,96897,128,0,97128:0:0:0:0:
64,192,97359,128,0,97589:0:0:0:0:
320,192,97589,1,0,0:0:0:0:
192,192,97589,1,0,0:0:0:0:
448,192,97820,1,0,0:0:0:0:
64,192,97820,128,0,98051:0:0:0:0:
320,192,98051,1,0,0:0:0:0:
192,192,98051,1,0,0:0:0:0:
320,192,98282,128,0,98512:0:0:0:0:
64,192,98743,1,0,0:0:0:0:
320,192,98743,128,0,98974:0:0:0:0:
320,192,99205,128,0,99436:0:0:0:0:
192,192,99436,1,0,0:0:0:0:
448,192,99436,1,0,0:0:0:0:
64,192,99666,1,0,0:0:0:0:
320,192,99666,128,0,99897:0:0:0:0:
192,192,99897,1,0,0:0:0:0:
448,192,99897,1,0,0:0:0:0:
64,192,100128,1,0,0:0:0:0:
320,192,100128,1,0,0:0:0:0:
448,192,100359,1,0,0:0:0:0:
64,192,100589,1,0,0:0:0:0:
192,192,100589,1,0,0:0:0:0:
320,192,100820,1,0,0:0:0:0:
448,192,101051,1,0,0:0:0:0:
192,192,101051,1,0,0:0:0:0:
192,192,101282,1,0,0:0:0:0:
64,192,101282,1,0,0:0:0:0:
448,192,101512,1,0,0:0:0:0:
320,192,101512,1,0,0:0:0:0:
448,192,101743,1,0,0:0:0:0:
64,192,101743,1,0,0:0:0:0:
192,192,101974,5,0,0:0:0:0:
320,192,101974,1,0,0:0:0:0:
192,192,103128,128,0,103705:0:0:0:0:
320,192,103359,128,0,103705:0:0:0:0:
448,192,103589,128,0,103705:0:0:0:0:
448,192,103820,128,0,104051:0:0:0:0:
320,192,103820,128,0,104051:0:0:0:0:
192,192,103820,1,0,0:0:0:0:
64,192,104051,1,0,0:0:0:0:
192,192,104166,1,0,0:0:0:0:
320,192,104282,128,0,104397:0:0:0:0:
448,192,104282,128,0,104397:0:0:0:0:
448,192,104512,128,0,104628:0:0:0:0:
64,192,104512,128,0,104628:0:0:0:0:
192,192,104743,128,0,104859:0:0:0:0:
64,192,104743,128,0,104974:0:0:0:0:
320,192,104974,128,0,105205:0:0:0:0:
448,192,105089,1,0,0:0:0:0:
192,192,105205,128,0,105320:0:0:0:0:
64,192,105205,128,0,105551:0:0:0:0:
320,192,105436,128,0,105666:0:0:0:0:
192,192,105551,128,0,105666:0:0:0:0:
64,192,105666,128,0,105782:0:0:0:0:
448,192,105666,128,0,106012:0:0:0:0:
192,192,105897,128,0,106012:0:0:0:0:
320,192,106012,128,0,106128:0:0:0:0:
192,192,106128,128,0,106243:0:0:0:0:
64,192,106128,128,0,106243:0:0:0:0:
448,192,106359,128,0,106589:0:0:0:0:
64,192,106359,128,0,106589:0:0:0:0:
320,192,106589,1,0,0:0:0:0:
192,192,106589,1,0,0:0:0:0:
192,192,106820,128,0,106936:0:0:0:0:
64,192,106820,128,0,106936:0:0:0:0:
192,192,107051,128,0,107166:0:0:0:0:
448,192,107051,128,0,107166:0:0:0:0:
320,192,107282,128,0,107397:0:0:0:0:
448,192,107282,128,0,107397:0:0:0:0:
192,192,107397,1,0,0:0:0:0:
448,192,107512,1,0,0:0:0:0:
64,192,107512,128,0,107743:0:0:0:0:
192,192,107628,128,0,107859:0:0:0:0:
320,192,107743,128,0,107859:0:0:0:0:
448,192,107743,128,0,107859:0:0:0:0:
448,192,107974,128,0,108089:0:0:0:0:
64,192,107974,128,0,108089:0:0:0:0:
64,192,108205,128,0,108320:0:0:0:0:
448,192,108205,128,0,108320:0:0:0:0:
64,192,108436,128,0,108551:0:0:0:0:
192,192,108436,128,0,108551:0:0:0:0:
448,192,108666,128,0,108782:0:0:0:0:
320,192,108666,128,0,108782:0:0:0:0:
64,192,108897,128,0,109012:0:0:0:0:
192,192,108897,128,0,109243:0:0:0:0:
448,192,109128,128,0,109359:0:0:0:0:
320,192,109243,128,0,109359:0:0:0:0:
64,192,109359,128,0,109705:0:0:0:0:
192,192,109359,128,0,109474:0:0:0:0:
320,192,109589,128,0,109705:0:0:0:0:
192,192,109705,128,0,109820:0:0:0:0:
448,192,109820,128,0,109936:0:0:0:0:
320,192,109820,128,0,109936:0:0:0:0:
448,192,110051,128,0,110282:0:0:0:0:
64,192,110051,128,0,110282:0:0:0:0:
192,192,110282,1,0,0:0:0:0:
320,192,110282,1,0,0:0:0:0:
64,192,110512,128,0,110628:0:0:0:0:
448,192,110512,128,0,110628:0:0:0:0:
448,192,110743,128,0,110859:0:0:0:0:
192,192,110743,128,0,110859:0:0:0:0:
192,192,110974,128,0,111089:0:0:0:0:
64,192,110974,128,0,111089:0:0:0:0:
320,192,111205,128,0,111320:0:0:0:0:
448,192,111205,128,0,111551:0:0:0:0:
64,192,111436,128,0,111551:0:0:0:0:
192,192,111436,128,0,111666:0:0:0:0:
448,192,111666,128,0,111782:0:0:0:0:
320,192,111666,128,0,111782:0:0:0:0:
320,192,111897,128,0,112012:0:0:0:0:
64,192,111897,128,0,112012:0:0:0:0:
64,192,112128,128,0,112243:0:0:0:0:
192,192,112128,128,0,112474:0:0:0:0:
320,192,112359,128,0,112474:0:0:0:0:
448,192,112359,128,0,112705:0:0:0:0:
192,192,112589,128,0,112705:0:0:0:0:
64,192,112589,128,0,112705:0:0:0:0:
192,192,112820,128,0,112936:0:0:0:0:
64,192,112820,128,0,112936:0:0:0:0:
320,192,113051,128,0,113397:0:0:0:0:
448,192,113051,128,0,113166:0:0:0:0:
192,192,113282,128,0,113397:0:0:0:0:
64,192,113282,128,0,113512:0:0:0:0:
320,192,113512,128,0,113628:0:0:0:0:
448,192,113512,128,0,113628:0:0:0:0:
320,192,113743,128,0,113859:0:0:0:0:
192,192,113743,128,0,113859:0:0:0:0:
192,192,113974,128,0,114089:0:0:0:0:
64,192,113974,128,0,114320:0:0:0:0:
448,192,114205,128,0,114320:0:0:0:0:
320,192,114205,128,0,114551:0:0:0:0:
192,192,114436,128,0,114551:0:0:0:0:
64,192,114436,128,0,114551:0:0:0:0:
320,192,114666,128,0,114782:0:0:0:0:
448,192,114666,128,0,114782:0:0:0:0:
192,192,114897,128,0,115243:0:0:0:0:
64,192,114897,128,0,115012:0:0:0:0:
320,192,115128,128,0,115243:0:0:0:0:
448,192,115128,128,0,115359:0:0:0:0:
64,192,115359,128,0,115589:0:0:0:0:
192,192,115359,128,0,115474:0:0:0:0:
320,192,115589,128,0,115820:0:0:0:0:
192,192,115705,1,0,0:0:0:0:
448,192,115820,128,0,115936:0:0:0:0:
64,192,115820,128,0,115936:0:0:0:0:
64,192,116051,128,0,116282:0:0:0:0:
192,192,116166,128,0,116282:0:0:0:0:
448,192,116282,128,0,116397:0:0:0:0:
320,192,116282,1,0,0:0:0:0:
448,192,116512,128,0,116743:0:0:0:0:
64,192,116512,128,0,116743:0:0:0:0:
320,192,116743,1,0,0:0:0:0:
192,192,116743,1,0,0:0:0:0:
320,192,116974,128,0,117205:0:0:0:0:
192,192,116974,128,0,117205:0:0:0:0:
448,192,117205,1,0,0:0:0:0:
64,192,117205,1,0,0:0:0:0:
320,192,117436,128,0,117666:0:0:0:0:
192,192,117436,128,0,117666:0:0:0:0:
448,192,117666,1,0,0:0:0:0:
64,192,117666,1,0,0:0:0:0:
192,192,117897,128,0,118012:0:0:0:0:
320,192,117897,128,0,118012:0:0:0:0:
64,192,118128,128,0,118359:0:0:0:0:
448,192,118128,1,0,0:0:0:0:
192,192,118243,128,0,118474:0:0:0:0:
320,192,118359,128,0,118589:0:0:0:0:
448,192,118474,128,0,118705:0:0:0:0:
64,192,118589,128,0,118705:0:0:0:0:
192,192,118589,128,0,118820:0:0:0:0:
320,192,118820,1,0,0:0:0:0:
448,192,118936,1,0,0:0:0:0:
192,192,119051,1,0,0:0:0:0:
64,192,119051,1,0,0:0:0:0:
320,192,119282,128,0,119397:0:0:0:0:
448,192,119282,128,0,119397:0:0:0:0:
64,192,119397,1,0,0:0:0:0:
192,192,119512,1,0,0:0:0:0:
320,192,119512,1,0,0:0:0:0:
448,192,119743,128,0,119859:0:0:0:0:
320,192,119743,128,0,119859:0:0:0:0:
192,192,119859,1,0,0:0:0:0:
64,192,119974,1,0,0:0:0:0:
448,192,119974,1,0,0:0:0:0:
64,192,120205,128,0,120436:0:0:0:0:
192,192,120205,128,0,120320:0:0:0:0:
320,192,120436,1,0,0:0:0:0:
448,192,120436,1,0,0:0:0:0:
192,192,120666,1,0,0:0:0:0:
320,192,120782,1,0,0:0:0:0:
192,192,120897,128,0,121012:0:0:0:0:
64,192,120897,128,0,121012:0:0:0:0:
64,192,121128,128,0,121359:0:0:0:0:
192,192,121128,128,0,121243:0:0:0:0:
320,192,121359,128,0,121589:0:0:0:0:
448,192,121359,1,0,0:0:0:0:
192,192,121589,128,0,121705:0:0:0:0:
64,192,121589,128,0,121705:0:0:0:0:
448,192,121820,128,0,122051:0:0:0:0:
64,192,121820,1,0,0:0:0:0:
320,192,122051,128,0,122166:0:0:0:0:
192,192,122051,128,0,122282:0:0:0:0:
64,192,122282,1,0,0:0:0:0:
448,192,122282,1,0,0:0:0:0:
320,192,122397,1,0,0:0:0:0:
64,192,122512,1,0,0:0:0:0:
64,192,122628,1,0,0:0:0:0:
320,192,122743,1,0,0:0:0:0:
448,192,122743,1,0,0:0:0:0:
448,192,122859,1,0,0:0:0:0:
64,192,122974,128,0,123089:0:0:0:0:
192,192,122974,128,0,123089:0:0:0:0:
320,192,123089,1,0,0:0:0:0:
448,192,123205,1,0,0:0:0:0:
64,192,123205,1,0,0:0:0:0:
320,192,123436,128,0,123551:0:0:0:0:
448,192,123436,128,0,123551:0:0:0:0:
64,192,123551,1,0,0:0:0:0:
320,192,123666,1,0,0:0:0:0:
192,192,123666,1,0,0:0:0:0:
64,192,123897,128,0,124128:0:0:0:0:
192,192,124012,128,0,124243:0:0:0:0:
448,192,124128,128,0,124359:0:0:0:0:
320,192,124128,128,0,124359:0:0:0:0:
192,192,124359,128,0,124474:0:0:0:0:
64,192,124359,128,0,124474:0:0:0:0:
192,192,124589,128,0,124705:0:0:0:0:
64,192,124589,128,0,124705:0:0:0:0:
320,192,124820,128,0,125051:0:0:0:0:
448,192,124820,128,0,125051:0:0:0:0:
192,192,125051,1,0,0:0:0:0:
64,192,125051,1,0,0:0:0:0:
192,192,125282,128,0,125397:0:0:0:0:
320,192,125282,128,0,125397:0:0:0:0:
64,192,125512,128,0,125628:0:0:0:0:
448,192,125512,128,0,125628:0:0:0:0:
448,192,125743,128,0,125859:0:0:0:0:
320,192,125743,128,0,125859:0:0:0:0:
192,192,125974,128,0,126089:0:0:0:0:
64,192,125974,128,0,126320:0:0:0:0:
320,192,126205,128,0,126436:0:0:0:0:
448,192,126205,128,0,126320:0:0:0:0:
64,192,126436,128,0,126551:0:0:0:0:
192,192,126436,128,0,126551:0:0:0:0:
192,192,126666,128,0,126782:0:0:0:0:
448,192,126666,128,0,126782:0:0:0:0:
448,192,126897,128,0,127012:0:0:0:0:
320,192,126897,128,0,127243:0:0:0:0:
192,192,127128,128,0,127243:0:0:0:0:
64,192,127128,128,0,127474:0:0:0:0:
320,192,127359,128,0,127474:0:0:0:0:
448,192,127359,128,0,127474:0:0:0:0:
192,192,127474,1,0,0:0:0:0:
64,192,127589,128,0,127705:0:0:0:0:
448,192,127589,128,0,127705:0:0:0:0:
192,192,127820,128,0,128166:0:0:0:0:
64,192,127820,128,0,127936:0:0:0:0:
448,192,128051,128,0,128282:0:0:0:0:
320,192,128051,128,0,128166:0:0:0:0:
192,192,128282,128,0,128397:0:0:0:0:
64,192,128282,128,0,128397:0:0:0:0:
192,192,128512,128,0,128628:0:0:0:0:
320,192,128512,128,0,128628:0:0:0:0:
320,192,128743,128,0,128859:0:0:0:0:
448,192,128743,128,0,129089:0:0:0:0:
64,192,128974,128,0,129089:0:0:0:0:
192,192,128974,128,0,129320:0:0:0:0:
320,192,129205,128,0,129320:0:0:0:0:
448,192,129205,128,0,129320:0:0:0:0:
192,192,129436,128,0,129551:0:0:0:0:
64,192,129436,128,0,129551:0:0:0:0:
320,192,129666,128,0,130012:0:0:0:0:
448,192,129666,128,0,129782:0:0:0:0:
64,192,129897,128,0,130128:0:0:0:0:
192,192,129897,128,0,130012:0:0:0:0:
448,192,130128,128,0,130359:0:0:0:0:
320,192,130128,128,0,130243:0:0:0:0:
192,192,130359,128,0,130589:0:0:0:0:
320,192,130474,1,0,0:0:0:0:
64,192,130589,128,0,130705:0:0:0:0:
448,192,130589,128,0,130705:0:0:0:0:
448,192,130820,128,0,131051:0:0:0:0:
320,192,130936,128,0,131051:0:0:0:0:
64,192,131051,128,0,131166:0:0:0:0:
192,192,131051,1,0,0:0:0:0:
64,192,131282,128,0,131512:0:0:0:0:
448,192,131282,128,0,131512:0:0:0:0:
192,192,131512,1,0,0:0:0:0:
320,192,131512,1,0,0:0:0:0:
320,192,133128,5,0,0:0:0:0:
192,192,133359,128,0,133589:0:0:0:0:
448,192,133359,1,0,0:0:0:0:
192,192,133820,128,0,134051:0:0:0:0:
192,192,134282,128,0,134512:0:0:0:0:
192,192,134743,128,0,134974:0:0:0:0:
448,192,134974,1,0,0:0:0:0:
64,192,135205,128,0,135436:0:0:0:0:
320,192,135205,1,0,0:0:0:0:
64,192,135666,128,0,135897:0:0:0:0:
64,192,136128,128,0,136359:0:0:0:0:
64,192,136589,128,0,136820:0:0:0:0:
192,192,136820,1,0,0:0:0:0:
320,192,137051,128,0,137282:0:0:0:0:
448,192,137051,1,0,0:0:0:0:
320,192,137512,128,0,137743:0:0:0:0:
320,192,137974,128,0,138205:0:0:0:0:
320,192,138436,128,0,138666:0:0:0:0:
192,192,138666,1,0,0:0:0:0:
448,192,138897,128,0,139128:0:0:0:0:
64,192,138897,1,0,0:0:0:0:
448,192,139359,128,0,139589:0:0:0:0:
448,192,139820,128,0,140051:0:0:0:0:
448,192,140282,128,0,140512:0:0:0:0:
64,192,140512,1,0,0:0:0:0:
192,192,140743,128,0,140974:0:0:0:0:
320,192,140743,1,0,0:0:0:0:
192,192,141205,128,0,141436:0:0:0:0:
192,192,141666,128,0,141897:0:0:0:0:
192,192,142128,128,0,142359:0:0:0:0:
448,192,142359,1,0,0:0:0:0:
64,192,142589,128,0,142820:0:0:0:0:
320,192,142589,1,0,0:0:0:0:
64,192,143051,128,0,143282:0:0:0:0:
64,192,143512,128,0,143743:0:0:0:0:
64,192,143974,128,0,144205:0:0:0:0:
192,192,144205,1,0,0:0:0:0:
448,192,144436,128,0,144897:0:0:0:0:
320,192,144436,1,0,0:0:0:0:
64,192,144897,1,0,0:0:0:0:
192,192,145128,128,0,145589:0:0:0:0:
448,192,145359,1,0,0:0:0:0:
320,192,145820,1,0,0:0:0:0:
64,192,146051,128,0,146397:0:0:0:0:
192,192,146282,1,0,0:0:0:0:
448,192,146282,1,0,0:0:0:0:
64,192,146512,128,0,146628:0:0:0:0:
64,192,146743,128,0,146859:0:0:0:0:
320,192,146974,128,0,147089:0:0:0:0:
320,192,147205,128,0,147320:0:0:0:0:
192,192,147436,128,0,147551:0:0:0:0:
192,192,147666,128,0,147782:0:0:0:0:
448,192,147897,128,0,148012:0:0:0:0:
448,192,148128,1,0,0:0:0:0:
448,192,148243,1,0,0:0:0:0:
192,192,148359,1,0,0:0:0:0:
192,192,148474,1,0,0:0:0:0:
320,192,148589,1,0,0:0:0:0:
320,192,148705,1,0,0:0:0:0:
64,192,148820,1,0,0:0:0:0:
64,192,148936,1,0,0:0:0:0:
448,192,149051,1,0,0:0:0:0:
192,192,149282,128,0,149859:0:0:0:0:
320,192,149512,128,0,149859:0:0:0:0:
448,192,149743,128,0,149859:0:0:0:0:
320,192,149974,128,0,150205:0:0:0:0:
192,192,149974,128,0,150089:0:0:0:0:
448,192,149974,128,0,150320:0:0:0:0:
192,192,150205,1,0,0:0:0:0:
320,192,150436,128,0,150551:0:0:0:0:
64,192,150436,1,0,0:0:0:0:
320,192,150666,128,0,150782:0:0:0:0:
448,192,150897,128,0,151128:0:0:0:0:
320,192,150897,128,0,151012:0:0:0:0:
192,192,151128,1,0,0:0:0:0:
320,192,151243,1,0,0:0:0:0:
64,192,151359,128,0,151589:0:0:0:0:
192,192,151359,128,0,151474:0:0:0:0:
320,192,151589,128,0,152051:0:0:0:0:
448,192,151705,128,0,151820:0:0:0:0:
64,192,151820,128,0,152051:0:0:0:0:
192,192,151820,128,0,151936:0:0:0:0:
192,192,152051,128,0,152512:0:0:0:0:
320,192,152166,128,0,152282:0:0:0:0:
64,192,152282,128,0,152512:0:0:0:0:
448,192,152282,128,0,152397:0:0:0:0:
448,192,152512,128,0,152743:0:0:0:0:
320,192,152512,128,0,152628:0:0:0:0:
64,192,152743,1,0,0:0:0:0:
192,192,152743,1,0,0:0:0:0:
448,192,152974,128,0,153205:0:0:0:0:
320,192,152974,128,0,153436:0:0:0:0:
64,192,153205,128,0,153436:0:0:0:0:
192,192,153205,128,0,153320:0:0:0:0:
192,192,153436,128,0,153897:0:0:0:0:
448,192,153666,128,0,153897:0:0:0:0:
320,192,153666,128,0,153782:0:0:0:0:
320,192,153897,128,0,154128:0:0:0:0:
192,192,154128,128,0,154243:0:0:0:0:
448,192,154128,1,0,0:0:0:0:
192,192,154359,128,0,154474:0:0:0:0:
320,192,154474,1,0,0:0:0:0:
192,192,154589,128,0,154705:0:0:0:0:
64,192,154589,1,0,0:0:0:0:
192,192,154820,128,0,154936:0:0:0:0:
320,192,154936,1,0,0:0:0:0:
64,192,155051,128,0,155282:0:0:0:0:
448,192,155051,128,0,155282:0:0:0:0:
192,192,155282,128,0,155397:0:0:0:0:
320,192,155282,128,0,155743:0:0:0:0:
64,192,155512,128,0,155743:0:0:0:0:
192,192,155512,128,0,155628:0:0:0:0:
192,192,155743,128,0,156205:0:0:0:0:
320,192,155859,128,0,155974:0:0:0:0:
64,192,155974,128,0,156205:0:0:0:0:
448,192,155974,128,0,156089:0:0:0:0:
448,192,156205,128,0,156436:0:0:0:0:
320,192,156205,128,0,156320:0:0:0:0:
64,192,156436,1,0,0:0:0:0:
192,192,156436,1,0,0:0:0:0:
192,192,156666,128,0,157243:0:0:0:0:
64,192,156666,1,0,0:0:0:0:
448,192,156897,128,0,157243:0:0:0:0:
64,192,156897,128,0,157243:0:0:0:0:
320,192,157128,128,0,157243:0:0:0:0:
320,192,157359,128,0,157705:0:0:0:0:
448,192,157359,128,0,157474:0:0:0:0:
64,192,157359,1,0,0:0:0:0:
448,192,157589,128,0,158051:0:0:0:0:
320,192,157820,128,0,157936:0:0:0:0:
192,192,157820,128,0,158166:0:0:0:0:
320,192,158051,128,0,158512:0:0:0:0:
192,192,158282,128,0,158397:0:0:0:0:
64,192,158282,128,0,158628:0:0:0:0:
192,192,158512,128,0,158859:0:0:0:0:
320,192,158743,128,0,158859:0:0:0:0:
64,192,158743,1,0,0:0:0:0:
192,192,158974,128,0,159436:0:0:0:0:
320,192,158974,128,0,159089:0:0:0:0:
448,192,159205,128,0,159320:0:0:0:0:
320,192,159205,128,0,159551:0:0:0:0:
448,192,159436,128,0,159897:0:0:0:0:
320,192,159666,128,0,159782:0:0:0:0:
192,192,159666,128,0,160012:0:0:0:0:
320,192,159897,128,0,160359:0:0:0:0:
192,192,160128,128,0,160243:0:0:0:0:
64,192,160128,128,0,160474:0:0:0:0:
192,192,160359,128,0,160705:0:0:0:0:
320,192,160589,128,0,160705:0:0:0:0:
64,192,160589,1,0,0:0:0:0:
192,192,160820,128,0,161282:0:0:0:0:
64,192,160820,128,0,160936:0:0:0:0:
320,192,161051,128,0,161397:0:0:0:0:
448,192,161051,128,0,161166:0:0:0:0:
448,192,161282,128,0,161743:0:0:0:0:
192,192,161512,128,0,161859:0:0:0:0:
320,192,161512,128,0,161628:0:0:0:0:
320,192,161743,128,0,162205:0:0:0:0:
64,192,161974,128,0,162205:0:0:0:0:
192,192,161974,128,0,162089:0:0:0:0:
192,192,162205,128,0,162436:0:0:0:0:
320,192,162320,128,0,162436:0:0:0:0:
448,192,162436,128,0,162782:0:0:0:0:
64,192,162436,128,0,162782:0:0:0:0:
320,192,162666,128,0,162897:0:0:0:0:
192,192,162666,128,0,162897:0:0:0:0:
448,192,162897,1,0,0:0:0:0:
64,192,162897,1,0,0:0:0:0:
192,192,163128,128,0,163359:0:0:0:0:
320,192,163243,128,0,163359:0:0:0:0:
448,192,163359,1,0,0:0:0:0:
64,192,163359,1,0,0:0:0:0:
448,192,163589,128,0,163820:0:0:0:0:
320,192,163705,128,0,163820:0:0:0:0:
64,192,163820,1,0,0:0:0:0:
192,192,163820,1,0,0:0:0:0:
192,192,164051,128,0,164397:0:0:0:0:
64,192,164051,1,0,0:0:0:0:
448,192,164282,128,0,164512:0:0:0:0:
64,192,164282,128,0,164512:0:0:0:0:
320,192,164397,128,0,164512:0:0:0:0:
192,192,164512,128,0,164628:0:0:0:0:
64,192,164628,128,0,164743:0:0:0:0:
320,192,164743,128,0,164859:0:0:0:0:
192,192,164743,1,0,0:0:0:0:
448,192,164743,128,0,164974:0:0:0:0:
320,192,164974,1,0,0:0:0:0:
64,192,165089,1,0,0:0:0:0:
448,192,165205,1,0,0:0:0:0:
192,192,165205,1,0,0:0:0:0:
192,192,165436,128,0,165551:0:0:0:0:
64,192,165436,128,0,165666:0:0:0:0:
448,192,165666,128,0,165782:0:0:0:0:
320,192,165666,1,0,0:0:0:0:
192,192,165897,128,0,166012:0:0:0:0:
64,192,165897,128,0,166128:0:0:0:0:
448,192,166128,128,0,166243:0:0:0:0:
192,192,166128,1,0,0:0:0:0:
448,192,166359,128,0,166705:0:0:0:0:
320,192,166359,128,0,166820:0:0:0:0:
64,192,166359,128,0,166474:0:0:0:0:
64,192,166589,1,0,0:0:0:0:
192,192,166589,1,0,0:0:0:0:
192,192,166820,1,0,0:0:0:0:
448,192,166936,1,0,0:0:0:0:
320,192,167051,128,0,167166:0:0:0:0:
64,192,167051,128,0,167282:0:0:0:0:
448,192,167282,128,0,167512:0:0:0:0:
320,192,167282,128,0,167397:0:0:0:0:
64,192,167512,1,0,0:0:0:0:
192,192,167512,128,0,167743:0:0:0:0:
448,192,167743,128,0,167974:0:0:0:0:
320,192,167743,128,0,167859:0:0:0:0:
320,192,167974,128,0,168205:0:0:0:0:
64,192,167974,1,0,0:0:0:0:
64,192,168205,128,0,168666:0:0:0:0:
192,192,168205,128,0,168436:0:0:0:0:
448,192,168205,128,0,168320:0:0:0:0:
448,192,168436,1,0,0:0:0:0:
320,192,168436,1,0,0:0:0:0:
192,192,168551,1,0,0:0:0:0:
320,192,168666,1,0,0:0:0:0:
320,192,168782,1,0,0:0:0:0:
192,192,168897,1,0,0:0:0:0:
64,192,168897,1,0,0:0:0:0:
192,192,169012,1,0,0:0:0:0:
448,192,169128,128,0,169359:0:0:0:0:
320,192,169243,128,0,169359:0:0:0:0:
64,192,169359,1,0,0:0:0:0:
192,192,169359,1,0,0:0:0:0:
320,192,169589,128,0,169820:0:0:0:0:
192,192,169705,128,0,169820:0:0:0:0:
448,192,169820,1,0,0:0:0:0:
64,192,169820,1,0,0:0:0:0:
192,192,170051,128,0,170397:0:0:0:0:
448,192,170282,128,0,170397:0:0:0:0:
320,192,170282,128,0,170512:0:0:0:0:
192,192,170512,128,0,170628:0:0:0:0:
320,192,170628,1,0,0:0:0:0:
448,192,170743,1,0,0:0:0:0:
192,192,170743,128,0,170859:0:0:0:0:
64,192,170859,1,0,0:0:0:0:
448,192,170974,128,0,171205:0:0:0:0:
320,192,170974,128,0,171089:0:0:0:0:
64,192,171205,1,0,0:0:0:0:
192,192,171205,1,0,0:0:0:0:
192,192,171436,128,0,171897:0:0:0:0:
64,192,171436,1,0,0:0:0:0:
448,192,171666,128,0,171897:0:0:0:0:
64,192,171666,128,0,171897:0:0:0:0:
320,192,171897,128,0,172012:0:0:0:0:
448,192,172128,128,0,172243:0:0:0:0:
320,192,172128,128,0,172474:0:0:0:0:
448,192,172359,128,0,172820:0:0:0:0:
320,192,172589,128,0,172705:0:0:0:0:
192,192,172589,128,0,172936:0:0:0:0:
320,192,172820,128,0,173282:0:0:0:0:
192,192,173051,128,0,173166:0:0:0:0:
64,192,173051,128,0,173397:0:0:0:0:
192,192,173282,128,0,173628:0:0:0:0:
64,192,173512,1,0,0:0:0:0:
320,192,173512,128,0,173628:0:0:0:0:
192,192,173743,128,0,174205:0:0:0:0:
320,192,173743,128,0,173859:0:0:0:0:
320,192,173974,128,0,174320:0:0:0:0:
448,192,173974,128,0,174089:0:0:0:0:
448,192,174205,128,0,174666:0:0:0:0:
320,192,174436,128,0,174551:0:0:0:0:
192,192,174436,128,0,174782:0:0:0:0:
320,192,174666,128,0,175128:0:0:0:0:
64,192,174897,128,0,175243:0:0:0:0:
192,192,174897,128,0,175012:0:0:0:0:
192,192,175128,128,0,175474:0:0:0:0:
64,192,175359,1,0,0:0:0:0:
320,192,175359,128,0,175474:0:0:0:0:
192,192,175589,128,0,176051:0:0:0:0:
64,192,175589,128,0,175705:0:0:0:0:
448,192,175820,128,0,175936:0:0:0:0:
320,192,175820,128,0,176166:0:0:0:0:
448,192,176051,128,0,176512:0:0:0:0:
320,192,176282,128,0,176397:0:0:0:0:
192,192,176282,128,0,176628:0:0:0:0:
320,192,176512,128,0,176743:0:0:0:0:
192,192,176743,128,0,176859:0:0:0:0:
64,192,176743,128,0,176974:0:0:0:0:
192,192,176974,128,0,177205:0:0:0:0:
320,192,177089,128,0,177205:0:0:0:0:
64,192,177205,128,0,177551:0:0:0:0:
448,192,177205,128,0,177551:0:0:0:0:
192,192,177436,128,0,178474:0:0:0:0:
320,192,177436,128,0,178012:0:0:0:0:
64,192,177666,128,0,178359:0:0:0:0:
448,192,177666,128,0,177897:0:0:0:0:
192,192,179051,1,0,0:0:0:0:
320,192,179051,1,0,0:0:0:0:
448,192,179512,1,0,0:0:0:0:
64,192,179512,1,0,0:0:0:0:
192,192,179512,1,0,0:0:0:0:
192,192,179743,1,0,0:0:0:0:
320,192,179974,1,0,0:0:0:0:
448,192,179974,1,0,0:0:0:0:
192,192,180205,1,0,0:0:0:0:
320,192,180320,1,0,0:0:0:0:
448,192,180436,1,0,0:0:0:0:
64,192,180436,1,0,0:0:0:0:
192,192,180666,1,0,0:0:0:0:
320,192,180897,1,0,0:0:0:0:
448,192,180897,1,0,0:0:0:0:
320,192,181128,1,0,0:0:0:0:
64,192,181128,1,0,0:0:0:0:
192,192,181359,1,0,0:0:0:0:
64,192,181359,1,0,0:0:0:0:
192,192,181589,1,0,0:0:0:0:
320,192,181705,1,0,0:0:0:0:
448,192,181820,1,0,0:0:0:0:
64,192,181820,1,0,0:0:0:0:
192,192,182051,1,0,0:0:0:0:
64,192,182166,1,0,0:0:0:0:
320,192,182282,1,0,0:0:0:0:
448,192,182282,1,0,0:0:0:0:
192,192,182512,1,0,0:0:0:0:
320,192,182628,1,0,0:0:0:0:
192,192,182743,1,0,0:0:0:0:
64,192,182743,1,0,0:0:0:0:
320,192,182974,1,0,0:0:0:0:
448,192,182974,1,0,0:0:0:0:
192,192,183089,1,0,0:0:0:0:
448,192,183205,1,0,0:0:0:0:
64,192,183205,1,0,0:0:0:0:
64,192,183436,1,0,0:0:0:0:
320,192,183666,1,0,0:0:0:0:
448,192,183666,1,0,0:0:0:0:
320,192,183897,1,0,0:0:0:0:
192,192,184012,1,0,0:0:0:0:
448,192,184128,1,0,0:0:0:0:
64,192,184128,1,0,0:0:0:0:
320,192,184359,1,0,0:0:0:0:
448,192,184474,1,0,0:0:0:0:
192,192,184589,1,0,0:0:0:0:
64,192,184589,1,0,0:0:0:0:
192,192,184820,5,0,0:0:0:0:
320,192,184820,1,0,0:0:0:0:
320,192,185051,1,0,0:0:0:0:
448,192,185051,1,0,0:0:0:0:
192,192,185282,1,0,0:0:0:0:
64,192,185397,1,0,0:0:0:0:
320,192,185512,1,0,0:0:0:0:
448,192,185512,1,0,0:0:0:0:
192,192,185743,1,0,0:0:0:0:
64,192,185743,1,0,0:0:0:0:
320,192,185859,1,0,0:0:0:0:
64,192,185974,5,0,0:0:0:0:
448,192,185974,1,0,0:0:0:0:
320,192,186205,128,0,186782:0:0:0:0:
448,192,186205,1,0,0:0:0:0:
192,192,186436,128,0,186782:0:0:0:0:
64,192,186436,1,0,0:0:0:0:
64,192,186666,128,0,186782:0:0:0:0:
64,192,186897,128,0,187128:0:0:0:0:
192,192,186897,128,0,187128:0:0:0:0:
320,192,186897,1,0,0:0:0:0:
448,192,187128,1,0,0:0:0:0:
320,192,187243,1,0,0:0:0:0:
192,192,187359,128,0,187474:0:0:0:0:
64,192,187359,128,0,187474:0:0:0:0:
64,192,187589,128,0,187705:0:0:0:0:
448,192,187589,128,0,187705:0:0:0:0:
320,192,187820,128,0,187936:0:0:0:0:
448,192,187820,128,0,188051:0:0:0:0:
192,192,188051,128,0,188282:0:0:0:0:
64,192,188166,1,0,0:0:0:0:
320,192,188282,128,0,188397:0:0:0:0:
448,192,188282,128,0,188628:0:0:0:0:
192,192,188512,128,0,188743:0:0:0:0:
320,192,188628,128,0,188743:0:0:0:0:
448,192,188743,128,0,188859:0:0:0:0:
64,192,188743,128,0,189089:0:0:0:0:
320,192,188974,128,0,189089:0:0:0:0:
192,192,189089,128,0,189205:0:0:0:0:
320,192,189205,128,0,189320:0:0:0:0:
448,192,189205,128,0,189320:0:0:0:0:
64,192,189436,128,0,189666:0:0:0:0:
448,192,189436,128,0,189666:0:0:0:0:
320,192,189666,1,0,0:0:0:0:
192,192,189666,128,0,189897:0:0:0:0:
320,192,189897,128,0,190128:0:0:0:0:
192,192,190128,128,0,190359:0:0:0:0:
64,192,190128,1,0,0:0:0:0:
448,192,190243,1,0,0:0:0:0:
320,192,190359,128,0,190589:0:0:0:0:
192,192,190474,1,0,0:0:0:0:
64,192,190589,1,0,0:0:0:0:
448,192,190589,1,0,0:0:0:0:
192,192,190820,1,0,0:0:0:0:
320,192,190936,1,0,0:0:0:0:
192,192,191051,1,0,0:0:0:0:
64,192,191051,1,0,0:0:0:0:
192,192,191282,1,0,0:0:0:0:
448,192,191282,1,0,0:0:0:0:
64,192,191397,1,0,0:0:0:0:
320,192,191512,1,0,0:0:0:0:
448,192,191512,1,0,0:0:0:0:
320,192,191743,1,0,0:0:0:0:
448,192,191859,1,0,0:0:0:0:
192,192,191974,1,0,0:0:0:0:
64,192,191974,1,0,0:0:0:0:
64,192,192205,1,0,0:0:0:0:
448,192,192205,1,0,0:0:0:0:
320,192,192320,1,0,0:0:0:0:
192,192,192436,1,0,0:0:0:0:
448,192,192436,1,0,0:0:0:0:
64,192,192666,1,0,0:0:0:0:
192,192,192782,1,0,0:0:0:0:
320,192,192897,1,0,0:0:0:0:
448,192,192897,1,0,0:0:0:0:
320,192,193128,1,0,0:0:0:0:
448,192,193128,1,0,0:0:0:0:
192,192,193243,1,0,0:0:0:0:
64,192,193359,1,0,0:0:0:0:
448,192,193359,1,0,0:0:0:0:
64,192,193589,1,0,0:0:0:0:
192,192,193589,1,0,0:0:0:0:
320,192,193820,1,0,0:0:0:0:
448,192,193820,1,0,0:0:0:0:
192,192,194051,1,0,0:0:0:0:
320,192,194166,1,0,0:0:0:0:
192,192,194282,128,0,194512:0:0:0:0:
64,192,194282,128,0,194397:0:0:0:0:
448,192,194282,1,0,0:0:0:0:
320,192,194512,1,0,0:0:0:0:
448,192,194628,1,0,0:0:0:0:
64,192,194743,1,0,0:0:0:0:
192,192,194743,1,0,0:0:0:0:
448,192,194974,128,0,195089:0:0:0:0:
320,192,194974,128,0,195089:0:0:0:0:
320,192,195205,1,0,0:0:0:0:
192,192,195205,1,0,0:0:0:0:
320,192,195436,128,0,195551:0:0:0:0:
448,192,195436,128,0,195551:0:0:0:0:
448,192,195666,1,0,0:0:0:0:
64,192,195666,1,0,0:0:0:0:
192,192,195897,128,0,196012:0:0:0:0:
64,192,195897,128,0,196128:0:0:0:0:
448,192,196128,1,0,0:0:0:0:
320,192,196128,1,0,0:0:0:0:
192,192,196359,1,0,0:0:0:0:
320,192,196474,1,0,0:0:0:0:
64,192,196589,128,0,196705:0:0:0:0:
192,192,196589,128,0,196705:0:0:0:0:
192,192,196820,128,0,196936:0:0:0:0:
64,192,196820,128,0,196936:0:0:0:0:
448,192,197051,1,0,0:0:0:0:
320,192,197051,1,0,0:0:0:0:
64,192,197282,128,0,197397:0:0:0:0:
192,192,197282,128,0,197397:0:0:0:0:
64,192,197512,1,0,0:0:0:0:
448,192,197512,1,0,0:0:0:0:
192,192,197743,128,0,197974:0:0:0:0:
320,192,197743,128,0,197859:0:0:0:0:
448,192,197974,1,0,0:0:0:0:
64,192,197974,1,0,0:0:0:0:
320,192,198089,1,0,0:0:0:0:
64,192,198205,1,0,0:0:0:0:
64,192,198320,1,0,0:0:0:0:
448,192,198436,1,0,0:0:0:0:
320,192,198436,1,0,0:0:0:0:
448,192,198551,1,0,0:0:0:0:
64,192,198666,128,0,198782:0:0:0:0:
192,192,198666,128,0,198782:0:0:0:0:
64,192,198897,1,0,0:0:0:0:
448,192,198897,1,0,0:0:0:0:
448,192,199128,128,0,199243:0:0:0:0:
320,192,199128,128,0,199243:0:0:0:0:
64,192,199243,1,0,0:0:0:0:
192,192,199359,1,0,0:0:0:0:
320,192,199359,1,0,0:0:0:0:
64,192,199589,128,0,199820:0:0:0:0:
192,192,199589,128,0,199820:0:0:0:0:
320,192,199820,1,0,0:0:0:0:
448,192,199820,1,0,0:0:0:0:
448,192,200051,128,0,200166:0:0:0:0:
64,192,200051,128,0,200166:0:0:0:0:
320,192,200166,1,0,0:0:0:0:
64,192,200282,128,0,200397:0:0:0:0:
448,192,200282,128,0,200397:0:0:0:0:
192,192,200397,1,0,0:0:0:0:
320,192,200512,128,0,200743:0:0:0:0:
448,192,200512,128,0,200743:0:0:0:0:
64,192,200743,1,0,0:0:0:0:
192,192,200743,1,0,0:0:0:0:
448,192,200974,128,0,201205:0:0:0:0:
192,192,200974,128,0,201551:0:0:0:0:
64,192,201205,1,0,0:0:0:0:
320,192,201205,128,0,201551:0:0:0:0:
448,192,201436,128,0,201551:0:0:0:0:
448,192,201666,128,0,201897:0:0:0:0:
320,192,201666,128,0,201897:0:0:0:0:
64,192,201897,1,0,0:0:0:0:
192,192,202012,1,0,0:0:0:0:
320,192,202128,128,0,202243:0:0:0:0:
448,192,202128,128,0,202243:0:0:0:0:
448,192,202359,128,0,202474:0:0:0:0:
64,192,202359,128,0,202474:0:0:0:0:
192,192,202589,128,0,202705:0:0:0:0:
64,192,202589,128,0,202820:0:0:0:0:
320,192,202820,128,0,203051:0:0:0:0:
448,192,202820,128,0,202936:0:0:0:0:
192,192,203051,128,0,203166:0:0:0:0:
64,192,203051,128,0,203397:0:0:0:0:
320,192,203282,128,0,203512:0:0:0:0:
448,192,203282,128,0,203397:0:0:0:0:
192,192,203397,128,0,203512:0:0:0:0:
64,192,203512,128,0,203628:0:0:0:0:
448,192,203512,128,0,203859:0:0:0:0:
192,192,203743,128,0,203859:0:0:0:0:
320,192,203859,128,0,203974:0:0:0:0:
192,192,203974,128,0,204089:0:0:0:0:
64,192,203974,128,0,204089:0:0:0:0:
448,192,204205,128,0,204436:0:0:0:0:
64,192,204205,128,0,204436:0:0:0:0:
192,192,204436,1,0,0:0:0:0:
320,192,204436,128,0,204782:0:0:0:0:
64,192,204666,128,0,204782:0:0:0:0:
192,192,204666,128,0,204782:0:0:0:0:
448,192,204897,1,0,0:0:0:0:
64,192,204897,1,0,0:0:0:0:
192,192,205128,128,0,205359:0:0:0:0:
320,192,205128,128,0,205243:0:0:0:0:
448,192,205359,1,0,0:0:0:0:
64,192,205359,1,0,0:0:0:0:
320,192,205474,1,0,0:0:0:0:
64,192,205589,1,0,0:0:0:0:
64,192,205705,1,0,0:0:0:0:
448,192,205820,1,0,0:0:0:0:
320,192,205820,1,0,0:0:0:0:
448,192,205936,1,0,0:0:0:0:
64,192,206051,128,0,206166:0:0:0:0:
192,192,206051,128,0,206166:0:0:0:0:
192,192,206282,1,0,0:0:0:0:
64,192,206282,1,0,0:0:0:0:
320,192,206512,128,0,206628:0:0:0:0:
448,192,206512,128,0,206628:0:0:0:0:
192,192,206628,1,0,0:0:0:0:
64,192,206743,1,0,0:0:0:0:
448,192,206743,1,0,0:0:0:0:
64,192,206974,128,0,207205:0:0:0:0:
192,192,207089,128,0,207205:0:0:0:0:
320,192,207205,128,0,207436:0:0:0:0:
448,192,207205,128,0,207666:0:0:0:0:
192,192,207436,128,0,207551:0:0:0:0:
64,192,207436,128,0,207551:0:0:0:0:
64,192,207666,128,0,207782:0:0:0:0:
192,192,207666,128,0,207782:0:0:0:0:
320,192,207897,128,0,208128:0:0:0:0:
448,192,207897,128,0,208128:0:0:0:0:
320,192,208359,128,0,208589:0:0:0:0:
448,192,208359,128,0,208589:0:0:0:0:
