osu file format v14

[General]
AudioFilename: Russian Roulette.mp3
AudioLeadIn: 0
PreviewTime: 43964
Countdown: 0
SampleSet: None
StackLeniency: 0.7
Mode: 0
LetterboxInBreaks: 0
WidescreenStoryboard: 0

[Editor]
DistanceSpacing: 3.6
BeatDivisor: 4
GridSize: 16
TimelineZoom: 1.4

[Metadata]
Title:Russian Roulette
TitleUnicode:러시안 룰렛
Artist:Red Velvet
ArtistUnicode:레드벨벳
Creator:Tendhix
Version:Insane
Source:
Tags:Red, Velvet, Kpop, SM, Irene, Seulgi, Wendy, Joy, Yeri
BeatmapID:1078613
BeatmapSetID:507073

[Difficulty]
HPDrainRate:6
CircleSize:4
OverallDifficulty:6.5
ApproachRate:9
SliderMultiplier:1.2
SliderTickRate:1

[Events]
//Background and Video events
0,0,"Russian Roulette.png",0,0
//Break Periods
2,131626,145826
//Storyboard Layer 0 (Background)
//Storyboard Layer 1 (Fail)
//Storyboard Layer 2 (Pass)
//Storyboard Layer 3 (Foreground)
//Storyboard Sound Samples

[TimingPoints]
580,461.538461538462,4,3,0,100,1,0
14656,-100,4,3,0,80,0,0
30118,-100,4,3,0,65,0,0
41195,-100,4,3,0,80,0,0
44887,-200,4,3,0,100,0,1
45118,-100,4,3,0,80,0,1
56887,-100,4,3,0,100,0,1
59656,-100,4,3,0,80,0,1
64964,-200,4,3,0,80,0,1
65195,-100,4,3,0,80,0,1
71656,-100,4,3,0,100,0,1
72580,-100,4,3,0,100,0,0
73272,-100,4,3,0,80,0,0
88733,-100,4,3,0,65,0,0
99810,-100,4,3,0,80,0,0
103964,-200,4,3,0,100,0,1
104195,-100,4,3,0,100,0,1
111349,-100,4,3,0,80,0,1
115964,-100,4,3,0,100,0,1
118733,-100,4,3,0,80,0,1
124041,-200,4,3,0,100,0,1
124272,-100,4,3,0,100,0,1
131656,-100,4,3,0,100,0,0
146426,-100,4,3,0,65,0,0
147349,-100,4,3,0,80,0,0
148272,-100,4,3,0,100,0,0
150118,-200,4,3,0,100,0,1
150349,-100,4,3,0,100,0,1
157503,-100,4,3,0,80,0,1
162118,-100,4,3,0,100,0,1
164887,-100,4,3,0,80,0,1
170195,-200,4,3,0,100,0,1
170426,-100,4,3,0,100,0,1
177810,-100,4,3,0,100,0,0
178964,-100,4,3,0,80,0,0
187041,-200,4,3,0,100,0,0
187272,-100,4,3,0,100,0,0
190041,-100,4,3,0,80,0,0
201810,-200,4,3,0,100,0,0
202041,-100,4,3,0,100,0,0
204580,-100,4,3,0,60,0,0
205503,-100,4,3,0,80,0,0
207118,-200,4,3,0,100,0,0
207349,-100,4,3,0,100,0,0

[HitObjects]
416,240,14656,5,0,0:0:0:0:
272,80,14887,1,0,0:0:0:0:
64,160,15118,1,0,0:0:0:0:
272,80,15349,1,0,0:0:0:0:
64,160,15580,1,0,0:0:0:0:
272,224,15810,1,0,0:0:0:0:
64,304,16041,1,0,0:0:0:0:
272,224,16272,1,0,0:0:0:0:
96,96,16503,5,0,0:0:0:0:
96,96,16619,1,0,0:0:0:0:
96,96,16734,1,0,0:0:0:0:
224,272,16964,1,0,0:0:0:0:
208,64,17195,1,0,0:0:0:0:
400,160,17426,1,0,0:0:0:0:
192,240,17656,1,0,0:0:0:0:
400,320,17887,1,0,0:0:0:0:
320,128,18118,5,0,0:0:0:0:
320,128,18233,1,0,0:0:0:0:
320,128,18349,1,0,0:0:0:0:
112,64,18580,1,0,0:0:0:0:
160,272,18810,1,0,0:0:0:0:
272,80,19041,1,0,0:0:0:0:
80,176,19272,2,0,L|48:192,1,30
128,272,19503,2,0,L|96:288,1,30
48,192,19733,2,0,L|80:176,1,30
128,272,19964,1,0,0:0:0:0:
400,160,20426,5,0,0:0:0:0:
208,240,20656,1,0,0:0:0:0:
400,160,20887,1,0,0:0:0:0:
208,240,21118,1,0,0:0:0:0:
272,32,21349,1,0,0:0:0:0:
336,240,21580,1,0,0:0:0:0:
80,208,22041,5,0,0:0:0:0:
288,240,22272,1,0,0:0:0:0:
128,96,22503,2,0,P|160:64|240:48,1,120
368,208,23195,1,0,0:0:0:0:
16,128,23656,2,0,P|48:96|80:80,2,60
448,64,24580,5,0,0:0:0:0:
400,272,24810,1,0,0:0:0:0:
256,112,25041,1,0,0:0:0:0:
464,176,25272,1,0,0:0:0:0:
272,272,25503,5,0,0:0:0:0:
272,272,25618,1,0,0:0:0:0:
272,272,25733,1,0,0:0:0:0:
160,96,25964,1,0,0:0:0:0:
368,80,26195,1,0,0:0:0:0:
192,208,26426,1,0,0:0:0:0:
32,64,26656,1,0,0:0:0:0:
192,208,26887,1,0,0:0:0:0:
368,80,27118,2,0,P|400:64|416:64,2,30
192,208,27580,2,0,L|128:256,1,60
352,288,28041,1,0,0:0:0:0:
416,176,28964,6,0,P|416:240|400:272,1,90
405,262,29426,1,0,0:0:0:0:
240,128,29656,1,0,0:0:0:0:
64,256,29887,1,0,0:0:0:0:
272,320,30118,6,0,P|336:304|384:256,1,120
208,128,30810,1,0,0:0:0:0:
224,336,31041,2,0,P|288:336|352:304,1,120
304,96,31733,5,0,0:0:0:0:
432,272,31964,1,0,0:0:0:0:
448,64,32195,1,0,0:0:0:0:
304,224,32426,1,0,0:0:0:0:
512,192,32656,2,0,P|464:240|384:160,1,180
48,64,33810,5,0,0:0:0:0:
256,144,34041,1,0,0:0:0:0:
80,272,34272,1,0,0:0:0:0:
160,80,34503,1,0,0:0:0:0:
256,272,34733,1,0,0:0:0:0:
80,160,34964,1,0,0:0:0:0:
288,96,35195,1,0,0:0:0:0:
144,256,35426,2,0,B|80:272|112:352|0:352,1,180
384,160,36580,5,0,0:0:0:0:
384,160,36695,1,0,0:0:0:0:
384,160,36810,1,0,0:0:0:0:
192,64,37041,1,0,0:0:0:0:
272,272,37272,1,0,0:0:0:0:
320,64,37503,6,0,P|256:32|192:48,1,120
304,240,38195,1,0,0:0:0:0:
192,48,38426,2,0,P|128:64|80:112,1,120
240,256,39118,5,0,0:0:0:0:
432,160,39349,1,0,0:0:0:0:
240,256,39580,1,0,0:0:0:0:
48,352,39810,1,0,0:0:0:0:
240,256,40041,2,0,P|288:208|288:160,1,120
464,48,40733,5,0,0:0:0:0:
464,48,40849,1,0,0:0:0:0:
464,48,40964,1,0,0:0:0:0:
256,64,41195,1,0,0:0:0:0:
352,272,41426,1,0,0:0:0:0:
400,32,41656,1,0,0:0:0:0:
176,160,41887,1,0,0:0:0:0:
432,112,42118,2,0,L|496:96,1,60
224,32,42580,1,0,0:0:0:0:
304,304,42810,2,0,P|256:352|192:272,1,180
464,96,43964,5,0,0:0:0:0:
464,96,44080,1,0,0:0:0:0:
464,96,44195,1,0,0:0:0:0:
256,80,44426,1,0,0:0:0:0:
144,256,44656,1,0,0:0:0:0:
352,176,44887,6,0,L|384:160,1,30
304,240,45349,2,0,L|336:224,1,30
256,144,45580,2,0,L|288:128,1,30
208,48,45810,2,0,L|272:16,1,60
80,144,46272,2,0,L|16:176,1,60
240,224,46733,5,0,0:0:0:0:
400,80,46964,1,0,0:0:0:0:
448,288,47195,1,0,0:0:0:0:
272,160,47426,1,0,0:0:0:0:
64,80,47656,5,0,0:0:0:0:
64,80,47772,1,0,0:0:0:0:
64,80,47887,1,0,0:0:0:0:
112,288,48118,1,0,0:0:0:0:
240,112,48349,1,0,0:0:0:0:
32,192,48580,1,0,0:0:0:0:
240,240,48810,1,0,0:0:0:0:
416,128,49041,6,0,L|448:112,1,30
336,128,49272,2,0,L|288:96,1,30
192,128,49503,2,0,L|240:96,1,30
352,128,49733,2,0,L|304:96,1,30
336,256,49964,2,0,L|336:320,1,60
112,128,50426,5,0,0:0:0:0:
304,256,50656,1,0,0:0:0:0:
112,128,50887,1,0,0:0:0:0:
320,32,51118,1,0,0:0:0:0:
384,256,51349,5,0,0:0:0:0:
384,256,51464,1,0,0:0:0:0:
384,256,51580,1,0,0:0:0:0:
176,160,51810,1,0,0:0:0:0:
384,80,52041,1,0,0:0:0:0:
240,256,52272,6,0,L|192:304,1,60
192,64,52733,1,0,0:0:0:0:
384,192,52964,1,0,0:0:0:0:
160,240,53195,2,0,L|96:256,1,60
304,144,53656,1,0,0:0:0:0:
112,16,53887,1,0,0:0:0:0:
320,96,54118,6,0,L|384:128,1,60
304,336,54580,1,0,0:0:0:0:
144,176,54810,1,0,0:0:0:0:
336,304,55041,2,0,L|400:288,1,60
176,336,55503,1,0,0:0:0:0:
80,128,55733,1,0,0:0:0:0:
224,304,55964,6,0,L|272:256,1,60
96,112,56426,1,0,0:0:0:0:
304,16,56656,1,0,0:0:0:0:
416,208,56887,5,0,0:0:0:0:
192,128,57118,1,0,0:0:0:0:
448,224,57349,1,0,0:0:0:0:
144,112,57580,1,0,0:0:0:0:
432,32,58041,6,0,L|480:80,1,60
288,224,58503,2,0,L|240:160,1,60
416,336,58964,1,0,0:0:0:0:
80,208,59195,1,0,0:0:0:0:
416,336,59426,1,0,0:0:0:0:
160,80,59656,6,0,P|208:48|224:48,1,60
384,208,60118,1,0,0:0:0:0:
384,208,60233,1,0,0:0:0:0:
384,208,60349,2,0,L|320:256,1,60
112,160,60810,2,0,L|176:112,1,60
336,288,61272,2,0,P|400:240|416:176,1,120
192,96,61964,5,0,0:0:0:0:
192,96,62080,1,0,0:0:0:0:
192,96,62195,1,0,0:0:0:0:
288,320,62426,1,0,0:0:0:0:
288,320,62541,1,0,0:0:0:0:
288,320,62656,2,0,L|352:288,1,60
144,144,63118,6,0,P|160:112|208:96,1,60
320,288,63580,1,0,0:0:0:0:
352,256,63695,1,0,0:0:0:0:
368,224,63810,1,0,0:0:0:0:
368,176,63926,1,0,0:0:0:0:
352,128,64041,2,0,P|336:96|304:80,1,60
80,128,64503,2,0,P|64:80|80:64,1,60
288,192,64964,6,0,L|336:208,1,30
96,304,65426,2,0,L|64:320,1,30
112,208,65656,2,0,L|160:176,1,30
240,272,65887,2,0,L|176:304,1,60
304,80,66349,2,0,L|368:48,1,60
416,288,66810,5,0,0:0:0:0:
176,240,67041,2,0,P|128:224|112:192,1,60
320,80,67503,1,0,0:0:0:0:
320,320,67733,1,0,0:0:0:0:
192,112,67964,2,0,P|160:80|144:80,1,60
384,112,68426,1,0,0:0:0:0:
192,256,68656,1,0,0:0:0:0:
432,272,68887,6,0,P|416:320|400:336,1,60
208,192,69349,1,0,0:0:0:0:
448,176,69580,1,0,0:0:0:0:
256,304,69810,2,0,P|288:336|320:336,1,60
384,112,70272,1,0,0:0:0:0:
160,192,70503,1,0,0:0:0:0:
352,32,70733,6,0,P|400:48|416:80,1,60
448,288,71195,1,0,0:0:0:0:
240,160,71426,1,0,0:0:0:0:
448,48,71656,5,0,0:0:0:0:
400,288,71887,1,0,0:0:0:0:
368,48,72118,1,0,0:0:0:0:
480,256,72349,1,0,0:0:0:0:
64,96,73272,5,0,0:0:0:0:
64,96,73387,1,0,0:0:0:0:
64,96,73502,1,0,0:0:0:0:
304,144,73733,1,0,0:0:0:0:
112,288,73964,1,0,0:0:0:0:
352,336,74195,1,0,0:0:0:0:
208,144,74426,6,0,P|240:112|272:112,1,60
448,256,74887,1,0,0:0:0:0:
208,304,75118,1,0,0:0:0:0:
144,64,75349,1,0,0:0:0:0:
144,64,75464,1,0,0:0:0:0:
144,64,75580,1,0,0:0:0:0:
368,160,75810,1,0,0:0:0:0:
368,160,75926,1,0,0:0:0:0:
368,160,76041,1,0,0:0:0:0:
160,272,76272,5,0,0:0:0:0:
320,80,76503,1,0,0:0:0:0:
96,176,76733,1,0,0:0:0:0:
336,192,76964,1,0,0:0:0:0:
128,80,77195,5,0,0:0:0:0:
128,80,77310,1,0,0:0:0:0:
128,80,77426,1,0,0:0:0:0:
176,320,77656,1,0,0:0:0:0:
368,176,77887,1,0,0:0:0:0:
128,224,78118,1,0,0:0:0:0:
352,304,78349,1,0,0:0:0:0:
208,112,78580,6,0,L|192:80,1,30
304,112,78810,2,0,L|320:80,1,30
256,192,79041,2,0,L|256:256,1,60
480,160,79503,5,0,0:0:0:0:
256,80,79733,1,0,0:0:0:0:
400,272,79964,1,0,0:0:0:0:
352,32,80195,1,0,0:0:0:0:
192,208,80426,1,0,0:0:0:0:
432,176,80656,1,0,0:0:0:0:
208,96,80887,5,0,0:0:0:0:
208,96,81003,1,0,0:0:0:0:
208,96,81118,1,0,0:0:0:0:
336,304,81349,1,0,0:0:0:0:
96,256,81580,2,0,P|128:224|208:192,1,120
416,288,82272,2,0,P|448:240|448:224,1,60
224,144,82733,2,0,P|240:96|272:64,1,90
266,67,83195,5,0,0:0:0:0:
304,304,83426,1,0,0:0:0:0:
176,96,83656,1,0,0:0:0:0:
368,240,83887,1,0,0:0:0:0:
144,176,84118,1,0,0:0:0:0:
384,144,84349,1,0,0:0:0:0:
208,304,84580,5,0,0:0:0:0:
208,304,84695,1,0,0:0:0:0:
208,304,84810,1,0,0:0:0:0:
320,80,85041,1,0,0:0:0:0:
80,64,85272,1,0,0:0:0:0:
272,208,85503,1,0,0:0:0:0:
64,336,85733,1,0,0:0:0:0:
176,128,85964,1,0,0:0:0:0:
272,352,86195,2,0,P|320:368|352:352,2,60
128,160,86887,1,0,0:0:0:0:
368,208,87118,2,0,P|384:144|336:160,1,120
128,48,87810,5,0,0:0:0:0:
224,272,88041,1,0,0:0:0:0:
224,272,88156,1,0,0:0:0:0:
224,272,88272,2,0,P|272:272|304:256,1,60
384,48,88733,5,0,0:0:0:0:
256,256,88964,1,0,0:0:0:0:
112,64,89195,2,0,L|64:0,1,60
256,256,89656,1,0,0:0:0:0:
112,64,89887,5,0,0:0:0:0:
256,256,90118,2,0,L|208:192,1,60
384,384,90580,1,0,0:0:0:0:
432,144,90810,5,0,0:0:0:0:
192,112,91041,1,0,0:0:0:0:
368,272,91272,1,0,0:0:0:0:
288,48,91503,1,0,0:0:0:0:
224,288,91733,2,0,B|192:240|272:224|240:160,1,120
464,144,92426,1,0,0:0:0:0:
128,96,92656,5,0,0:0:0:0:
128,96,92771,1,0,0:0:0:0:
128,96,92886,1,0,0:0:0:0:
256,336,93118,1,0,0:0:0:0:
352,112,93349,1,0,0:0:0:0:
448,336,93580,1,0,0:0:0:0:
352,112,93810,1,0,0:0:0:0:
256,336,94041,1,0,0:0:0:0:
352,112,94272,1,0,0:0:0:0:
128,32,94503,2,0,B|144:112|144:112|208:80|208:80|224:160|224:160|240:240,1,300
448,96,95887,5,0,0:0:0:0:
448,96,96003,1,0,0:0:0:0:
448,96,96118,1,0,0:0:0:0:
208,128,96349,1,0,0:0:0:0:
368,304,96580,2,0,P|416:288|448:224,1,120
192,240,97272,1,0,0:0:0:0:
448,288,97503,2,0,P|480:224|448:176,1,120
224,80,98195,5,0,0:0:0:0:
64,272,98426,1,0,0:0:0:0:
304,224,98656,1,0,0:0:0:0:
80,96,98887,1,0,0:0:0:0:
208,320,99118,2,0,B|160:288|192:240|128:224,1,120
384,160,99810,5,0,0:0:0:0:
176,304,100041,1,0,0:0:0:0:
96,48,100272,1,0,0:0:0:0:
304,240,100503,1,0,0:0:0:0:
32,160,100733,1,0,0:0:0:0:
320,64,100964,1,0,0:0:0:0:
192,352,101195,2,0,P|144:336|128:320,1,60
448,240,101656,1,0,0:0:0:0:
144,112,101887,2,0,B|80:128|80:64|16:80,1,120
368,80,102580,5,0,0:0:0:0:
384,128,102695,1,0,0:0:0:0:
384,176,102810,1,0,0:0:0:0:
368,224,102926,1,0,0:0:0:0:
336,256,103041,1,0,0:0:0:0:
128,112,103272,5,0,0:0:0:0:
336,256,103503,2,0,P|384:272|400:256,1,60
144,240,103964,6,0,L|112:272,1,30
288,80,104426,2,0,L|256:112,1,30
192,192,104656,2,0,L|224:160,1,30
288,80,104887,2,0,L|240:144,1,60
416,320,105349,5,0,0:0:0:0:
192,208,105580,1,0,0:0:0:0:
400,64,105810,1,0,0:0:0:0:
320,304,106041,1,0,0:0:0:0:
240,64,106272,1,0,0:0:0:0:
448,192,106503,1,0,0:0:0:0:
64,288,106964,6,0,P|48:240|64:208,1,60
256,96,107426,1,0,0:0:0:0:
432,272,107656,1,0,0:0:0:0:
192,320,107887,1,0,0:0:0:0:
384,144,108118,6,0,L|416:112,1,30
320,208,108349,2,0,L|288:240,1,30
384,144,108580,2,0,L|416:112,1,30
320,208,108810,2,0,L|288:240,2,30
112,64,109272,5,0,0:0:0:0:
240,272,109503,1,0,0:0:0:0:
384,64,109733,1,0,0:0:0:0:
240,272,109964,1,0,0:0:0:0:
112,64,110195,1,0,0:0:0:0:
448,112,110656,5,0,0:0:0:0:
192,144,110887,1,0,0:0:0:0:
368,320,111118,1,0,0:0:0:0:
112,288,111349,6,0,P|80:240|80:224,1,60
272,80,111810,1,0,0:0:0:0:
304,336,112041,1,0,0:0:0:0:
256,96,112272,2,0,P|224:64|192:64,1,60
224,320,112733,1,0,0:0:0:0:
64,128,112964,1,0,0:0:0:0:
288,256,113195,6,0,P|336:256|352:240,1,60
144,112,113656,1,0,0:0:0:0:
384,48,113887,1,0,0:0:0:0:
160,176,114118,2,0,P|144:208|144:240,1,60
384,288,114580,1,0,0:0:0:0:
176,144,114810,1,0,0:0:0:0:
416,48,115041,6,0,P|464:80|464:96,1,60
224,176,115503,1,0,0:0:0:0:
432,320,115733,1,0,0:0:0:0:
176,304,115964,5,0,0:0:0:0:
384,80,116195,1,0,0:0:0:0:
96,160,116426,1,0,0:0:0:0:
384,208,116656,1,0,0:0:0:0:
80,64,117118,6,0,P|32:48|0:64,1,60
272,64,117580,2,0,P|304:48|336:48,1,60
160,240,118041,2,0,L|160:288,1,30
160,270,118272,1,0,0:0:0:0:
400,176,118503,1,0,0:0:0:0:
160,80,118733,6,0,P|192:128|208:128,1,60
432,208,119195,1,0,0:0:0:0:
192,288,119426,2,0,L|144:304,1,30
192,176,119656,2,0,L|224:160,1,30
218,162,119887,1,0,0:0:0:0:
432,304,120118,1,0,0:0:0:0:
176,304,120349,6,0,P|192:256|224:240,1,60
400,112,120810,1,0,0:0:0:0:
160,160,121041,2,0,L|192:128,1,30
304,176,121272,2,0,L|272:208,1,30
282,197,121503,1,0,0:0:0:0:
64,64,121733,1,0,0:0:0:0:
144,304,121964,5,0,0:0:0:0:
144,304,122080,1,0,0:0:0:0:
144,304,122195,2,0,P|176:320|208:304,1,60
336,96,122656,1,0,0:0:0:0:
352,128,122772,1,0,0:0:0:0:
352,176,122887,1,0,0:0:0:0:
336,224,123003,1,0,0:0:0:0:
320,256,123118,2,0,P|288:288|256:288,1,60
64,160,123580,2,0,P|96:128|128:112,1,60
352,80,124041,6,0,L|400:64,1,30
160,192,124503,2,0,L|128:208,1,30
96,80,124733,2,0,L|80:32,1,30
128,176,124964,2,0,L|160:256,1,60
384,144,125426,2,0,L|320:176,1,60
96,64,125887,1,0,0:0:0:0:
176,304,126118,6,0,L|240:336,1,60
288,80,126580,1,0,0:0:0:0:
64,192,126810,1,0,0:0:0:0:
304,144,127041,2,0,L|384:128,1,60
112,112,127503,1,0,0:0:0:0:
224,336,127733,1,0,0:0:0:0:
144,96,127964,6,0,L|176:32,1,60
272,272,128426,1,0,0:0:0:0:
400,64,128656,1,0,0:0:0:0:
208,240,128887,2,0,L|144:256,1,60
272,32,129349,1,0,0:0:0:0:
160,256,129580,1,0,0:0:0:0:
336,80,129810,6,0,L|416:112,1,60
144,176,130272,1,0,0:0:0:0:
336,336,130503,1,0,0:0:0:0:
208,32,130733,5,0,0:0:0:0:
208,368,130964,1,0,0:0:0:0:
208,32,131195,1,0,0:0:0:0:
208,368,131426,1,0,0:0:0:0:
240,160,146426,5,0,0:0:0:0:
240,160,146656,1,0,0:0:0:0:
240,160,146887,1,0,0:0:0:0:
240,160,147118,1,0,0:0:0:0:
240,160,147349,5,0,0:0:0:0:
240,176,147464,1,0,0:0:0:0:
240,192,147580,1,0,0:0:0:0:
240,224,147695,1,0,0:0:0:0:
256,256,147810,1,0,0:0:0:0:
272,272,147926,1,0,0:0:0:0:
304,288,148041,1,0,0:0:0:0:
336,288,148156,1,0,0:0:0:0:
368,272,148272,5,0,0:0:0:0:
400,240,148387,1,0,0:0:0:0:
416,192,148503,1,0,0:0:0:0:
416,144,148618,1,0,0:0:0:0:
400,96,148733,1,0,0:0:0:0:
368,48,148849,1,0,0:0:0:0:
320,32,148964,1,0,0:0:0:0:
272,32,149080,1,0,0:0:0:0:
224,48,149195,1,0,0:0:0:0:
240,160,150118,6,0,L|288:128,1,30
512,320,150580,2,0,L|480:352,1,30
352,272,150810,2,0,L|384:240,1,30
272,144,151041,2,0,L|224:192,1,60
32,32,151503,2,0,L|96:80,1,60
368,176,151964,5,0,0:0:0:0:
64,128,152195,1,0,0:0:0:0:
336,256,152426,1,0,0:0:0:0:
112,64,152656,1,0,0:0:0:0:
448,256,153118,5,0,0:0:0:0:
448,256,153234,1,0,0:0:0:0:
448,256,153349,1,0,0:0:0:0:
256,32,153580,1,0,0:0:0:0:
96,288,153810,1,0,0:0:0:0:
368,160,154041,1,0,0:0:0:0:
80,96,154272,6,0,L|128:112,1,30
192,224,154503,2,0,L|144:208,1,30
80,96,154733,2,0,L|112:112,1,30
192,224,154964,2,0,L|160:208,1,30
80,96,155195,2,0,L|160:128,1,60
432,48,155656,5,0,0:0:0:0:
288,304,155887,1,0,0:0:0:0:
112,64,156118,1,0,0:0:0:0:
384,192,156349,1,0,0:0:0:0:
96,272,156580,5,0,0:0:0:0:
96,272,156695,1,0,0:0:0:0:
96,272,156810,1,0,0:0:0:0:
320,64,157041,1,0,0:0:0:0:
368,352,157272,1,0,0:0:0:0:
112,192,157503,6,0,P|112:144|128:128,1,60
416,96,157964,1,0,0:0:0:0:
256,352,158195,1,0,0:0:0:0:
352,64,158426,2,0,P|320:48|272:48,1,60
368,336,158887,1,0,0:0:0:0:
112,192,159118,1,0,0:0:0:0:
400,256,159349,6,0,P|432:208|432:192,1,60
144,144,159810,1,0,0:0:0:0:
368,352,160041,1,0,0:0:0:0:
208,96,160272,2,0,P|224:64|256:48,1,60
416,304,160733,1,0,0:0:0:0:
112,256,160964,1,0,0:0:0:0:
400,192,161195,6,0,P|416:224|416:256,1,60
128,192,161656,1,0,0:0:0:0:
384,32,161887,1,0,0:0:0:0:
80,64,162118,6,0,L|80:112,1,30
224,144,162349,2,0,L|224:192,1,30
112,272,162580,1,0,0:0:0:0:
400,176,162810,1,0,0:0:0:0:
112,80,163041,5,0,0:0:0:0:
112,80,163156,1,0,0:0:0:0:
112,80,163272,2,0,L|176:112,1,60
432,240,163734,2,0,L|368:208,1,60
96,320,164195,2,0,L|48:352,1,30
71,336,164426,1,0,0:0:0:0:
288,128,164656,1,0,0:0:0:0:
480,368,164887,5,0,0:0:0:0:
480,368,165003,1,0,0:0:0:0:
480,368,165118,2,0,L|416:320,1,60
208,144,165580,2,0,L|272:192,1,60
480,384,166041,2,0,L|432:336,1,60
144,304,166503,2,0,P|112:256|128:192,1,120
416,112,167195,1,0,0:0:0:0:
128,192,167426,1,0,0:0:0:0:
480,48,167887,2,0,L|496:128,1,60
240,256,168349,6,0,P|208:224|208:192,1,60
464,48,168810,1,0,0:0:0:0:
480,80,168926,1,0,0:0:0:0:
480,128,169041,1,0,0:0:0:0:
464,176,169156,1,0,0:0:0:0:
448,208,169272,2,0,P|432:240|400:256,1,60
128,144,169733,2,0,P|96:176|96:208,1,60
384,96,170195,6,0,L|416:80,1,30
112,48,170656,2,0,L|64:80,1,30
208,160,170887,2,0,L|256:128,1,30
112,48,171118,2,0,L|48:80,1,60
304,256,171580,2,0,L|368:208,1,60
112,32,172041,1,0,0:0:0:0:
128,336,172272,6,0,L|192:320,1,60
368,80,172733,1,0,0:0:0:0:
64,112,172964,1,0,0:0:0:0:
368,160,173195,2,0,L|352:80,1,60
64,192,173656,1,0,0:0:0:0:
320,336,173887,1,0,0:0:0:0:
128,96,174118,6,0,L|80:160,1,60
368,256,174580,1,0,0:0:0:0:
192,16,174810,1,0,0:0:0:0:
256,304,175041,2,0,L|320:304,1,60
112,80,175503,1,0,0:0:0:0:
400,32,175733,1,0,0:0:0:0:
192,240,175964,6,0,L|256:288,1,60
480,96,176426,1,0,0:0:0:0:
192,32,176656,1,0,0:0:0:0:
384,256,176887,5,0,0:0:0:0:
80,256,177118,1,0,0:0:0:0:
336,112,177349,1,0,0:0:0:0:
48,16,177580,1,0,0:0:0:0:
256,192,177810,12,0,178733,0:0:0:0:
256,272,178964,5,0,0:0:0:0:
256,224,179080,1,0,0:0:0:0:
256,176,179195,1,0,0:0:0:0:
272,128,179310,1,0,0:0:0:0:
304,96,179426,1,0,0:0:0:0:
336,80,179541,1,0,0:0:0:0:
384,80,179656,2,0,P|432:80|496:128,1,120
96,352,180580,5,0,0:0:0:0:
112,48,180810,1,0,0:0:0:0:
368,192,181041,1,0,0:0:0:0:
368,192,181156,1,0,0:0:0:0:
368,192,181272,1,0,0:0:0:0:
64,192,181503,2,0,L|208:192,1,120
480,192,182195,2,0,L|384:192,1,90
390,192,182656,1,0,0:0:0:0:
112,288,182887,5,0,0:0:0:0:
304,64,183118,1,0,0:0:0:0:
416,352,183349,1,0,0:0:0:0:
240,96,183580,1,0,0:0:0:0:
128,368,183810,1,0,0:0:0:0:
288,112,184041,1,0,0:0:0:0:
16,240,184272,1,0,0:0:0:0:
320,192,184503,2,0,L|384:176,1,60
80,240,184964,6,0,B|128:192|176:240|208:176,1,150
207,176,185656,1,0,0:0:0:0:
464,32,185887,2,0,L|400:80,1,60
192,272,186349,5,0,0:0:0:0:
368,32,186580,1,0,0:0:0:0:
64,64,186810,1,0,0:0:0:0:
336,208,187041,6,0,L|384:240,1,30
64,160,187503,2,0,L|96:192,1,30
224,144,187733,2,0,L|256:176,1,30
320,288,187964,2,0,L|256:240,1,60
464,16,188426,2,0,L|416:80,1,60
160,192,188887,5,0,0:0:0:0:
448,96,189118,1,0,0:0:0:0:
144,144,189349,1,0,0:0:0:0:
448,144,189580,1,0,0:0:0:0:
80,48,190041,5,0,0:0:0:0:
80,48,190157,1,0,0:0:0:0:
80,48,190272,1,0,0:0:0:0:
288,272,190503,1,0,0:0:0:0:
480,48,190733,5,0,0:0:0:0:
432,32,190849,1,0,0:0:0:0:
384,32,190964,1,0,0:0:0:0:
336,48,191080,1,0,0:0:0:0:
304,80,191195,1,0,0:0:0:0:
96,304,191426,1,0,0:0:0:0:
400,320,191656,5,0,0:0:0:0:
416,272,191772,1,0,0:0:0:0:
416,224,191887,1,0,0:0:0:0:
400,176,192003,1,0,0:0:0:0:
368,144,192118,1,0,0:0:0:0:
80,80,192349,1,0,0:0:0:0:
384,48,192580,5,0,0:0:0:0:
400,80,192695,1,0,0:0:0:0:
400,128,192810,1,0,0:0:0:0:
384,176,192926,1,0,0:0:0:0:
368,208,193041,1,0,0:0:0:0:
96,320,193272,1,0,0:0:0:0:
16,32,193503,5,0,0:0:0:0:
64,16,193618,1,0,0:0:0:0:
112,16,193733,1,0,0:0:0:0:
160,32,193849,1,0,0:0:0:0:
192,64,193964,1,0,0:0:0:0:
400,288,194195,1,0,0:0:0:0:
112,224,194426,6,0,P|96:176|112:96,1,120
400,160,195118,2,0,P|416:208|416:240,1,60
128,272,195580,2,0,P|112:224|112:192,1,60
400,128,196041,6,0,L|512:64,1,120
208,112,196733,2,0,L|224:160,1,30
368,192,196964,2,0,L|384:224,1,30
32,48,197426,1,0,0:0:0:0:
320,144,197656,5,0,0:0:0:0:
320,144,197772,1,0,0:0:0:0:
320,144,197887,2,0,P|336:176|320:224,1,60
48,288,198349,1,0,0:0:0:0:
32,240,198464,1,0,0:0:0:0:
32,192,198580,1,0,0:0:0:0:
48,144,198695,1,0,0:0:0:0:
64,112,198810,2,0,P|80:80|112:64,1,60
384,176,199272,2,0,P|400:224|384:256,1,60
160,48,199733,6,0,P|128:96|128:112,1,60
416,176,200195,1,0,0:0:0:0:
144,288,200426,1,0,0:0:0:0:
320,48,200656,2,0,L|272:112,1,60
96,336,201118,2,0,L|144:272,1,60
416,208,201580,1,0,0:0:0:0:
144,80,201810,6,0,L|192:112,1,30
416,256,202272,2,0,L|368:224,1,30
256,192,202503,2,0,L|224:224,1,30
128,320,202733,2,0,L|176:272,1,60
368,48,203195,2,0,L|320:96,1,60
48,208,203656,5,0,0:0:0:0:
320,336,203887,1,0,0:0:0:0:
288,32,204118,1,0,0:0:0:0:
144,288,204349,1,0,0:0:0:0:
416,176,204580,5,0,0:0:0:0:
144,64,204810,1,0,0:0:0:0:
256,336,205041,1,0,0:0:0:0:
352,48,205272,1,0,0:0:0:0:
112,224,205503,5,0,0:0:0:0:
384,112,205733,1,0,0:0:0:0:
400,160,205849,1,0,0:0:0:0:
400,208,205964,1,0,0:0:0:0:
384,256,206080,1,0,0:0:0:0:
368,288,206195,2,0,P|336:320|304:336,1,60
96,128,206656,2,0,P|64:176|64:192,1,60
352,112,207118,6,0,L|400:80,1,30
80,64,207580,2,0,L|128:96,1,30
192,192,207810,2,0,L|224:144,1,30
288,48,208041,2,0,L|256:112,1,60
80,352,208503,2,0,L|128:288,1,60
